  0
SECTION
  2
HEADER
  9
$ACADVER
  1
AC1021
  9
$ACADMAINTVER
 70
    50
  9
$DWGCODEPAGE
  3
ANSI_1252
  9
$AUTHOR
  1
dworden
  9
$LASTSAVEDBY
  1
dworden
  9
$INSBASE
 10
0.0
 20
0.0
 30
0.0
  9
$EXTMIN
 10
-26.429807
 20
-0.500102
 30
-0.000146
  9
$EXTMAX
 10
9.226343
 20
16.499799
 30
0.000004
  9
$LIMMIN
 10
-87.604458
 20
-71.002877
  9
$LIMMAX
 10
70.400993
 20
87.002574
  9
$ORTHOMODE
 70
     0
  9
$REGENMODE
 70
     1
  9
$FILLMODE
 70
     1
  9
$QTEXTMODE
 70
     0
  9
$MIRRTEXT
 70
     0
  9
$LTSCALE
 40
1.0
  9
$ATTMODE
 70
     1
  9
$TEXTSIZE
 40
0.0275
  9
$TRACEWID
 40
0.05
  9
$TEXTSTYLE
  7
Standard
  9
$CLAYER
  8
Level 1
  9
$CELTYPE
  6
Continuous
  9
$CECOLOR
 62
     7
  9
$CELTSCALE
 40
1.0
  9
$DISPSILH
 70
     0
  9
$DIMSCALE
 40
1.0
  9
$DIMASZ
 40
0.045
  9
$DIMEXO
 40
0.018
  9
$DIMDLI
 40
0.0
  9
$DIMRND
 40
0.0
  9
$DIMDLE
 40
0.0
  9
$DIMEXE
 40
0.015
  9
$DIMTP
 40
0.002
  9
$DIMTM
 40
0.002
  9
$DIMTXT
 40
0.03
  9
$DIMCEN
 40
0.09
  9
$DIMTSZ
 40
0.0
  9
$DIMTOL
 70
     0
  9
$DIMLIM
 70
     0
  9
$DIMTIH
 70
     1
  9
$DIMTOH
 70
     1
  9
$DIMSE1
 70
     0
  9
$DIMSE2
 70
     0
  9
$DIMTAD
 70
     0
  9
$DIMZIN
 70
     7
  9
$DIMBLK
  1

  9
$DIMASO
 70
     1
  9
$DIMSHO
 70
     1
  9
$DIMPOST
  1
\X
  9
$DIMAPOST
  1

  9
$DIMALT
 70
     1
  9
$DIMALTD
 70
     2
  9
$DIMALTF
 40
25.4
  9
$DIMLFAC
 40
1.0
  9
$DIMTOFL
 70
     0
  9
$DIMTVP
 40
0.0
  9
$DIMTIX
 70
     0
  9
$DIMSOXD
 70
     0
  9
$DIMSAH
 70
     0
  9
$DIMBLK1
  1

  9
$DIMBLK2
  1

  9
$DIMSTYLE
  2
Standard
  9
$DIMCLRD
 70
     0
  9
$DIMCLRE
 70
     0
  9
$DIMCLRT
 70
     0
  9
$DIMTFAC
 40
1.0
  9
$DIMGAP
 40
0.009
  9
$DIMJUST
 70
     0
  9
$DIMSD1
 70
     0
  9
$DIMSD2
 70
     0
  9
$DIMTOLJ
 70
     0
  9
$DIMTZIN
 70
     7
  9
$DIMALTZ
 70
    15
  9
$DIMALTTZ
 70
    15
  9
$DIMUPT
 70
     1
  9
$DIMDEC
 70
     3
  9
$DIMTDEC
 70
     3
  9
$DIMALTU
 70
     2
  9
$DIMALTTD
 70
     2
  9
$DIMTXSTY
  7
Style-WORKING
  9
$DIMAUNIT
 70
     0
  9
$DIMADEC
 70
     0
  9
$DIMALTRND
 40
0.0
  9
$DIMAZIN
 70
     3
  9
$DIMDSEP
 70
    46
  9
$DIMATFIT
 70
     1
  9
$DIMFRAC
 70
     2
  9
$DIMLDRBLK
  1

  9
$DIMLUNIT
 70
     2
  9
$DIMLWD
 70
    -2
  9
$DIMLWE
 70
    -2
  9
$DIMTMOVE
 70
     0
  9
$DIMFXL
 40
1.0
  9
$DIMFXLON
 70
     0
  9
$DIMJOGANG
 40
0.785398
  9
$DIMTFILL
 70
     0
  9
$DIMTFILLCLR
 70
     0
  9
$DIMARCSYM
 70
     0
  9
$DIMLTYPE
  6

  9
$DIMLTEX1
  6

  9
$DIMLTEX2
  6

  9
$LUNITS
 70
     2
  9
$LUPREC
 70
     4
  9
$SKETCHINC
 40
0.1
  9
$FILLETRAD
 40
0.0
  9
$AUNITS
 70
     0
  9
$AUPREC
 70
     4
  9
$MENU
  1
.
  9
$ELEVATION
 40
0.0
  9
$PELEVATION
 40
0.0
  9
$THICKNESS
 40
0.0
  9
$LIMCHECK
 70
     0
  9
$CHAMFERA
 40
0.0
  9
$CHAMFERB
 40
0.0
  9
$CHAMFERC
 40
0.0
  9
$CHAMFERD
 40
0.0
  9
$SKPOLY
 70
     0
  9
$TDCREATE
 40
2454144.486357349
  9
$TDUCREATE
 40
2454144.778024017
  9
$TDUPDATE
 40
2454144.487020359
  9
$TDUUPDATE
 40
2454144.778687026
  9
$TDINDWG
 40
0.0040554398
  9
$TDUSRTIMER
 40
0.0040507176
  9
$USRTIMER
 70
     1
  9
$ANGBASE
 50
0.0
  9
$ANGDIR
 70
     0
  9
$PDMODE
 70
     0
  9
$PDSIZE
 40
0.0
  9
$PLINEWID
 40
0.0
  9
$SPLFRAME
 70
     0
  9
$SPLINETYPE
 70
     6
  9
$SPLINESEGS
 70
     8
  9
$HANDSEED
  5
19A5
  9
$SURFTAB1
 70
     6
  9
$SURFTAB2
 70
     6
  9
$SURFTYPE
 70
     6
  9
$SURFU
 70
     6
  9
$SURFV
 70
     6
  9
$UCSBASE
  2

  9
$UCSNAME
  2

  9
$UCSORG
 10
0.0
 20
0.0
 30
0.0
  9
$UCSXDIR
 10
1.0
 20
0.0
 30
0.0
  9
$UCSYDIR
 10
0.0
 20
1.0
 30
0.0
  9
$UCSORTHOREF
  2

  9
$UCSORTHOVIEW
 70
     0
  9
$UCSORGTOP
 10
0.0
 20
0.0
 30
0.0
  9
$UCSORGBOTTOM
 10
0.0
 20
0.0
 30
0.0
  9
$UCSORGLEFT
 10
0.0
 20
0.0
 30
0.0
  9
$UCSORGRIGHT
 10
0.0
 20
0.0
 30
0.0
  9
$UCSORGFRONT
 10
0.0
 20
0.0
 30
0.0
  9
$UCSORGBACK
 10
0.0
 20
0.0
 30
0.0
  9
$PUCSBASE
  2

  9
$PUCSNAME
  2

  9
$PUCSORG
 10
0.0
 20
0.0
 30
0.0
  9
$PUCSXDIR
 10
1.0
 20
0.0
 30
0.0
  9
$PUCSYDIR
 10
0.0
 20
1.0
 30
0.0
  9
$PUCSORTHOREF
  2

  9
$PUCSORTHOVIEW
 70
     0
  9
$PUCSORGTOP
 10
0.0
 20
0.0
 30
0.0
  9
$PUCSORGBOTTOM
 10
0.0
 20
0.0
 30
0.0
  9
$PUCSORGLEFT
 10
0.0
 20
0.0
 30
0.0
  9
$PUCSORGRIGHT
 10
0.0
 20
0.0
 30
0.0
  9
$PUCSORGFRONT
 10
0.0
 20
0.0
 30
0.0
  9
$PUCSORGBACK
 10
0.0
 20
0.0
 30
0.0
  9
$USERI1
 70
     0
  9
$USERI2
 70
     0
  9
$USERI3
 70
     0
  9
$USERI4
 70
     0
  9
$USERI5
 70
     0
  9
$USERR1
 40
0.0
  9
$USERR2
 40
0.0
  9
$USERR3
 40
0.0
  9
$USERR4
 40
0.0
  9
$USERR5
 40
0.0
  9
$WORLDVIEW
 70
     1
  9
$SHADEDGE
 70
     3
  9
$SHADEDIF
 70
    70
  9
$TILEMODE
 70
     1
  9
$MAXACTVP
 70
    64
  9
$PINSBASE
 10
0.0
 20
0.0
 30
0.0
  9
$PLIMCHECK
 70
     0
  9
$PEXTMIN
 10
1.049744
 20
0.799667
 30
-0.001526
  9
$PEXTMAX
 10
9.450623
 20
7.200577
 30
0.0
  9
$PLIMMIN
 10
-0.25
 20
-0.25
  9
$PLIMMAX
 10
10.75
 20
8.25
  9
$UNITMODE
 70
     0
  9
$VISRETAIN
 70
     1
  9
$PLINEGEN
 70
     0
  9
$PSLTSCALE
 70
     0
  9
$TREEDEPTH
 70
  3020
  9
$CMLSTYLE
  2
Standard
  9
$CMLJUST
 70
     0
  9
$CMLSCALE
 40
1.0
  9
$PROXYGRAPHICS
 70
     1
  9
$MEASUREMENT
 70
     0
  9
$CELWEIGHT
370
     0
  9
$ENDCAPS
280
     0
  9
$JOINSTYLE
280
     0
  9
$LWDISPLAY
290
     1
  9
$INSUNITS
 70
     1
  9
$HYPERLINKBASE
  1

  9
$STYLESHEET
  1

  9
$XEDIT
290
     1
  9
$CEPSNTYPE
380
     0
  9
$PSTYLEMODE
290
     1
  9
$FINGERPRINTGUID
  2
{2BC1BA2E-5C22-4916-A4B7-0D94D9E4C66B}
  9
$VERSIONGUID
  2
{82C521FC-BF81-46B3-825E-420B6BD93A99}
  9
$EXTNAMES
290
     1
  9
$PSVPSCALE
 40
0.0
  9
$OLESTARTUP
290
     0
  9
$SORTENTS
280
   127
  9
$INDEXCTL
280
     0
  9
$HIDETEXT
280
     1
  9
$XCLIPFRAME
290
     0
  9
$HALOGAP
280
     0
  9
$OBSCOLOR
 70
   257
  9
$OBSLTYPE
280
     0
  9
$INTERSECTIONDISPLAY
280
     0
  9
$INTERSECTIONCOLOR
 70
   257
  9
$DIMASSOC
280
     1
  9
$PROJECTNAME
  1

  9
$CAMERADISPLAY
290
     0
  9
$LENSLENGTH
 40
50.0
  9
$CAMERAHEIGHT
 40
0.0
  9
$STEPSPERSEC
 40
2.0
  9
$STEPSIZE
 40
6.0
  9
$3DDWFPREC
 40
2.0
  9
$PSOLWIDTH
 40
0.25
  9
$PSOLHEIGHT
 40
4.0
  9
$LOFTANG1
 40
1.570796
  9
$LOFTANG2
 40
1.570796
  9
$LOFTMAG1
 40
0.0
  9
$LOFTMAG2
 40
0.0
  9
$LOFTPARAM
 70
     7
  9
$LOFTNORMALS
280
     1
  9
$LATITUDE
 40
37.795
  9
$LONGITUDE
 40
-122.394
  9
$NORTHDIRECTION
 40
0.0
  9
$TIMEZONE
 70
 -8000
  9
$LIGHTGLYPHDISPLAY
280
     1
  9
$TILEMODELIGHTSYNCH
280
     1
  9
$CMATERIAL
347
11C2
  9
$SOLIDHIST
280
     1
  9
$SHOWHIST
280
     1
  9
$DWFFRAME
280
     2
  9
$DGNFRAME
280
     0
  9
$REALWORLDSCALE
290
     1
  9
$INTERFERECOLOR
 62
     1
  9
$INTERFEREOBJVS
345
11D8
  9
$INTERFEREVPVS
346
11D9
  9
$CSHADOW
280
     0
  9
$SHADOWPLANELOCATION
 40
0.0
  0
ENDSEC
  0
SECTION
  2
CLASSES
  0
CLASS
  1
ACDBDICTIONARYWDFLT
  2
AcDbDictionaryWithDefault
  3
ObjectDBX Classes
 90
        0
 91
        1
280
     0
281
     0
  0
CLASS
  1
DICTIONARYVAR
  2
AcDbDictionaryVar
  3
ObjectDBX Classes
 90
        0
 91
        7
280
     0
281
     0
  0
CLASS
  1
TABLESTYLE
  2
AcDbTableStyle
  3
ObjectDBX Classes
 90
     4095
 91
        1
280
     0
281
     0
  0
CLASS
  1
MATERIAL
  2
AcDbMaterial
  3
ObjectDBX Classes
 90
     1153
 91
        3
280
     0
281
     0
  0
CLASS
  1
VISUALSTYLE
  2
AcDbVisualStyle
  3
ObjectDBX Classes
 90
     4095
 91
       19
280
     0
281
     0
  0
CLASS
  1
SCALE
  2
AcDbScale
  3
ObjectDBX Classes
 90
     1153
 91
       33
280
     0
281
     0
  0
CLASS
  1
MLEADERSTYLE
  2
AcDbMLeaderStyle
  3
ACDB_MLEADERSTYLE_CLASS
 90
     4095
 91
        1
280
     0
281
     0
  0
CLASS
  1
SORTENTSTABLE
  2
AcDbSortentsTable
  3
ObjectDBX Classes
 90
        0
 91
        2
280
     0
281
     0
  0
CLASS
  1
CELLSTYLEMAP
  2
AcDbCellStyleMap
  3
ObjectDBX Classes
 90
     1152
 91
        2
280
     0
281
     0
  0
ENDSEC
  0
SECTION
  2
TABLES
  0
TABLE
  2
VPORT
  5
11B6
330
0
100
AcDbSymbolTable
 70
     1
  0
VPORT
  5
102
330
11B6
100
AcDbSymbolTableRecord
100
AcDbViewportTableRecord
  2
*ACTIVE
 70
     0
 10
0.0
 20
0.0
 11
1.0
 21
1.0
 12
3.35305
 22
3.058313
 13
0.0
 23
0.0
 14
0.001
 24
0.001
 15
0.001
 25
0.001
 16
0.0
 26
0.0
 36
1.0
 17
0.0
 27
0.0
 37
0.0
 40
1.388292
 41
2.025496
 42
50.0
 43
0.0
 44
0.0
 50
0.0
 51
0.0
 71
     0
 72
   100
 73
     1
 74
     0
 75
     0
 76
     0
 77
     0
 78
     1
281
     0
 65
     1
110
0.0
120
0.0
130
0.0
111
1.0
121
0.0
131
0.0
112
0.0
122
1.0
132
0.0
 79
     0
146
0.0
348
11B8
 60
     3
 61
  1000
292
     1
282
     1
141
0.0
142
0.0
 63
   250
421
  3355443
  0
ENDTAB
  0
TABLE
  2
LTYPE
  5
11B1
330
0
100
AcDbSymbolTable
 70
     2
  0
LTYPE
  5
11B2
330
11B1
100
AcDbSymbolTableRecord
100
AcDbLinetypeTableRecord
  2
ByBlock
 70
     0
  3

 72
    65
 73
     0
 40
0.0
  0
LTYPE
  5
11B3
330
11B1
100
AcDbSymbolTableRecord
100
AcDbLinetypeTableRecord
  2
ByLayer
 70
     0
  3

 72
    65
 73
     0
 40
0.0
  0
LTYPE
  5
11A0
330
11B1
100
AcDbSymbolTableRecord
100
AcDbLinetypeTableRecord
  2
Continuous
 70
     0
  3
Solid line
 72
    65
 73
     0
 40
0.0
  0
LTYPE
  5
1288
330
11B1
100
AcDbSymbolTableRecord
100
AcDbLinetypeTableRecord
  2
DGN Style 4
 70
     0
  3
Dgn Style 4
 72
    65
 73
     4
 40
0.043463
 49
0.021718
 74
     0
 49
-0.010859
 74
     0
 49
0.000027
 74
     0
 49
-0.010859
 74
     0
  0
ENDTAB
  0
TABLE
  2
LAYER
  5
11AB
102
{ACAD_XDICTIONARY
360
11AC
102
}
330
0
100
AcDbSymbolTable
 70
   191
  0
LAYER
  5
1193
330
11AB
100
AcDbSymbolTableRecord
100
AcDbLayerTableRecord
  2
0
 70
     0
 62
     7
  6
Continuous
370
    -3
390
1194
347
1197
  0
LAYER
  5
3C
330
11AB
100
AcDbSymbolTableRecord
100
AcDbLayerTableRecord
  2
Level 1
 70
     0
 62
     7
  6
Continuous
370
     0
390
1194
347
1197
  0
LAYER
  5
3D
330
11AB
100
AcDbSymbolTableRecord
100
AcDbLayerTableRecord
  2
Level 2
 70
     0
 62
     7
  6
Continuous
370
     0
390
1194
347
1197
  0
LAYER
  5
3E
330
11AB
100
AcDbSymbolTableRecord
100
AcDbLayerTableRecord
  2
Level 3
 70
     0
 62
     7
  6
Continuous
370
     0
390
1194
347
1197
  0
LAYER
  5
3F
330
11AB
100
AcDbSymbolTableRecord
100
AcDbLayerTableRecord
  2
Level 4
 70
     0
 62
     7
  6
Continuous
370
     0
390
1194
347
1197
  0
LAYER
  5
40
330
11AB
100
AcDbSymbolTableRecord
100
AcDbLayerTableRecord
  2
Level 5
 70
     0
 62
     7
  6
Continuous
370
     0
390
1194
347
1197
  0
LAYER
  5
41
330
11AB
100
AcDbSymbolTableRecord
100
AcDbLayerTableRecord
  2
Level 6
 70
     0
 62
     7
  6
Continuous
370
     0
390
1194
347
1197
  0
LAYER
  5
42
330
11AB
100
AcDbSymbolTableRecord
100
AcDbLayerTableRecord
  2
Level 7
 70
     0
 62
     7
  6
Continuous
370
     0
390
1194
347
1197
  0
LAYER
  5
43
330
11AB
100
AcDbSymbolTableRecord
100
AcDbLayerTableRecord
  2
Level 8
 70
     0
 62
     7
  6
Continuous
370
     0
390
1194
347
1197
  0
LAYER
  5
44
330
11AB
100
AcDbSymbolTableRecord
100
AcDbLayerTableRecord
  2
Level 9
 70
     0
 62
     7
  6
Continuous
370
     0
390
1194
347
1197
  0
LAYER
  5
45
330
11AB
100
AcDbSymbolTableRecord
100
AcDbLayerTableRecord
  2
Level 10
 70
     0
 62
     7
  6
Continuous
370
     0
390
1194
347
1197
  0
LAYER
  5
46
330
11AB
100
AcDbSymbolTableRecord
100
AcDbLayerTableRecord
  2
Level 11
 70
     0
 62
     7
  6
Continuous
370
     0
390
1194
347
1197
  0
LAYER
  5
47
330
11AB
100
AcDbSymbolTableRecord
100
AcDbLayerTableRecord
  2
Level 12
 70
     0
 62
     7
  6
Continuous
370
     0
390
1194
347
1197
  0
LAYER
  5
48
330
11AB
100
AcDbSymbolTableRecord
100
AcDbLayerTableRecord
  2
Level 13
 70
     0
 62
     7
  6
Continuous
370
     0
390
1194
347
1197
  0
LAYER
  5
49
330
11AB
100
AcDbSymbolTableRecord
100
AcDbLayerTableRecord
  2
Level 14
 70
     0
 62
     7
  6
Continuous
370
     0
390
1194
347
1197
  0
LAYER
  5
4A
330
11AB
100
AcDbSymbolTableRecord
100
AcDbLayerTableRecord
  2
Level 15
 70
     0
 62
     7
  6
Continuous
370
     0
390
1194
347
1197
  0
LAYER
  5
4B
330
11AB
100
AcDbSymbolTableRecord
100
AcDbLayerTableRecord
  2
Level 16
 70
     0
 62
     7
  6
Continuous
370
     0
390
1194
347
1197
  0
LAYER
  5
4C
330
11AB
100
AcDbSymbolTableRecord
100
AcDbLayerTableRecord
  2
Level 17
 70
     0
 62
     7
  6
Continuous
370
     0
390
1194
347
1197
  0
LAYER
  5
4D
330
11AB
100
AcDbSymbolTableRecord
100
AcDbLayerTableRecord
  2
Level 18
 70
     0
 62
     7
  6
Continuous
370
     0
390
1194
347
1197
  0
LAYER
  5
4E
330
11AB
100
AcDbSymbolTableRecord
100
AcDbLayerTableRecord
  2
Level 19
 70
     0
 62
     7
  6
Continuous
370
     0
390
1194
347
1197
  0
LAYER
  5
4F
330
11AB
100
AcDbSymbolTableRecord
100
AcDbLayerTableRecord
  2
Level 20
 70
     0
 62
     7
  6
Continuous
370
     0
390
1194
347
1197
  0
LAYER
  5
50
330
11AB
100
AcDbSymbolTableRecord
100
AcDbLayerTableRecord
  2
Level 21
 70
     0
 62
     7
  6
Continuous
370
     0
390
1194
347
1197
  0
LAYER
  5
51
330
11AB
100
AcDbSymbolTableRecord
100
AcDbLayerTableRecord
  2
Level 22
 70
     0
 62
     7
  6
Continuous
370
     0
390
1194
347
1197
  0
LAYER
  5
52
330
11AB
100
AcDbSymbolTableRecord
100
AcDbLayerTableRecord
  2
Level 23
 70
     0
 62
     7
  6
Continuous
370
     0
390
1194
347
1197
  0
LAYER
  5
53
330
11AB
100
AcDbSymbolTableRecord
100
AcDbLayerTableRecord
  2
Level 24
 70
     0
 62
     7
  6
Continuous
370
     0
390
1194
347
1197
  0
LAYER
  5
54
330
11AB
100
AcDbSymbolTableRecord
100
AcDbLayerTableRecord
  2
Level 25
 70
     0
 62
     7
  6
Continuous
370
     0
390
1194
347
1197
  0
LAYER
  5
55
330
11AB
100
AcDbSymbolTableRecord
100
AcDbLayerTableRecord
  2
Level 26
 70
     0
 62
     7
  6
Continuous
370
     0
390
1194
347
1197
  0
LAYER
  5
56
330
11AB
100
AcDbSymbolTableRecord
100
AcDbLayerTableRecord
  2
Level 27
 70
     0
 62
     7
  6
Continuous
370
     0
390
1194
347
1197
  0
LAYER
  5
57
330
11AB
100
AcDbSymbolTableRecord
100
AcDbLayerTableRecord
  2
Level 28
 70
     0
 62
     7
  6
Continuous
370
     0
390
1194
347
1197
  0
LAYER
  5
58
330
11AB
100
AcDbSymbolTableRecord
100
AcDbLayerTableRecord
  2
Level 29
 70
     0
 62
     7
  6
Continuous
370
     0
390
1194
347
1197
  0
LAYER
  5
59
330
11AB
100
AcDbSymbolTableRecord
100
AcDbLayerTableRecord
  2
Level 30
 70
     0
 62
     7
  6
Continuous
370
     0
390
1194
347
1197
  0
LAYER
  5
5A
330
11AB
100
AcDbSymbolTableRecord
100
AcDbLayerTableRecord
  2
Level 31
 70
     0
 62
     7
  6
Continuous
370
     0
390
1194
347
1197
  0
LAYER
  5
5B
330
11AB
100
AcDbSymbolTableRecord
100
AcDbLayerTableRecord
  2
Level 32
 70
     0
 62
     7
  6
Continuous
370
     0
390
1194
347
1197
  0
LAYER
  5
5C
330
11AB
100
AcDbSymbolTableRecord
100
AcDbLayerTableRecord
  2
Level 33
 70
     0
 62
     7
  6
Continuous
370
     0
390
1194
347
1197
  0
LAYER
  5
5D
330
11AB
100
AcDbSymbolTableRecord
100
AcDbLayerTableRecord
  2
Level 34
 70
     0
 62
     7
  6
Continuous
370
     0
390
1194
347
1197
  0
LAYER
  5
5E
330
11AB
100
AcDbSymbolTableRecord
100
AcDbLayerTableRecord
  2
Level 35
 70
     0
 62
     7
  6
Continuous
370
     0
390
1194
347
1197
  0
LAYER
  5
5F
330
11AB
100
AcDbSymbolTableRecord
100
AcDbLayerTableRecord
  2
Level 36
 70
     0
 62
     7
  6
Continuous
370
     0
390
1194
347
1197
  0
LAYER
  5
60
330
11AB
100
AcDbSymbolTableRecord
100
AcDbLayerTableRecord
  2
Level 37
 70
     0
 62
     7
  6
Continuous
370
     0
390
1194
347
1197
  0
LAYER
  5
61
330
11AB
100
AcDbSymbolTableRecord
100
AcDbLayerTableRecord
  2
Level 38
 70
     0
 62
     7
  6
Continuous
370
     0
390
1194
347
1197
  0
LAYER
  5
62
330
11AB
100
AcDbSymbolTableRecord
100
AcDbLayerTableRecord
  2
Level 39
 70
     0
 62
     7
  6
Continuous
370
     0
390
1194
347
1197
  0
LAYER
  5
63
330
11AB
100
AcDbSymbolTableRecord
100
AcDbLayerTableRecord
  2
Level 40
 70
     0
 62
     7
  6
Continuous
370
     0
390
1194
347
1197
  0
LAYER
  5
64
330
11AB
100
AcDbSymbolTableRecord
100
AcDbLayerTableRecord
  2
Level 41
 70
     0
 62
     7
  6
Continuous
370
     0
390
1194
347
1197
  0
LAYER
  5
65
330
11AB
100
AcDbSymbolTableRecord
100
AcDbLayerTableRecord
  2
Level 42
 70
     0
 62
     7
  6
Continuous
370
     0
390
1194
347
1197
  0
LAYER
  5
66
330
11AB
100
AcDbSymbolTableRecord
100
AcDbLayerTableRecord
  2
Level 43
 70
     0
 62
     7
  6
Continuous
370
     0
390
1194
347
1197
  0
LAYER
  5
67
330
11AB
100
AcDbSymbolTableRecord
100
AcDbLayerTableRecord
  2
Level 44
 70
     0
 62
     7
  6
Continuous
370
     0
390
1194
347
1197
  0
LAYER
  5
68
330
11AB
100
AcDbSymbolTableRecord
100
AcDbLayerTableRecord
  2
Level 45
 70
     0
 62
     7
  6
Continuous
370
     0
390
1194
347
1197
  0
LAYER
  5
69
330
11AB
100
AcDbSymbolTableRecord
100
AcDbLayerTableRecord
  2
Level 46
 70
     0
 62
     7
  6
Continuous
370
     0
390
1194
347
1197
  0
LAYER
  5
6A
330
11AB
100
AcDbSymbolTableRecord
100
AcDbLayerTableRecord
  2
Level 47
 70
     0
 62
     7
  6
Continuous
370
     0
390
1194
347
1197
  0
LAYER
  5
6B
330
11AB
100
AcDbSymbolTableRecord
100
AcDbLayerTableRecord
  2
Level 48
 70
     0
 62
     7
  6
Continuous
370
     0
390
1194
347
1197
  0
LAYER
  5
6C
330
11AB
100
AcDbSymbolTableRecord
100
AcDbLayerTableRecord
  2
Level 49
 70
     0
 62
     7
  6
Continuous
370
     0
390
1194
347
1197
  0
LAYER
  5
6D
330
11AB
100
AcDbSymbolTableRecord
100
AcDbLayerTableRecord
  2
Level 50
 70
     0
 62
     7
  6
Continuous
370
     0
390
1194
347
1197
  0
LAYER
  5
6E
330
11AB
100
AcDbSymbolTableRecord
100
AcDbLayerTableRecord
  2
Level 51
 70
     0
 62
     7
  6
Continuous
370
     0
390
1194
347
1197
  0
LAYER
  5
6F
330
11AB
100
AcDbSymbolTableRecord
100
AcDbLayerTableRecord
  2
Level 52
 70
     0
 62
     7
  6
Continuous
370
     0
390
1194
347
1197
  0
LAYER
  5
70
330
11AB
100
AcDbSymbolTableRecord
100
AcDbLayerTableRecord
  2
Level 53
 70
     0
 62
     7
  6
Continuous
370
     0
390
1194
347
1197
  0
LAYER
  5
71
330
11AB
100
AcDbSymbolTableRecord
100
AcDbLayerTableRecord
  2
Level 54
 70
     0
 62
     7
  6
Continuous
370
     0
390
1194
347
1197
  0
LAYER
  5
72
330
11AB
100
AcDbSymbolTableRecord
100
AcDbLayerTableRecord
  2
Level 55
 70
     0
 62
     7
  6
Continuous
370
     0
390
1194
347
1197
  0
LAYER
  5
73
330
11AB
100
AcDbSymbolTableRecord
100
AcDbLayerTableRecord
  2
Level 56
 70
     0
 62
     7
  6
Continuous
370
     0
390
1194
347
1197
  0
LAYER
  5
74
330
11AB
100
AcDbSymbolTableRecord
100
AcDbLayerTableRecord
  2
Level 57
 70
     0
 62
     7
  6
Continuous
370
     0
390
1194
347
1197
  0
LAYER
  5
75
330
11AB
100
AcDbSymbolTableRecord
100
AcDbLayerTableRecord
  2
Level 58
 70
     0
 62
     7
  6
Continuous
370
     0
390
1194
347
1197
  0
LAYER
  5
76
330
11AB
100
AcDbSymbolTableRecord
100
AcDbLayerTableRecord
  2
Level 59
 70
     0
 62
     7
  6
Continuous
370
     0
390
1194
347
1197
  0
LAYER
  5
77
330
11AB
100
AcDbSymbolTableRecord
100
AcDbLayerTableRecord
  2
Level 60
 70
     0
 62
     7
  6
Continuous
370
     0
390
1194
347
1197
  0
LAYER
  5
78
330
11AB
100
AcDbSymbolTableRecord
100
AcDbLayerTableRecord
  2
Level 61
 70
     0
 62
     7
  6
Continuous
370
     0
390
1194
347
1197
  0
LAYER
  5
79
330
11AB
100
AcDbSymbolTableRecord
100
AcDbLayerTableRecord
  2
Level 62
 70
     0
 62
     7
  6
Continuous
370
     0
390
1194
347
1197
  0
LAYER
  5
7A
330
11AB
100
AcDbSymbolTableRecord
100
AcDbLayerTableRecord
  2
Level 63
 70
     0
 62
     7
  6
Continuous
370
     0
390
1194
347
1197
  0
LAYER
  5
1200
330
11AB
100
AcDbSymbolTableRecord
100
AcDbLayerTableRecord
  2
umiborder|Level 1
 70
    16
 62
     7
  6
Continuous
370
     0
390
1194
347
1197
  0
LAYER
  5
1201
330
11AB
100
AcDbSymbolTableRecord
100
AcDbLayerTableRecord
  2
umiborder|Level 2
 70
    16
 62
     7
  6
Continuous
370
     0
390
1194
347
1197
  0
LAYER
  5
1202
330
11AB
100
AcDbSymbolTableRecord
100
AcDbLayerTableRecord
  2
umiborder|Level 3
 70
    16
 62
     7
  6
Continuous
370
     0
390
1194
347
1197
  0
LAYER
  5
1203
330
11AB
100
AcDbSymbolTableRecord
100
AcDbLayerTableRecord
  2
umiborder|Level 4
 70
    16
 62
     7
  6
Continuous
370
     0
390
1194
347
1197
  0
LAYER
  5
1204
330
11AB
100
AcDbSymbolTableRecord
100
AcDbLayerTableRecord
  2
umiborder|Level 5
 70
    16
 62
     7
  6
Continuous
370
     0
390
1194
347
1197
  0
LAYER
  5
1205
330
11AB
100
AcDbSymbolTableRecord
100
AcDbLayerTableRecord
  2
umiborder|Level 6
 70
    16
 62
     7
  6
Continuous
370
     0
390
1194
347
1197
  0
LAYER
  5
1206
330
11AB
100
AcDbSymbolTableRecord
100
AcDbLayerTableRecord
  2
umiborder|Level 7
 70
    16
 62
     7
  6
Continuous
370
     0
390
1194
347
1197
  0
LAYER
  5
1207
330
11AB
100
AcDbSymbolTableRecord
100
AcDbLayerTableRecord
  2
umiborder|Level 8
 70
    16
 62
     7
  6
Continuous
370
     0
390
1194
347
1197
  0
LAYER
  5
1208
330
11AB
100
AcDbSymbolTableRecord
100
AcDbLayerTableRecord
  2
umiborder|Level 9
 70
    16
 62
     7
  6
Continuous
370
     0
390
1194
347
1197
  0
LAYER
  5
1209
330
11AB
100
AcDbSymbolTableRecord
100
AcDbLayerTableRecord
  2
umiborder|Level 10
 70
    16
 62
     7
  6
Continuous
370
     0
390
1194
347
1197
  0
LAYER
  5
120A
330
11AB
100
AcDbSymbolTableRecord
100
AcDbLayerTableRecord
  2
umiborder|Level 11
 70
    16
 62
     7
  6
Continuous
370
     0
390
1194
347
1197
  0
LAYER
  5
120B
330
11AB
100
AcDbSymbolTableRecord
100
AcDbLayerTableRecord
  2
umiborder|Level 12
 70
    16
 62
     7
  6
Continuous
370
     0
390
1194
347
1197
  0
LAYER
  5
120C
330
11AB
100
AcDbSymbolTableRecord
100
AcDbLayerTableRecord
  2
umiborder|Level 13
 70
    16
 62
     7
  6
Continuous
370
     0
390
1194
347
1197
  0
LAYER
  5
120D
330
11AB
100
AcDbSymbolTableRecord
100
AcDbLayerTableRecord
  2
umiborder|Level 14
 70
    16
 62
     7
  6
Continuous
370
     0
390
1194
347
1197
  0
LAYER
  5
120E
330
11AB
100
AcDbSymbolTableRecord
100
AcDbLayerTableRecord
  2
umiborder|Level 15
 70
    16
 62
     7
  6
Continuous
370
     0
390
1194
347
1197
  0
LAYER
  5
120F
330
11AB
100
AcDbSymbolTableRecord
100
AcDbLayerTableRecord
  2
umiborder|Level 16
 70
    16
 62
     7
  6
Continuous
370
     0
390
1194
347
1197
  0
LAYER
  5
1210
330
11AB
100
AcDbSymbolTableRecord
100
AcDbLayerTableRecord
  2
umiborder|Level 17
 70
    16
 62
     7
  6
Continuous
370
     0
390
1194
347
1197
  0
LAYER
  5
1211
330
11AB
100
AcDbSymbolTableRecord
100
AcDbLayerTableRecord
  2
umiborder|Level 18
 70
    16
 62
     7
  6
Continuous
370
     0
390
1194
347
1197
  0
LAYER
  5
1212
330
11AB
100
AcDbSymbolTableRecord
100
AcDbLayerTableRecord
  2
umiborder|Level 19
 70
    16
 62
     7
  6
Continuous
370
     0
390
1194
347
1197
  0
LAYER
  5
1213
330
11AB
100
AcDbSymbolTableRecord
100
AcDbLayerTableRecord
  2
umiborder|Level 20
 70
    16
 62
     7
  6
Continuous
370
     0
390
1194
347
1197
  0
LAYER
  5
1214
330
11AB
100
AcDbSymbolTableRecord
100
AcDbLayerTableRecord
  2
umiborder|Level 21
 70
    16
 62
     7
  6
Continuous
370
     0
390
1194
347
1197
  0
LAYER
  5
1215
330
11AB
100
AcDbSymbolTableRecord
100
AcDbLayerTableRecord
  2
umiborder|Level 22
 70
    16
 62
     7
  6
Continuous
370
     0
390
1194
347
1197
  0
LAYER
  5
1216
330
11AB
100
AcDbSymbolTableRecord
100
AcDbLayerTableRecord
  2
umiborder|Level 23
 70
    16
 62
     7
  6
Continuous
370
     0
390
1194
347
1197
  0
LAYER
  5
1217
330
11AB
100
AcDbSymbolTableRecord
100
AcDbLayerTableRecord
  2
umiborder|Level 24
 70
    16
 62
     7
  6
Continuous
370
     0
390
1194
347
1197
  0
LAYER
  5
1218
330
11AB
100
AcDbSymbolTableRecord
100
AcDbLayerTableRecord
  2
umiborder|Level 25
 70
    16
 62
     7
  6
Continuous
370
     0
390
1194
347
1197
  0
LAYER
  5
1219
330
11AB
100
AcDbSymbolTableRecord
100
AcDbLayerTableRecord
  2
umiborder|Level 26
 70
    16
 62
     7
  6
Continuous
370
     0
390
1194
347
1197
  0
LAYER
  5
121A
330
11AB
100
AcDbSymbolTableRecord
100
AcDbLayerTableRecord
  2
umiborder|Level 27
 70
    16
 62
     7
  6
Continuous
370
     0
390
1194
347
1197
  0
LAYER
  5
121B
330
11AB
100
AcDbSymbolTableRecord
100
AcDbLayerTableRecord
  2
umiborder|Level 28
 70
    16
 62
     7
  6
Continuous
370
     0
390
1194
347
1197
  0
LAYER
  5
121C
330
11AB
100
AcDbSymbolTableRecord
100
AcDbLayerTableRecord
  2
umiborder|Level 29
 70
    16
 62
     7
  6
Continuous
370
     0
390
1194
347
1197
  0
LAYER
  5
121D
330
11AB
100
AcDbSymbolTableRecord
100
AcDbLayerTableRecord
  2
umiborder|Level 30
 70
    16
 62
     7
  6
Continuous
370
     0
390
1194
347
1197
  0
LAYER
  5
121E
330
11AB
100
AcDbSymbolTableRecord
100
AcDbLayerTableRecord
  2
umiborder|Level 31
 70
    16
 62
     7
  6
Continuous
370
     0
390
1194
347
1197
  0
LAYER
  5
121F
330
11AB
100
AcDbSymbolTableRecord
100
AcDbLayerTableRecord
  2
umiborder|Level 32
 70
    16
 62
     7
  6
Continuous
370
     0
390
1194
347
1197
  0
LAYER
  5
1220
330
11AB
100
AcDbSymbolTableRecord
100
AcDbLayerTableRecord
  2
umiborder|Level 33
 70
    16
 62
     7
  6
Continuous
370
     0
390
1194
347
1197
  0
LAYER
  5
1221
330
11AB
100
AcDbSymbolTableRecord
100
AcDbLayerTableRecord
  2
umiborder|Level 34
 70
    16
 62
     7
  6
Continuous
370
     0
390
1194
347
1197
  0
LAYER
  5
1222
330
11AB
100
AcDbSymbolTableRecord
100
AcDbLayerTableRecord
  2
umiborder|Level 35
 70
    16
 62
     7
  6
Continuous
370
     0
390
1194
347
1197
  0
LAYER
  5
1223
330
11AB
100
AcDbSymbolTableRecord
100
AcDbLayerTableRecord
  2
umiborder|Level 36
 70
    16
 62
     7
  6
Continuous
370
     0
390
1194
347
1197
  0
LAYER
  5
1224
330
11AB
100
AcDbSymbolTableRecord
100
AcDbLayerTableRecord
  2
umiborder|Level 37
 70
    16
 62
     7
  6
Continuous
370
     0
390
1194
347
1197
  0
LAYER
  5
1225
330
11AB
100
AcDbSymbolTableRecord
100
AcDbLayerTableRecord
  2
umiborder|Level 38
 70
    16
 62
     7
  6
Continuous
370
     0
390
1194
347
1197
  0
LAYER
  5
1226
330
11AB
100
AcDbSymbolTableRecord
100
AcDbLayerTableRecord
  2
umiborder|Level 39
 70
    16
 62
     7
  6
Continuous
370
     0
390
1194
347
1197
  0
LAYER
  5
1227
330
11AB
100
AcDbSymbolTableRecord
100
AcDbLayerTableRecord
  2
umiborder|Level 40
 70
    16
 62
     7
  6
Continuous
370
     0
390
1194
347
1197
  0
LAYER
  5
1228
330
11AB
100
AcDbSymbolTableRecord
100
AcDbLayerTableRecord
  2
umiborder|Level 41
 70
    16
 62
     7
  6
Continuous
370
     0
390
1194
347
1197
  0
LAYER
  5
1229
330
11AB
100
AcDbSymbolTableRecord
100
AcDbLayerTableRecord
  2
umiborder|Level 42
 70
    16
 62
     7
  6
Continuous
370
     0
390
1194
347
1197
  0
LAYER
  5
122A
330
11AB
100
AcDbSymbolTableRecord
100
AcDbLayerTableRecord
  2
umiborder|Level 43
 70
    16
 62
     7
  6
Continuous
370
     0
390
1194
347
1197
  0
LAYER
  5
122B
330
11AB
100
AcDbSymbolTableRecord
100
AcDbLayerTableRecord
  2
umiborder|Level 44
 70
    16
 62
     7
  6
Continuous
370
     0
390
1194
347
1197
  0
LAYER
  5
122C
330
11AB
100
AcDbSymbolTableRecord
100
AcDbLayerTableRecord
  2
umiborder|Level 45
 70
    16
 62
     7
  6
Continuous
370
     0
390
1194
347
1197
  0
LAYER
  5
122D
330
11AB
100
AcDbSymbolTableRecord
100
AcDbLayerTableRecord
  2
umiborder|Level 46
 70
    16
 62
     7
  6
Continuous
370
     0
390
1194
347
1197
  0
LAYER
  5
122E
330
11AB
100
AcDbSymbolTableRecord
100
AcDbLayerTableRecord
  2
umiborder|Level 47
 70
    16
 62
     7
  6
Continuous
370
     0
390
1194
347
1197
  0
LAYER
  5
122F
330
11AB
100
AcDbSymbolTableRecord
100
AcDbLayerTableRecord
  2
umiborder|Level 48
 70
    16
 62
     7
  6
Continuous
370
     0
390
1194
347
1197
  0
LAYER
  5
1230
330
11AB
100
AcDbSymbolTableRecord
100
AcDbLayerTableRecord
  2
umiborder|Level 49
 70
    16
 62
     7
  6
Continuous
370
     0
390
1194
347
1197
  0
LAYER
  5
1231
330
11AB
100
AcDbSymbolTableRecord
100
AcDbLayerTableRecord
  2
umiborder|Level 50
 70
    16
 62
     7
  6
Continuous
370
     0
390
1194
347
1197
  0
LAYER
  5
1232
330
11AB
100
AcDbSymbolTableRecord
100
AcDbLayerTableRecord
  2
umiborder|Level 51
 70
    16
 62
     7
  6
Continuous
370
     0
390
1194
347
1197
  0
LAYER
  5
1233
330
11AB
100
AcDbSymbolTableRecord
100
AcDbLayerTableRecord
  2
umiborder|Level 52
 70
    16
 62
     7
  6
Continuous
370
     0
390
1194
347
1197
  0
LAYER
  5
1234
330
11AB
100
AcDbSymbolTableRecord
100
AcDbLayerTableRecord
  2
umiborder|Level 53
 70
    16
 62
     7
  6
Continuous
370
     0
390
1194
347
1197
  0
LAYER
  5
1235
330
11AB
100
AcDbSymbolTableRecord
100
AcDbLayerTableRecord
  2
umiborder|Level 54
 70
    16
 62
     7
  6
Continuous
370
     0
390
1194
347
1197
  0
LAYER
  5
1236
330
11AB
100
AcDbSymbolTableRecord
100
AcDbLayerTableRecord
  2
umiborder|Level 55
 70
    16
 62
     7
  6
Continuous
370
     0
390
1194
347
1197
  0
LAYER
  5
1237
330
11AB
100
AcDbSymbolTableRecord
100
AcDbLayerTableRecord
  2
umiborder|Level 56
 70
    16
 62
     7
  6
Continuous
370
     0
390
1194
347
1197
  0
LAYER
  5
1238
330
11AB
100
AcDbSymbolTableRecord
100
AcDbLayerTableRecord
  2
umiborder|Level 57
 70
    16
 62
     7
  6
Continuous
370
     0
390
1194
347
1197
  0
LAYER
  5
1239
330
11AB
100
AcDbSymbolTableRecord
100
AcDbLayerTableRecord
  2
umiborder|Level 58
 70
    16
 62
     7
  6
Continuous
370
     0
390
1194
347
1197
  0
LAYER
  5
123A
330
11AB
100
AcDbSymbolTableRecord
100
AcDbLayerTableRecord
  2
umiborder|Level 59
 70
    16
 62
     7
  6
Continuous
370
     0
390
1194
347
1197
  0
LAYER
  5
123B
330
11AB
100
AcDbSymbolTableRecord
100
AcDbLayerTableRecord
  2
umiborder|Level 60
 70
    16
 62
     7
  6
Continuous
370
     0
390
1194
347
1197
  0
LAYER
  5
123C
330
11AB
100
AcDbSymbolTableRecord
100
AcDbLayerTableRecord
  2
umiborder|Level 61
 70
    16
 62
     7
  6
Continuous
370
     0
390
1194
347
1197
  0
LAYER
  5
123D
330
11AB
100
AcDbSymbolTableRecord
100
AcDbLayerTableRecord
  2
umiborder|Level 62
 70
    16
 62
     7
  6
Continuous
370
     0
390
1194
347
1197
  0
LAYER
  5
123E
330
11AB
100
AcDbSymbolTableRecord
100
AcDbLayerTableRecord
  2
umiborder|Level 63
 70
    16
 62
     7
  6
Continuous
370
     0
390
1194
347
1197
  0
LAYER
  5
1242
330
11AB
100
AcDbSymbolTableRecord
100
AcDbLayerTableRecord
  2
Style 1  PCB layouts|Level 1
 70
    16
 62
     7
  6
Continuous
370
     0
390
1194
347
1197
  0
LAYER
  5
1243
330
11AB
100
AcDbSymbolTableRecord
100
AcDbLayerTableRecord
  2
Style 1  PCB layouts|Level 2
 70
    16
 62
     7
  6
Continuous
370
     0
390
1194
347
1197
  0
LAYER
  5
1244
330
11AB
100
AcDbSymbolTableRecord
100
AcDbLayerTableRecord
  2
Style 1  PCB layouts|Level 3
 70
    16
 62
     7
  6
Continuous
370
     0
390
1194
347
1197
  0
LAYER
  5
1245
330
11AB
100
AcDbSymbolTableRecord
100
AcDbLayerTableRecord
  2
Style 1  PCB layouts|Level 4
 70
    16
 62
     7
  6
Continuous
370
     0
390
1194
347
1197
  0
LAYER
  5
1246
330
11AB
100
AcDbSymbolTableRecord
100
AcDbLayerTableRecord
  2
Style 1  PCB layouts|Level 5
 70
    16
 62
     7
  6
Continuous
370
     0
390
1194
347
1197
  0
LAYER
  5
1247
330
11AB
100
AcDbSymbolTableRecord
100
AcDbLayerTableRecord
  2
Style 1  PCB layouts|Level 6
 70
    16
 62
     7
  6
Continuous
370
     0
390
1194
347
1197
  0
LAYER
  5
1248
330
11AB
100
AcDbSymbolTableRecord
100
AcDbLayerTableRecord
  2
Style 1  PCB layouts|Level 7
 70
    16
 62
     7
  6
Continuous
370
     0
390
1194
347
1197
  0
LAYER
  5
1249
330
11AB
100
AcDbSymbolTableRecord
100
AcDbLayerTableRecord
  2
Style 1  PCB layouts|Level 8
 70
    16
 62
     7
  6
Continuous
370
     0
390
1194
347
1197
  0
LAYER
  5
124A
330
11AB
100
AcDbSymbolTableRecord
100
AcDbLayerTableRecord
  2
Style 1  PCB layouts|Level 9
 70
    16
 62
     7
  6
Continuous
370
     0
390
1194
347
1197
  0
LAYER
  5
124B
330
11AB
100
AcDbSymbolTableRecord
100
AcDbLayerTableRecord
  2
Style 1  PCB layouts|Level 10
 70
    16
 62
     7
  6
Continuous
370
     0
390
1194
347
1197
  0
LAYER
  5
124C
330
11AB
100
AcDbSymbolTableRecord
100
AcDbLayerTableRecord
  2
Style 1  PCB layouts|Level 11
 70
    16
 62
     7
  6
Continuous
370
     0
390
1194
347
1197
  0
LAYER
  5
124D
330
11AB
100
AcDbSymbolTableRecord
100
AcDbLayerTableRecord
  2
Style 1  PCB layouts|Level 12
 70
    16
 62
     7
  6
Continuous
370
     0
390
1194
347
1197
  0
LAYER
  5
124E
330
11AB
100
AcDbSymbolTableRecord
100
AcDbLayerTableRecord
  2
Style 1  PCB layouts|Level 13
 70
    16
 62
     7
  6
Continuous
370
     0
390
1194
347
1197
  0
LAYER
  5
124F
330
11AB
100
AcDbSymbolTableRecord
100
AcDbLayerTableRecord
  2
Style 1  PCB layouts|Level 14
 70
    16
 62
     7
  6
Continuous
370
     0
390
1194
347
1197
  0
LAYER
  5
1250
330
11AB
100
AcDbSymbolTableRecord
100
AcDbLayerTableRecord
  2
Style 1  PCB layouts|Level 15
 70
    16
 62
     7
  6
Continuous
370
     0
390
1194
347
1197
  0
LAYER
  5
1251
330
11AB
100
AcDbSymbolTableRecord
100
AcDbLayerTableRecord
  2
Style 1  PCB layouts|Level 16
 70
    16
 62
     7
  6
Continuous
370
     0
390
1194
347
1197
  0
LAYER
  5
1252
330
11AB
100
AcDbSymbolTableRecord
100
AcDbLayerTableRecord
  2
Style 1  PCB layouts|Level 17
 70
    16
 62
     7
  6
Continuous
370
     0
390
1194
347
1197
  0
LAYER
  5
1253
330
11AB
100
AcDbSymbolTableRecord
100
AcDbLayerTableRecord
  2
Style 1  PCB layouts|Level 18
 70
    16
 62
     7
  6
Continuous
370
     0
390
1194
347
1197
  0
LAYER
  5
1254
330
11AB
100
AcDbSymbolTableRecord
100
AcDbLayerTableRecord
  2
Style 1  PCB layouts|Level 19
 70
    16
 62
     7
  6
Continuous
370
     0
390
1194
347
1197
  0
LAYER
  5
1255
330
11AB
100
AcDbSymbolTableRecord
100
AcDbLayerTableRecord
  2
Style 1  PCB layouts|Level 20
 70
    16
 62
     7
  6
Continuous
370
     0
390
1194
347
1197
  0
LAYER
  5
1256
330
11AB
100
AcDbSymbolTableRecord
100
AcDbLayerTableRecord
  2
Style 1  PCB layouts|Level 21
 70
    16
 62
     7
  6
Continuous
370
     0
390
1194
347
1197
  0
LAYER
  5
1257
330
11AB
100
AcDbSymbolTableRecord
100
AcDbLayerTableRecord
  2
Style 1  PCB layouts|Level 22
 70
    16
 62
     7
  6
Continuous
370
     0
390
1194
347
1197
  0
LAYER
  5
1258
330
11AB
100
AcDbSymbolTableRecord
100
AcDbLayerTableRecord
  2
Style 1  PCB layouts|Level 23
 70
    16
 62
     7
  6
Continuous
370
     0
390
1194
347
1197
  0
LAYER
  5
1259
330
11AB
100
AcDbSymbolTableRecord
100
AcDbLayerTableRecord
  2
Style 1  PCB layouts|Level 24
 70
    16
 62
     7
  6
Continuous
370
     0
390
1194
347
1197
  0
LAYER
  5
125A
330
11AB
100
AcDbSymbolTableRecord
100
AcDbLayerTableRecord
  2
Style 1  PCB layouts|Level 25
 70
    16
 62
     7
  6
Continuous
370
     0
390
1194
347
1197
  0
LAYER
  5
125B
330
11AB
100
AcDbSymbolTableRecord
100
AcDbLayerTableRecord
  2
Style 1  PCB layouts|Level 26
 70
    16
 62
     7
  6
Continuous
370
     0
390
1194
347
1197
  0
LAYER
  5
125C
330
11AB
100
AcDbSymbolTableRecord
100
AcDbLayerTableRecord
  2
Style 1  PCB layouts|Level 27
 70
    16
 62
     7
  6
Continuous
370
     0
390
1194
347
1197
  0
LAYER
  5
125D
330
11AB
100
AcDbSymbolTableRecord
100
AcDbLayerTableRecord
  2
Style 1  PCB layouts|Level 28
 70
    16
 62
     7
  6
Continuous
370
     0
390
1194
347
1197
  0
LAYER
  5
125E
330
11AB
100
AcDbSymbolTableRecord
100
AcDbLayerTableRecord
  2
Style 1  PCB layouts|Level 29
 70
    16
 62
     7
  6
Continuous
370
     0
390
1194
347
1197
  0
LAYER
  5
125F
330
11AB
100
AcDbSymbolTableRecord
100
AcDbLayerTableRecord
  2
Style 1  PCB layouts|Level 30
 70
    16
 62
     7
  6
Continuous
370
     0
390
1194
347
1197
  0
LAYER
  5
1260
330
11AB
100
AcDbSymbolTableRecord
100
AcDbLayerTableRecord
  2
Style 1  PCB layouts|Level 31
 70
    16
 62
     7
  6
Continuous
370
     0
390
1194
347
1197
  0
LAYER
  5
1261
330
11AB
100
AcDbSymbolTableRecord
100
AcDbLayerTableRecord
  2
Style 1  PCB layouts|Level 32
 70
    16
 62
     7
  6
Continuous
370
     0
390
1194
347
1197
  0
LAYER
  5
1262
330
11AB
100
AcDbSymbolTableRecord
100
AcDbLayerTableRecord
  2
Style 1  PCB layouts|Level 33
 70
    16
 62
     7
  6
Continuous
370
     0
390
1194
347
1197
  0
LAYER
  5
1263
330
11AB
100
AcDbSymbolTableRecord
100
AcDbLayerTableRecord
  2
Style 1  PCB layouts|Level 34
 70
    16
 62
     7
  6
Continuous
370
     0
390
1194
347
1197
  0
LAYER
  5
1264
330
11AB
100
AcDbSymbolTableRecord
100
AcDbLayerTableRecord
  2
Style 1  PCB layouts|Level 35
 70
    16
 62
     7
  6
Continuous
370
     0
390
1194
347
1197
  0
LAYER
  5
1265
330
11AB
100
AcDbSymbolTableRecord
100
AcDbLayerTableRecord
  2
Style 1  PCB layouts|Level 36
 70
    16
 62
     7
  6
Continuous
370
     0
390
1194
347
1197
  0
LAYER
  5
1266
330
11AB
100
AcDbSymbolTableRecord
100
AcDbLayerTableRecord
  2
Style 1  PCB layouts|Level 37
 70
    16
 62
     7
  6
Continuous
370
     0
390
1194
347
1197
  0
LAYER
  5
1267
330
11AB
100
AcDbSymbolTableRecord
100
AcDbLayerTableRecord
  2
Style 1  PCB layouts|Level 38
 70
    16
 62
     7
  6
Continuous
370
     0
390
1194
347
1197
  0
LAYER
  5
1268
330
11AB
100
AcDbSymbolTableRecord
100
AcDbLayerTableRecord
  2
Style 1  PCB layouts|Level 39
 70
    16
 62
     7
  6
Continuous
370
     0
390
1194
347
1197
  0
LAYER
  5
1269
330
11AB
100
AcDbSymbolTableRecord
100
AcDbLayerTableRecord
  2
Style 1  PCB layouts|Level 40
 70
    16
 62
     7
  6
Continuous
370
     0
390
1194
347
1197
  0
LAYER
  5
126A
330
11AB
100
AcDbSymbolTableRecord
100
AcDbLayerTableRecord
  2
Style 1  PCB layouts|Level 41
 70
    16
 62
     7
  6
Continuous
370
     0
390
1194
347
1197
  0
LAYER
  5
126B
330
11AB
100
AcDbSymbolTableRecord
100
AcDbLayerTableRecord
  2
Style 1  PCB layouts|Level 42
 70
    16
 62
     7
  6
Continuous
370
     0
390
1194
347
1197
  0
LAYER
  5
126C
330
11AB
100
AcDbSymbolTableRecord
100
AcDbLayerTableRecord
  2
Style 1  PCB layouts|Level 43
 70
    16
 62
     7
  6
Continuous
370
     0
390
1194
347
1197
  0
LAYER
  5
126D
330
11AB
100
AcDbSymbolTableRecord
100
AcDbLayerTableRecord
  2
Style 1  PCB layouts|Level 44
 70
    16
 62
     7
  6
Continuous
370
     0
390
1194
347
1197
  0
LAYER
  5
126E
330
11AB
100
AcDbSymbolTableRecord
100
AcDbLayerTableRecord
  2
Style 1  PCB layouts|Level 45
 70
    16
 62
     7
  6
Continuous
370
     0
390
1194
347
1197
  0
LAYER
  5
126F
330
11AB
100
AcDbSymbolTableRecord
100
AcDbLayerTableRecord
  2
Style 1  PCB layouts|Level 46
 70
    16
 62
     7
  6
Continuous
370
     0
390
1194
347
1197
  0
LAYER
  5
1270
330
11AB
100
AcDbSymbolTableRecord
100
AcDbLayerTableRecord
  2
Style 1  PCB layouts|Level 47
 70
    16
 62
     7
  6
Continuous
370
     0
390
1194
347
1197
  0
LAYER
  5
1271
330
11AB
100
AcDbSymbolTableRecord
100
AcDbLayerTableRecord
  2
Style 1  PCB layouts|Level 48
 70
    16
 62
     7
  6
Continuous
370
     0
390
1194
347
1197
  0
LAYER
  5
1272
330
11AB
100
AcDbSymbolTableRecord
100
AcDbLayerTableRecord
  2
Style 1  PCB layouts|Level 49
 70
    16
 62
     7
  6
Continuous
370
     0
390
1194
347
1197
  0
LAYER
  5
1273
330
11AB
100
AcDbSymbolTableRecord
100
AcDbLayerTableRecord
  2
Style 1  PCB layouts|Level 50
 70
    16
 62
     7
  6
Continuous
370
     0
390
1194
347
1197
  0
LAYER
  5
1274
330
11AB
100
AcDbSymbolTableRecord
100
AcDbLayerTableRecord
  2
Style 1  PCB layouts|Level 51
 70
    16
 62
     7
  6
Continuous
370
     0
390
1194
347
1197
  0
LAYER
  5
1275
330
11AB
100
AcDbSymbolTableRecord
100
AcDbLayerTableRecord
  2
Style 1  PCB layouts|Level 52
 70
    16
 62
     7
  6
Continuous
370
     0
390
1194
347
1197
  0
LAYER
  5
1276
330
11AB
100
AcDbSymbolTableRecord
100
AcDbLayerTableRecord
  2
Style 1  PCB layouts|Level 53
 70
    16
 62
     7
  6
Continuous
370
     0
390
1194
347
1197
  0
LAYER
  5
1277
330
11AB
100
AcDbSymbolTableRecord
100
AcDbLayerTableRecord
  2
Style 1  PCB layouts|Level 54
 70
    16
 62
     7
  6
Continuous
370
     0
390
1194
347
1197
  0
LAYER
  5
1278
330
11AB
100
AcDbSymbolTableRecord
100
AcDbLayerTableRecord
  2
Style 1  PCB layouts|Level 55
 70
    16
 62
     7
  6
Continuous
370
     0
390
1194
347
1197
  0
LAYER
  5
1279
330
11AB
100
AcDbSymbolTableRecord
100
AcDbLayerTableRecord
  2
Style 1  PCB layouts|Level 56
 70
    16
 62
     7
  6
Continuous
370
     0
390
1194
347
1197
  0
LAYER
  5
127A
330
11AB
100
AcDbSymbolTableRecord
100
AcDbLayerTableRecord
  2
Style 1  PCB layouts|Level 57
 70
    16
 62
     7
  6
Continuous
370
     0
390
1194
347
1197
  0
LAYER
  5
127B
330
11AB
100
AcDbSymbolTableRecord
100
AcDbLayerTableRecord
  2
Style 1  PCB layouts|Level 58
 70
    16
 62
     7
  6
Continuous
370
     0
390
1194
347
1197
  0
LAYER
  5
127C
330
11AB
100
AcDbSymbolTableRecord
100
AcDbLayerTableRecord
  2
Style 1  PCB layouts|Level 59
 70
    16
 62
     7
  6
Continuous
370
     0
390
1194
347
1197
  0
LAYER
  5
127D
330
11AB
100
AcDbSymbolTableRecord
100
AcDbLayerTableRecord
  2
Style 1  PCB layouts|Level 60
 70
    16
 62
     7
  6
Continuous
370
     0
390
1194
347
1197
  0
LAYER
  5
127E
330
11AB
100
AcDbSymbolTableRecord
100
AcDbLayerTableRecord
  2
Style 1  PCB layouts|Level 61
 70
    16
 62
     7
  6
Continuous
370
     0
390
1194
347
1197
  0
LAYER
  5
127F
330
11AB
100
AcDbSymbolTableRecord
100
AcDbLayerTableRecord
  2
Style 1  PCB layouts|Level 62
 70
    16
 62
     7
  6
Continuous
370
     0
390
1194
347
1197
  0
LAYER
  5
1280
330
11AB
100
AcDbSymbolTableRecord
100
AcDbLayerTableRecord
  2
Style 1  PCB layouts|Level 63
 70
    16
 62
     7
  6
Continuous
370
     0
390
1194
347
1197
  0
LAYER
  5
1297
330
11AB
100
AcDbSymbolTableRecord
100
AcDbLayerTableRecord
  2
Defpoints
 70
     0
 62
     7
  6
Continuous
290
     0
370
    -3
390
1194
347
1197
  0
ENDTAB
  0
TABLE
  2
STYLE
  5
11AE
330
0
100
AcDbSymbolTable
 70
     3
  0
STYLE
  5
11AF
330
11AE
100
AcDbSymbolTableRecord
100
AcDbTextStyleTableRecord
  2
Standard
 70
     0
 40
0.0
 41
1.0
 50
0.0
 71
     0
 42
0.0275
  3
txt.shx
  4

  0
STYLE
  5
1286
330
11AE
100
AcDbSymbolTableRecord
100
AcDbTextStyleTableRecord
  2
Style-WORKING
 70
     0
 40
0.0
 41
1.0
 50
0.0
 71
     0
 42
0.03
  3
WORKING.shx
  4

  0
STYLE
  5
1289
330
11AE
100
AcDbSymbolTableRecord
100
AcDbTextStyleTableRecord
  2
Style-ANSI_SYMBOLS
 70
     0
 40
0.0
 41
1.0
 50
0.0
 71
     0
 42
0.03
  3
ANSI_SYMBOLS.shx
  4

  0
ENDTAB
  0
TABLE
  2
VIEW
  5
11B4
330
0
100
AcDbSymbolTable
 70
     2
  0
VIEW
  5
110
102
{ACAD_XDICTIONARY
360
1282
102
}
330
11B4
100
AcDbSymbolTableRecord
100
AcDbViewTableRecord
  2
VIEW 5
 70
     0
 40
11.630165
 10
-7.758911
 20
5.32565
 41
18.974736
 11
0.0
 21
0.0
 31
1.0
 12
0.0
 22
0.0
 32
0.0
 42
50.0
 43
0.001969
 44
-0.001969
 50
0.0
 71
    16
281
     0
 72
     0
 73
     0
348
11B8
  0
VIEW
  5
112
102
{ACAD_XDICTIONARY
360
1284
102
}
330
11B4
100
AcDbSymbolTableRecord
100
AcDbViewTableRecord
  2
V2
 70
     0
 40
13.786559
 10
9.249309
 20
6.341453
 41
18.16465
 11
0.0
 21
0.0
 31
1.0
 12
0.0
 22
0.0
 32
0.0
 42
50.0
 43
0.001969
 44
-0.001969
 50
0.0
 71
    16
281
     0
 72
     0
 73
     0
348
11B8
  0
ENDTAB
  0
TABLE
  2
UCS
  5
11B5
330
0
100
AcDbSymbolTable
 70
     0
  0
ENDTAB
  0
TABLE
  2
APPID
  5
11BA
330
0
100
AcDbSymbolTable
 70
     3
  0
APPID
  5
11BB
330
11BA
100
AcDbSymbolTableRecord
100
AcDbRegAppTableRecord
  2
ACAD
 70
     0
  0
APPID
  5
11AA
330
11BA
100
AcDbSymbolTableRecord
100
AcDbRegAppTableRecord
  2
ACAD_PSEXT
 70
     0
  0
APPID
  5
14EF
330
11BA
100
AcDbSymbolTableRecord
100
AcDbRegAppTableRecord
  2
ACAD_MLEADERVER
 70
     0
  0
ENDTAB
  0
TABLE
  2
DIMSTYLE
  5
11BC
330
0
100
AcDbSymbolTable
 70
     1
100
AcDbDimStyleTable
 71
     1
340
11BD
  0
DIMSTYLE
105
11BD
102
{ACAD_REACTORS
330
BCA
330
BCB
330
BD4
330
BCF
330
1176
330
BD3
330
BD0
102
}
330
11BC
100
AcDbSymbolTableRecord
100
AcDbDimStyleTableRecord
  2
Standard
 70
     0
 42
0.0625
 44
0.18
147
0.09
340
11AF
  0
ENDTAB
  0
TABLE
  2
BLOCK_RECORD
  5
1190
330
0
100
AcDbSymbolTable
 70
    16
  0
BLOCK_RECORD
  5
1191
102
{ACAD_XDICTIONARY
360
133B
102
}
330
1190
100
AcDbSymbolTableRecord
100
AcDbBlockTableRecord
  2
*Model_Space
340
11A2
 70
     0
280
     1
281
     0
  0
BLOCK_RECORD
  5
11A4
102
{ACAD_XDICTIONARY
360
186D
102
}
330
1190
100
AcDbSymbolTableRecord
100
AcDbBlockTableRecord
  2
*Paper_Space
340
11A7
 70
     0
280
     1
281
     0
  0
BLOCK_RECORD
  5
11FD
330
1190
100
AcDbSymbolTableRecord
100
AcDbBlockTableRecord
  2
umiborder
340
0
102
{BLKREFS
331
6F0
102
}
 70
     0
280
     1
281
     0
  0
BLOCK_RECORD
  5
123F
330
1190
100
AcDbSymbolTableRecord
100
AcDbBlockTableRecord
  2
Style 1  PCB layouts
340
0
102
{BLKREFS
331
73A
102
}
 70
     0
280
     1
281
     0
  0
BLOCK_RECORD
  5
128B
330
1190
100
AcDbSymbolTableRecord
100
AcDbBlockTableRecord
  2
*D2
340
0
 70
     0
280
     1
281
     0
  0
BLOCK_RECORD
  5
129C
330
1190
100
AcDbSymbolTableRecord
100
AcDbBlockTableRecord
  2
*D3
340
0
 70
     0
280
     1
281
     0
  0
BLOCK_RECORD
  5
12A9
330
1190
100
AcDbSymbolTableRecord
100
AcDbBlockTableRecord
  2
*D4
340
0
 70
     0
280
     1
281
     0
  0
BLOCK_RECORD
  5
12B8
330
1190
100
AcDbSymbolTableRecord
100
AcDbBlockTableRecord
  2
*D5
340
0
 70
     0
280
     1
281
     0
  0
BLOCK_RECORD
  5
12C5
330
1190
100
AcDbSymbolTableRecord
100
AcDbBlockTableRecord
  2
*D6
340
0
 70
     0
280
     1
281
     0
  0
BLOCK_RECORD
  5
12D5
330
1190
100
AcDbSymbolTableRecord
100
AcDbBlockTableRecord
  2
*D7
340
0
 70
     0
280
     1
281
     0
  0
BLOCK_RECORD
  5
12E3
330
1190
100
AcDbSymbolTableRecord
100
AcDbBlockTableRecord
  2
*D8
340
0
 70
     0
280
     1
281
     0
  0
BLOCK_RECORD
  5
12F3
330
1190
100
AcDbSymbolTableRecord
100
AcDbBlockTableRecord
  2
*D9
340
0
 70
     0
280
     1
281
     0
  0
BLOCK_RECORD
  5
1301
330
1190
100
AcDbSymbolTableRecord
100
AcDbBlockTableRecord
  2
*D10
340
0
 70
     0
280
     1
281
     0
  0
BLOCK_RECORD
  5
1311
330
1190
100
AcDbSymbolTableRecord
100
AcDbBlockTableRecord
  2
*D11
340
0
 70
     0
280
     1
281
     0
  0
BLOCK_RECORD
  5
131E
330
1190
100
AcDbSymbolTableRecord
100
AcDbBlockTableRecord
  2
*D12
340
0
 70
     0
280
     1
281
     0
  0
BLOCK_RECORD
  5
132E
330
1190
100
AcDbSymbolTableRecord
100
AcDbBlockTableRecord
  2
*D13
340
0
 70
     0
280
     1
281
     0
  0
BLOCK_RECORD
  5
1440
330
1190
100
AcDbSymbolTableRecord
100
AcDbBlockTableRecord
  2
*D14
340
0
 70
     0
280
     1
281
     0
  0
BLOCK_RECORD
  5
17ED
330
1190
100
AcDbSymbolTableRecord
100
AcDbBlockTableRecord
  2
*D15
340
0
 70
     0
280
     1
281
     0
  0
ENDTAB
  0
ENDSEC
  0
SECTION
  2
BLOCKS
  0
BLOCK
  5
1192
330
1191
100
AcDbEntity
  8
0
100
AcDbBlockBegin
  2
*Model_Space
 70
     0
 10
0.0
 20
0.0
 30
0.0
  3
*Model_Space
  1

  0
ENDBLK
  5
11A1
330
1191
100
AcDbEntity
  8
0
100
AcDbBlockEnd
  0
BLOCK
  5
11A5
330
11A4
100
AcDbEntity
 67
     1
  8
0
100
AcDbBlockBegin
  2
*Paper_Space
 70
     0
 10
0.0
 20
0.0
 30
0.0
  3
*Paper_Space
  1

  0
ENDBLK
  5
11A6
330
11A4
100
AcDbEntity
 67
     1
  8
0
100
AcDbBlockEnd
  0
BLOCK
  5
11FE
330
11FD
100
AcDbEntity
  8
0
100
AcDbBlockBegin
  2
umiborder
 70
     4
 71
     1
 10
0.0
 20
0.0
 30
0.0
  3
umiborder
  1
C:\D DRIVE\MSTRDWG\umiborder.dwg
  0
ENDBLK
  5
11FF
330
11FD
100
AcDbEntity
  8
0
100
AcDbBlockEnd
  0
BLOCK
  5
1240
330
123F
100
AcDbEntity
  8
0
100
AcDbBlockBegin
  2
Style 1  PCB layouts
 70
     4
 71
     1
 10
0.0
 20
0.0
 30
0.0
  3
Style 1  PCB layouts
  1
C:\D drive\mstrdwg\pdf catalog drawings\cad files\Style 1  PCB layouts.dwg
  0
ENDBLK
  5
1241
330
123F
100
AcDbEntity
  8
0
100
AcDbBlockEnd
  0
BLOCK
  5
1295
330
128B
100
AcDbEntity
  8
0
 62
     7
370
     0
100
AcDbBlockBegin
  2
*D2
 70
     1
 10
0.0
 20
0.0
 30
0.0
  3
*D2
  1

  0
TEXT
  5
128C
330
128B
100
AcDbEntity
  8
Level 55
  6
Continuous
 62
     7
370
     0
100
AcDbText
 10
3.225097
 20
3.551791
 30
0.0
 40
0.03
  1
1.800
 41
0.916667
  7
Style-WORKING
 11
3.225097
 21
3.566791
 31
0.0
100
AcDbText
 73
     2
  0
TEXT
  5
128E
330
128B
100
AcDbEntity
  8
Level 55
  6
Continuous
 62
     7
370
     0
100
AcDbText
 10
3.218168
 20
3.491791
 30
0.0
 40
0.03
  1
45.72
 41
0.916667
  7
Style-WORKING
 11
3.218168
 21
3.506791
 31
0.0
100
AcDbText
 73
     2
  0
LINE
  5
128F
330
128B
100
AcDbEntity
  8
Level 55
  6
Continuous
 62
     7
370
     0
100
AcDbLine
 10
3.218168
 20
3.536791
 30
0.0
 11
3.334426
 21
3.536791
 31
0.0
  0
LINE
  5
1290
330
128B
100
AcDbEntity
  8
Level 55
  6
Continuous
 62
     7
370
     0
100
AcDbLine
 10
2.429206
 20
3.536791
 30
0.0
 11
4.229206
 21
3.536791
 31
0.0
  0
SOLID
  5
1291
330
128B
100
AcDbEntity
  8
Level 55
  6
Continuous
 62
     7
370
     0
100
AcDbTrace
 10
2.474206
 20
3.529291
 30
0.0
 11
2.429206
 21
3.536791
 31
0.0
 12
2.474206
 22
3.544291
 32
0.0
 13
2.474206
 23
3.544291
 33
0.0
  0
SOLID
  5
1292
330
128B
100
AcDbEntity
  8
Level 55
  6
Continuous
 62
     7
370
     0
100
AcDbTrace
 10
-4.184206
 20
3.544291
 30
0.0
 11
-4.229206
 21
3.536791
 31
0.0
 12
-4.184206
 22
3.529291
 32
0.0
 13
-4.184206
 23
3.529291
 33
0.0
210
0.0
220
0.0
230
-1.0
  0
LINE
  5
1293
330
128B
100
AcDbEntity
  8
Level 55
  6
Continuous
 62
     7
370
     0
100
AcDbLine
 10
2.429206
 20
3.191922
 30
0.0
 11
2.429206
 21
3.551791
 31
0.0
  0
LINE
  5
1294
330
128B
100
AcDbEntity
  8
Level 55
  6
Continuous
 62
     7
370
     0
100
AcDbLine
 10
4.229206
 20
3.191922
 30
0.0
 11
4.229206
 21
3.551791
 31
0.0
  0
POINT
  5
1298
330
128B
100
AcDbEntity
  8
Defpoints
  6
Continuous
 62
     7
370
     0
100
AcDbPoint
 10
4.229206
 20
3.536791
 30
0.0
  0
POINT
  5
1299
330
128B
100
AcDbEntity
  8
Defpoints
  6
Continuous
 62
     7
370
     0
100
AcDbPoint
 10
2.429206
 20
3.173922
 30
0.0
  0
POINT
  5
129A
330
128B
100
AcDbEntity
  8
Defpoints
  6
Continuous
 62
     7
370
     0
100
AcDbPoint
 10
4.229206
 20
3.173922
 30
0.0
  0
POINT
  5
129B
330
128B
100
AcDbEntity
  8
Defpoints
  6
Continuous
 62
     7
370
     0
100
AcDbPoint
 10
3.276297
 20
3.536791
 30
0.0
  0
ENDBLK
  5
1296
330
128B
100
AcDbEntity
  8
0
 62
     7
370
     0
100
AcDbBlockEnd
  0
BLOCK
  5
129D
330
129C
100
AcDbEntity
  8
0
 62
     7
370
     0
100
AcDbBlockBegin
  2
*D3
 70
     1
 10
0.0
 20
0.0
 30
0.0
  3
*D3
  1

  0
LINE
  5
193F
330
129C
100
AcDbEntity
  8
Level 55
  6
Continuous
 62
     0
370
    -2
100
AcDbLine
 10
2.429206
 20
3.191922
 30
0.0
 11
2.429206
 21
3.551791
 31
0.0
  0
LINE
  5
1940
330
129C
100
AcDbEntity
  8
Level 55
  6
Continuous
 62
     0
370
    -2
100
AcDbLine
 10
4.229206
 20
3.191922
 30
0.0
 11
4.229206
 21
3.551791
 31
0.0
  0
LINE
  5
1941
330
129C
100
AcDbEntity
  8
Level 55
  6
Continuous
 62
     0
370
    -2
100
AcDbLine
 10
2.474206
 20
3.536791
 30
0.0
 11
3.177049
 21
3.536791
 31
0.0
  0
LINE
  5
1942
330
129C
100
AcDbEntity
  8
Level 55
  6
Continuous
 62
     0
370
    -2
100
AcDbLine
 10
4.184206
 20
3.536791
 30
0.0
 11
3.375545
 21
3.536791
 31
0.0
  0
SOLID
  5
1943
330
129C
100
AcDbEntity
  8
Level 55
  6
Continuous
 62
     0
370
     0
100
AcDbTrace
 10
2.474206
 20
3.544291
 30
0.0
 11
2.474206
 21
3.529291
 31
0.0
 12
2.429206
 22
3.536791
 32
0.0
 13
2.429206
 23
3.536791
 33
0.0
  0
SOLID
  5
1944
330
129C
100
AcDbEntity
  8
Level 55
  6
Continuous
 62
     0
370
     0
100
AcDbTrace
 10
4.184206
 20
3.544291
 30
0.0
 11
4.184206
 21
3.529291
 31
0.0
 12
4.229206
 22
3.536791
 32
0.0
 13
4.229206
 23
3.536791
 33
0.0
  0
MTEXT
  5
1945
330
129C
100
AcDbEntity
  8
Level 55
  6
Continuous
 62
     0
370
     0
100
AcDbMText
 10
3.276297
 20
3.536791
 30
0.0
 40
0.03
 41
0.0
 46
0.0
 71
     5
 72
     1
  1
\H1x;\W0.916667;1.800\P [45.72]\H1x;\W0.916667;
  7
Style-WORKING
 73
     1
 44
1.0
  0
POINT
  5
1946
330
129C
100
AcDbEntity
  8
Defpoints
  6
Continuous
 62
     0
370
     0
100
AcDbPoint
 10
2.429206
 20
3.173922
 30
0.0
  0
POINT
  5
1947
330
129C
100
AcDbEntity
  8
Defpoints
  6
Continuous
 62
     0
370
     0
100
AcDbPoint
 10
4.229206
 20
3.173922
 30
0.0
  0
POINT
  5
1948
330
129C
100
AcDbEntity
  8
Defpoints
  6
Continuous
 62
     0
370
     0
100
AcDbPoint
 10
4.229206
 20
3.536791
 30
0.0
  0
ENDBLK
  5
129E
330
129C
100
AcDbEntity
  8
0
 62
     7
370
     0
100
AcDbBlockEnd
  0
BLOCK
  5
12B2
330
12A9
100
AcDbEntity
  8
0
 62
     7
370
     0
100
AcDbBlockBegin
  2
*D4
 70
     1
 10
0.0
 20
0.0
 30
0.0
  3
*D4
  1

  0
TEXT
  5
12AA
330
12A9
100
AcDbEntity
  8
Level 55
  6
Continuous
 62
     7
370
     0
100
AcDbText
 10
4.032479
 20
3.410768
 30
0.0
 40
0.03
  1
.280
 41
0.916667
  7
Style-WORKING
 11
4.032479
 21
3.425768
 31
0.0
100
AcDbText
 73
     2
  0
TEXT
  5
12AB
330
12A9
100
AcDbEntity
  8
Level 55
  6
Continuous
 62
     7
370
     0
100
AcDbText
 10
4.044178
 20
3.350768
 30
0.0
 40
0.03
  1
7.11
 41
0.916667
  7
Style-WORKING
 11
4.044178
 21
3.365768
 31
0.0
100
AcDbText
 73
     2
  0
LINE
  5
12AC
330
12A9
100
AcDbEntity
  8
Level 55
  6
Continuous
 62
     7
370
     0
100
AcDbLine
 10
4.032479
 20
3.395768
 30
0.0
 11
4.119514
 21
3.395768
 31
0.0
  0
LINE
  5
12AD
330
12A9
100
AcDbEntity
  8
Level 55
  6
Continuous
 62
     7
370
     0
100
AcDbLine
 10
4.229206
 20
3.395768
 30
0.0
 11
3.949206
 21
3.395768
 31
0.0
  0
SOLID
  5
12AE
330
12A9
100
AcDbEntity
  8
Level 55
  6
Continuous
 62
     7
370
     0
100
AcDbTrace
 10
-4.184206
 20
3.403268
 30
0.0
 11
-4.229206
 21
3.395768
 31
0.0
 12
-4.184206
 22
3.388268
 32
0.0
 13
-4.184206
 23
3.388268
 33
0.0
210
0.0
220
0.0
230
-1.0
  0
SOLID
  5
12AF
330
12A9
100
AcDbEntity
  8
Level 55
  6
Continuous
 62
     7
370
     0
100
AcDbTrace
 10
3.994206
 20
3.388268
 30
0.0
 11
3.949206
 21
3.395768
 31
0.0
 12
3.994206
 22
3.403268
 32
0.0
 13
3.994206
 23
3.403268
 33
0.0
  0
LINE
  5
12B0
330
12A9
100
AcDbEntity
  8
Level 55
  6
Continuous
 62
     7
370
     0
100
AcDbLine
 10
4.229206
 20
3.191922
 30
0.0
 11
4.229206
 21
3.410768
 31
0.0
  0
LINE
  5
12B1
330
12A9
100
AcDbEntity
  8
Level 55
  6
Continuous
 62
     7
370
     0
100
AcDbLine
 10
3.949206
 20
3.244645
 30
0.0
 11
3.949206
 21
3.410768
 31
0.0
  0
POINT
  5
12B4
330
12A9
100
AcDbEntity
  8
Defpoints
  6
Continuous
 62
     7
370
     0
100
AcDbPoint
 10
3.949206
 20
3.395768
 30
0.0
  0
POINT
  5
12B5
330
12A9
100
AcDbEntity
  8
Defpoints
  6
Continuous
 62
     7
370
     0
100
AcDbPoint
 10
4.229206
 20
3.173922
 30
0.0
  0
POINT
  5
12B6
330
12A9
100
AcDbEntity
  8
Defpoints
  6
Continuous
 62
     7
370
     0
100
AcDbPoint
 10
3.949206
 20
3.226645
 30
0.0
  0
POINT
  5
12B7
330
12A9
100
AcDbEntity
  8
Defpoints
  6
Continuous
 62
     7
370
     0
100
AcDbPoint
 10
4.075996
 20
3.395768
 30
0.0
  0
ENDBLK
  5
12B3
330
12A9
100
AcDbEntity
  8
0
 62
     7
370
     0
100
AcDbBlockEnd
  0
BLOCK
  5
12B9
330
12B8
100
AcDbEntity
  8
0
 62
     7
370
     0
100
AcDbBlockBegin
  2
*D5
 70
     1
 10
0.0
 20
0.0
 30
0.0
  3
*D5
  1

  0
LINE
  5
1949
330
12B8
100
AcDbEntity
  8
Level 55
  6
Continuous
 62
     0
370
    -2
100
AcDbLine
 10
4.229206
 20
3.191922
 30
0.0
 11
4.229206
 21
3.410768
 31
0.0
  0
LINE
  5
194A
330
12B8
100
AcDbEntity
  8
Level 55
  6
Continuous
 62
     0
370
    -2
100
AcDbLine
 10
3.949206
 20
3.244645
 30
0.0
 11
3.949206
 21
3.410768
 31
0.0
  0
LINE
  5
194B
330
12B8
100
AcDbEntity
  8
Level 55
  6
Continuous
 62
     0
370
    -2
100
AcDbLine
 10
4.184206
 20
3.395768
 30
0.0
 11
4.148835
 21
3.395768
 31
0.0
  0
LINE
  5
194C
330
12B8
100
AcDbEntity
  8
Level 55
  6
Continuous
 62
     0
370
    -2
100
AcDbLine
 10
3.994206
 20
3.395768
 30
0.0
 11
4.003157
 21
3.395768
 31
0.0
  0
SOLID
  5
194D
330
12B8
100
AcDbEntity
  8
Level 55
  6
Continuous
 62
     0
370
     0
100
AcDbTrace
 10
4.184206
 20
3.403268
 30
0.0
 11
4.184206
 21
3.388268
 31
0.0
 12
4.229206
 22
3.395768
 32
0.0
 13
4.229206
 23
3.395768
 33
0.0
  0
SOLID
  5
194E
330
12B8
100
AcDbEntity
  8
Level 55
  6
Continuous
 62
     0
370
     0
100
AcDbTrace
 10
3.994206
 20
3.403268
 30
0.0
 11
3.994206
 21
3.388268
 31
0.0
 12
3.949206
 22
3.395768
 32
0.0
 13
3.949206
 23
3.395768
 33
0.0
  0
MTEXT
  5
194F
330
12B8
100
AcDbEntity
  8
Level 55
  6
Continuous
 62
     0
370
     0
100
AcDbMText
 10
4.075996
 20
3.395768
 30
0.0
 40
0.03
 41
0.0
 46
0.0
 71
     5
 72
     1
  1
\H1x;\W0.916667;.280\P [7.11]\H1x;\W0.916667;
  7
Style-WORKING
 73
     1
 44
1.0
  0
POINT
  5
1950
330
12B8
100
AcDbEntity
  8
Defpoints
  6
Continuous
 62
     0
370
     0
100
AcDbPoint
 10
4.229206
 20
3.173922
 30
0.0
  0
POINT
  5
1951
330
12B8
100
AcDbEntity
  8
Defpoints
  6
Continuous
 62
     0
370
     0
100
AcDbPoint
 10
3.949206
 20
3.226645
 30
0.0
  0
POINT
  5
1952
330
12B8
100
AcDbEntity
  8
Defpoints
  6
Continuous
 62
     0
370
     0
100
AcDbPoint
 10
3.949206
 20
3.395768
 30
0.0
  0
ENDBLK
  5
12BA
330
12B8
100
AcDbEntity
  8
0
 62
     7
370
     0
100
AcDbBlockEnd
  0
BLOCK
  5
12CF
330
12C5
100
AcDbEntity
  8
0
 62
     7
370
     0
100
AcDbBlockBegin
  2
*D6
 70
     1
 10
0.0
 20
0.0
 30
0.0
  3
*D6
  1

  0
TEXT
  5
12C6
330
12C5
100
AcDbEntity
  8
Level 55
  6
Continuous
 62
     7
370
     0
100
AcDbText
 10
4.34671
 20
3.337175
 30
0.0
 40
0.03
  1
.038
 41
0.916667
  7
Style-WORKING
 11
4.34671
 21
3.352175
 31
0.0
100
AcDbText
 73
     2
  0
TEXT
  5
12C7
330
12C5
100
AcDbEntity
  8
Level 55
  6
Continuous
 62
     7
370
     0
100
AcDbText
 10
4.361003
 20
3.277175
 30
0.0
 40
0.03
  1
.95
 41
0.916667
  7
Style-WORKING
 11
4.361003
 21
3.292175
 31
0.0
100
AcDbText
 73
     2
  0
LINE
  5
12C8
330
12C5
100
AcDbEntity
  8
Level 55
  6
Continuous
 62
     7
370
     0
100
AcDbLine
 10
4.34671
 20
3.322175
 30
0.0
 11
4.433741
 21
3.322175
 31
0.0
  0
LINE
  5
12C9
330
12C5
100
AcDbEntity
  8
Level 55
  6
Continuous
 62
     7
370
     0
100
AcDbLine
 10
4.390226
 20
3.045395
 30
0.0
 11
4.390226
 21
3.114145
 31
0.0
  0
LINE
  5
12CA
330
12C5
100
AcDbEntity
  8
Level 55
  6
Continuous
 62
     7
370
     0
100
AcDbLine
 10
4.390226
 20
3.268175
 30
0.0
 11
4.390226
 21
3.151645
 31
0.0
  0
SOLID
  5
12CB
330
12C5
100
AcDbEntity
  8
Level 55
  6
Continuous
 62
     7
370
     0
100
AcDbTrace
 10
-4.382726
 20
3.069145
 30
0.0
 11
-4.390226
 21
3.114145
 31
0.0
 12
-4.397726
 22
3.069145
 32
0.0
 13
-4.397726
 23
3.069145
 33
0.0
210
0.0
220
0.0
230
-1.0
  0
SOLID
  5
12CC
330
12C5
100
AcDbEntity
  8
Level 55
  6
Continuous
 62
     7
370
     0
100
AcDbTrace
 10
4.397726
 20
3.196645
 30
0.0
 11
4.390226
 21
3.151645
 31
0.0
 12
4.382726
 22
3.196645
 32
0.0
 13
4.382726
 23
3.196645
 33
0.0
  0
LINE
  5
12CD
330
12C5
100
AcDbEntity
  8
Level 55
  6
Continuous
 62
     7
370
     0
100
AcDbLine
 10
4.305746
 20
3.114145
 30
0.0
 11
4.405226
 21
3.114145
 31
0.0
  0
LINE
  5
12CE
330
12C5
100
AcDbEntity
  8
Level 55
  6
Continuous
 62
     7
370
     0
100
AcDbLine
 10
3.929706
 20
3.151645
 30
0.0
 11
4.405226
 21
3.151645
 31
0.0
  0
POINT
  5
12D1
330
12C5
100
AcDbEntity
  8
Defpoints
  6
Continuous
 62
     7
370
     0
100
AcDbPoint
 10
4.390226
 20
3.151645
 30
0.0
  0
POINT
  5
12D2
330
12C5
100
AcDbEntity
  8
Defpoints
  6
Continuous
 62
     7
370
     0
100
AcDbPoint
 10
4.287746
 20
3.114145
 30
0.0
  0
POINT
  5
12D3
330
12C5
100
AcDbEntity
  8
Defpoints
  6
Continuous
 62
     7
370
     0
100
AcDbPoint
 10
3.911706
 20
3.151645
 30
0.0
  0
POINT
  5
12D4
330
12C5
100
AcDbEntity
  8
Defpoints
  6
Continuous
 62
     7
370
     0
100
AcDbPoint
 10
4.390226
 20
3.322175
 30
0.0
  0
ENDBLK
  5
12D0
330
12C5
100
AcDbEntity
  8
0
 62
     7
370
     0
100
AcDbBlockEnd
  0
BLOCK
  5
12D6
330
12D5
100
AcDbEntity
  8
0
 62
     7
370
     0
100
AcDbBlockBegin
  2
*D7
 70
     1
 10
0.0
 20
0.0
 30
0.0
  3
*D7
  1

  0
LINE
  5
1415
330
12D5
100
AcDbEntity
  8
Level 55
  6
Continuous
 62
     0
370
    -2
100
AcDbLine
 10
4.269746
 20
3.114145
 30
0.0
 11
4.259897
 21
3.114145
 31
0.0
  0
LINE
  5
1416
330
12D5
100
AcDbEntity
  8
Level 55
  6
Continuous
 62
     0
370
    -2
100
AcDbLine
 10
3.929706
 20
3.151645
 30
0.0
 11
4.289897
 21
3.151645
 31
0.0
  0
LINE
  5
1417
330
12D5
100
AcDbEntity
  8
Level 55
  6
Continuous
 62
     0
370
    -2
100
AcDbLine
 10
4.274897
 20
3.069145
 30
0.0
 11
4.274897
 21
3.024145
 31
0.0
  0
LINE
  5
1418
330
12D5
100
AcDbEntity
  8
Level 55
  6
Continuous
 62
     0
370
    -2
100
AcDbLine
 10
4.274897
 20
3.196645
 30
0.0
 11
4.274897
 21
3.322175
 31
0.0
  0
LINE
  5
1419
330
12D5
100
AcDbEntity
  8
Level 55
  6
Continuous
 62
     0
370
    -2
100
AcDbLine
 10
4.274897
 20
3.322175
 30
0.0
 11
4.319897
 21
3.322175
 31
0.0
  0
SOLID
  5
141A
330
12D5
100
AcDbEntity
  8
Level 55
  6
Continuous
 62
     0
370
     0
100
AcDbTrace
 10
4.267397
 20
3.069145
 30
0.0
 11
4.282397
 21
3.069145
 31
0.0
 12
4.274897
 22
3.114145
 32
0.0
 13
4.274897
 23
3.114145
 33
0.0
  0
SOLID
  5
141B
330
12D5
100
AcDbEntity
  8
Level 55
  6
Continuous
 62
     0
370
     0
100
AcDbTrace
 10
4.267397
 20
3.196645
 30
0.0
 11
4.282397
 21
3.196645
 31
0.0
 12
4.274897
 22
3.151645
 32
0.0
 13
4.274897
 23
3.151645
 33
0.0
  0
MTEXT
  5
141C
330
12D5
100
AcDbEntity
  8
Level 55
  6
Continuous
 62
     0
370
     0
100
AcDbMText
 10
4.390226
 20
3.322175
 30
0.0
 40
0.03
 41
0.0
 46
0.0
 71
     5
 72
     1
  1
\H1x;\W0.916667;.038\P [.95]\H1x;\W0.916667;
  7
Style-WORKING
 73
     1
 44
1.0
  0
POINT
  5
141D
330
12D5
100
AcDbEntity
  8
Defpoints
  6
Continuous
 62
     0
370
     0
100
AcDbPoint
 10
4.287746
 20
3.114145
 30
0.0
  0
POINT
  5
141E
330
12D5
100
AcDbEntity
  8
Defpoints
  6
Continuous
 62
     0
370
     0
100
AcDbPoint
 10
3.911706
 20
3.151645
 30
0.0
  0
POINT
  5
141F
330
12D5
100
AcDbEntity
  8
Defpoints
  6
Continuous
 62
     0
370
     0
100
AcDbPoint
 10
4.274897
 20
3.151645
 30
0.0
  0
ENDBLK
  5
12D7
330
12D5
100
AcDbEntity
  8
0
 62
     7
370
     0
100
AcDbBlockEnd
  0
BLOCK
  5
12ED
330
12E3
100
AcDbEntity
  8
0
 62
     7
370
     0
100
AcDbBlockBegin
  2
*D8
 70
     1
 10
0.0
 20
0.0
 30
0.0
  3
*D8
  1

  0
TEXT
  5
12E4
330
12E3
100
AcDbEntity
  8
Level 55
  6
Continuous
 62
     7
370
     0
100
AcDbText
 10
4.424519
 20
2.906836
 30
0.0
 40
0.03
  1
.075 TYP
 41
0.916667
  7
Style-WORKING
 11
4.424519
 21
2.921836
 31
0.0
100
AcDbText
 73
     2
  0
TEXT
  5
12E5
330
12E3
100
AcDbEntity
  8
Level 55
  6
Continuous
 62
     7
370
     0
100
AcDbText
 10
4.501166
 20
2.846836
 30
0.0
 40
0.03
  1
1.9
 41
0.916667
  7
Style-WORKING
 11
4.501166
 21
2.861836
 31
0.0
100
AcDbText
 73
     2
  0
LINE
  5
12E6
330
12E3
100
AcDbEntity
  8
Level 55
  6
Continuous
 62
     7
370
     0
100
AcDbLine
 10
4.424519
 20
2.891836
 30
0.0
 11
4.624354
 21
2.891836
 31
0.0
  0
LINE
  5
12E7
330
12E3
100
AcDbEntity
  8
Level 55
  6
Continuous
 62
     7
370
     0
100
AcDbLine
 10
4.524437
 20
3.220395
 30
0.0
 11
4.524437
 21
3.151645
 31
0.0
  0
LINE
  5
12E8
330
12E3
100
AcDbEntity
  8
Level 55
  6
Continuous
 62
     7
370
     0
100
AcDbLine
 10
4.524437
 20
2.945836
 30
0.0
 11
4.524437
 21
3.076645
 31
0.0
  0
SOLID
  5
12E9
330
12E3
100
AcDbEntity
  8
Level 55
  6
Continuous
 62
     7
370
     0
100
AcDbTrace
 10
4.531937
 20
3.196645
 30
0.0
 11
4.524437
 21
3.151645
 31
0.0
 12
4.516937
 22
3.196645
 32
0.0
 13
4.516937
 23
3.196645
 33
0.0
  0
SOLID
  5
12EA
330
12E3
100
AcDbEntity
  8
Level 55
  6
Continuous
 62
     7
370
     0
100
AcDbTrace
 10
-4.516937
 20
3.031645
 30
0.0
 11
-4.524437
 21
3.076645
 31
0.0
 12
-4.531937
 22
3.031645
 32
0.0
 13
-4.531937
 23
3.031645
 33
0.0
210
0.0
220
0.0
230
-1.0
  0
LINE
  5
12EB
330
12E3
100
AcDbEntity
  8
Level 55
  6
Continuous
 62
     7
370
     0
100
AcDbLine
 10
3.929706
 20
3.151645
 30
0.0
 11
4.539437
 21
3.151645
 31
0.0
  0
LINE
  5
12EC
330
12E3
100
AcDbEntity
  8
Level 55
  6
Continuous
 62
     7
370
     0
100
AcDbLine
 10
3.967206
 20
3.076645
 30
0.0
 11
4.539437
 21
3.076645
 31
0.0
  0
POINT
  5
12EF
330
12E3
100
AcDbEntity
  8
Defpoints
  6
Continuous
 62
     7
370
     0
100
AcDbPoint
 10
4.524437
 20
3.076645
 30
0.0
  0
POINT
  5
12F0
330
12E3
100
AcDbEntity
  8
Defpoints
  6
Continuous
 62
     7
370
     0
100
AcDbPoint
 10
3.911706
 20
3.151645
 30
0.0
  0
POINT
  5
12F1
330
12E3
100
AcDbEntity
  8
Defpoints
  6
Continuous
 62
     7
370
     0
100
AcDbPoint
 10
3.949206
 20
3.076645
 30
0.0
  0
POINT
  5
12F2
330
12E3
100
AcDbEntity
  8
Defpoints
  6
Continuous
 62
     7
370
     0
100
AcDbPoint
 10
4.524437
 20
2.891836
 30
0.0
  0
ENDBLK
  5
12EE
330
12E3
100
AcDbEntity
  8
0
 62
     7
370
     0
100
AcDbBlockEnd
  0
BLOCK
  5
12F4
330
12F3
100
AcDbEntity
  8
0
 62
     7
370
     0
100
AcDbBlockBegin
  2
*D9
 70
     1
 10
0.0
 20
0.0
 30
0.0
  3
*D9
  1

  0
LINE
  5
1953
330
12F3
100
AcDbEntity
  8
Level 55
  6
Continuous
 62
     0
370
    -2
100
AcDbLine
 10
3.929706
 20
3.151645
 30
0.0
 11
4.712713
 21
3.151645
 31
0.0
  0
LINE
  5
1954
330
12F3
100
AcDbEntity
  8
Level 55
  6
Continuous
 62
     0
370
    -2
100
AcDbLine
 10
3.967206
 20
3.076645
 30
0.0
 11
4.712713
 21
3.076645
 31
0.0
  0
LINE
  5
1955
330
12F3
100
AcDbEntity
  8
Level 55
  6
Continuous
 62
     0
370
    -2
100
AcDbLine
 10
4.697713
 20
3.196645
 30
0.0
 11
4.697713
 21
3.241645
 31
0.0
  0
LINE
  5
1956
330
12F3
100
AcDbEntity
  8
Level 55
  6
Continuous
 62
     0
370
    -2
100
AcDbLine
 10
4.697713
 20
3.031645
 30
0.0
 11
4.697713
 21
2.891836
 31
0.0
  0
LINE
  5
1957
330
12F3
100
AcDbEntity
  8
Level 55
  6
Continuous
 62
     0
370
    -2
100
AcDbLine
 10
4.697713
 20
2.891836
 30
0.0
 11
4.652713
 21
2.891836
 31
0.0
  0
SOLID
  5
1958
330
12F3
100
AcDbEntity
  8
Level 55
  6
Continuous
 62
     0
370
     0
100
AcDbTrace
 10
4.690213
 20
3.196645
 30
0.0
 11
4.705213
 21
3.196645
 31
0.0
 12
4.697713
 22
3.151645
 32
0.0
 13
4.697713
 23
3.151645
 33
0.0
  0
SOLID
  5
1959
330
12F3
100
AcDbEntity
  8
Level 55
  6
Continuous
 62
     0
370
     0
100
AcDbTrace
 10
4.690213
 20
3.031645
 30
0.0
 11
4.705213
 21
3.031645
 31
0.0
 12
4.697713
 22
3.076645
 32
0.0
 13
4.697713
 23
3.076645
 33
0.0
  0
MTEXT
  5
195A
330
12F3
100
AcDbEntity
  8
Level 55
  6
Continuous
 62
     0
370
     0
100
AcDbMText
 10
4.524437
 20
2.891836
 30
0.0
 40
0.03
 41
0.0
 46
0.0
 71
     5
 72
     1
  1
\H1x;\W0.916667;.075\P [1.91] TYP\H1x;\W0.916667;
  7
Style-WORKING
 73
     1
 44
1.0
  0
POINT
  5
195B
330
12F3
100
AcDbEntity
  8
Defpoints
  6
Continuous
 62
     0
370
     0
100
AcDbPoint
 10
3.911706
 20
3.151645
 30
0.0
  0
POINT
  5
195C
330
12F3
100
AcDbEntity
  8
Defpoints
  6
Continuous
 62
     0
370
     0
100
AcDbPoint
 10
3.949206
 20
3.076645
 30
0.0
  0
POINT
  5
195D
330
12F3
100
AcDbEntity
  8
Defpoints
  6
Continuous
 62
     0
370
     0
100
AcDbPoint
 10
4.697713
 20
3.076645
 30
0.0
  0
ENDBLK
  5
12F5
330
12F3
100
AcDbEntity
  8
0
 62
     7
370
     0
100
AcDbBlockEnd
  0
BLOCK
  5
130B
330
1301
100
AcDbEntity
  8
0
 62
     7
370
     0
100
AcDbBlockBegin
  2
*D10
 70
     1
 10
0.0
 20
0.0
 30
0.0
  3
*D10
  1

  0
TEXT
  5
1302
330
1301
100
AcDbEntity
  8
Level 55
  6
Continuous
 62
     7
370
     0
100
AcDbText
 10
4.052614
 20
2.833244
 30
0.0
 40
0.03
  1
.038
 41
0.916667
  7
Style-WORKING
 11
4.052614
 21
2.848244
 31
0.0
100
AcDbText
 73
     2
  0
TEXT
  5
1303
330
1301
100
AcDbEntity
  8
Level 55
  6
Continuous
 62
     7
370
     0
100
AcDbText
 10
4.066908
 20
2.773244
 30
0.0
 40
0.03
  1
.95
 41
0.916667
  7
Style-WORKING
 11
4.066908
 21
2.788244
 31
0.0
100
AcDbText
 73
     2
  0
LINE
  5
1304
330
1301
100
AcDbEntity
  8
Level 55
  6
Continuous
 62
     7
370
     0
100
AcDbLine
 10
4.052614
 20
2.818244
 30
0.0
 11
4.139646
 21
2.818244
 31
0.0
  0
LINE
  5
1305
330
1301
100
AcDbEntity
  8
Level 55
  6
Continuous
 62
     7
370
     0
100
AcDbLine
 10
4.043614
 20
2.818244
 30
0.0
 11
3.949206
 21
2.818244
 31
0.0
  0
LINE
  5
1306
330
1301
100
AcDbEntity
  8
Level 55
  6
Continuous
 62
     7
370
     0
100
AcDbLine
 10
3.842956
 20
2.818244
 30
0.0
 11
3.911706
 21
2.818244
 31
0.0
  0
SOLID
  5
1307
330
1301
100
AcDbEntity
  8
Level 55
  6
Continuous
 62
     7
370
     0
100
AcDbTrace
 10
3.994206
 20
2.810744
 30
0.0
 11
3.949206
 21
2.818244
 31
0.0
 12
3.994206
 22
2.825744
 32
0.0
 13
3.994206
 23
2.825744
 33
0.0
  0
SOLID
  5
1308
330
1301
100
AcDbEntity
  8
Level 55
  6
Continuous
 62
     7
370
     0
100
AcDbTrace
 10
-3.866706
 20
2.825744
 30
0.0
 11
-3.911706
 21
2.818244
 31
0.0
 12
-3.866706
 22
2.810744
 32
0.0
 13
-3.866706
 23
2.810744
 33
0.0
210
0.0
220
0.0
230
-1.0
  0
LINE
  5
1309
330
1301
100
AcDbEntity
  8
Level 55
  6
Continuous
 62
     7
370
     0
100
AcDbLine
 10
3.949206
 20
3.058645
 30
0.0
 11
3.949206
 21
2.803244
 31
0.0
  0
LINE
  5
130A
330
1301
100
AcDbEntity
  8
Level 55
  6
Continuous
 62
     7
370
     0
100
AcDbLine
 10
3.911706
 20
2.983645
 30
0.0
 11
3.911706
 21
2.803244
 31
0.0
  0
POINT
  5
130D
330
1301
100
AcDbEntity
  8
Defpoints
  6
Continuous
 62
     7
370
     0
100
AcDbPoint
 10
3.911706
 20
2.818244
 30
0.0
  0
POINT
  5
130E
330
1301
100
AcDbEntity
  8
Defpoints
  6
Continuous
 62
     7
370
     0
100
AcDbPoint
 10
3.949206
 20
3.076645
 30
0.0
  0
POINT
  5
130F
330
1301
100
AcDbEntity
  8
Defpoints
  6
Continuous
 62
     7
370
     0
100
AcDbPoint
 10
3.911706
 20
3.001645
 30
0.0
  0
POINT
  5
1310
330
1301
100
AcDbEntity
  8
Defpoints
  6
Continuous
 62
     7
370
     0
100
AcDbPoint
 10
4.09613
 20
2.818244
 30
0.0
  0
ENDBLK
  5
130C
330
1301
100
AcDbEntity
  8
0
 62
     7
370
     0
100
AcDbBlockEnd
  0
BLOCK
  5
1312
330
1311
100
AcDbEntity
  8
0
 62
     7
370
     0
100
AcDbBlockBegin
  2
*D11
 70
     1
 10
0.0
 20
0.0
 30
0.0
  3
*D11
  1

  0
LINE
  5
195E
330
1311
100
AcDbEntity
  8
Level 55
  6
Continuous
 62
     0
370
    -2
100
AcDbLine
 10
3.949206
 20
3.058645
 30
0.0
 11
3.949206
 21
2.803244
 31
0.0
  0
LINE
  5
195F
330
1311
100
AcDbEntity
  8
Level 55
  6
Continuous
 62
     0
370
    -2
100
AcDbLine
 10
3.911706
 20
2.983645
 30
0.0
 11
3.911706
 21
2.803244
 31
0.0
  0
LINE
  5
1960
330
1311
100
AcDbEntity
  8
Level 55
  6
Continuous
 62
     0
370
    -2
100
AcDbLine
 10
3.866706
 20
2.818244
 30
0.0
 11
3.821706
 21
2.818244
 31
0.0
  0
LINE
  5
1961
330
1311
100
AcDbEntity
  8
Level 55
  6
Continuous
 62
     0
370
    -2
100
AcDbLine
 10
3.994206
 20
2.818244
 30
0.0
 11
4.039207
 21
2.818244
 31
0.0
  0
SOLID
  5
1962
330
1311
100
AcDbEntity
  8
Level 55
  6
Continuous
 62
     0
370
     0
100
AcDbTrace
 10
3.866706
 20
2.825744
 30
0.0
 11
3.866706
 21
2.810744
 31
0.0
 12
3.911706
 22
2.818244
 32
0.0
 13
3.911706
 23
2.818244
 33
0.0
  0
SOLID
  5
1963
330
1311
100
AcDbEntity
  8
Level 55
  6
Continuous
 62
     0
370
     0
100
AcDbTrace
 10
3.994206
 20
2.825744
 30
0.0
 11
3.994206
 21
2.810744
 31
0.0
 12
3.949206
 22
2.818244
 32
0.0
 13
3.949206
 23
2.818244
 33
0.0
  0
MTEXT
  5
1964
330
1311
100
AcDbEntity
  8
Level 55
  6
Continuous
 62
     0
370
     0
100
AcDbMText
 10
4.109536
 20
2.818244
 30
0.0
 40
0.03
 41
0.0
 46
0.0
 71
     5
 72
     1
  1
\H1x;\W0.916667;.038\P [.95]\H1x;\W0.916667;
  7
Style-WORKING
 73
     1
 44
1.0
  0
POINT
  5
1965
330
1311
100
AcDbEntity
  8
Defpoints
  6
Continuous
 62
     0
370
     0
100
AcDbPoint
 10
3.949206
 20
3.076645
 30
0.0
  0
POINT
  5
1966
330
1311
100
AcDbEntity
  8
Defpoints
  6
Continuous
 62
     0
370
     0
100
AcDbPoint
 10
3.911706
 20
3.001645
 30
0.0
  0
POINT
  5
1967
330
1311
100
AcDbEntity
  8
Defpoints
  6
Continuous
 62
     0
370
     0
100
AcDbPoint
 10
3.911706
 20
2.818244
 30
0.0
  0
ENDBLK
  5
1313
330
1311
100
AcDbEntity
  8
0
 62
     7
370
     0
100
AcDbBlockEnd
  0
BLOCK
  5
1328
330
131E
100
AcDbEntity
  8
0
 62
     7
370
     0
100
AcDbBlockBegin
  2
*D12
 70
     1
 10
0.0
 20
0.0
 30
0.0
  3
*D12
  1

  0
TEXT
  5
131F
330
131E
100
AcDbEntity
  8
Level 55
  6
Continuous
 62
     7
370
     0
100
AcDbText
 10
3.510335
 20
2.698936
 30
0.0
 40
0.03
  1
.075 TYP
 41
0.916667
  7
Style-WORKING
 11
3.510335
 21
2.713936
 31
0.0
100
AcDbText
 73
     2
  0
TEXT
  5
1320
330
131E
100
AcDbEntity
  8
Level 55
  6
Continuous
 62
     7
370
     0
100
AcDbText
 10
3.579193
 20
2.638936
 30
0.0
 40
0.03
  1
1.91
 41
0.916667
  7
Style-WORKING
 11
3.579193
 21
2.653936
 31
0.0
100
AcDbText
 73
     2
  0
LINE
  5
1321
330
131E
100
AcDbEntity
  8
Level 55
  6
Continuous
 62
     7
370
     0
100
AcDbLine
 10
3.510335
 20
2.683936
 30
0.0
 11
3.71017
 21
2.683936
 31
0.0
  0
LINE
  5
1322
330
131E
100
AcDbEntity
  8
Level 55
  6
Continuous
 62
     7
370
     0
100
AcDbLine
 10
4.017956
 20
2.683936
 30
0.0
 11
3.949206
 21
2.683936
 31
0.0
  0
LINE
  5
1323
330
131E
100
AcDbEntity
  8
Level 55
  6
Continuous
 62
     7
370
     0
100
AcDbLine
 10
3.71917
 20
2.683936
 30
0.0
 11
3.874206
 21
2.683936
 31
0.0
  0
SOLID
  5
1324
330
131E
100
AcDbEntity
  8
Level 55
  6
Continuous
 62
     7
370
     0
100
AcDbTrace
 10
3.994206
 20
2.676436
 30
0.0
 11
3.949206
 21
2.683936
 31
0.0
 12
3.994206
 22
2.691436
 32
0.0
 13
3.994206
 23
2.691436
 33
0.0
  0
SOLID
  5
1325
330
131E
100
AcDbEntity
  8
Level 55
  6
Continuous
 62
     7
370
     0
100
AcDbTrace
 10
-3.829206
 20
2.691436
 30
0.0
 11
-3.874206
 21
2.683936
 31
0.0
 12
-3.829206
 22
2.676436
 32
0.0
 13
-3.829206
 23
2.676436
 33
0.0
210
0.0
220
0.0
230
-1.0
  0
LINE
  5
1326
330
131E
100
AcDbEntity
  8
Level 55
  6
Continuous
 62
     7
370
     0
100
AcDbLine
 10
3.949206
 20
3.058645
 30
0.0
 11
3.949206
 21
2.668936
 31
0.0
  0
LINE
  5
1327
330
131E
100
AcDbEntity
  8
Level 55
  6
Continuous
 62
     7
370
     0
100
AcDbLine
 10
3.874206
 20
2.908645
 30
0.0
 11
3.874206
 21
2.668936
 31
0.0
  0
POINT
  5
132A
330
131E
100
AcDbEntity
  8
Defpoints
  6
Continuous
 62
     7
370
     0
100
AcDbPoint
 10
3.874206
 20
2.683936
 30
0.0
  0
POINT
  5
132B
330
131E
100
AcDbEntity
  8
Defpoints
  6
Continuous
 62
     7
370
     0
100
AcDbPoint
 10
3.949206
 20
3.076645
 30
0.0
  0
POINT
  5
132C
330
131E
100
AcDbEntity
  8
Defpoints
  6
Continuous
 62
     7
370
     0
100
AcDbPoint
 10
3.874206
 20
2.926645
 30
0.0
  0
POINT
  5
132D
330
131E
100
AcDbEntity
  8
Defpoints
  6
Continuous
 62
     7
370
     0
100
AcDbPoint
 10
3.610253
 20
2.683936
 30
0.0
  0
ENDBLK
  5
1329
330
131E
100
AcDbEntity
  8
0
 62
     7
370
     0
100
AcDbBlockEnd
  0
BLOCK
  5
132F
330
132E
100
AcDbEntity
  8
0
 62
     7
370
     0
100
AcDbBlockBegin
  2
*D13
 70
     1
 10
0.0
 20
0.0
 30
0.0
  3
*D13
  1

  0
LINE
  5
17D8
330
132E
100
AcDbEntity
  8
Level 55
  6
Continuous
 62
     0
370
    -2
100
AcDbLine
 10
3.949206
 20
3.058645
 30
0.0
 11
3.949206
 21
2.668936
 31
0.0
  0
LINE
  5
17D9
330
132E
100
AcDbEntity
  8
Level 55
  6
Continuous
 62
     0
370
    -2
100
AcDbLine
 10
3.874206
 20
2.908645
 30
0.0
 11
3.874206
 21
2.668936
 31
0.0
  0
LINE
  5
17DA
330
132E
100
AcDbEntity
  8
Level 55
  6
Continuous
 62
     0
370
    -2
100
AcDbLine
 10
3.994206
 20
2.683936
 30
0.0
 11
4.039206
 21
2.683936
 31
0.0
  0
LINE
  5
17DB
330
132E
100
AcDbEntity
  8
Level 55
  6
Continuous
 62
     0
370
    -2
100
AcDbLine
 10
3.829206
 20
2.683936
 30
0.0
 11
3.738529
 21
2.683936
 31
0.0
  0
SOLID
  5
17DC
330
132E
100
AcDbEntity
  8
Level 55
  6
Continuous
 62
     0
370
     0
100
AcDbTrace
 10
3.994206
 20
2.691436
 30
0.0
 11
3.994206
 21
2.676436
 31
0.0
 12
3.949206
 22
2.683936
 32
0.0
 13
3.949206
 23
2.683936
 33
0.0
  0
SOLID
  5
17DD
330
132E
100
AcDbEntity
  8
Level 55
  6
Continuous
 62
     0
370
     0
100
AcDbTrace
 10
3.829206
 20
2.691436
 30
0.0
 11
3.829206
 21
2.676436
 31
0.0
 12
3.874206
 22
2.683936
 32
0.0
 13
3.874206
 23
2.683936
 33
0.0
  0
MTEXT
  5
17DE
330
132E
100
AcDbEntity
  8
Level 55
  6
Continuous
 62
     0
370
     0
100
AcDbMText
 10
3.610253
 20
2.683936
 30
0.0
 40
0.03
 41
0.0
 46
0.0
 71
     5
 72
     1
  1
\H1x;\W0.916667;.075\P [1.91] TYP\H1x;\W0.916667;
  7
Style-WORKING
 73
     1
 44
1.0
  0
POINT
  5
17DF
330
132E
100
AcDbEntity
  8
Defpoints
  6
Continuous
 62
     0
370
     0
100
AcDbPoint
 10
3.949206
 20
3.076645
 30
0.0
  0
POINT
  5
17E0
330
132E
100
AcDbEntity
  8
Defpoints
  6
Continuous
 62
     0
370
     0
100
AcDbPoint
 10
3.874206
 20
2.926645
 30
0.0
  0
POINT
  5
17E1
330
132E
100
AcDbEntity
  8
Defpoints
  6
Continuous
 62
     0
370
     0
100
AcDbPoint
 10
3.874206
 20
2.683936
 30
0.0
  0
ENDBLK
  5
1330
330
132E
100
AcDbEntity
  8
0
 62
     7
370
     0
100
AcDbBlockEnd
  0
BLOCK
  5
144A
330
1440
100
AcDbEntity
  8
0
 62
     7
370
     0
100
AcDbBlockBegin
  2
*D14
 70
     1
 10
0.0
 20
0.0
 30
0.0
  3
*D14
  1

  0
LINE
  5
1968
330
1440
100
AcDbEntity
  8
Level 55
  6
Continuous
 62
     0
370
    -2
100
AcDbLine
 10
4.305746
 20
3.114145
 30
0.0
 11
4.359482
 21
3.114145
 31
0.0
  0
LINE
  5
1969
330
1440
100
AcDbEntity
  8
Level 55
  6
Continuous
 62
     0
370
    -2
100
AcDbLine
 10
3.929706
 20
3.151645
 30
0.0
 11
4.359482
 21
3.151645
 31
0.0
  0
LINE
  5
196A
330
1440
100
AcDbEntity
  8
Level 55
  6
Continuous
 62
     0
370
    -2
100
AcDbLine
 10
4.344482
 20
3.069145
 30
0.0
 11
4.344482
 21
3.024145
 31
0.0
  0
LINE
  5
196B
330
1440
100
AcDbEntity
  8
Level 55
  6
Continuous
 62
     0
370
    -2
100
AcDbLine
 10
4.344482
 20
3.196645
 30
0.0
 11
4.344482
 21
3.322175
 31
0.0
  0
LINE
  5
196C
330
1440
100
AcDbEntity
  8
Level 55
  6
Continuous
 62
     0
370
    -2
100
AcDbLine
 10
4.344482
 20
3.322175
 30
0.0
 11
4.389482
 21
3.322175
 31
0.0
  0
SOLID
  5
196D
330
1440
100
AcDbEntity
  8
Level 55
  6
Continuous
 62
     0
370
     0
100
AcDbTrace
 10
4.336982
 20
3.069145
 30
0.0
 11
4.351982
 21
3.069145
 31
0.0
 12
4.344482
 22
3.114145
 32
0.0
 13
4.344482
 23
3.114145
 33
0.0
  0
SOLID
  5
196E
330
1440
100
AcDbEntity
  8
Level 55
  6
Continuous
 62
     0
370
     0
100
AcDbTrace
 10
4.336982
 20
3.196645
 30
0.0
 11
4.351982
 21
3.196645
 31
0.0
 12
4.344482
 22
3.151645
 32
0.0
 13
4.344482
 23
3.151645
 33
0.0
  0
MTEXT
  5
196F
330
1440
100
AcDbEntity
  8
Level 55
  6
Continuous
 62
     0
370
     0
100
AcDbMText
 10
4.459811
 20
3.322175
 30
0.0
 40
0.03
 41
0.0
 46
0.0
 71
     5
 72
     1
  1
\H1x;\W0.916667;.038\P [.95]\H1x;\W0.916667;
  7
Style-WORKING
 73
     1
 44
1.0
  0
POINT
  5
1970
330
1440
100
AcDbEntity
  8
Defpoints
  6
Continuous
 62
     0
370
     0
100
AcDbPoint
 10
4.287746
 20
3.114145
 30
0.0
  0
POINT
  5
1971
330
1440
100
AcDbEntity
  8
Defpoints
  6
Continuous
 62
     0
370
     0
100
AcDbPoint
 10
3.911706
 20
3.151645
 30
0.0
  0
POINT
  5
1972
330
1440
100
AcDbEntity
  8
Defpoints
  6
Continuous
 62
     0
370
     0
100
AcDbPoint
 10
4.344482
 20
3.151645
 30
0.0
  0
ENDBLK
  5
144B
330
1440
100
AcDbEntity
  8
0
 62
     7
370
     0
100
AcDbBlockEnd
  0
BLOCK
  5
17F7
330
17ED
100
AcDbEntity
  8
0
 62
     7
370
     0
100
AcDbBlockBegin
  2
*D15
 70
     1
 10
0.0
 20
0.0
 30
0.0
  3
*D15
  1

  0
LINE
  5
1973
330
17ED
100
AcDbEntity
  8
Level 55
  6
Continuous
 62
     0
370
    -2
100
AcDbLine
 10
3.949206
 20
3.058645
 30
0.0
 11
3.949206
 21
2.693778
 31
0.0
  0
LINE
  5
1974
330
17ED
100
AcDbEntity
  8
Level 55
  6
Continuous
 62
     0
370
    -2
100
AcDbLine
 10
3.874206
 20
2.908645
 30
0.0
 11
3.874206
 21
2.693778
 31
0.0
  0
LINE
  5
1975
330
17ED
100
AcDbEntity
  8
Level 55
  6
Continuous
 62
     0
370
    -2
100
AcDbLine
 10
3.994206
 20
2.708778
 30
0.0
 11
4.039206
 21
2.708778
 31
0.0
  0
LINE
  5
1976
330
17ED
100
AcDbEntity
  8
Level 55
  6
Continuous
 62
     0
370
    -2
100
AcDbLine
 10
3.829206
 20
2.708778
 30
0.0
 11
3.738529
 21
2.708778
 31
0.0
  0
SOLID
  5
1977
330
17ED
100
AcDbEntity
  8
Level 55
  6
Continuous
 62
     0
370
     0
100
AcDbTrace
 10
3.994206
 20
2.716278
 30
0.0
 11
3.994206
 21
2.701278
 31
0.0
 12
3.949206
 22
2.708778
 32
0.0
 13
3.949206
 23
2.708778
 33
0.0
  0
SOLID
  5
1978
330
17ED
100
AcDbEntity
  8
Level 55
  6
Continuous
 62
     0
370
     0
100
AcDbTrace
 10
3.829206
 20
2.716278
 30
0.0
 11
3.829206
 21
2.701278
 31
0.0
 12
3.874206
 22
2.708778
 32
0.0
 13
3.874206
 23
2.708778
 33
0.0
  0
MTEXT
  5
1979
330
17ED
100
AcDbEntity
  8
Level 55
  6
Continuous
 62
     0
370
     0
100
AcDbMText
 10
3.610253
 20
2.708778
 30
0.0
 40
0.03
 41
0.0
 46
0.0
 71
     5
 72
     1
  1
\H1x;\W0.916667;.075\P [1.91] TYP\H1x;\W0.916667;
  7
Style-WORKING
 73
     1
 44
1.0
  0
POINT
  5
197A
330
17ED
100
AcDbEntity
  8
Defpoints
  6
Continuous
 62
     0
370
     0
100
AcDbPoint
 10
3.949206
 20
3.076645
 30
0.0
  0
POINT
  5
197B
330
17ED
100
AcDbEntity
  8
Defpoints
  6
Continuous
 62
     0
370
     0
100
AcDbPoint
 10
3.874206
 20
2.926645
 30
0.0
  0
POINT
  5
197C
330
17ED
100
AcDbEntity
  8
Defpoints
  6
Continuous
 62
     0
370
     0
100
AcDbPoint
 10
3.874206
 20
2.708778
 30
0.0
  0
ENDBLK
  5
17F8
330
17ED
100
AcDbEntity
  8
0
 62
     7
370
     0
100
AcDbBlockEnd
  0
ENDSEC
  0
SECTION
  2
ENTITIES
  0
LINE
  5
8D4
330
1191
100
AcDbEntity
  8
Level 1
  6
DGN Style 4
 62
     7
370
     0
100
AcDbLine
 10
4.229206
 20
3.173922
 30
0.0
 11
4.229206
 21
3.052964
 31
0.0
  0
CIRCLE
  5
8D5
330
1191
100
AcDbEntity
  8
Level 1
  6
Continuous
 62
     7
370
     0
100
AcDbCircle
 10
-4.229207
 20
3.114145
 30
0.0
 40
0.04649999256
210
0.0
220
0.0
230
-1.0
  0
LINE
  5
8D6
330
1191
100
AcDbEntity
  8
Level 1
  6
DGN Style 4
 62
     7
370
     0
100
AcDbLine
 10
4.287746
 20
3.114145
 30
0.0
 11
4.165865
 21
3.114145
 31
0.0
  0
LINE
  5
8D7
330
1191
100
AcDbEntity
  8
Level 1
  6
DGN Style 4
 62
     7
370
     0
100
AcDbLine
 10
2.429206
 20
3.173922
 30
0.0
 11
2.429206
 21
3.052964
 31
0.0
  0
CIRCLE
  5
8D8
330
1191
100
AcDbEntity
  8
Level 1
  6
Continuous
 62
     7
370
     0
100
AcDbCircle
 10
-2.429207
 20
3.114145
 30
0.0
 40
0.04649999256
210
0.0
220
0.0
230
-1.0
  0
LINE
  5
8D9
330
1191
100
AcDbEntity
  8
Level 1
  6
DGN Style 4
 62
     7
370
     0
100
AcDbLine
 10
2.487746
 20
3.114145
 30
0.0
 11
2.365865
 21
3.114145
 31
0.0
  0
CIRCLE
  5
8DF
330
1191
100
AcDbEntity
  8
Level 1
  6
Continuous
 62
     7
370
     0
100
AcDbCircle
 10
-2.749206
 20
2.926645
 30
0.0
 40
0.0099999952
210
0.0
220
0.0
230
-1.0
  0
CIRCLE
  5
8FE
330
1191
100
AcDbEntity
  8
Level 1
  6
Continuous
 62
     7
370
     0
100
AcDbCircle
 10
-2.786706
 20
3.001645
 30
0.0
 40
0.0099999952
210
0.0
220
0.0
230
-1.0
  0
CIRCLE
  5
8FF
330
1191
100
AcDbEntity
  8
Level 1
  6
Continuous
 62
     7
370
     0
100
AcDbCircle
 10
-2.749206
 20
3.076645
 30
0.0
 40
0.0099999952
210
0.0
220
0.0
230
-1.0
  0
CIRCLE
  5
920
330
1191
100
AcDbEntity
  8
Level 1
  6
Continuous
 62
     7
370
     0
100
AcDbCircle
 10
-2.711706
 20
3.151645
 30
0.0
 40
0.0099999952
210
0.0
220
0.0
230
-1.0
  0
CIRCLE
  5
921
330
1191
100
AcDbEntity
  8
Level 1
  6
Continuous
 62
     7
370
     0
100
AcDbCircle
 10
-2.749206
 20
3.226645
 30
0.0
 40
0.0099999952
210
0.0
220
0.0
230
-1.0
  0
CIRCLE
  5
942
330
1191
100
AcDbEntity
  8
Level 1
  6
Continuous
 62
     7
370
     0
100
AcDbCircle
 10
-2.711706
 20
3.301645
 30
0.0
 40
0.0099999952
210
0.0
220
0.0
230
-1.0
  0
CIRCLE
  5
B4B
330
1191
100
AcDbEntity
  8
Level 1
  6
Continuous
 62
     7
370
     0
100
AcDbCircle
 10
-2.824206
 20
2.926645
 30
0.0
 40
0.0099999952
210
0.0
220
0.0
230
-1.0
  0
CIRCLE
  5
B4C
330
1191
100
AcDbEntity
  8
Level 1
  6
Continuous
 62
     7
370
     0
100
AcDbCircle
 10
-2.861706
 20
3.001645
 30
0.0
 40
0.0099999952
210
0.0
220
0.0
230
-1.0
  0
CIRCLE
  5
B4D
330
1191
100
AcDbEntity
  8
Level 1
  6
Continuous
 62
     7
370
     0
100
AcDbCircle
 10
-2.824206
 20
3.076645
 30
0.0
 40
0.0099999952
210
0.0
220
0.0
230
-1.0
  0
CIRCLE
  5
B4E
330
1191
100
AcDbEntity
  8
Level 1
  6
Continuous
 62
     7
370
     0
100
AcDbCircle
 10
-2.786706
 20
3.151645
 30
0.0
 40
0.0099999952
210
0.0
220
0.0
230
-1.0
  0
CIRCLE
  5
B4F
330
1191
100
AcDbEntity
  8
Level 1
  6
Continuous
 62
     7
370
     0
100
AcDbCircle
 10
-2.824206
 20
3.226645
 30
0.0
 40
0.0099999952
210
0.0
220
0.0
230
-1.0
  0
CIRCLE
  5
B50
330
1191
100
AcDbEntity
  8
Level 1
  6
Continuous
 62
     7
370
     0
100
AcDbCircle
 10
-2.786706
 20
3.301645
 30
0.0
 40
0.0099999952
210
0.0
220
0.0
230
-1.0
  0
CIRCLE
  5
B51
330
1191
100
AcDbEntity
  8
Level 1
  6
Continuous
 62
     7
370
     0
100
AcDbCircle
 10
-2.899206
 20
2.926645
 30
0.0
 40
0.0099999952
210
0.0
220
0.0
230
-1.0
  0
CIRCLE
  5
B52
330
1191
100
AcDbEntity
  8
Level 1
  6
Continuous
 62
     7
370
     0
100
AcDbCircle
 10
-2.936706
 20
3.001645
 30
0.0
 40
0.0099999952
210
0.0
220
0.0
230
-1.0
  0
CIRCLE
  5
B53
330
1191
100
AcDbEntity
  8
Level 1
  6
Continuous
 62
     7
370
     0
100
AcDbCircle
 10
-2.899206
 20
3.076645
 30
0.0
 40
0.0099999952
210
0.0
220
0.0
230
-1.0
  0
CIRCLE
  5
B54
330
1191
100
AcDbEntity
  8
Level 1
  6
Continuous
 62
     7
370
     0
100
AcDbCircle
 10
-2.861706
 20
3.151645
 30
0.0
 40
0.0099999952
210
0.0
220
0.0
230
-1.0
  0
CIRCLE
  5
B55
330
1191
100
AcDbEntity
  8
Level 1
  6
Continuous
 62
     7
370
     0
100
AcDbCircle
 10
-2.899206
 20
3.226645
 30
0.0
 40
0.0099999952
210
0.0
220
0.0
230
-1.0
  0
CIRCLE
  5
B56
330
1191
100
AcDbEntity
  8
Level 1
  6
Continuous
 62
     7
370
     0
100
AcDbCircle
 10
-2.861706
 20
3.301645
 30
0.0
 40
0.0099999952
210
0.0
220
0.0
230
-1.0
  0
CIRCLE
  5
B57
330
1191
100
AcDbEntity
  8
Level 1
  6
Continuous
 62
     7
370
     0
100
AcDbCircle
 10
-2.974206
 20
2.926645
 30
0.0
 40
0.0099999952
210
0.0
220
0.0
230
-1.0
  0
CIRCLE
  5
B58
330
1191
100
AcDbEntity
  8
Level 1
  6
Continuous
 62
     7
370
     0
100
AcDbCircle
 10
-3.011706
 20
3.001645
 30
0.0
 40
0.0099999952
210
0.0
220
0.0
230
-1.0
  0
CIRCLE
  5
B59
330
1191
100
AcDbEntity
  8
Level 1
  6
Continuous
 62
     7
370
     0
100
AcDbCircle
 10
-2.974206
 20
3.076645
 30
0.0
 40
0.0099999952
210
0.0
220
0.0
230
-1.0
  0
CIRCLE
  5
B5A
330
1191
100
AcDbEntity
  8
Level 1
  6
Continuous
 62
     7
370
     0
100
AcDbCircle
 10
-2.936706
 20
3.151645
 30
0.0
 40
0.0099999952
210
0.0
220
0.0
230
-1.0
  0
CIRCLE
  5
B5B
330
1191
100
AcDbEntity
  8
Level 1
  6
Continuous
 62
     7
370
     0
100
AcDbCircle
 10
-2.974206
 20
3.226645
 30
0.0
 40
0.0099999952
210
0.0
220
0.0
230
-1.0
  0
CIRCLE
  5
B5C
330
1191
100
AcDbEntity
  8
Level 1
  6
Continuous
 62
     7
370
     0
100
AcDbCircle
 10
-2.936706
 20
3.301645
 30
0.0
 40
0.0099999952
210
0.0
220
0.0
230
-1.0
  0
CIRCLE
  5
B5D
330
1191
100
AcDbEntity
  8
Level 1
  6
Continuous
 62
     7
370
     0
100
AcDbCircle
 10
-3.049206
 20
2.926645
 30
0.0
 40
0.0099999952
210
0.0
220
0.0
230
-1.0
  0
CIRCLE
  5
B5E
330
1191
100
AcDbEntity
  8
Level 1
  6
Continuous
 62
     7
370
     0
100
AcDbCircle
 10
-3.086706
 20
3.001645
 30
0.0
 40
0.0099999952
210
0.0
220
0.0
230
-1.0
  0
CIRCLE
  5
B5F
330
1191
100
AcDbEntity
  8
Level 1
  6
Continuous
 62
     7
370
     0
100
AcDbCircle
 10
-3.049206
 20
3.076645
 30
0.0
 40
0.0099999952
210
0.0
220
0.0
230
-1.0
  0
CIRCLE
  5
B60
330
1191
100
AcDbEntity
  8
Level 1
  6
Continuous
 62
     7
370
     0
100
AcDbCircle
 10
-3.011706
 20
3.151645
 30
0.0
 40
0.0099999952
210
0.0
220
0.0
230
-1.0
  0
CIRCLE
  5
B61
330
1191
100
AcDbEntity
  8
Level 1
  6
Continuous
 62
     7
370
     0
100
AcDbCircle
 10
-3.049206
 20
3.226645
 30
0.0
 40
0.0099999952
210
0.0
220
0.0
230
-1.0
  0
CIRCLE
  5
B62
330
1191
100
AcDbEntity
  8
Level 1
  6
Continuous
 62
     7
370
     0
100
AcDbCircle
 10
-3.011706
 20
3.301645
 30
0.0
 40
0.0099999952
210
0.0
220
0.0
230
-1.0
  0
CIRCLE
  5
B63
330
1191
100
AcDbEntity
  8
Level 1
  6
Continuous
 62
     7
370
     0
100
AcDbCircle
 10
-3.124206
 20
2.926645
 30
0.0
 40
0.0099999952
210
0.0
220
0.0
230
-1.0
  0
CIRCLE
  5
B64
330
1191
100
AcDbEntity
  8
Level 1
  6
Continuous
 62
     7
370
     0
100
AcDbCircle
 10
-3.161706
 20
3.001645
 30
0.0
 40
0.0099999952
210
0.0
220
0.0
230
-1.0
  0
CIRCLE
  5
B65
330
1191
100
AcDbEntity
  8
Level 1
  6
Continuous
 62
     7
370
     0
100
AcDbCircle
 10
-3.124206
 20
3.076645
 30
0.0
 40
0.0099999952
210
0.0
220
0.0
230
-1.0
  0
CIRCLE
  5
B66
330
1191
100
AcDbEntity
  8
Level 1
  6
Continuous
 62
     7
370
     0
100
AcDbCircle
 10
-3.086706
 20
3.151645
 30
0.0
 40
0.0099999952
210
0.0
220
0.0
230
-1.0
  0
CIRCLE
  5
B67
330
1191
100
AcDbEntity
  8
Level 1
  6
Continuous
 62
     7
370
     0
100
AcDbCircle
 10
-3.124206
 20
3.226645
 30
0.0
 40
0.0099999952
210
0.0
220
0.0
230
-1.0
  0
CIRCLE
  5
B68
330
1191
100
AcDbEntity
  8
Level 1
  6
Continuous
 62
     7
370
     0
100
AcDbCircle
 10
-3.086706
 20
3.301645
 30
0.0
 40
0.0099999952
210
0.0
220
0.0
230
-1.0
  0
CIRCLE
  5
B69
330
1191
100
AcDbEntity
  8
Level 1
  6
Continuous
 62
     7
370
     0
100
AcDbCircle
 10
-3.199206
 20
2.926645
 30
0.0
 40
0.0099999952
210
0.0
220
0.0
230
-1.0
  0
CIRCLE
  5
B6A
330
1191
100
AcDbEntity
  8
Level 1
  6
Continuous
 62
     7
370
     0
100
AcDbCircle
 10
-3.236706
 20
3.001645
 30
0.0
 40
0.0099999952
210
0.0
220
0.0
230
-1.0
  0
CIRCLE
  5
B6B
330
1191
100
AcDbEntity
  8
Level 1
  6
Continuous
 62
     7
370
     0
100
AcDbCircle
 10
-3.199206
 20
3.076645
 30
0.0
 40
0.0099999952
210
0.0
220
0.0
230
-1.0
  0
CIRCLE
  5
B6C
330
1191
100
AcDbEntity
  8
Level 1
  6
Continuous
 62
     7
370
     0
100
AcDbCircle
 10
-3.161706
 20
3.151645
 30
0.0
 40
0.0099999952
210
0.0
220
0.0
230
-1.0
  0
CIRCLE
  5
B6D
330
1191
100
AcDbEntity
  8
Level 1
  6
Continuous
 62
     7
370
     0
100
AcDbCircle
 10
-3.199206
 20
3.226645
 30
0.0
 40
0.0099999952
210
0.0
220
0.0
230
-1.0
  0
CIRCLE
  5
B6E
330
1191
100
AcDbEntity
  8
Level 1
  6
Continuous
 62
     7
370
     0
100
AcDbCircle
 10
-3.161706
 20
3.301645
 30
0.0
 40
0.0099999952
210
0.0
220
0.0
230
-1.0
  0
CIRCLE
  5
B6F
330
1191
100
AcDbEntity
  8
Level 1
  6
Continuous
 62
     7
370
     0
100
AcDbCircle
 10
-3.274206
 20
2.926645
 30
0.0
 40
0.0099999952
210
0.0
220
0.0
230
-1.0
  0
CIRCLE
  5
B70
330
1191
100
AcDbEntity
  8
Level 1
  6
Continuous
 62
     7
370
     0
100
AcDbCircle
 10
-3.311706
 20
3.001645
 30
0.0
 40
0.0099999952
210
0.0
220
0.0
230
-1.0
  0
CIRCLE
  5
B71
330
1191
100
AcDbEntity
  8
Level 1
  6
Continuous
 62
     7
370
     0
100
AcDbCircle
 10
-3.274206
 20
3.076645
 30
0.0
 40
0.0099999952
210
0.0
220
0.0
230
-1.0
  0
CIRCLE
  5
B72
330
1191
100
AcDbEntity
  8
Level 1
  6
Continuous
 62
     7
370
     0
100
AcDbCircle
 10
-3.236706
 20
3.151645
 30
0.0
 40
0.0099999952
210
0.0
220
0.0
230
-1.0
  0
CIRCLE
  5
B73
330
1191
100
AcDbEntity
  8
Level 1
  6
Continuous
 62
     7
370
     0
100
AcDbCircle
 10
-3.274206
 20
3.226645
 30
0.0
 40
0.0099999952
210
0.0
220
0.0
230
-1.0
  0
CIRCLE
  5
B74
330
1191
100
AcDbEntity
  8
Level 1
  6
Continuous
 62
     7
370
     0
100
AcDbCircle
 10
-3.236706
 20
3.301645
 30
0.0
 40
0.0099999952
210
0.0
220
0.0
230
-1.0
  0
CIRCLE
  5
B75
330
1191
100
AcDbEntity
  8
Level 1
  6
Continuous
 62
     7
370
     0
100
AcDbCircle
 10
-3.349206
 20
2.926645
 30
0.0
 40
0.0099999952
210
0.0
220
0.0
230
-1.0
  0
CIRCLE
  5
B76
330
1191
100
AcDbEntity
  8
Level 1
  6
Continuous
 62
     7
370
     0
100
AcDbCircle
 10
-3.386706
 20
3.001645
 30
0.0
 40
0.0099999952
210
0.0
220
0.0
230
-1.0
  0
CIRCLE
  5
B77
330
1191
100
AcDbEntity
  8
Level 1
  6
Continuous
 62
     7
370
     0
100
AcDbCircle
 10
-3.349206
 20
3.076645
 30
0.0
 40
0.0099999952
210
0.0
220
0.0
230
-1.0
  0
CIRCLE
  5
B78
330
1191
100
AcDbEntity
  8
Level 1
  6
Continuous
 62
     7
370
     0
100
AcDbCircle
 10
-3.311706
 20
3.151645
 30
0.0
 40
0.0099999952
210
0.0
220
0.0
230
-1.0
  0
CIRCLE
  5
B79
330
1191
100
AcDbEntity
  8
Level 1
  6
Continuous
 62
     7
370
     0
100
AcDbCircle
 10
-3.349206
 20
3.226645
 30
0.0
 40
0.0099999952
210
0.0
220
0.0
230
-1.0
  0
CIRCLE
  5
B7A
330
1191
100
AcDbEntity
  8
Level 1
  6
Continuous
 62
     7
370
     0
100
AcDbCircle
 10
-3.311706
 20
3.301645
 30
0.0
 40
0.0099999952
210
0.0
220
0.0
230
-1.0
  0
CIRCLE
  5
B7B
330
1191
100
AcDbEntity
  8
Level 1
  6
Continuous
 62
     7
370
     0
100
AcDbCircle
 10
-3.424206
 20
2.926645
 30
0.0
 40
0.0099999952
210
0.0
220
0.0
230
-1.0
  0
CIRCLE
  5
B7C
330
1191
100
AcDbEntity
  8
Level 1
  6
Continuous
 62
     7
370
     0
100
AcDbCircle
 10
-3.461706
 20
3.001645
 30
0.0
 40
0.0099999952
210
0.0
220
0.0
230
-1.0
  0
CIRCLE
  5
B7D
330
1191
100
AcDbEntity
  8
Level 1
  6
Continuous
 62
     7
370
     0
100
AcDbCircle
 10
-3.424206
 20
3.076645
 30
0.0
 40
0.0099999952
210
0.0
220
0.0
230
-1.0
  0
CIRCLE
  5
B7E
330
1191
100
AcDbEntity
  8
Level 1
  6
Continuous
 62
     7
370
     0
100
AcDbCircle
 10
-3.386706
 20
3.151645
 30
0.0
 40
0.0099999952
210
0.0
220
0.0
230
-1.0
  0
CIRCLE
  5
B7F
330
1191
100
AcDbEntity
  8
Level 1
  6
Continuous
 62
     7
370
     0
100
AcDbCircle
 10
-3.424206
 20
3.226645
 30
0.0
 40
0.0099999952
210
0.0
220
0.0
230
-1.0
  0
CIRCLE
  5
B80
330
1191
100
AcDbEntity
  8
Level 1
  6
Continuous
 62
     7
370
     0
100
AcDbCircle
 10
-3.386706
 20
3.301645
 30
0.0
 40
0.0099999952
210
0.0
220
0.0
230
-1.0
  0
CIRCLE
  5
B81
330
1191
100
AcDbEntity
  8
Level 1
  6
Continuous
 62
     7
370
     0
100
AcDbCircle
 10
-3.499206
 20
2.926645
 30
0.0
 40
0.0099999952
210
0.0
220
0.0
230
-1.0
  0
CIRCLE
  5
B82
330
1191
100
AcDbEntity
  8
Level 1
  6
Continuous
 62
     7
370
     0
100
AcDbCircle
 10
-3.536706
 20
3.001645
 30
0.0
 40
0.0099999952
210
0.0
220
0.0
230
-1.0
  0
CIRCLE
  5
B83
330
1191
100
AcDbEntity
  8
Level 1
  6
Continuous
 62
     7
370
     0
100
AcDbCircle
 10
-3.499206
 20
3.076645
 30
0.0
 40
0.0099999952
210
0.0
220
0.0
230
-1.0
  0
CIRCLE
  5
B84
330
1191
100
AcDbEntity
  8
Level 1
  6
Continuous
 62
     7
370
     0
100
AcDbCircle
 10
-3.461706
 20
3.151645
 30
0.0
 40
0.0099999952
210
0.0
220
0.0
230
-1.0
  0
CIRCLE
  5
B85
330
1191
100
AcDbEntity
  8
Level 1
  6
Continuous
 62
     7
370
     0
100
AcDbCircle
 10
-3.499206
 20
3.226645
 30
0.0
 40
0.0099999952
210
0.0
220
0.0
230
-1.0
  0
CIRCLE
  5
B86
330
1191
100
AcDbEntity
  8
Level 1
  6
Continuous
 62
     7
370
     0
100
AcDbCircle
 10
-3.461706
 20
3.301645
 30
0.0
 40
0.0099999952
210
0.0
220
0.0
230
-1.0
  0
CIRCLE
  5
B87
330
1191
100
AcDbEntity
  8
Level 1
  6
Continuous
 62
     7
370
     0
100
AcDbCircle
 10
-3.574206
 20
2.926645
 30
0.0
 40
0.0099999952
210
0.0
220
0.0
230
-1.0
  0
CIRCLE
  5
B88
330
1191
100
AcDbEntity
  8
Level 1
  6
Continuous
 62
     7
370
     0
100
AcDbCircle
 10
-3.611706
 20
3.001645
 30
0.0
 40
0.0099999952
210
0.0
220
0.0
230
-1.0
  0
CIRCLE
  5
B89
330
1191
100
AcDbEntity
  8
Level 1
  6
Continuous
 62
     7
370
     0
100
AcDbCircle
 10
-3.574206
 20
3.076645
 30
0.0
 40
0.0099999952
210
0.0
220
0.0
230
-1.0
  0
CIRCLE
  5
B8A
330
1191
100
AcDbEntity
  8
Level 1
  6
Continuous
 62
     7
370
     0
100
AcDbCircle
 10
-3.536706
 20
3.151645
 30
0.0
 40
0.0099999952
210
0.0
220
0.0
230
-1.0
  0
CIRCLE
  5
B8B
330
1191
100
AcDbEntity
  8
Level 1
  6
Continuous
 62
     7
370
     0
100
AcDbCircle
 10
-3.574206
 20
3.226645
 30
0.0
 40
0.0099999952
210
0.0
220
0.0
230
-1.0
  0
CIRCLE
  5
B8C
330
1191
100
AcDbEntity
  8
Level 1
  6
Continuous
 62
     7
370
     0
100
AcDbCircle
 10
-3.536706
 20
3.301645
 30
0.0
 40
0.0099999952
210
0.0
220
0.0
230
-1.0
  0
CIRCLE
  5
B8D
330
1191
100
AcDbEntity
  8
Level 1
  6
Continuous
 62
     7
370
     0
100
AcDbCircle
 10
-3.649206
 20
2.926645
 30
0.0
 40
0.0099999952
210
0.0
220
0.0
230
-1.0
  0
CIRCLE
  5
B8E
330
1191
100
AcDbEntity
  8
Level 1
  6
Continuous
 62
     7
370
     0
100
AcDbCircle
 10
-3.686706
 20
3.001645
 30
0.0
 40
0.0099999952
210
0.0
220
0.0
230
-1.0
  0
CIRCLE
  5
B8F
330
1191
100
AcDbEntity
  8
Level 1
  6
Continuous
 62
     7
370
     0
100
AcDbCircle
 10
-3.649206
 20
3.076645
 30
0.0
 40
0.0099999952
210
0.0
220
0.0
230
-1.0
  0
CIRCLE
  5
B90
330
1191
100
AcDbEntity
  8
Level 1
  6
Continuous
 62
     7
370
     0
100
AcDbCircle
 10
-3.611706
 20
3.151645
 30
0.0
 40
0.0099999952
210
0.0
220
0.0
230
-1.0
  0
CIRCLE
  5
B91
330
1191
100
AcDbEntity
  8
Level 1
  6
Continuous
 62
     7
370
     0
100
AcDbCircle
 10
-3.649206
 20
3.226645
 30
0.0
 40
0.0099999952
210
0.0
220
0.0
230
-1.0
  0
CIRCLE
  5
B92
330
1191
100
AcDbEntity
  8
Level 1
  6
Continuous
 62
     7
370
     0
100
AcDbCircle
 10
-3.611706
 20
3.301645
 30
0.0
 40
0.0099999952
210
0.0
220
0.0
230
-1.0
  0
CIRCLE
  5
B93
330
1191
100
AcDbEntity
  8
Level 1
  6
Continuous
 62
     7
370
     0
100
AcDbCircle
 10
-3.724206
 20
2.926645
 30
0.0
 40
0.0099999952
210
0.0
220
0.0
230
-1.0
  0
CIRCLE
  5
B94
330
1191
100
AcDbEntity
  8
Level 1
  6
Continuous
 62
     7
370
     0
100
AcDbCircle
 10
-3.761706
 20
3.001645
 30
0.0
 40
0.0099999952
210
0.0
220
0.0
230
-1.0
  0
CIRCLE
  5
B95
330
1191
100
AcDbEntity
  8
Level 1
  6
Continuous
 62
     7
370
     0
100
AcDbCircle
 10
-3.724206
 20
3.076645
 30
0.0
 40
0.0099999952
210
0.0
220
0.0
230
-1.0
  0
CIRCLE
  5
B96
330
1191
100
AcDbEntity
  8
Level 1
  6
Continuous
 62
     7
370
     0
100
AcDbCircle
 10
-3.686706
 20
3.151645
 30
0.0
 40
0.0099999952
210
0.0
220
0.0
230
-1.0
  0
CIRCLE
  5
B97
330
1191
100
AcDbEntity
  8
Level 1
  6
Continuous
 62
     7
370
     0
100
AcDbCircle
 10
-3.724206
 20
3.226645
 30
0.0
 40
0.0099999952
210
0.0
220
0.0
230
-1.0
  0
CIRCLE
  5
B98
330
1191
100
AcDbEntity
  8
Level 1
  6
Continuous
 62
     7
370
     0
100
AcDbCircle
 10
-3.686706
 20
3.301645
 30
0.0
 40
0.0099999952
210
0.0
220
0.0
230
-1.0
  0
CIRCLE
  5
B99
330
1191
100
AcDbEntity
  8
Level 1
  6
Continuous
 62
     7
370
     0
100
AcDbCircle
 10
-3.799206
 20
2.926645
 30
0.0
 40
0.0099999952
210
0.0
220
0.0
230
-1.0
  0
CIRCLE
  5
B9A
330
1191
100
AcDbEntity
  8
Level 1
  6
Continuous
 62
     7
370
     0
100
AcDbCircle
 10
-3.836706
 20
3.001645
 30
0.0
 40
0.0099999952
210
0.0
220
0.0
230
-1.0
  0
CIRCLE
  5
B9B
330
1191
100
AcDbEntity
  8
Level 1
  6
Continuous
 62
     7
370
     0
100
AcDbCircle
 10
-3.799206
 20
3.076645
 30
0.0
 40
0.0099999952
210
0.0
220
0.0
230
-1.0
  0
CIRCLE
  5
B9C
330
1191
100
AcDbEntity
  8
Level 1
  6
Continuous
 62
     7
370
     0
100
AcDbCircle
 10
-3.761706
 20
3.151645
 30
0.0
 40
0.0099999952
210
0.0
220
0.0
230
-1.0
  0
CIRCLE
  5
B9D
330
1191
100
AcDbEntity
  8
Level 1
  6
Continuous
 62
     7
370
     0
100
AcDbCircle
 10
-3.799206
 20
3.226645
 30
0.0
 40
0.0099999952
210
0.0
220
0.0
230
-1.0
  0
CIRCLE
  5
B9E
330
1191
100
AcDbEntity
  8
Level 1
  6
Continuous
 62
     7
370
     0
100
AcDbCircle
 10
-3.761706
 20
3.301645
 30
0.0
 40
0.0099999952
210
0.0
220
0.0
230
-1.0
  0
CIRCLE
  5
B9F
330
1191
100
AcDbEntity
  8
Level 1
  6
Continuous
 62
     7
370
     0
100
AcDbCircle
 10
-3.874206
 20
2.926645
 30
0.0
 40
0.0099999952
210
0.0
220
0.0
230
-1.0
  0
CIRCLE
  5
BA0
330
1191
100
AcDbEntity
  8
Level 1
  6
Continuous
 62
     7
370
     0
100
AcDbCircle
 10
-3.911706
 20
3.001645
 30
0.0
 40
0.0099999952
210
0.0
220
0.0
230
-1.0
  0
CIRCLE
  5
BA1
330
1191
100
AcDbEntity
  8
Level 1
  6
Continuous
 62
     7
370
     0
100
AcDbCircle
 10
-3.874206
 20
3.076645
 30
0.0
 40
0.0099999952
210
0.0
220
0.0
230
-1.0
  0
CIRCLE
  5
BA2
330
1191
100
AcDbEntity
  8
Level 1
  6
Continuous
 62
     7
370
     0
100
AcDbCircle
 10
-3.836706
 20
3.151645
 30
0.0
 40
0.0099999952
210
0.0
220
0.0
230
-1.0
  0
CIRCLE
  5
BA3
330
1191
100
AcDbEntity
  8
Level 1
  6
Continuous
 62
     7
370
     0
100
AcDbCircle
 10
-3.874206
 20
3.226645
 30
0.0
 40
0.0099999952
210
0.0
220
0.0
230
-1.0
  0
CIRCLE
  5
BA4
330
1191
100
AcDbEntity
  8
Level 1
  6
Continuous
 62
     7
370
     0
100
AcDbCircle
 10
-3.836706
 20
3.301645
 30
0.0
 40
0.0099999952
210
0.0
220
0.0
230
-1.0
  0
CIRCLE
  5
BA7
330
1191
100
AcDbEntity
  8
Level 1
  6
Continuous
 62
     7
370
     0
100
AcDbCircle
 10
-3.949206
 20
3.076645
 30
0.0
 40
0.0099999952
210
0.0
220
0.0
230
-1.0
  0
CIRCLE
  5
BA8
330
1191
100
AcDbEntity
  8
Level 1
  6
Continuous
 62
     7
370
     0
100
AcDbCircle
 10
-3.911706
 20
3.151645
 30
0.0
 40
0.0099999952
210
0.0
220
0.0
230
-1.0
  0
CIRCLE
  5
BA9
330
1191
100
AcDbEntity
  8
Level 1
  6
Continuous
 62
     7
370
     0
100
AcDbCircle
 10
-3.949206
 20
3.226645
 30
0.0
 40
0.0099999952
210
0.0
220
0.0
230
-1.0
  0
CIRCLE
  5
BAA
330
1191
100
AcDbEntity
  8
Level 1
  6
Continuous
 62
     7
370
     0
100
AcDbCircle
 10
-3.911706
 20
3.301645
 30
0.0
 40
0.0099999952
210
0.0
220
0.0
230
-1.0
  0
LINE
  5
BCC
330
1191
100
AcDbEntity
  8
Level 1
  6
Continuous
 62
     7
370
     0
100
AcDbLine
 10
3.949206
 20
3.175397
 30
0.0
 11
3.949206
 21
3.095838
 31
0.0
  0
LINE
  5
BCD
330
1191
100
AcDbEntity
  8
Level 1
  6
Continuous
 62
     7
370
     0
100
AcDbLine
 10
3.911706
 20
3.24899
 30
0.0
 11
3.911706
 21
3.16943
 31
0.0
  0
LINE
  5
BCE
330
1191
100
AcDbEntity
  8
Level 1
  6
Continuous
 62
     7
370
     0
100
AcDbLine
 10
3.911706
 20
3.026223
 30
0.0
 11
3.911706
 21
3.09186
 31
0.0
  0
LINE
  5
BD1
330
1191
100
AcDbEntity
  8
Level 1
  6
Continuous
 62
     7
370
     0
100
AcDbLine
 10
3.874206
 20
2.946663
 30
0.0
 11
3.874206
 21
3.020256
 31
0.0
  0
LINE
  5
BD2
330
1191
100
AcDbEntity
  8
Level 1
  6
Continuous
 62
     7
370
     0
100
AcDbLine
 10
3.874206
 20
3.097827
 30
0.0
 11
3.874206
 21
3.171419
 31
0.0
  0
TEXT
  5
9EE
330
1191
100
AcDbEntity
  8
Level 1
  6
Continuous
 62
     7
370
     0
100
AcDbText
 10
3.905119
 20
3.259329
 30
0.0
 40
0.0275
  1
2
 41
0.818182
  7
Style-ANSI_SYMBOLS
 72
     1
 11
3.91244
 21
3.273079
 31
0.0
100
AcDbText
 73
     2
  0
TEXT
  5
9EF
330
1191
100
AcDbEntity
  8
Level 1
  6
Continuous
 62
     7
370
     0
100
AcDbText
 10
3.830119
 20
3.259329
 30
0.0
 40
0.0275
  1
3
 41
0.818182
  7
Style-ANSI_SYMBOLS
 72
     1
 11
3.83744
 21
3.273079
 31
0.0
100
AcDbText
 73
     2
  0
TEXT
  5
9F0
330
1191
100
AcDbEntity
  8
Level 1
  6
Continuous
 62
     7
370
     0
100
AcDbText
 10
3.755119
 20
3.259329
 30
0.0
 40
0.0275
  1
5
 41
0.818182
  7
Style-ANSI_SYMBOLS
 72
     1
 11
3.76244
 21
3.273079
 31
0.0
100
AcDbText
 73
     2
  0
TEXT
  5
9F1
330
1191
100
AcDbEntity
  8
Level 1
  6
Continuous
 62
     7
370
     0
100
AcDbText
 10
3.680119
 20
3.259329
 30
0.0
 40
0.0275
  1
6
 41
0.818182
  7
Style-ANSI_SYMBOLS
 72
     1
 11
3.68744
 21
3.273079
 31
0.0
100
AcDbText
 73
     2
  0
TEXT
  5
9F2
330
1191
100
AcDbEntity
  8
Level 1
  6
Continuous
 62
     7
370
     0
100
AcDbText
 10
3.605119
 20
3.259329
 30
0.0
 40
0.0275
  1
8
 41
0.818182
  7
Style-ANSI_SYMBOLS
 72
     1
 11
3.61244
 21
3.273079
 31
0.0
100
AcDbText
 73
     2
  0
TEXT
  5
9F3
330
1191
100
AcDbEntity
  8
Level 1
  6
Continuous
 62
     7
370
     0
100
AcDbText
 10
3.530119
 20
3.259329
 30
0.0
 40
0.0275
  1
9
 41
0.818182
  7
Style-ANSI_SYMBOLS
 72
     1
 11
3.53744
 21
3.273079
 31
0.0
100
AcDbText
 73
     2
  0
TEXT
  5
9F4
330
1191
100
AcDbEntity
  8
Level 1
  6
Continuous
 62
     7
370
     0
100
AcDbText
 10
3.447617
 20
3.259329
 30
0.0
 40
0.0275
  1
11
 41
0.818182
  7
Style-ANSI_SYMBOLS
 72
     1
 11
3.462438
 21
3.273079
 31
0.0
100
AcDbText
 73
     2
  0
TEXT
  5
9F5
330
1191
100
AcDbEntity
  8
Level 1
  6
Continuous
 62
     7
370
     0
100
AcDbText
 10
3.368869
 20
3.259329
 30
0.0
 40
0.0275
  1
12
 41
0.818182
  7
Style-ANSI_SYMBOLS
 72
     1
 11
3.38744
 21
3.273079
 31
0.0
100
AcDbText
 73
     2
  0
TEXT
  5
9F6
330
1191
100
AcDbEntity
  8
Level 1
  6
Continuous
 62
     7
370
     0
100
AcDbText
 10
3.293869
 20
3.259329
 30
0.0
 40
0.0275
  1
14
 41
0.818182
  7
Style-ANSI_SYMBOLS
 72
     1
 11
3.31244
 21
3.273079
 31
0.0
100
AcDbText
 73
     2
  0
TEXT
  5
9F7
330
1191
100
AcDbEntity
  8
Level 1
  6
Continuous
 62
     7
370
     0
100
AcDbText
 10
3.218869
 20
3.259329
 30
0.0
 40
0.0275
  1
15
 41
0.818182
  7
Style-ANSI_SYMBOLS
 72
     1
 11
3.23744
 21
3.273079
 31
0.0
100
AcDbText
 73
     2
  0
TEXT
  5
9F8
330
1191
100
AcDbEntity
  8
Level 1
  6
Continuous
 62
     7
370
     0
100
AcDbText
 10
3.143869
 20
3.259329
 30
0.0
 40
0.0275
  1
17
 41
0.818182
  7
Style-ANSI_SYMBOLS
 72
     1
 11
3.16244
 21
3.273079
 31
0.0
100
AcDbText
 73
     2
  0
TEXT
  5
9F9
330
1191
100
AcDbEntity
  8
Level 1
  6
Continuous
 62
     7
370
     0
100
AcDbText
 10
3.068869
 20
3.259329
 30
0.0
 40
0.0275
  1
18
 41
0.818182
  7
Style-ANSI_SYMBOLS
 72
     1
 11
3.08744
 21
3.273079
 31
0.0
100
AcDbText
 73
     2
  0
TEXT
  5
9FA
330
1191
100
AcDbEntity
  8
Level 1
  6
Continuous
 62
     7
370
     0
100
AcDbText
 10
2.993869
 20
3.259329
 30
0.0
 40
0.0275
  1
20
 41
0.818182
  7
Style-ANSI_SYMBOLS
 72
     1
 11
3.01244
 21
3.273079
 31
0.0
100
AcDbText
 73
     2
  0
TEXT
  5
9FB
330
1191
100
AcDbEntity
  8
Level 1
  6
Continuous
 62
     7
370
     0
100
AcDbText
 10
2.922619
 20
3.259329
 30
0.0
 40
0.0275
  1
21
 41
0.818182
  7
Style-ANSI_SYMBOLS
 72
     1
 11
2.93744
 21
3.273079
 31
0.0
100
AcDbText
 73
     2
  0
TEXT
  5
9FC
330
1191
100
AcDbEntity
  8
Level 1
  6
Continuous
 62
     7
370
     0
100
AcDbText
 10
2.843869
 20
3.259329
 30
0.0
 40
0.0275
  1
23
 41
0.818182
  7
Style-ANSI_SYMBOLS
 72
     1
 11
2.86244
 21
3.273079
 31
0.0
100
AcDbText
 73
     2
  0
TEXT
  5
9FD
330
1191
100
AcDbEntity
  8
Level 1
  6
Continuous
 62
     7
370
     0
100
AcDbText
 10
2.768869
 20
3.259329
 30
0.0
 40
0.0275
  1
24
 41
0.818182
  7
Style-ANSI_SYMBOLS
 72
     1
 11
2.78744
 21
3.273079
 31
0.0
100
AcDbText
 73
     2
  0
TEXT
  5
9FE
330
1191
100
AcDbEntity
  8
Level 1
  6
Continuous
 62
     7
370
     0
100
AcDbText
 10
2.69369
 20
3.259329
 30
0.0
 40
0.0275
  1
26
 41
0.818182
 72
     1
 11
2.71244
 21
3.273079
 31
0.0
100
AcDbText
 73
     2
  0
TEXT
  5
9FF
330
1191
100
AcDbEntity
  8
Level 1
  6
Continuous
 62
     7
370
     0
100
AcDbText
 10
3.944015
 20
3.183151
 30
0.0
 40
0.0275
  1
1
 41
0.818182
  7
Style-ANSI_SYMBOLS
 72
     1
 11
3.947586
 21
3.196901
 31
0.0
100
AcDbText
 73
     2
  0
TEXT
  5
A00
330
1191
100
AcDbEntity
  8
Level 1
  6
Continuous
 62
     7
370
     0
100
AcDbText
 10
3.854014
 20
3.183151
 30
0.0
 40
0.0275
  1
28
 41
0.818182
  7
Style-ANSI_SYMBOLS
 72
     1
 11
3.872585
 21
3.196901
 31
0.0
100
AcDbText
 73
     2
  0
TEXT
  5
A01
330
1191
100
AcDbEntity
  8
Level 1
  6
Continuous
 62
     7
370
     0
100
AcDbText
 10
3.790264
 20
3.183151
 30
0.0
 40
0.0275
  1
4
 41
0.818182
  7
Style-ANSI_SYMBOLS
 72
     1
 11
3.797585
 21
3.196901
 31
0.0
100
AcDbText
 73
     2
  0
TEXT
  5
A02
330
1191
100
AcDbEntity
  8
Level 1
  6
Continuous
 62
     7
370
     0
100
AcDbText
 10
3.707765
 20
3.183151
 30
0.0
 40
0.0275
  1
31
 41
0.818182
  7
Style-ANSI_SYMBOLS
 72
     1
 11
3.722586
 21
3.196901
 31
0.0
100
AcDbText
 73
     2
  0
TEXT
  5
A03
330
1191
100
AcDbEntity
  8
Level 1
  6
Continuous
 62
     7
370
     0
100
AcDbText
 10
3.640264
 20
3.183151
 30
0.0
 40
0.0275
  1
7
 41
0.818182
  7
Style-ANSI_SYMBOLS
 72
     1
 11
3.647585
 21
3.196901
 31
0.0
100
AcDbText
 73
     2
  0
TEXT
  5
A04
330
1191
100
AcDbEntity
  8
Level 1
  6
Continuous
 62
     7
370
     0
100
AcDbText
 10
3.554014
 20
3.183151
 30
0.0
 40
0.0275
  1
34
 41
0.818182
  7
Style-ANSI_SYMBOLS
 72
     1
 11
3.572585
 21
3.196901
 31
0.0
100
AcDbText
 73
     2
  0
TEXT
  5
A05
330
1191
100
AcDbEntity
  8
Level 1
  6
Continuous
 62
     7
370
     0
100
AcDbText
 10
3.479014
 20
3.183151
 30
0.0
 40
0.0275
  1
10
 41
0.818182
  7
Style-ANSI_SYMBOLS
 72
     1
 11
3.497585
 21
3.196901
 31
0.0
100
AcDbText
 73
     2
  0
TEXT
  5
A06
330
1191
100
AcDbEntity
  8
Level 1
  6
Continuous
 62
     7
370
     0
100
AcDbText
 10
3.404014
 20
3.183151
 30
0.0
 40
0.0275
  1
37
 41
0.818182
  7
Style-ANSI_SYMBOLS
 72
     1
 11
3.422585
 21
3.196901
 31
0.0
100
AcDbText
 73
     2
  0
TEXT
  5
A07
330
1191
100
AcDbEntity
  8
Level 1
  6
Continuous
 62
     7
370
     0
100
AcDbText
 10
3.329014
 20
3.183151
 30
0.0
 40
0.0275
  1
13
 41
0.818182
  7
Style-ANSI_SYMBOLS
 72
     1
 11
3.347585
 21
3.196901
 31
0.0
100
AcDbText
 73
     2
  0
TEXT
  5
A08
330
1191
100
AcDbEntity
  8
Level 1
  6
Continuous
 62
     7
370
     0
100
AcDbText
 10
3.254014
 20
3.183151
 30
0.0
 40
0.0275
  1
40
 41
0.818182
  7
Style-ANSI_SYMBOLS
 72
     1
 11
3.272585
 21
3.196901
 31
0.0
100
AcDbText
 73
     2
  0
TEXT
  5
A09
330
1191
100
AcDbEntity
  8
Level 1
  6
Continuous
 62
     7
370
     0
100
AcDbText
 10
3.179014
 20
3.183151
 30
0.0
 40
0.0275
  1
16
 41
0.818182
  7
Style-ANSI_SYMBOLS
 72
     1
 11
3.197585
 21
3.196901
 31
0.0
100
AcDbText
 73
     2
  0
TEXT
  5
A0A
330
1191
100
AcDbEntity
  8
Level 1
  6
Continuous
 62
     7
370
     0
100
AcDbText
 10
3.104014
 20
3.183151
 30
0.0
 40
0.0275
  1
43
 41
0.818182
  7
Style-ANSI_SYMBOLS
 72
     1
 11
3.122585
 21
3.196901
 31
0.0
100
AcDbText
 73
     2
  0
TEXT
  5
A0B
330
1191
100
AcDbEntity
  8
Level 1
  6
Continuous
 62
     7
370
     0
100
AcDbText
 10
3.029014
 20
3.183151
 30
0.0
 40
0.0275
  1
19
 41
0.818182
  7
Style-ANSI_SYMBOLS
 72
     1
 11
3.047585
 21
3.196901
 31
0.0
100
AcDbText
 73
     2
  0
TEXT
  5
A0C
330
1191
100
AcDbEntity
  8
Level 1
  6
Continuous
 62
     7
370
     0
100
AcDbText
 10
2.954014
 20
3.183151
 30
0.0
 40
0.0275
  1
46
 41
0.818182
  7
Style-ANSI_SYMBOLS
 72
     1
 11
2.972585
 21
3.196901
 31
0.0
100
AcDbText
 73
     2
  0
TEXT
  5
A0D
330
1191
100
AcDbEntity
  8
Level 1
  6
Continuous
 62
     7
370
     0
100
AcDbText
 10
2.879014
 20
3.183151
 30
0.0
 40
0.0275
  1
22
 41
0.818182
  7
Style-ANSI_SYMBOLS
 72
     1
 11
2.897585
 21
3.196901
 31
0.0
100
AcDbText
 73
     2
  0
TEXT
  5
A0E
330
1191
100
AcDbEntity
  8
Level 1
  6
Continuous
 62
     7
370
     0
100
AcDbText
 10
2.804014
 20
3.183151
 30
0.0
 40
0.0275
  1
49
 41
0.818182
  7
Style-ANSI_SYMBOLS
 72
     1
 11
2.822585
 21
3.196901
 31
0.0
100
AcDbText
 73
     2
  0
TEXT
  5
A0F
330
1191
100
AcDbEntity
  8
Level 1
  6
Continuous
 62
     7
370
     0
100
AcDbText
 10
2.729014
 20
3.183151
 30
0.0
 40
0.0275
  1
25
 41
0.818182
  7
Style-ANSI_SYMBOLS
 72
     1
 11
2.747585
 21
3.196901
 31
0.0
100
AcDbText
 73
     2
  0
TEXT
  5
A10
330
1191
100
AcDbEntity
  8
Level 1
  6
Continuous
 62
     7
370
     0
100
AcDbText
 10
3.891869
 20
3.10998
 30
0.0
 40
0.0275
  1
27
 41
0.818182
  7
Style-ANSI_SYMBOLS
 72
     1
 11
3.91044
 21
3.12373
 31
0.0
100
AcDbText
 73
     2
  0
TEXT
  5
A11
330
1191
100
AcDbEntity
  8
Level 1
  6
Continuous
 62
     7
370
     0
100
AcDbText
 10
3.816869
 20
3.10998
 30
0.0
 40
0.0275
  1
29
 41
0.818182
  7
Style-ANSI_SYMBOLS
 72
     1
 11
3.83544
 21
3.12373
 31
0.0
100
AcDbText
 73
     2
  0
TEXT
  5
A12
330
1191
100
AcDbEntity
  8
Level 1
  6
Continuous
 62
     7
370
     0
100
AcDbText
 10
3.741869
 20
3.10998
 30
0.0
 40
0.0275
  1
30
 41
0.818182
  7
Style-ANSI_SYMBOLS
 72
     1
 11
3.76044
 21
3.12373
 31
0.0
100
AcDbText
 73
     2
  0
TEXT
  5
A13
330
1191
100
AcDbEntity
  8
Level 1
  6
Continuous
 62
     7
370
     0
100
AcDbText
 10
3.666869
 20
3.10998
 30
0.0
 40
0.0275
  1
32
 41
0.818182
  7
Style-ANSI_SYMBOLS
 72
     1
 11
3.68544
 21
3.12373
 31
0.0
100
AcDbText
 73
     2
  0
TEXT
  5
A14
330
1191
100
AcDbEntity
  8
Level 1
  6
Continuous
 62
     7
370
     0
100
AcDbText
 10
3.591869
 20
3.10998
 30
0.0
 40
0.0275
  1
33
 41
0.818182
  7
Style-ANSI_SYMBOLS
 72
     1
 11
3.61044
 21
3.12373
 31
0.0
100
AcDbText
 73
     2
  0
TEXT
  5
A15
330
1191
100
AcDbEntity
  8
Level 1
  6
Continuous
 62
     7
370
     0
100
AcDbText
 10
3.516869
 20
3.10998
 30
0.0
 40
0.0275
  1
35
 41
0.818182
  7
Style-ANSI_SYMBOLS
 72
     1
 11
3.53544
 21
3.12373
 31
0.0
100
AcDbText
 73
     2
  0
TEXT
  5
A16
330
1191
100
AcDbEntity
  8
Level 1
  6
Continuous
 62
     7
370
     0
100
AcDbText
 10
3.441869
 20
3.10998
 30
0.0
 40
0.0275
  1
36
 41
0.818182
  7
Style-ANSI_SYMBOLS
 72
     1
 11
3.46044
 21
3.12373
 31
0.0
100
AcDbText
 73
     2
  0
TEXT
  5
A17
330
1191
100
AcDbEntity
  8
Level 1
  6
Continuous
 62
     7
370
     0
100
AcDbText
 10
3.36687
 20
3.10998
 30
0.0
 40
0.0275
  1
38
 41
0.818182
  7
Style-ANSI_SYMBOLS
 72
     1
 11
3.385441
 21
3.12373
 31
0.0
100
AcDbText
 73
     2
  0
TEXT
  5
A18
330
1191
100
AcDbEntity
  8
Level 1
  6
Continuous
 62
     7
370
     0
100
AcDbText
 10
3.29187
 20
3.10998
 30
0.0
 40
0.0275
  1
39
 41
0.818182
  7
Style-ANSI_SYMBOLS
 72
     1
 11
3.310441
 21
3.12373
 31
0.0
100
AcDbText
 73
     2
  0
TEXT
  5
A19
330
1191
100
AcDbEntity
  8
Level 1
  6
Continuous
 62
     7
370
     0
100
AcDbText
 10
3.22062
 20
3.10998
 30
0.0
 40
0.0275
  1
41
 41
0.818182
  7
Style-ANSI_SYMBOLS
 72
     1
 11
3.235441
 21
3.12373
 31
0.0
100
AcDbText
 73
     2
  0
TEXT
  5
A1A
330
1191
100
AcDbEntity
  8
Level 1
  6
Continuous
 62
     7
370
     0
100
AcDbText
 10
3.14187
 20
3.10998
 30
0.0
 40
0.0275
  1
42
 41
0.818182
  7
Style-ANSI_SYMBOLS
 72
     1
 11
3.160441
 21
3.12373
 31
0.0
100
AcDbText
 73
     2
  0
TEXT
  5
A1B
330
1191
100
AcDbEntity
  8
Level 1
  6
Continuous
 62
     7
370
     0
100
AcDbText
 10
3.06687
 20
3.10998
 30
0.0
 40
0.0275
  1
44
 41
0.818182
  7
Style-ANSI_SYMBOLS
 72
     1
 11
3.085441
 21
3.12373
 31
0.0
100
AcDbText
 73
     2
  0
TEXT
  5
A1C
330
1191
100
AcDbEntity
  8
Level 1
  6
Continuous
 62
     7
370
     0
100
AcDbText
 10
2.99187
 20
3.10998
 30
0.0
 40
0.0275
  1
45
 41
0.818182
  7
Style-ANSI_SYMBOLS
 72
     1
 11
3.010441
 21
3.12373
 31
0.0
100
AcDbText
 73
     2
  0
TEXT
  5
A1D
330
1191
100
AcDbEntity
  8
Level 1
  6
Continuous
 62
     7
370
     0
100
AcDbText
 10
2.91687
 20
3.10998
 30
0.0
 40
0.0275
  1
47
 41
0.818182
  7
Style-ANSI_SYMBOLS
 72
     1
 11
2.935441
 21
3.12373
 31
0.0
100
AcDbText
 73
     2
  0
TEXT
  5
A1E
330
1191
100
AcDbEntity
  8
Level 1
  6
Continuous
 62
     7
370
     0
100
AcDbText
 10
2.84187
 20
3.10998
 30
0.0
 40
0.0275
  1
48
 41
0.818182
  7
Style-ANSI_SYMBOLS
 72
     1
 11
2.860441
 21
3.12373
 31
0.0
100
AcDbText
 73
     2
  0
TEXT
  5
A1F
330
1191
100
AcDbEntity
  8
Level 1
  6
Continuous
 62
     7
370
     0
100
AcDbText
 10
2.76687
 20
3.10998
 30
0.0
 40
0.0275
  1
50
 41
0.818182
  7
Style-ANSI_SYMBOLS
 72
     1
 11
2.785441
 21
3.12373
 31
0.0
100
AcDbText
 73
     2
  0
TEXT
  5
A20
330
1191
100
AcDbEntity
  8
Level 1
  6
Continuous
 62
     7
370
     0
100
AcDbText
 10
2.69562
 20
3.10998
 30
0.0
 40
0.0275
  1
51
 41
0.818182
  7
Style-ANSI_SYMBOLS
 72
     1
 11
2.710441
 21
3.12373
 31
0.0
100
AcDbText
 73
     2
  0
TEXT
  5
A21
330
1191
100
AcDbEntity
  8
Level 1
  6
Continuous
 62
     7
370
     0
100
AcDbText
 10
3.930547
 20
3.031446
 30
0.0
 40
0.0275
  1
76
 41
0.818182
  7
Style-ANSI_SYMBOLS
 72
     1
 11
3.949118
 21
3.045196
 31
0.0
100
AcDbText
 73
     2
  0
TEXT
  5
A22
330
1191
100
AcDbEntity
  8
Level 1
  6
Continuous
 62
     7
370
     0
100
AcDbText
 10
3.855547
 20
3.031446
 30
0.0
 40
0.0275
  1
53
 41
0.818182
  7
Style-ANSI_SYMBOLS
 72
     1
 11
3.874118
 21
3.045196
 31
0.0
100
AcDbText
 73
     2
  0
TEXT
  5
A23
330
1191
100
AcDbEntity
  8
Level 1
  6
Continuous
 62
     7
370
     0
100
AcDbText
 10
3.780547
 20
3.031446
 30
0.0
 40
0.0275
  1
54
 41
0.818182
  7
Style-ANSI_SYMBOLS
 72
     1
 11
3.799118
 21
3.045196
 31
0.0
100
AcDbText
 73
     2
  0
TEXT
  5
A24
330
1191
100
AcDbEntity
  8
Level 1
  6
Continuous
 62
     7
370
     0
100
AcDbText
 10
3.705547
 20
3.031446
 30
0.0
 40
0.0275
  1
56
 41
0.818182
  7
Style-ANSI_SYMBOLS
 72
     1
 11
3.724118
 21
3.045196
 31
0.0
100
AcDbText
 73
     2
  0
TEXT
  5
A25
330
1191
100
AcDbEntity
  8
Level 1
  6
Continuous
 62
     7
370
     0
100
AcDbText
 10
3.630547
 20
3.031446
 30
0.0
 40
0.0275
  1
57
 41
0.818182
  7
Style-ANSI_SYMBOLS
 72
     1
 11
3.649118
 21
3.045196
 31
0.0
100
AcDbText
 73
     2
  0
TEXT
  5
A26
330
1191
100
AcDbEntity
  8
Level 1
  6
Continuous
 62
     7
370
     0
100
AcDbText
 10
3.555547
 20
3.031446
 30
0.0
 40
0.0275
  1
59
 41
0.818182
  7
Style-ANSI_SYMBOLS
 72
     1
 11
3.574118
 21
3.045196
 31
0.0
100
AcDbText
 73
     2
  0
TEXT
  5
A27
330
1191
100
AcDbEntity
  8
Level 1
  6
Continuous
 62
     7
370
     0
100
AcDbText
 10
3.480547
 20
3.031446
 30
0.0
 40
0.0275
  1
60
 41
0.818182
  7
Style-ANSI_SYMBOLS
 72
     1
 11
3.499118
 21
3.045196
 31
0.0
100
AcDbText
 73
     2
  0
TEXT
  5
A28
330
1191
100
AcDbEntity
  8
Level 1
  6
Continuous
 62
     7
370
     0
100
AcDbText
 10
3.405547
 20
3.031446
 30
0.0
 40
0.0275
  1
62
 41
0.818182
  7
Style-ANSI_SYMBOLS
 72
     1
 11
3.424118
 21
3.045196
 31
0.0
100
AcDbText
 73
     2
  0
TEXT
  5
A29
330
1191
100
AcDbEntity
  8
Level 1
  6
Continuous
 62
     7
370
     0
100
AcDbText
 10
3.330547
 20
3.031446
 30
0.0
 40
0.0275
  1
63
 41
0.818182
  7
Style-ANSI_SYMBOLS
 72
     1
 11
3.349118
 21
3.045196
 31
0.0
100
AcDbText
 73
     2
  0
TEXT
  5
A2A
330
1191
100
AcDbEntity
  8
Level 1
  6
Continuous
 62
     7
370
     0
100
AcDbText
 10
3.255547
 20
3.031446
 30
0.0
 40
0.0275
  1
65
 41
0.818182
  7
Style-ANSI_SYMBOLS
 72
     1
 11
3.274118
 21
3.045196
 31
0.0
100
AcDbText
 73
     2
  0
TEXT
  5
A2B
330
1191
100
AcDbEntity
  8
Level 1
  6
Continuous
 62
     7
370
     0
100
AcDbText
 10
3.180547
 20
3.031446
 30
0.0
 40
0.0275
  1
66
 41
0.818182
  7
Style-ANSI_SYMBOLS
 72
     1
 11
3.199118
 21
3.045196
 31
0.0
100
AcDbText
 73
     2
  0
TEXT
  5
A2C
330
1191
100
AcDbEntity
  8
Level 1
  6
Continuous
 62
     7
370
     0
100
AcDbText
 10
3.105547
 20
3.031446
 30
0.0
 40
0.0275
  1
68
 41
0.818182
  7
Style-ANSI_SYMBOLS
 72
     1
 11
3.124118
 21
3.045196
 31
0.0
100
AcDbText
 73
     2
  0
TEXT
  5
A2D
330
1191
100
AcDbEntity
  8
Level 1
  6
Continuous
 62
     7
370
     0
100
AcDbText
 10
3.030547
 20
3.031446
 30
0.0
 40
0.0275
  1
69
 41
0.818182
  7
Style-ANSI_SYMBOLS
 72
     1
 11
3.049118
 21
3.045196
 31
0.0
100
AcDbText
 73
     2
  0
TEXT
  5
A2E
330
1191
100
AcDbEntity
  8
Level 1
  6
Continuous
 62
     7
370
     0
100
AcDbText
 10
2.959297
 20
3.031446
 30
0.0
 40
0.0275
  1
71
 41
0.818182
  7
Style-ANSI_SYMBOLS
 72
     1
 11
2.974118
 21
3.045196
 31
0.0
100
AcDbText
 73
     2
  0
TEXT
  5
A2F
330
1191
100
AcDbEntity
  8
Level 1
  6
Continuous
 62
     7
370
     0
100
AcDbText
 10
2.880547
 20
3.031446
 30
0.0
 40
0.0275
  1
72
 41
0.818182
  7
Style-ANSI_SYMBOLS
 72
     1
 11
2.899118
 21
3.045196
 31
0.0
100
AcDbText
 73
     2
  0
TEXT
  5
A30
330
1191
100
AcDbEntity
  8
Level 1
  6
Continuous
 62
     7
370
     0
100
AcDbText
 10
2.805547
 20
3.031446
 30
0.0
 40
0.0275
  1
74
 41
0.818182
  7
Style-ANSI_SYMBOLS
 72
     1
 11
2.824118
 21
3.045196
 31
0.0
100
AcDbText
 73
     2
  0
TEXT
  5
A31
330
1191
100
AcDbEntity
  8
Level 1
  6
Continuous
 62
     7
370
     0
100
AcDbText
 10
2.730547
 20
3.031446
 30
0.0
 40
0.0275
  1
75
 41
0.818182
  7
Style-ANSI_SYMBOLS
 72
     1
 11
2.749118
 21
3.045196
 31
0.0
100
AcDbText
 73
     2
  0
TEXT
  5
A32
330
1191
100
AcDbEntity
  8
Level 1
  6
Continuous
 62
     7
370
     0
100
AcDbText
 10
3.895912
 20
2.960856
 30
0.0
 40
0.0275
  1
52
 41
0.818182
  7
Style-ANSI_SYMBOLS
 72
     1
 11
3.914483
 21
2.974606
 31
0.0
100
AcDbText
 73
     2
  0
TEXT
  5
A33
330
1191
100
AcDbEntity
  8
Level 1
  6
Continuous
 62
     7
370
     0
100
AcDbText
 10
3.820912
 20
2.960856
 30
0.0
 40
0.0275
  1
78
 41
0.818182
  7
Style-ANSI_SYMBOLS
 72
     1
 11
3.839483
 21
2.974606
 31
0.0
100
AcDbText
 73
     2
  0
TEXT
  5
A34
330
1191
100
AcDbEntity
  8
Level 1
  6
Continuous
 62
     7
370
     0
100
AcDbText
 10
3.745912
 20
2.960856
 30
0.0
 40
0.0275
  1
55
 41
0.818182
  7
Style-ANSI_SYMBOLS
 72
     1
 11
3.764483
 21
2.974606
 31
0.0
100
AcDbText
 73
     2
  0
TEXT
  5
A35
330
1191
100
AcDbEntity
  8
Level 1
  6
Continuous
 62
     7
370
     0
100
AcDbText
 10
3.674662
 20
2.960856
 30
0.0
 40
0.0275
  1
81
 41
0.818182
  7
Style-ANSI_SYMBOLS
 72
     1
 11
3.689483
 21
2.974606
 31
0.0
100
AcDbText
 73
     2
  0
TEXT
  5
A36
330
1191
100
AcDbEntity
  8
Level 1
  6
Continuous
 62
     7
370
     0
100
AcDbText
 10
3.595912
 20
2.960856
 30
0.0
 40
0.0275
  1
58
 41
0.818182
  7
Style-ANSI_SYMBOLS
 72
     1
 11
3.614483
 21
2.974606
 31
0.0
100
AcDbText
 73
     2
  0
TEXT
  5
A37
330
1191
100
AcDbEntity
  8
Level 1
  6
Continuous
 62
     7
370
     0
100
AcDbText
 10
3.520912
 20
2.960856
 30
0.0
 40
0.0275
  1
84
 41
0.818182
  7
Style-ANSI_SYMBOLS
 72
     1
 11
3.539483
 21
2.974606
 31
0.0
100
AcDbText
 73
     2
  0
TEXT
  5
A38
330
1191
100
AcDbEntity
  8
Level 1
  6
Continuous
 62
     7
370
     0
100
AcDbText
 10
3.449662
 20
2.960856
 30
0.0
 40
0.0275
  1
61
 41
0.818182
  7
Style-ANSI_SYMBOLS
 72
     1
 11
3.464483
 21
2.974606
 31
0.0
100
AcDbText
 73
     2
  0
TEXT
  5
A39
330
1191
100
AcDbEntity
  8
Level 1
  6
Continuous
 62
     7
370
     0
100
AcDbText
 10
3.370912
 20
2.960856
 30
0.0
 40
0.0275
  1
87
 41
0.818182
  7
Style-ANSI_SYMBOLS
 72
     1
 11
3.389483
 21
2.974606
 31
0.0
100
AcDbText
 73
     2
  0
TEXT
  5
A3A
330
1191
100
AcDbEntity
  8
Level 1
  6
Continuous
 62
     7
370
     0
100
AcDbText
 10
3.295912
 20
2.960856
 30
0.0
 40
0.0275
  1
64
 41
0.818182
  7
Style-ANSI_SYMBOLS
 72
     1
 11
3.314483
 21
2.974606
 31
0.0
100
AcDbText
 73
     2
  0
TEXT
  5
A3B
330
1191
100
AcDbEntity
  8
Level 1
  6
Continuous
 62
     7
370
     0
100
AcDbText
 10
3.220912
 20
2.960856
 30
0.0
 40
0.0275
  1
90
 41
0.818182
  7
Style-ANSI_SYMBOLS
 72
     1
 11
3.239483
 21
2.974606
 31
0.0
100
AcDbText
 73
     2
  0
TEXT
  5
A3C
330
1191
100
AcDbEntity
  8
Level 1
  6
Continuous
 62
     7
370
     0
100
AcDbText
 10
3.145912
 20
2.960856
 30
0.0
 40
0.0275
  1
67
 41
0.818182
  7
Style-ANSI_SYMBOLS
 72
     1
 11
3.164483
 21
2.974606
 31
0.0
100
AcDbText
 73
     2
  0
TEXT
  5
A3D
330
1191
100
AcDbEntity
  8
Level 1
  6
Continuous
 62
     7
370
     0
100
AcDbText
 10
3.070912
 20
2.960856
 30
0.0
 40
0.0275
  1
93
 41
0.818182
  7
Style-ANSI_SYMBOLS
 72
     1
 11
3.089483
 21
2.974606
 31
0.0
100
AcDbText
 73
     2
  0
TEXT
  5
A3E
330
1191
100
AcDbEntity
  8
Level 1
  6
Continuous
 62
     7
370
     0
100
AcDbText
 10
2.995912
 20
2.960856
 30
0.0
 40
0.0275
  1
70
 41
0.818182
  7
Style-ANSI_SYMBOLS
 72
     1
 11
3.014483
 21
2.974606
 31
0.0
100
AcDbText
 73
     2
  0
TEXT
  5
A3F
330
1191
100
AcDbEntity
  8
Level 1
  6
Continuous
 62
     7
370
     0
100
AcDbText
 10
2.920912
 20
2.960856
 30
0.0
 40
0.0275
  1
96
 41
0.818182
  7
Style-ANSI_SYMBOLS
 72
     1
 11
2.939483
 21
2.974606
 31
0.0
100
AcDbText
 73
     2
  0
TEXT
  5
A40
330
1191
100
AcDbEntity
  8
Level 1
  6
Continuous
 62
     7
370
     0
100
AcDbText
 10
2.845912
 20
2.960856
 30
0.0
 40
0.0275
  1
73
 41
0.818182
  7
Style-ANSI_SYMBOLS
 72
     1
 11
2.864483
 21
2.974606
 31
0.0
100
AcDbText
 73
     2
  0
TEXT
  5
A41
330
1191
100
AcDbEntity
  8
Level 1
  6
Continuous
 62
     7
370
     0
100
AcDbText
 10
2.770912
 20
2.960856
 30
0.0
 40
0.0275
  1
99
 41
0.818182
  7
Style-ANSI_SYMBOLS
 72
     1
 11
2.789483
 21
2.974606
 31
0.0
100
AcDbText
 73
     2
  0
TEXT
  5
A42
330
1191
100
AcDbEntity
  8
Level 1
  6
Continuous
 62
     7
370
     0
100
AcDbText
 10
3.852526
 20
2.881144
 30
0.0
 40
0.0275
  1
77
 41
0.818182
  7
Style-ANSI_SYMBOLS
 72
     1
 11
3.871097
 21
2.894894
 31
0.0
100
AcDbText
 73
     2
  0
TEXT
  5
A43
330
1191
100
AcDbEntity
  8
Level 1
  6
Continuous
 62
     7
370
     0
100
AcDbText
 10
3.777526
 20
2.881144
 30
0.0
 40
0.0275
  1
79
 41
0.818182
  7
Style-ANSI_SYMBOLS
 72
     1
 11
3.796097
 21
2.894894
 31
0.0
100
AcDbText
 73
     2
  0
TEXT
  5
A44
330
1191
100
AcDbEntity
  8
Level 1
  6
Continuous
 62
     7
370
     0
100
AcDbText
 10
3.702526
 20
2.881144
 30
0.0
 40
0.0275
  1
80
 41
0.818182
  7
Style-ANSI_SYMBOLS
 72
     1
 11
3.721097
 21
2.894894
 31
0.0
100
AcDbText
 73
     2
  0
TEXT
  5
A45
330
1191
100
AcDbEntity
  8
Level 1
  6
Continuous
 62
     7
370
     0
100
AcDbText
 10
3.627526
 20
2.881144
 30
0.0
 40
0.0275
  1
82
 41
0.818182
  7
Style-ANSI_SYMBOLS
 72
     1
 11
3.646097
 21
2.894894
 31
0.0
100
AcDbText
 73
     2
  0
TEXT
  5
A46
330
1191
100
AcDbEntity
  8
Level 1
  6
Continuous
 62
     7
370
     0
100
AcDbText
 10
3.552526
 20
2.881144
 30
0.0
 40
0.0275
  1
83
 41
0.818182
  7
Style-ANSI_SYMBOLS
 72
     1
 11
3.571097
 21
2.894894
 31
0.0
100
AcDbText
 73
     2
  0
TEXT
  5
A47
330
1191
100
AcDbEntity
  8
Level 1
  6
Continuous
 62
     7
370
     0
100
AcDbText
 10
3.477526
 20
2.881144
 30
0.0
 40
0.0275
  1
85
 41
0.818182
  7
Style-ANSI_SYMBOLS
 72
     1
 11
3.496097
 21
2.894894
 31
0.0
100
AcDbText
 73
     2
  0
TEXT
  5
A48
330
1191
100
AcDbEntity
  8
Level 1
  6
Continuous
 62
     7
370
     0
100
AcDbText
 10
3.402526
 20
2.881144
 30
0.0
 40
0.0275
  1
86
 41
0.818182
  7
Style-ANSI_SYMBOLS
 72
     1
 11
3.421097
 21
2.894894
 31
0.0
100
AcDbText
 73
     2
  0
TEXT
  5
A49
330
1191
100
AcDbEntity
  8
Level 1
  6
Continuous
 62
     7
370
     0
100
AcDbText
 10
3.327526
 20
2.881144
 30
0.0
 40
0.0275
  1
88
 41
0.818182
  7
Style-ANSI_SYMBOLS
 72
     1
 11
3.346097
 21
2.894894
 31
0.0
100
AcDbText
 73
     2
  0
TEXT
  5
A4A
330
1191
100
AcDbEntity
  8
Level 1
  6
Continuous
 62
     7
370
     0
100
AcDbText
 10
3.252526
 20
2.881144
 30
0.0
 40
0.0275
  1
89
 41
0.818182
  7
Style-ANSI_SYMBOLS
 72
     1
 11
3.271097
 21
2.894894
 31
0.0
100
AcDbText
 73
     2
  0
TEXT
  5
A4B
330
1191
100
AcDbEntity
  8
Level 1
  6
Continuous
 62
     7
370
     0
100
AcDbText
 10
3.181277
 20
2.881144
 30
0.0
 40
0.0275
  1
91
 41
0.818182
  7
Style-ANSI_SYMBOLS
 72
     1
 11
3.196098
 21
2.894894
 31
0.0
100
AcDbText
 73
     2
  0
TEXT
  5
A4C
330
1191
100
AcDbEntity
  8
Level 1
  6
Continuous
 62
     7
370
     0
100
AcDbText
 10
3.102526
 20
2.881144
 30
0.0
 40
0.0275
  1
92
 41
0.818182
  7
Style-ANSI_SYMBOLS
 72
     1
 11
3.121097
 21
2.894894
 31
0.0
100
AcDbText
 73
     2
  0
TEXT
  5
A4D
330
1191
100
AcDbEntity
  8
Level 1
  6
Continuous
 62
     7
370
     0
100
AcDbText
 10
3.027526
 20
2.881144
 30
0.0
 40
0.0275
  1
94
 41
0.818182
  7
Style-ANSI_SYMBOLS
 72
     1
 11
3.046097
 21
2.894894
 31
0.0
100
AcDbText
 73
     2
  0
TEXT
  5
A4E
330
1191
100
AcDbEntity
  8
Level 1
  6
Continuous
 62
     7
370
     0
100
AcDbText
 10
2.952526
 20
2.881144
 30
0.0
 40
0.0275
  1
95
 41
0.818182
  7
Style-ANSI_SYMBOLS
 72
     1
 11
2.971097
 21
2.894894
 31
0.0
100
AcDbText
 73
     2
  0
TEXT
  5
A4F
330
1191
100
AcDbEntity
  8
Level 1
  6
Continuous
 62
     7
370
     0
100
AcDbText
 10
2.877526
 20
2.881144
 30
0.0
 40
0.0275
  1
97
 41
0.818182
  7
Style-ANSI_SYMBOLS
 72
     1
 11
2.896097
 21
2.894894
 31
0.0
100
AcDbText
 73
     2
  0
TEXT
  5
A50
330
1191
100
AcDbEntity
  8
Level 1
  6
Continuous
 62
     7
370
     0
100
AcDbText
 10
2.802526
 20
2.881144
 30
0.0
 40
0.0275
  1
98
 41
0.818182
  7
Style-ANSI_SYMBOLS
 72
     1
 11
2.821097
 21
2.894894
 31
0.0
100
AcDbText
 73
     2
  0
TEXT
  5
A51
330
1191
100
AcDbEntity
  8
Level 1
  6
Continuous
 62
     7
370
     0
100
AcDbText
 10
2.722903
 20
2.881144
 30
0.0
 40
0.0275
  1
100
 41
0.636364
  7
Style-ANSI_SYMBOLS
 72
     1
 11
2.746097
 21
2.894894
 31
0.0
100
AcDbText
 73
     2
  0
DIMENSION
  5
BCA
330
1191
100
AcDbEntity
  8
Level 55
  6
Continuous
 62
     7
370
     0
100
AcDbDimension
  2
*D3
 10
4.229206
 20
3.536791
 30
0.0
 11
3.276297
 21
3.536791
 31
0.0
 70
   160
  1
\H1x;\W0.916667;<>\H1x;\W0.916667;
 71
     5
 42
1.8
 73
     0
 74
     0
 75
     0
  3
Standard
100
AcDbAlignedDimension
 13
2.429206
 23
3.173922
 33
0.0
 14
4.229206
 24
3.173922
 34
0.0
100
AcDbRotatedDimension
1001
ACAD
1000
DSTYLE
1002
{
1070
    78
1070
     7
1070
   288
1070
     1
1070
   284
1070
     7
1070
   140
1040
0.03
1070
   340
1005
1286
1070
    47
1040
0.002
1070
   283
1070
     0
1070
    48
1040
0.002
1070
   272
1070
     3
1070
     3
1000
\X
1070
   147
1040
0.009
1070
   276
1070
     2
1070
    42
1040
0.018
1070
    44
1040
0.015
1070
    43
1040
0.0
1070
   271
1070
     3
1070
   289
1070
     1
1070
    41
1040
0.045
1070
   285
1070
    15
1070
   286
1070
    15
1070
   170
1070
     1
1002
}
  0
DIMENSION
  5
BCB
330
1191
100
AcDbEntity
  8
Level 55
  6
Continuous
 62
     7
370
     0
100
AcDbDimension
  2
*D5
 10
3.949206
 20
3.395768
 30
0.0
 11
4.075996
 21
3.395768
 31
0.0
 70
   160
  1
\H1x;\W0.916667;<>\H1x;\W0.916667;
 71
     5
 42
0.28
 73
     0
 74
     0
 75
     0
  3
Standard
100
AcDbAlignedDimension
 13
4.229206
 23
3.173922
 33
0.0
 14
3.949206
 24
3.226645
 34
0.0
 50
180.0
100
AcDbRotatedDimension
1001
ACAD
1000
DSTYLE
1002
{
1070
    78
1070
     7
1070
   288
1070
     1
1070
   284
1070
     7
1070
   140
1040
0.03
1070
   340
1005
1286
1070
    47
1040
0.002
1070
   283
1070
     0
1070
    48
1040
0.002
1070
   272
1070
     3
1070
     3
1000
\X
1070
   147
1040
0.009
1070
   276
1070
     2
1070
    42
1040
0.018
1070
    44
1040
0.015
1070
    43
1040
0.0
1070
   271
1070
     3
1070
   289
1070
     1
1070
    41
1040
0.045
1070
   285
1070
    15
1070
   286
1070
    15
1070
   170
1070
     1
1002
}
  0
DIMENSION
  5
BD3
330
1191
100
AcDbEntity
  8
Level 55
  6
Continuous
 62
     7
370
     0
100
AcDbDimension
  2
*D14
 10
4.344482
 20
3.151645
 30
0.0
 11
4.459811
 21
3.322175
 31
0.0
 70
   160
  1
\H1x;\W0.916667;<>\H1x;\W0.916667;
 71
     5
 42
0.0375
 73
     0
 74
     0
 75
     0
  3
Standard
100
AcDbAlignedDimension
 13
4.287746
 23
3.114145
 33
0.0
 14
3.911706
 24
3.151645
 34
0.0
 50
90.0
100
AcDbRotatedDimension
1001
ACAD
1000
DSTYLE
1002
{
1070
    78
1070
     7
1070
   288
1070
     0
1070
   284
1070
     7
1070
   140
1040
0.03
1070
   340
1005
1286
1070
    47
1040
0.0
1070
   283
1070
     0
1070
    48
1040
0.0
1070
   272
1070
     3
1070
     3
1000
\X
1070
   147
1040
0.009
1070
   276
1070
     2
1070
    42
1040
0.018
1070
    44
1040
0.015
1070
    43
1040
0.0
1070
   271
1070
     3
1070
   289
1070
     1
1070
    41
1040
0.045
1070
   285
1070
    15
1070
   286
1070
    15
1070
   170
1070
     1
1002
}
  0
DIMENSION
  5
BD4
330
1191
100
AcDbEntity
  8
Level 55
  6
Continuous
 62
     7
370
     0
100
AcDbDimension
  2
*D9
 10
4.697713
 20
3.076645
 30
0.0
 11
4.524437
 21
2.891836
 31
0.0
 70
   160
  1
\H1x;\W0.916667;<> TYP\H1x;\W0.916667;
 71
     5
 42
0.075
 73
     0
 74
     0
 75
     0
  3
Standard
100
AcDbAlignedDimension
 13
3.911706
 23
3.151645
 33
0.0
 14
3.949206
 24
3.076645
 34
0.0
 50
270.0
100
AcDbRotatedDimension
1001
ACAD
1000
DSTYLE
1002
{
1070
    78
1070
     7
1070
   288
1070
     1
1070
   284
1070
     7
1070
   140
1040
0.03
1070
   340
1005
1286
1070
    47
1040
0.002
1070
   283
1070
     0
1070
    48
1040
0.002
1070
   272
1070
     3
1070
     3
1000
\X
1070
   147
1040
0.009
1070
   276
1070
     2
1070
    42
1040
0.018
1070
    44
1040
0.015
1070
    43
1040
0.0
1070
   271
1070
     3
1070
   289
1070
     1
1070
    41
1040
0.045
1070
   285
1070
    15
1070
   286
1070
    15
1070
   170
1070
     1
1002
}
  0
DIMENSION
  5
BCF
330
1191
100
AcDbEntity
  8
Level 55
  6
Continuous
 62
     7
370
     0
100
AcDbDimension
  2
*D11
 10
3.911706
 20
2.818244
 30
0.0
 11
4.109536
 21
2.818244
 31
0.0
 70
   160
  1
\H1x;\W0.916667;<>\H1x;\W0.916667;
 71
     5
 42
0.0375
 73
     0
 74
     0
 75
     0
  3
Standard
100
AcDbAlignedDimension
 13
3.949206
 23
3.076645
 33
0.0
 14
3.911706
 24
3.001645
 34
0.0
 50
180.0
100
AcDbRotatedDimension
1001
ACAD
1000
DSTYLE
1002
{
1070
    78
1070
     7
1070
   288
1070
     1
1070
   284
1070
     7
1070
   140
1040
0.03
1070
   340
1005
1286
1070
    47
1040
0.002
1070
   283
1070
     0
1070
    48
1040
0.002
1070
   272
1070
     3
1070
     3
1000
\X
1070
   147
1040
0.009
1070
   276
1070
     2
1070
    42
1040
0.018
1070
    44
1040
0.015
1070
    43
1040
0.0
1070
   271
1070
     3
1070
   289
1070
     1
1070
    41
1040
0.045
1070
   285
1070
    15
1070
   286
1070
    15
1070
   170
1070
     1
1002
}
  0
DIMENSION
  5
BD0
330
1191
100
AcDbEntity
  8
Level 55
  6
Continuous
 62
     7
370
     0
100
AcDbDimension
  2
*D15
 10
3.874206
 20
2.708778
 30
0.0
 11
3.610253
 21
2.708778
 31
0.0
 70
   160
  1
\H1x;\W0.916667;<> TYP\H1x;\W0.916667;
 71
     5
 42
0.075
 73
     0
 74
     0
 75
     0
  3
Standard
100
AcDbAlignedDimension
 13
3.949206
 23
3.076645
 33
0.0
 14
3.874206
 24
2.926645
 34
0.0
 50
180.0
100
AcDbRotatedDimension
1001
ACAD
1000
DSTYLE
1002
{
1070
    78
1070
     7
1070
   288
1070
     0
1070
   284
1070
     7
1070
   140
1040
0.03
1070
   340
1005
1286
1070
    47
1040
0.0
1070
   283
1070
     0
1070
    48
1040
0.0
1070
   272
1070
     3
1070
     3
1000
\X
1070
   147
1040
0.009
1070
   276
1070
     2
1070
    42
1040
0.018
1070
    44
1040
0.015
1070
    43
1040
0.0
1070
   271
1070
     3
1070
   289
1070
     1
1070
    41
1040
0.045
1070
   285
1070
    15
1070
   286
1070
    15
1070
   170
1070
     1
1002
}
  0
LEADER
  5
1176
330
1191
100
AcDbEntity
  8
Level 55
  6
Continuous
 62
     7
370
     0
100
AcDbLeader
  3
Standard
 76
     3
 10
2.395077
 20
3.144273
 30
0.0
 10
2.30086
 20
3.248484
 30
0.0
 10
2.277718
 20
3.248484
 30
0.0
1001
ACAD
1000
DSTYLE
1002
{
1070
   140
1040
0.03
1070
   340
1005
1286
1070
   147
1040
0.015
1070
    41
1040
0.045
1002
}
  0
TEXT
  5
1177
330
1191
100
AcDbEntity
  8
Level 1
  6
Continuous
 62
     7
370
     0
100
AcDbText
 10
2.006593
 20
3.235138
 30
0.0
 40
0.03
  1
%%c.096 [2.44]
 41
0.916667
 72
     1
 11
2.137218
 21
3.250138
 31
0.0
100
AcDbText
 73
     2
  0
TEXT
  5
9ED
330
1191
100
AcDbEntity
  8
Level 1
  6
Continuous
 62
     7
370
     0
100
AcDbText
 10
3.167835
 20
2.539834
 30
0.0
 40
0.03
  1
SIZE 100
 41
0.916667
  7
Style-ANSI_SYMBOLS
 72
     1
 11
3.273033
 21
2.554834
 31
0.0
100
AcDbText
 73
     2
  0
INSERT
  5
6F0
330
1191
100
AcDbEntity
  8
0
  6
Continuous
 62
     7
370
     0
100
AcDbBlockReference
  2
umiborder
 10
0.0
 20
0.0
 30
0.0
  0
INSERT
  5
73A
330
1191
100
AcDbEntity
  8
0
  6
Continuous
 62
     7
370
     0
100
AcDbBlockReference
  2
Style 1  PCB layouts
 10
0.0
 20
0.0
 30
0.0
  0
VIEWPORT
  5
1379
330
11A4
100
AcDbEntity
 67
     1
  8
0
  6
Continuous
 62
     7
370
     0
100
AcDbViewport
 10
5.250184
 20
4.000122
 30
0.0
 40
8.400879
 41
6.40091
 68
     0
 69
     2
 12
5.250184
 22
4.000122
 13
0.0
 23
0.0
 14
0.0
 24
0.0
 15
3.937008
 25
3.937008
 16
0.0
 26
0.0
 36
1.0
 17
0.0
 27
0.0
 37
0.0
 42
50.0
 43
0.0
 44
0.0
 45
6.40091
 50
0.0
 51
0.0
 72
   100
 90
    32768
  1

281
     0
 71
     1
 74
     1
110
0.0
120
0.0
130
0.0
111
1.0
121
0.0
131
0.0
112
0.0
122
1.0
132
0.0
 79
     0
146
0.0
170
     0
 61
    10
348
11B8
292
     1
282
     1
141
0.0
142
0.0
 63
   250
421
  3355443
  0
VIEWPORT
  5
14F8
330
11A4
100
AcDbEntity
 67
     1
  8
0
 62
     7
370
     0
100
AcDbViewport
 10
5.250184
 20
4.000122
 30
0.0
 40
8.400879
 41
6.40091
 68
    -1
 69
     1
 12
5.250184
 22
4.000122
 13
0.0
 23
0.0
 14
0.0
 24
0.0
 15
0.0
 25
0.0
 16
0.0
 26
0.0
 36
1.0
 17
0.0
 27
0.0
 37
0.0
 42
50.0
 43
0.0
 44
0.0
 45
6.40091
 50
0.0
 51
0.0
 72
   100
 90
    32768
  1

281
     0
 71
     1
 74
     1
110
0.0
120
0.0
130
0.0
111
1.0
121
0.0
131
0.0
112
0.0
122
1.0
132
0.0
 79
     0
146
0.0
170
     0
 61
     5
292
     1
282
     1
141
0.0
142
0.0
 63
   250
421
  3355443
  0
ENDSEC
  0
SECTION
  2
OBJECTS
  0
DICTIONARY
  5
1196
330
0
100
AcDbDictionary
281
     1
  3
ACAD_COLOR
350
11D2
  3
ACAD_GROUP
350
11BF
  3
ACAD_LAYOUT
350
11A3
  3
ACAD_MATERIAL
350
1198
  3
ACAD_MLEADERSTYLE
350
11D5
  3
ACAD_MLINESTYLE
350
11C0
  3
ACAD_PLOTSETTINGS
350
11C1
  3
ACAD_PLOTSTYLENAME
350
1195
  3
ACAD_SCALELIST
350
11D3
  3
ACAD_TABLESTYLE
350
11D4
  3
ACAD_VISUALSTYLE
350
11B9
  3
AcadDim
350
1287
  3
ACDB_RECOMPOSE_DATA
350
197E
  3
AcDbVariableDictionary
350
133E
  3
MicroStation
350
143F
  0
DICTIONARY
  5
11AC
330
11AB
100
AcDbDictionary
280
     1
281
     1
  3
ACAD_LAYERFILTERS
360
1281
  3
ACAD_LAYERSTATES
360
11AD
  0
DICTIONARY
  5
1282
330
110
100
AcDbDictionary
280
     1
281
     1
  3
ADSK_XREC_VTRVIEWINFO
360
1283
  0
DICTIONARY
  5
1284
330
112
100
AcDbDictionary
280
     1
281
     1
  3
ADSK_XREC_VTRVIEWINFO
360
1285
  0
DICTIONARY
  5
133B
330
1191
100
AcDbDictionary
280
     1
281
     1
  3
ACAD_SORTENTS
360
133C
  0
DICTIONARY
  5
186D
330
11A4
100
AcDbDictionary
280
     1
281
     1
  3
ACAD_SORTENTS
360
186E
  0
DICTIONARY
  5
11D2
102
{ACAD_REACTORS
330
1196
102
}
330
1196
100
AcDbDictionary
281
     1
  0
DICTIONARY
  5
11BF
102
{ACAD_REACTORS
330
1196
102
}
330
1196
100
AcDbDictionary
281
     1
  0
DICTIONARY
  5
11A3
102
{ACAD_REACTORS
330
1196
102
}
330
1196
100
AcDbDictionary
281
     1
  3
Layout1
350
11A7
  3
Model
350
11A2
  0
DICTIONARY
  5
1198
102
{ACAD_REACTORS
330
1196
102
}
330
1196
100
AcDbDictionary
281
     1
  3
ByBlock
350
11CA
  3
ByLayer
350
11C2
  3
Global
350
1197
  0
DICTIONARY
  5
11D5
102
{ACAD_REACTORS
330
1196
102
}
330
1196
100
AcDbDictionary
281
     1
  3
Standard
350
1363
  0
DICTIONARY
  5
11C0
102
{ACAD_REACTORS
330
1196
102
}
330
1196
100
AcDbDictionary
281
     1
  3
Standard
350
11D6
  0
DICTIONARY
  5
11C1
102
{ACAD_REACTORS
330
1196
102
}
330
1196
100
AcDbDictionary
281
     1
  0
ACDBDICTIONARYWDFLT
  5
1195
102
{ACAD_REACTORS
330
1196
102
}
330
1196
100
AcDbDictionary
281
     1
  3
Normal
350
1194
100
AcDbDictionaryWithDefault
340
1194
  0
DICTIONARY
  5
11D3
102
{ACAD_REACTORS
330
1196
102
}
330
1196
100
AcDbDictionary
281
     1
  3
A0
350
11DA
  3
A1
350
11DB
  3
A2
350
11DC
  3
A3
350
11DD
  3
A4
350
11DE
  3
A5
350
11DF
  3
A6
350
11E0
  3
A7
350
11E1
  3
A8
350
11E2
  3
A9
350
11E3
  3
B0
350
11E4
  3
B1
350
11E5
  3
B2
350
11E6
  3
B3
350
11E7
  3
B4
350
11E8
  3
B5
350
11E9
  3
B6
350
11EA
  3
B7
350
11EB
  3
B8
350
11EC
  3
B9
350
11ED
  3
C0
350
11EE
  3
C1
350
11EF
  3
C2
350
11F0
  3
C3
350
11F1
  3
C4
350
11F2
  3
C5
350
11F3
  3
C6
350
11F4
  3
C7
350
11F5
  3
C8
350
11F6
  3
C9
350
11F7
  3
D0
350
11F8
  3
D1
350
11F9
  3
D2
350
11FA
  0
DICTIONARY
  5
11D4
102
{ACAD_REACTORS
330
1196
102
}
330
1196
100
AcDbDictionary
281
     1
  3
Standard
350
11D7
  0
DICTIONARY
  5
11B9
102
{ACAD_REACTORS
330
1196
102
}
330
1196
100
AcDbDictionary
281
     1
  3
2dWireframe
350
11B8
  3
3D Hidden
350
1358
  3
3dWireframe
350
11D9
  3
Basic
350
1357
  3
Brighten
350
135B
  3
ColorChange
350
135F
  3
Conceptual
350
1359
  3
Dim
350
135A
  3
EdgeColorOff
350
1362
  3
Facepattern
350
135E
  3
Flat
350
1353
  3
FlatWithEdges
350
1354
  3
Gouraud
350
1355
  3
GouraudWithEdges
350
1356
  3
JitterOff
350
1360
  3
Linepattern
350
135D
  3
OverhangOff
350
1361
  3
Realistic
350
11D8
  3
Thicken
350
135C
  0
XRECORD
  5
1287
102
{ACAD_REACTORS
330
1196
102
}
330
1196
100
AcDbXrecord
280
     1
 90
   990106
  3
 
 60
     0
 61
     0
 62
     1
 63
     1
 64
     0
 65
     0
 66
     0
 67
     3
 68
     1
 69
     1
 70
     0
 71
     0
 72
     0
 40
0.0
170
     0
  0
XRECORD
  5
197E
102
{ACAD_REACTORS
330
1196
102
}
330
1196
100
AcDbXrecord
280
     1
 90
        1
330
11D7
  0
DICTIONARY
  5
133E
102
{ACAD_REACTORS
330
1196
102
}
330
1196
100
AcDbDictionary
281
     1
  3
CANNOSCALE
350
1342
  3
CMLEADERSTYLE
350
1340
  3
CTABLESTYLE
350
133F
  3
LAYEREVAL
350
1344
  3
LAYERNOTIFY
350
1345
  3
LIGHTINGUNITS
350
1343
  3
MSLTSCALE
350
1341
  0
DICTIONARY
  5
143F
102
{ACAD_REACTORS
330
1196
102
}
330
1196
100
AcDbDictionary
281
     1
  0
DICTIONARY
  5
1281
102
{ACAD_REACTORS
330
11AC
102
}
330
11AC
100
AcDbDictionary
281
     1
  0
DICTIONARY
  5
11AD
102
{ACAD_REACTORS
330
11AC
102
}
330
11AC
100
AcDbDictionary
281
     1
  0
XRECORD
  5
1283
102
{ACAD_REACTORS
330
1282
102
}
330
1282
100
AcDbXrecord
280
     1
290
     0
292
     0
330
11A2
294
     0
  0
XRECORD
  5
1285
102
{ACAD_REACTORS
330
1284
102
}
330
1284
100
AcDbXrecord
280
     1
290
     0
292
     0
330
11A2
294
     0
  0
SORTENTSTABLE
  5
133C
102
{ACAD_REACTORS
330
133B
102
}
330
133B
100
AcDbSortentsTable
330
1191
331
A4B
  5
BA8
331
B87
  5
A29
331
A0C
  5
B67
331
B50
  5
9F2
331
B8F
  5
A31
331
A14
  5
B6F
331
B97
  5
A39
331
A1C
  5
B77
331
B58
  5
9FA
331
A24
  5
B7F
331
B60
  5
A02
331
9ED
  5
1177
331
B68
  5
A0A
331
B9F
  5
A41
331
A2C
  5
B87
331
8D9
  5
8D9
331
9F5
  5
B50
331
B70
  5
A12
331
BA7
  5
A47
331
A34
  5
B8F
331
A3C
  5
B97
331
921
  5
921
331
B78
  5
A1A
331
9FD
  5
B58
331
A05
  5
B60
331
A44
  5
B9F
331
BCB
  5
BCF
331
BD3
  5
BD0
331
B80
  5
A22
331
B88
  5
A2A
331
A0D
  5
B68
331
A4C
  5
BA9
331
B51
  5
9F3
331
B90
  5
A32
331
A15
  5
B70
331
B59
  5
9FB
331
A1D
  5
B78
331
A25
  5
B80
331
B61
  5
A03
331
B98
  5
A3A
331
A2D
  5
B88
331
BA0
  5
A42
331
B69
  5
A0B
331
9EE
  5
A50
331
9F6
  5
B51
331
B71
  5
A13
331
BA8
  5
A48
331
A35
  5
B90
331
B79
  5
A1B
331
9FE
  5
B59
331
A3D
  5
B98
331
A06
  5
B61
331
A45
  5
BA0
331
BCC
  5
A4B
331
BD4
  5
BD1
331
73A
  5
73A
331
942
  5
942
331
B81
  5
A23
331
A4D
  5
BAA
331
B89
  5
A2B
331
A0E
  5
B69
331
A16
  5
B71
331
B52
  5
9F4
331
B91
  5
A33
331
A1E
  5
B79
331
B5A
  5
9FC
331
A26
  5
B81
331
B62
  5
A04
331
B99
  5
A3B
331
9EF
  5
A51
331
B6A
  5
A0C
331
BA1
  5
A43
331
A2E
  5
B89
331
9F7
  5
B52
331
B72
  5
A14
331
BA9
  5
A49
331
A36
  5
B91
331
A3E
  5
B99
331
B7A
  5
A1C
331
9FF
  5
B5A
331
A07
  5
B62
331
A46
  5
BA1
331
BCD
  5
A4C
331
B82
  5
A24
331
B8A
  5
A2C
331
A0F
  5
B6A
331
A4E
  5
BCA
331
B4B
  5
9ED
331
B53
  5
9F5
331
B92
  5
A34
331
A17
  5
B72
331
B5B
  5
9FD
331
A1F
  5
B7A
331
A27
  5
B82
331
8D4
  5
8D4
331
B63
  5
A05
331
B9A
  5
A3C
331
A2F
  5
B8A
331
BA2
  5
A44
331
B6B
  5
A0D
331
9F0
  5
B4B
331
9F8
  5
B53
331
B73
  5
A15
331
BAA
  5
A4A
331
A37
  5
B92
331
B7B
  5
A1D
331
A00
  5
B5B
331
A3F
  5
B9A
331
A47
  5
BA2
331
BCE
  5
A4D
331
1176
  5
BD4
331
B83
  5
A25
331
A08
  5
B63
331
A4F
  5
BCB
331
B4C
  5
9EE
331
B8B
  5
A2D
331
A10
  5
B6B
331
B93
  5
A35
331
A18
  5
B73
331
B54
  5
9F6
331
A20
  5
B7B
331
B5C
  5
9FE
331
B64
  5
A06
331
B9B
  5
A3D
331
A28
  5
B83
331
8D5
  5
8D5
331
9F1
  5
B4C
331
B6C
  5
A0E
331
BA3
  5
A45
331
A30
  5
B8B
331
A38
  5
B93
331
B74
  5
A16
331
9F9
  5
B54
331
A40
  5
B9B
331
B7C
  5
A1E
331
A01
  5
B5C
331
BCF
  5
BD2
331
1177
  5
1176
331
B84
  5
A26
331
A09
  5
B64
331
A48
  5
BA3
331
B8C
  5
A2E
331
A11
  5
B6C
331
A50
  5
BCC
331
B4D
  5
9EF
331
B55
  5
9F7
331
B94
  5
A36
331
A19
  5
B74
331
B5D
  5
9FF
331
A21
  5
B7C
331
B9C
  5
A3E
331
A29
  5
B84
331
8D6
  5
8D6
331
B65
  5
A07
331
A31
  5
B8C
331
BA4
  5
A46
331
B6D
  5
A0F
331
9F2
  5
B4D
331
B75
  5
A17
331
9FA
  5
B55
331
A39
  5
B94
331
8FE
  5
8FE
331
B7D
  5
A1F
331
A02
  5
B5D
331
A41
  5
B9C
331
BD0
  5
BD3
331
A49
  5
BA4
331
B85
  5
A27
331
A0A
  5
B65
331
A51
  5
BCD
331
B4E
  5
9F0
331
B8D
  5
A2F
331
A12
  5
B6D
331
B95
  5
A37
331
A1A
  5
B75
331
B56
  5
9F8
331
A22
  5
B7D
331
B5E
  5
A00
331
B66
  5
A08
331
B9D
  5
A3F
331
A2A
  5
B85
331
8D7
  5
8D7
331
8DF
  5
8DF
331
B6E
  5
A10
331
9F3
  5
B4E
331
A32
  5
B8D
331
A3A
  5
B95
331
8FF
  5
8FF
331
B76
  5
A18
331
9FB
  5
B56
331
A42
  5
B9D
331
B7E
  5
A20
331
A03
  5
B5E
331
BD1
  5
A4E
331
B86
  5
A28
331
A0B
  5
B66
331
A4A
  5
BA7
331
B4F
  5
9F1
331
B8E
  5
A30
331
A13
  5
B6E
331
B57
  5
9F9
331
B96
  5
A38
331
A1B
  5
B76
331
B5F
  5
A01
331
A23
  5
B7E
331
B9E
  5
A40
331
A2B
  5
B86
331
8D8
  5
8D8
331
B67
  5
A09
331
9F4
  5
B4F
331
A33
  5
B8E
331
B6F
  5
A11
331
B77
  5
A19
331
9FC
  5
B57
331
A3B
  5
B96
331
920
  5
920
331
B7F
  5
A21
331
A04
  5
B5F
331
A43
  5
B9E
331
6F0
  5
6F0
331
BCA
  5
BCE
331
BD2
  5
A4F
  0
SORTENTSTABLE
  5
186E
102
{ACAD_REACTORS
330
186D
102
}
330
186D
100
AcDbSortentsTable
330
11A4
  0
LAYOUT
  5
11A7
102
{ACAD_XDICTIONARY
360
11A8
102
}
102
{ACAD_REACTORS
330
11A3
102
}
330
11A3
100
AcDbPlotSettings
  1

  2
none_device
  4
Letter_(8.50_x_11.00_Inches)
  6

 40
6.35
 41
6.35
 42
6.350006
 43
6.350006
 44
215.899994
 45
279.399994
 46
0.0
 47
0.0
 48
0.0
 49
0.0
140
0.0
141
0.0
142
1.0
143
1.0
 70
   688
 72
     0
 73
     1
 74
     5
  7

 75
    16
147
1.0
 76
     0
 77
     2
 78
   300
148
0.0
149
0.0
100
AcDbLayout
  1
Layout1
 70
     1
 71
     1
 10
-0.25
 20
-0.25
 11
10.75
 21
8.25
 12
0.0
 22
0.0
 32
0.0
 14
1.049744
 24
0.799667
 34
-0.001526
 15
9.450623
 25
7.200577
 35
0.0
146
0.0
 13
0.0
 23
0.0
 33
0.0
 16
1.0
 26
0.0
 36
0.0
 17
0.0
 27
1.0
 37
0.0
 76
     0
330
11A4
1001
ACAD_PSEXT
1000
None
1000
None
1000
Not applicable
1000
The layout will not be plotted unless a new plotter configuration name is selected.
1070
     0
  0
LAYOUT
  5
11A2
102
{ACAD_REACTORS
330
11A3
102
}
330
11A3
100
AcDbPlotSettings
  1

  2
none_device
  4
ANSI_A_(8.50_x_11.00_Inches)
  6

 40
6.35
 41
19.049999
 42
6.350006
 43
19.049988
 44
215.899994
 45
279.399994
 46
0.0
 47
0.0
 48
0.0
 49
0.0
140
0.0
141
0.0
142
1.0
143
2.584895
 70
 11952
 72
     0
 73
     1
 74
     0
  7

 75
     0
147
0.386863
 76
     0
 77
     2
 78
   300
148
0.0
149
0.0
100
AcDbLayout
  1
Model
 70
     1
 71
     0
 10
0.0
 20
0.0
 11
12.0
 21
9.0
 12
0.0
 22
0.0
 32
0.0
 14
0.0
 24
0.0
 34
0.0
 15
0.0
 25
0.0
 35
0.0
146
0.0
 13
0.0
 23
0.0
 33
0.0
 16
1.0
 26
0.0
 36
0.0
 17
0.0
 27
1.0
 37
0.0
 76
     0
330
1191
  0
MATERIAL
  5
11CA
102
{ACAD_XDICTIONARY
360
11CB
102
}
102
{ACAD_REACTORS
330
1198
102
}
330
1198
100
AcDbMaterial
  1
ByBlock
 72
     0
 43
0.020833
 43
0.0
 43
0.0
 43
0.0
 43
0.0
 43
0.020833
 43
0.0
 43
0.0
 43
0.0
 43
0.0
 43
1.0
 43
0.0
 43
0.0
 43
0.0
 43
0.0
 43
1.0
 77
     0
 47
0.020833
 47
0.0
 47
0.0
 47
0.0
 47
0.0
 47
0.020833
 47
0.0
 47
0.0
 47
0.0
 47
0.0
 47
1.0
 47
0.0
 47
0.0
 47
0.0
 47
0.0
 47
1.0
171
     0
 49
0.020833
 49
0.0
 49
0.0
 49
0.0
 49
0.0
 49
0.020833
 49
0.0
 49
0.0
 49
0.0
 49
0.0
 49
1.0
 49
0.0
 49
0.0
 49
0.0
 49
0.0
 49
1.0
175
     0
142
0.020833
142
0.0
142
0.0
142
0.0
142
0.0
142
0.020833
142
0.0
142
0.0
142
0.0
142
0.0
142
1.0
142
0.0
142
0.0
142
0.0
142
0.0
142
1.0
179
     0
144
0.020833
144
0.0
144
0.0
144
0.0
144
0.0
144
0.020833
144
0.0
144
0.0
144
0.0
144
0.0
144
1.0
144
0.0
144
0.0
144
0.0
144
0.0
144
1.0
147
0.020833
147
0.0
147
0.0
147
0.0
147
0.0
147
0.020833
147
0.0
147
0.0
147
0.0
147
0.0
147
1.0
147
0.0
147
0.0
147
0.0
147
0.0
147
1.0
  0
MATERIAL
  5
11C2
102
{ACAD_XDICTIONARY
360
11C3
102
}
102
{ACAD_REACTORS
330
1198
102
}
330
1198
100
AcDbMaterial
  1
ByLayer
 72
     0
 43
0.020833
 43
0.0
 43
0.0
 43
0.0
 43
0.0
 43
0.020833
 43
0.0
 43
0.0
 43
0.0
 43
0.0
 43
1.0
 43
0.0
 43
0.0
 43
0.0
 43
0.0
 43
1.0
 77
     0
 47
0.020833
 47
0.0
 47
0.0
 47
0.0
 47
0.0
 47
0.020833
 47
0.0
 47
0.0
 47
0.0
 47
0.0
 47
1.0
 47
0.0
 47
0.0
 47
0.0
 47
0.0
 47
1.0
171
     0
 49
0.020833
 49
0.0
 49
0.0
 49
0.0
 49
0.0
 49
0.020833
 49
0.0
 49
0.0
 49
0.0
 49
0.0
 49
1.0
 49
0.0
 49
0.0
 49
0.0
 49
0.0
 49
1.0
175
     0
142
0.020833
142
0.0
142
0.0
142
0.0
142
0.0
142
0.020833
142
0.0
142
0.0
142
0.0
142
0.0
142
1.0
142
0.0
142
0.0
142
0.0
142
0.0
142
1.0
179
     0
144
0.020833
144
0.0
144
0.0
144
0.0
144
0.0
144
0.020833
144
0.0
144
0.0
144
0.0
144
0.0
144
1.0
144
0.0
144
0.0
144
0.0
144
0.0
144
1.0
147
0.020833
147
0.0
147
0.0
147
0.0
147
0.0
147
0.020833
147
0.0
147
0.0
147
0.0
147
0.0
147
1.0
147
0.0
147
0.0
147
0.0
147
0.0
147
1.0
  0
MATERIAL
  5
1197
102
{ACAD_XDICTIONARY
360
1199
102
}
102
{ACAD_REACTORS
330
1198
102
}
330
1198
100
AcDbMaterial
  1
Global
 72
     0
 43
0.020833
 43
0.0
 43
0.0
 43
0.0
 43
0.0
 43
0.020833
 43
0.0
 43
0.0
 43
0.0
 43
0.0
 43
1.0
 43
0.0
 43
0.0
 43
0.0
 43
0.0
 43
1.0
 77
     0
 47
0.020833
 47
0.0
 47
0.0
 47
0.0
 47
0.0
 47
0.020833
 47
0.0
 47
0.0
 47
0.0
 47
0.0
 47
1.0
 47
0.0
 47
0.0
 47
0.0
 47
0.0
 47
1.0
171
     0
 49
0.020833
 49
0.0
 49
0.0
 49
0.0
 49
0.0
 49
0.020833
 49
0.0
 49
0.0
 49
0.0
 49
0.0
 49
1.0
 49
0.0
 49
0.0
 49
0.0
 49
0.0
 49
1.0
175
     0
142
0.020833
142
0.0
142
0.0
142
0.0
142
0.0
142
0.020833
142
0.0
142
0.0
142
0.0
142
0.0
142
1.0
142
0.0
142
0.0
142
0.0
142
0.0
142
1.0
179
     0
144
0.020833
144
0.0
144
0.0
144
0.0
144
0.0
144
0.020833
144
0.0
144
0.0
144
0.0
144
0.0
144
1.0
144
0.0
144
0.0
144
0.0
144
0.0
144
1.0
147
0.020833
147
0.0
147
0.0
147
0.0
147
0.0
147
0.020833
147
0.0
147
0.0
147
0.0
147
0.0
147
1.0
147
0.0
147
0.0
147
0.0
147
0.0
147
1.0
  0
MLEADERSTYLE
  5
1363
102
{ACAD_REACTORS
330
11D5
102
}
330
11D5
100
AcDbMLeaderStyle
170
     2
171
     1
172
     0
 90
        2
 40
0.0
 41
0.0
173
     1
 91
-1056964608
340
11B2
 92
       -2
290
     1
 42
0.09
291
     1
 43
0.36
  3
Standard
 44
0.18
300

342
11AF
174
     1
178
     6
175
     1
176
     0
 93
-1056964608
 45
0.18
292
     0
297
     0
 46
0.18
 94
-1056964608
 47
1.0
 49
1.0
140
1.0
293
     1
141
0.0
294
     1
177
     0
142
1.0
295
     0
296
     0
143
0.125
1001
ACAD_MLEADERVER
1070
     2
  0
MLINESTYLE
  5
11D6
102
{ACAD_REACTORS
330
11C0
102
}
330
11C0
100
AcDbMlineStyle
  2
STANDARD
 70
     0
  3

 62
   256
 51
90.0
 52
90.0
 71
     2
 49
0.5
 62
   256
  6
BYLAYER
 49
-0.5
 62
   256
  6
BYLAYER
  0
ACDBPLACEHOLDER
  5
1194
102
{ACAD_REACTORS
330
1195
102
}
330
1195
  0
SCALE
  5
11DA
102
{ACAD_REACTORS
330
11D3
102
}
330
11D3
100
AcDbScale
 70
     0
300
1:1
140
1.0
141
1.0
290
     1
  0
SCALE
  5
11DB
102
{ACAD_REACTORS
330
11D3
102
}
330
11D3
100
AcDbScale
 70
     0
300
1:2
140
1.0
141
2.0
290
     0
  0
SCALE
  5
11DC
102
{ACAD_REACTORS
330
11D3
102
}
330
11D3
100
AcDbScale
 70
     0
300
1:4
140
1.0
141
4.0
290
     0
  0
SCALE
  5
11DD
102
{ACAD_REACTORS
330
11D3
102
}
330
11D3
100
AcDbScale
 70
     0
300
1:5
140
1.0
141
5.0
290
     0
  0
SCALE
  5
11DE
102
{ACAD_REACTORS
330
11D3
102
}
330
11D3
100
AcDbScale
 70
     0
300
1:8
140
1.0
141
8.0
290
     0
  0
SCALE
  5
11DF
102
{ACAD_REACTORS
330
11D3
102
}
330
11D3
100
AcDbScale
 70
     0
300
1:10
140
1.0
141
10.0
290
     0
  0
SCALE
  5
11E0
102
{ACAD_REACTORS
330
11D3
102
}
330
11D3
100
AcDbScale
 70
     0
300
1:16
140
1.0
141
16.0
290
     0
  0
SCALE
  5
11E1
102
{ACAD_REACTORS
330
11D3
102
}
330
11D3
100
AcDbScale
 70
     0
300
1:20
140
1.0
141
20.0
290
     0
  0
SCALE
  5
11E2
102
{ACAD_REACTORS
330
11D3
102
}
330
11D3
100
AcDbScale
 70
     0
300
1:30
140
1.0
141
30.0
290
     0
  0
SCALE
  5
11E3
102
{ACAD_REACTORS
330
11D3
102
}
330
11D3
100
AcDbScale
 70
     0
300
1:40
140
1.0
141
40.0
290
     0
  0
SCALE
  5
11E4
102
{ACAD_REACTORS
330
11D3
102
}
330
11D3
100
AcDbScale
 70
     0
300
1:50
140
1.0
141
50.0
290
     0
  0
SCALE
  5
11E5
102
{ACAD_REACTORS
330
11D3
102
}
330
11D3
100
AcDbScale
 70
     0
300
1:100
140
1.0
141
100.0
290
     0
  0
SCALE
  5
11E6
102
{ACAD_REACTORS
330
11D3
102
}
330
11D3
100
AcDbScale
 70
     0
300
2:1
140
2.0
141
1.0
290
     0
  0
SCALE
  5
11E7
102
{ACAD_REACTORS
330
11D3
102
}
330
11D3
100
AcDbScale
 70
     0
300
4:1
140
4.0
141
1.0
290
     0
  0
SCALE
  5
11E8
102
{ACAD_REACTORS
330
11D3
102
}
330
11D3
100
AcDbScale
 70
     0
300
8:1
140
8.0
141
1.0
290
     0
  0
SCALE
  5
11E9
102
{ACAD_REACTORS
330
11D3
102
}
330
11D3
100
AcDbScale
 70
     0
300
10:1
140
10.0
141
1.0
290
     0
  0
SCALE
  5
11EA
102
{ACAD_REACTORS
330
11D3
102
}
330
11D3
100
AcDbScale
 70
     0
300
100:1
140
100.0
141
1.0
290
     0
  0
SCALE
  5
11EB
102
{ACAD_REACTORS
330
11D3
102
}
330
11D3
100
AcDbScale
 70
     0
300
1/128" = 1'-0"
140
0.007813
141
12.0
290
     0
  0
SCALE
  5
11EC
102
{ACAD_REACTORS
330
11D3
102
}
330
11D3
100
AcDbScale
 70
     0
300
1/64" = 1'-0"
140
0.015625
141
12.0
290
     0
  0
SCALE
  5
11ED
102
{ACAD_REACTORS
330
11D3
102
}
330
11D3
100
AcDbScale
 70
     0
300
1/32" = 1'-0"
140
0.03125
141
12.0
290
     0
  0
SCALE
  5
11EE
102
{ACAD_REACTORS
330
11D3
102
}
330
11D3
100
AcDbScale
 70
     0
300
1/16" = 1'-0"
140
0.0625
141
12.0
290
     0
  0
SCALE
  5
11EF
102
{ACAD_REACTORS
330
11D3
102
}
330
11D3
100
AcDbScale
 70
     0
300
3/32" = 1'-0"
140
0.09375
141
12.0
290
     0
  0
SCALE
  5
11F0
102
{ACAD_REACTORS
330
11D3
102
}
330
11D3
100
AcDbScale
 70
     0
300
1/8" = 1'-0"
140
0.125
141
12.0
290
     0
  0
SCALE
  5
11F1
102
{ACAD_REACTORS
330
11D3
102
}
330
11D3
100
AcDbScale
 70
     0
300
3/16" = 1'-0"
140
0.1875
141
12.0
290
     0
  0
SCALE
  5
11F2
102
{ACAD_REACTORS
330
11D3
102
}
330
11D3
100
AcDbScale
 70
     0
300
1/4" = 1'-0"
140
0.25
141
12.0
290
     0
  0
SCALE
  5
11F3
102
{ACAD_REACTORS
330
11D3
102
}
330
11D3
100
AcDbScale
 70
     0
300
3/8" = 1'-0"
140
0.375
141
12.0
290
     0
  0
SCALE
  5
11F4
102
{ACAD_REACTORS
330
11D3
102
}
330
11D3
100
AcDbScale
 70
     0
300
1/2" = 1'-0"
140
0.5
141
12.0
290
     0
  0
SCALE
  5
11F5
102
{ACAD_REACTORS
330
11D3
102
}
330
11D3
100
AcDbScale
 70
     0
300
3/4" = 1'-0"
140
0.75
141
12.0
290
     0
  0
SCALE
  5
11F6
102
{ACAD_REACTORS
330
11D3
102
}
330
11D3
100
AcDbScale
 70
     0
300
1" = 1'-0"
140
1.0
141
12.0
290
     0
  0
SCALE
  5
11F7
102
{ACAD_REACTORS
330
11D3
102
}
330
11D3
100
AcDbScale
 70
     0
300
1-1/2" = 1'-0"
140
1.5
141
12.0
290
     0
  0
SCALE
  5
11F8
102
{ACAD_REACTORS
330
11D3
102
}
330
11D3
100
AcDbScale
 70
     0
300
3" = 1'-0"
140
3.0
141
12.0
290
     0
  0
SCALE
  5
11F9
102
{ACAD_REACTORS
330
11D3
102
}
330
11D3
100
AcDbScale
 70
     0
300
6" = 1'-0"
140
6.0
141
12.0
290
     0
  0
SCALE
  5
11FA
102
{ACAD_REACTORS
330
11D3
102
}
330
11D3
100
AcDbScale
 70
     0
300
1'-0" = 1'-0"
140
12.0
141
12.0
290
     0
  0
TABLESTYLE
  5
11D7
102
{ACAD_XDICTIONARY
360
1346
102
}
102
{ACAD_REACTORS
330
11D4
102
}
330
11D4
100
AcDbTableStyle
  3
Standard
 70
     0
 71
     0
 40
0.06
 41
0.06
280
     0
281
     0
  7
Standard
140
0.18
170
     2
 62
     0
 63
     7
283
     0
 90
        4
 91
        0
  1

274
    -2
284
     1
 64
     0
275
    -2
285
     1
 65
     0
276
    -2
286
     1
 66
     0
277
    -2
287
     1
 67
     0
278
    -2
288
     1
 68
     0
279
    -2
289
     1
 69
     0
  7
Standard
140
0.25
170
     5
 62
     0
 63
     7
283
     0
 90
        4
 91
        0
  1

274
    -2
284
     1
 64
     0
275
    -2
285
     1
 65
     0
276
    -2
286
     1
 66
     0
277
    -2
287
     1
 67
     0
278
    -2
288
     1
 68
     0
279
    -2
289
     1
 69
     0
  7
Standard
140
0.18
170
     5
 62
     0
 63
     7
283
     0
 90
        4
 91
        0
  1

274
    -2
284
     1
 64
     0
275
    -2
285
     1
 65
     0
276
    -2
286
     1
 66
     0
277
    -2
287
     1
 67
     0
278
    -2
288
     1
 68
     0
279
    -2
289
     1
 69
     0
  0
VISUALSTYLE
  5
11B8
102
{ACAD_XDICTIONARY
360
197F
102
}
102
{ACAD_REACTORS
330
11B9
102
}
330
11B9
100
AcDbVisualStyle
  2

 70
     4
 71
     0
 72
     2
 73
     0
 90
        0
 40
-0.6
 41
-30.0
 62
     5
 63
     7
421
 16777215
 74
     1
 91
        4
 64
     7
 65
   257
 75
     1
175
     1
 42
1.0
 92
        0
 66
   257
 43
1.0
 76
     1
 77
     6
 78
     2
 67
     7
 79
     5
170
     0
171
     0
290
     0
174
     0
 93
        1
 44
0.0
173
     0
291
     0
 45
0.0
1001
ACAD
1000
AcDbSavedByObjectVersion
1070
     0
  0
VISUALSTYLE
  5
1358
102
{ACAD_XDICTIONARY
360
198F
102
}
102
{ACAD_REACTORS
330
11B9
102
}
330
11B9
100
AcDbVisualStyle
  2

 70
     6
 71
     1
 72
     2
 73
     2
 90
        0
 40
-0.6
 41
-30.0
 62
     5
 63
     7
421
 16777215
 74
     2
 91
        2
 64
     7
 65
   257
 75
     2
175
     1
 42
179.0
 92
        0
 66
   257
 43
1.0
 76
     1
 77
     6
 78
     2
 67
     7
 79
     3
170
     0
171
     0
290
     0
174
     0
 93
        1
 44
0.0
173
     0
291
     0
 45
0.0
1001
ACAD
1000
AcDbSavedByObjectVersion
1070
     0
  0
VISUALSTYLE
  5
11D9
102
{ACAD_XDICTIONARY
360
1983
102
}
102
{ACAD_REACTORS
330
11B9
102
}
330
11B9
100
AcDbVisualStyle
  2

 70
     5
 71
     0
 72
     2
 73
     0
 90
        0
 40
-0.6
 41
-30.0
 62
     5
 63
     7
421
 16777215
 74
     1
 91
        4
 64
     7
 65
   257
 75
     1
175
     1
 42
1.0
 92
        0
 66
   257
 43
1.0
 76
     1
 77
     6
 78
     2
 67
     7
 79
     5
170
     0
171
     0
290
     0
174
     0
 93
        1
 44
0.0
173
     0
291
     0
 45
0.0
1001
ACAD
1000
AcDbSavedByObjectVersion
1070
     0
  0
VISUALSTYLE
  5
1357
102
{ACAD_XDICTIONARY
360
198D
102
}
102
{ACAD_REACTORS
330
11B9
102
}
330
11B9
100
AcDbVisualStyle
  2

 70
     7
 71
     1
 72
     0
 73
     1
 90
        0
 40
-0.6
 41
-30.0
 62
     5
 63
     7
421
 16777215
 74
     0
 91
        4
 64
     7
 65
   257
 75
     1
175
     1
 42
1.0
 92
        8
 66
     7
 43
1.0
 76
     1
 77
     6
 78
     2
 67
     7
 79
     5
170
     0
171
     0
290
     0
174
     0
 93
        1
 44
0.0
173
     0
291
     1
 45
0.0
1001
ACAD
1000
AcDbSavedByObjectVersion
1070
     0
  0
VISUALSTYLE
  5
135B
102
{ACAD_XDICTIONARY
360
1995
102
}
102
{ACAD_REACTORS
330
11B9
102
}
330
11B9
100
AcDbVisualStyle
  2

 70
    12
 71
     2
 72
     2
 73
     0
 90
        0
 40
-0.6
 41
-30.0
 62
     5
 63
     7
421
 16777215
 74
     1
 91
        4
 64
     7
 65
   257
 75
     1
175
     1
 42
1.0
 92
        8
 66
     7
 43
1.0
 76
     1
 77
     6
 78
     2
 67
     7
 79
     5
170
     0
171
     0
290
     0
174
     0
 93
        1
 44
50.0
173
     0
291
     1
 45
0.0
1001
ACAD
1000
AcDbSavedByObjectVersion
1070
     0
  0
VISUALSTYLE
  5
135F
102
{ACAD_XDICTIONARY
360
199D
102
}
102
{ACAD_REACTORS
330
11B9
102
}
330
11B9
100
AcDbVisualStyle
  2

 70
    16
 71
     2
 72
     2
 73
     3
 90
        0
 40
-0.6
 41
-30.0
 62
     5
 63
     8
421
  8421504
 74
     1
 91
        4
 64
     7
 65
   257
 75
     1
175
     1
 42
1.0
 92
        8
 66
     8
424
  8421504
 43
1.0
 76
     1
 77
     6
 78
     2
 67
     7
 79
     5
170
     0
171
     0
290
     0
174
     0
 93
        1
 44
0.0
173
     0
291
     1
 45
0.0
1001
ACAD
1000
AcDbSavedByObjectVersion
1070
     0
  0
VISUALSTYLE
  5
1359
102
{ACAD_XDICTIONARY
360
1991
102
}
102
{ACAD_REACTORS
330
11B9
102
}
330
11B9
100
AcDbVisualStyle
  2

 70
     9
 71
     3
 72
     2
 73
     0
 90
        0
 40
-0.6
 41
-30.0
 62
     5
 63
     7
421
 16777215
 74
     2
 91
        2
 64
     7
 65
   257
 75
     1
175
     1
 42
179.0
 92
        8
 66
     7
 43
1.0
 76
     1
 77
     6
 78
     2
 67
     7
 79
     3
170
     0
171
     0
290
     0
174
     0
 93
        1
 44
0.0
173
     0
291
     0
 45
0.0
1001
ACAD
1000
AcDbSavedByObjectVersion
1070
     0
  0
VISUALSTYLE
  5
135A
102
{ACAD_XDICTIONARY
360
1993
102
}
102
{ACAD_REACTORS
330
11B9
102
}
330
11B9
100
AcDbVisualStyle
  2

 70
    11
 71
     2
 72
     2
 73
     0
 90
        0
 40
-0.6
 41
-30.0
 62
     5
 63
     7
421
 16777215
 74
     1
 91
        4
 64
     7
 65
   257
 75
     1
175
     1
 42
1.0
 92
        8
 66
     7
 43
1.0
 76
     1
 77
     6
 78
     2
 67
     7
 79
     5
170
     0
171
     0
290
     0
174
     0
 93
        1
 44
-50.0
173
     0
291
     1
 45
0.0
1001
ACAD
1000
AcDbSavedByObjectVersion
1070
     0
  0
VISUALSTYLE
  5
1362
102
{ACAD_XDICTIONARY
360
19A3
102
}
102
{ACAD_REACTORS
330
11B9
102
}
330
11B9
100
AcDbVisualStyle
  2

 70
    22
 71
     2
 72
     2
 73
     0
 90
        0
 40
-0.6
 41
-30.0
 62
     5
 63
     7
421
 16777215
 74
     1
 91
        4
 64
     7
 65
   257
 75
     1
175
     1
 42
1.0
 92
        8
 66
     7
 43
1.0
 76
     1
 77
     6
 78
     2
 67
     7
 79
     5
170
     0
171
     0
290
     0
174
     0
 93
        1
 44
0.0
173
     0
291
     1
 45
0.0
1001
ACAD
1000
AcDbSavedByObjectVersion
1070
     0
  0
VISUALSTYLE
  5
135E
102
{ACAD_XDICTIONARY
360
199B
102
}
102
{ACAD_REACTORS
330
11B9
102
}
330
11B9
100
AcDbVisualStyle
  2

 70
    15
 71
     2
 72
     2
 73
     0
 90
        0
 40
-0.6
 41
-30.0
 62
     5
 63
     7
421
 16777215
 74
     1
 91
        4
 64
     7
 65
   257
 75
     1
175
     1
 42
1.0
 92
        8
 66
     7
 43
1.0
 76
     1
 77
     6
 78
     2
 67
     7
 79
     5
170
     0
171
     0
290
     0
174
     0
 93
        1
 44
0.0
173
     0
291
     1
 45
0.0
1001
ACAD
1000
AcDbSavedByObjectVersion
1070
     0
  0
VISUALSTYLE
  5
1353
102
{ACAD_XDICTIONARY
360
1985
102
}
102
{ACAD_REACTORS
330
11B9
102
}
330
11B9
100
AcDbVisualStyle
  2

 70
     0
 71
     2
 72
     1
 73
     1
 90
        2
 40
-0.6
 41
30.0
 62
     5
 63
     7
421
 16777215
 74
     0
 91
        4
 64
     7
 65
   257
 75
     1
175
     1
 42
1.0
 92
        8
 66
     7
 43
1.0
 76
     1
 77
     6
 78
     2
 67
     7
 79
     5
170
     0
171
     0
290
     0
174
     0
 93
       13
 44
0.0
173
     0
291
     1
 45
0.0
1001
ACAD
1000
AcDbSavedByObjectVersion
1070
     0
  0
VISUALSTYLE
  5
1354
102
{ACAD_XDICTIONARY
360
1987
102
}
102
{ACAD_REACTORS
330
11B9
102
}
330
11B9
100
AcDbVisualStyle
  2

 70
     1
 71
     2
 72
     1
 73
     1
 90
        2
 40
-0.6
 41
30.0
 62
     5
 63
     7
421
 16777215
 74
     1
 91
        4
 64
     7
 65
   257
 75
     1
175
     1
 42
1.0
 92
        0
 66
   257
 43
1.0
 76
     1
 77
     6
 78
     2
 67
     7
 79
     5
170
     0
171
     0
290
     0
174
     0
 93
       13
 44
0.0
173
     0
291
     1
 45
0.0
1001
ACAD
1000
AcDbSavedByObjectVersion
1070
     0
  0
VISUALSTYLE
  5
1355
102
{ACAD_XDICTIONARY
360
1989
102
}
102
{ACAD_REACTORS
330
11B9
102
}
330
11B9
100
AcDbVisualStyle
  2

 70
     2
 71
     2
 72
     2
 73
     1
 90
        2
 40
-0.6
 41
30.0
 62
     5
 63
     7
421
 16777215
 74
     0
 91
        4
 64
     7
 65
   257
 75
     1
175
     1
 42
1.0
 92
        0
 66
     7
 43
1.0
 76
     1
 77
     6
 78
     2
 67
     7
 79
     5
170
     0
171
     0
290
     0
174
     0
 93
       13
 44
0.0
173
     0
291
     1
 45
0.0
1001
ACAD
1000
AcDbSavedByObjectVersion
1070
     0
  0
VISUALSTYLE
  5
1356
102
{ACAD_XDICTIONARY
360
198B
102
}
102
{ACAD_REACTORS
330
11B9
102
}
330
11B9
100
AcDbVisualStyle
  2

 70
     3
 71
     2
 72
     2
 73
     1
 90
        2
 40
-0.6
 41
30.0
 62
     5
 63
     7
421
 16777215
 74
     1
 91
        4
 64
     7
 65
   257
 75
     1
175
     1
 42
1.0
 92
        0
 66
   257
 43
1.0
 76
     1
 77
     6
 78
     2
 67
     7
 79
     5
170
     0
171
     0
290
     0
174
     0
 93
       13
 44
0.0
173
     0
291
     1
 45
0.0
1001
ACAD
1000
AcDbSavedByObjectVersion
1070
     0
  0
VISUALSTYLE
  5
1360
102
{ACAD_XDICTIONARY
360
199F
102
}
102
{ACAD_REACTORS
330
11B9
102
}
330
11B9
100
AcDbVisualStyle
  2

 70
    20
 71
     2
 72
     2
 73
     0
 90
        0
 40
-0.6
 41
-30.0
 62
     5
 63
     7
421
 16777215
 74
     1
 91
        4
 64
     7
 65
   257
 75
     1
175
     1
 42
1.0
 92
       10
 66
     7
 43
1.0
 76
     1
 77
     6
 78
     2
 67
     7
 79
     5
170
     0
171
     0
290
     0
174
     0
 93
        1
 44
0.0
173
     0
291
     1
 45
0.0
1001
ACAD
1000
AcDbSavedByObjectVersion
1070
     0
  0
VISUALSTYLE
  5
135D
102
{ACAD_XDICTIONARY
360
1999
102
}
102
{ACAD_REACTORS
330
11B9
102
}
330
11B9
100
AcDbVisualStyle
  2

 70
    14
 71
     2
 72
     2
 73
     0
 90
        0
 40
-0.6
 41
-30.0
 62
     5
 63
     7
421
 16777215
 74
     1
 91
        4
 64
     7
 65
   257
 75
     7
175
     7
 42
1.0
 92
        8
 66
     7
 43
1.0
 76
     1
 77
     6
 78
     2
 67
     7
 79
     5
170
     0
171
     0
290
     0
174
     0
 93
        1
 44
0.0
173
     0
291
     1
 45
0.0
1001
ACAD
1000
AcDbSavedByObjectVersion
1070
     0
  0
VISUALSTYLE
  5
1361
102
{ACAD_XDICTIONARY
360
19A1
102
}
102
{ACAD_REACTORS
330
11B9
102
}
330
11B9
100
AcDbVisualStyle
  2

 70
    21
 71
     2
 72
     2
 73
     0
 90
        0
 40
-0.6
 41
-30.0
 62
     5
 63
     7
421
 16777215
 74
     1
 91
        4
 64
     7
 65
   257
 75
     1
175
     1
 42
1.0
 92
        9
 66
     7
 43
1.0
 76
     1
 77
     6
 78
     2
 67
     7
 79
     5
170
     0
171
     0
290
     0
174
     0
 93
        1
 44
0.0
173
     0
291
     1
 45
0.0
1001
ACAD
1000
AcDbSavedByObjectVersion
1070
     0
  0
VISUALSTYLE
  5
11D8
102
{ACAD_XDICTIONARY
360
1981
102
}
102
{ACAD_REACTORS
330
11B9
102
}
330
11B9
100
AcDbVisualStyle
  2

 70
     8
 71
     2
 72
     2
 73
     0
 90
        0
 40
-0.6
 41
-30.0
 62
     5
 63
     7
421
 16777215
 74
     1
 91
        0
 64
     7
 65
   257
 75
     1
175
     1
 42
1.0
 92
        8
 66
     8
424
  7895160
 43
1.0
 76
     1
 77
     6
 78
     2
 67
     7
 79
     5
170
     0
171
     0
290
     0
174
     0
 93
       13
 44
0.0
173
     0
291
     0
 45
0.0
1001
ACAD
1000
AcDbSavedByObjectVersion
1070
     0
  0
VISUALSTYLE
  5
135C
102
{ACAD_XDICTIONARY
360
1997
102
}
102
{ACAD_REACTORS
330
11B9
102
}
330
11B9
100
AcDbVisualStyle
  2

 70
    13
 71
     2
 72
     2
 73
     0
 90
        0
 40
-0.6
 41
-30.0
 62
     5
 63
     7
421
 16777215
 74
     1
 91
        4
 64
     7
 65
   257
 75
     1
175
     1
 42
1.0
 92
       12
 66
     7
 43
1.0
 76
     1
 77
     6
 78
     2
 67
     7
 79
     5
170
     0
171
     0
290
     0
174
     0
 93
        1
 44
0.0
173
     0
291
     1
 45
0.0
1001
ACAD
1000
AcDbSavedByObjectVersion
1070
     0
  0
DICTIONARYVAR
  5
1342
102
{ACAD_REACTORS
330
133E
102
}
330
133E
100
DictionaryVariables
280
     0
  1
1:1
  0
DICTIONARYVAR
  5
1340
102
{ACAD_REACTORS
330
133E
102
}
330
133E
100
DictionaryVariables
280
     0
  1
STANDARD
  0
DICTIONARYVAR
  5
133F
102
{ACAD_REACTORS
330
133E
102
}
330
133E
100
DictionaryVariables
280
     0
  1
STANDARD
  0
DICTIONARYVAR
  5
1344
102
{ACAD_REACTORS
330
133E
102
}
330
133E
100
DictionaryVariables
280
     0
  1
1
  0
DICTIONARYVAR
  5
1345
102
{ACAD_REACTORS
330
133E
102
}
330
133E
100
DictionaryVariables
280
     0
  1
15
  0
DICTIONARYVAR
  5
1343
102
{ACAD_REACTORS
330
133E
102
}
330
133E
100
DictionaryVariables
280
     0
  1
0
  0
DICTIONARYVAR
  5
1341
102
{ACAD_REACTORS
330
133E
102
}
330
133E
100
DictionaryVariables
280
     0
  1
0
  0
DICTIONARY
  5
11A8
330
11A7
100
AcDbDictionary
280
     1
281
     1
  3
ADSK_XREC_LAYOUTTHUMBNAIL
360
11A9
  0
DICTIONARY
  5
11CB
330
11CA
100
AcDbDictionary
280
     1
281
     1
  3
BUMPTILE
360
11CC
  3
DIFFUSETILE
360
11CD
  3
OPACITYTILE
360
11CE
  3
REFLECTIONTILE
360
11CF
  3
REFRACTIONTILE
360
11D0
  3
SPECULARTILE
360
11D1
  0
DICTIONARY
  5
11C3
330
11C2
100
AcDbDictionary
280
     1
281
     1
  3
BUMPTILE
360
11C4
  3
DIFFUSETILE
360
11C5
  3
OPACITYTILE
360
11C6
  3
REFLECTIONTILE
360
11C7
  3
REFRACTIONTILE
360
11C8
  3
SPECULARTILE
360
11C9
  0
DICTIONARY
  5
1199
330
1197
100
AcDbDictionary
280
     1
281
     1
  3
BUMPTILE
360
119A
  3
DIFFUSETILE
360
119B
  3
OPACITYTILE
360
119C
  3
REFLECTIONTILE
360
119D
  3
REFRACTIONTILE
360
119E
  3
SPECULARTILE
360
119F
  0
DICTIONARY
  5
1346
330
11D7
100
AcDbDictionary
280
     1
281
     1
  3
ACAD_ROUNDTRIP_2008_TABLESTYLE_CELLSTYLEMAP
360
197D
  0
DICTIONARY
  5
197F
330
11B8
100
AcDbDictionary
280
     1
281
     1
  3
ACAD_XREC_ROUNDTRIP
360
1980
  0
DICTIONARY
  5
198F
330
1358
100
AcDbDictionary
280
     1
281
     1
  3
ACAD_XREC_ROUNDTRIP
360
1990
  0
DICTIONARY
  5
1983
330
11D9
100
AcDbDictionary
280
     1
281
     1
  3
ACAD_XREC_ROUNDTRIP
360
1984
  0
DICTIONARY
  5
198D
330
1357
100
AcDbDictionary
280
     1
281
     1
  3
ACAD_XREC_ROUNDTRIP
360
198E
  0
DICTIONARY
  5
1995
330
135B
100
AcDbDictionary
280
     1
281
     1
  3
ACAD_XREC_ROUNDTRIP
360
1996
  0
DICTIONARY
  5
199D
330
135F
100
AcDbDictionary
280
     1
281
     1
  3
ACAD_XREC_ROUNDTRIP
360
199E
  0
DICTIONARY
  5
1991
330
1359
100
AcDbDictionary
280
     1
281
     1
  3
ACAD_XREC_ROUNDTRIP
360
1992
  0
DICTIONARY
  5
1993
330
135A
100
AcDbDictionary
280
     1
281
     1
  3
ACAD_XREC_ROUNDTRIP
360
1994
  0
DICTIONARY
  5
19A3
330
1362
100
AcDbDictionary
280
     1
281
     1
  3
ACAD_XREC_ROUNDTRIP
360
19A4
  0
DICTIONARY
  5
199B
330
135E
100
AcDbDictionary
280
     1
281
     1
  3
ACAD_XREC_ROUNDTRIP
360
199C
  0
DICTIONARY
  5
1985
330
1353
100
AcDbDictionary
280
     1
281
     1
  3
ACAD_XREC_ROUNDTRIP
360
1986
  0
DICTIONARY
  5
1987
330
1354
100
AcDbDictionary
280
     1
281
     1
  3
ACAD_XREC_ROUNDTRIP
360
1988
  0
DICTIONARY
  5
1989
330
1355
100
AcDbDictionary
280
     1
281
     1
  3
ACAD_XREC_ROUNDTRIP
360
198A
  0
DICTIONARY
  5
198B
330
1356
100
AcDbDictionary
280
     1
281
     1
  3
ACAD_XREC_ROUNDTRIP
360
198C
  0
DICTIONARY
  5
199F
330
1360
100
AcDbDictionary
280
     1
281
     1
  3
ACAD_XREC_ROUNDTRIP
360
19A0
  0
DICTIONARY
  5
1999
330
135D
100
AcDbDictionary
280
     1
281
     1
  3
ACAD_XREC_ROUNDTRIP
360
199A
  0
DICTIONARY
  5
19A1
330
1361
100
AcDbDictionary
280
     1
281
     1
  3
ACAD_XREC_ROUNDTRIP
360
19A2
  0
DICTIONARY
  5
1981
330
11D8
100
AcDbDictionary
280
     1
281
     1
  3
ACAD_XREC_ROUNDTRIP
360
1982
  0
DICTIONARY
  5
1997
330
135C
100
AcDbDictionary
280
     1
281
     1
  3
ACAD_XREC_ROUNDTRIP
360
1998
  0
XRECORD
  5
11A9
102
{ACAD_REACTORS
330
11A8
102
}
330
11A8
100
AcDbXrecord
280
     1
310
28000000B40000008B0000000100080000000000BC61000000000000000000000001000000000000FFFFFF0000000000FFFFFF000000000000000000000000000000000000000000000000000000000000000000330000006600000099000000CC000000FF00000000330000333300006633000099330000CC330000FF3300
310
0000660000336600006666000099660000CC660000FF66000000990000339900006699000099990000CC990000FF99000000CC000033CC000066CC000099CC0000CCCC0000FFCC000000FF000033FF000066FF000099FF0000CCFF0000FFFF000000003300330033006600330099003300CC003300FF003300003333003333
310
33006633330099333300CC333300FF33330000663300336633006666330099663300CC663300FF66330000993300339933006699330099993300CC993300FF99330000CC330033CC330066CC330099CC3300CCCC3300FFCC330000FF330033FF330066FF330099FF3300CCFF3300FFFF330000006600330066006600660099
310
006600CC006600FF00660000336600333366006633660099336600CC336600FF33660000666600336666006666660099666600CC666600FF66660000996600339966006699660099996600CC996600FF99660000CC660033CC660066CC660099CC6600CCCC6600FFCC660000FF660033FF660066FF660099FF6600CCFF6600
310
FFFF660000009900330099006600990099009900CC009900FF00990000339900333399006633990099339900CC339900FF33990000669900336699006666990099669900CC669900FF66990000999900339999006699990099999900CC999900FF99990000CC990033CC990066CC990099CC9900CCCC9900FFCC990000FF99
310
0033FF990066FF990099FF9900CCFF9900FFFF99000000CC003300CC006600CC009900CC00CC00CC00FF00CC000033CC003333CC006633CC009933CC00CC33CC00FF33CC000066CC003366CC006666CC009966CC00CC66CC00FF66CC000099CC003399CC006699CC009999CC00CC99CC00FF99CC0000CCCC0033CCCC0066CC
310
CC0099CCCC00CCCCCC00FFCCCC0000FFCC0033FFCC0066FFCC0099FFCC00CCFFCC00FFFFCC000000FF003300FF006600FF009900FF00CC00FF00FF00FF000033FF003333FF006633FF009933FF00CC33FF00FF33FF000066FF003366FF006666FF009966FF00CC66FF00FF66FF000099FF003399FF006699FF009999FF00CC
310
99FF00FF99FF0000CCFF0033CCFF0066CCFF0099CCFF00CCCCFF00FFCCFF0000FFFF0033FFFF0066FFFF0099FFFF00CCFFFF00FFFFFF00000000000D0D0D001A1A1A00282828003535350043434300505050005D5D5D006B6B6B00787878008686860093939300A1A1A100AEAEAE00BBBBBB00C9C9C900D6D6D600E4E4E400
310
F1F1F100FFFFFF0000000000000000000000000000000000000000000000000000000000000000000000000000000000E2E2E2E2E2E2E2E2E2E2E2E2E2E2E2E2E2E2E2E2E2E2E2E2E2E2E2E2E2E2E2E2E2E2E2E2E2E2E2E2E2E2E2E2E2E2E2E2E2E2E2E2E2E2E2E2E2E2E2E2E2E2E2E2E2E2E2E2E2E2E2E2E2E2E2E2E2E2E2
310
E2E2E2E2E2E2E2E2E2E2E2E2E2E2E2E2E2E2E2E2E2E2E2E2E2E2E2E2E2E2E2E2E2E2E2E2E2E2E2E2E2E2E2E2E2E2E2E2E2E2E2E2E2E2E2E2E2E2E2E2E2E2E2E2E2E2E2E2E2E2E2E2E2E2E2E2E2E2E2E2E2E2E2E2E2E2E2E2E2E2E2E2E2E2E2E2E2E2E2E2EFF5F5F5F5F5F5F5F5F5F5F5F5F5F5F5F5F5F5F5F5F5F5F5F5F5F5
310
F5F5F5F5F5F5F5F5F5F5F5F5F5F5F5F5F5F5F5F5F5F5F5F5F5F5F5F5F5F5F5F5F5F5F5F5F5F5F5F5F5F5F5F5F5F5F5F5F5F5F5F5F5F5F5F5F5F5F5F5F5F5F5F5F5F5F5F5F5F5F5F5F5F5F5F5F5F5F5F5F5F5F5F5F5F5F5F5F5F5F5F5F5F5F5F5F5F5F5F5F5F5F5F5F5F5F5F5F5F5F5F5F5F5F5F5F5F5F5F5F5F5F5F5F5F5F5
310
F5F5F5F5F5F5F5F5F5F5F5F5F5F5F5F5F5F5F5F5F5F5F5F5E2E2EFF5F5F5F5F5F5F5F5F5F5F5F5F5F5F5F5F5F5F5F5F5F5F5F5F5F5F5F5F5F5F5F5F5F5F5F5F5F5F5F5F5F5F5F5F5F5F5F5F5F5F5F5F5F5F5F5F5F5F5F5F5F5F5F5F5F5F5F5F5F5F5F5F5F5F5F5F5F5F5F5F5F5F5F5F5F5F5F5F5F5F5F5F5F5F5F5F5F5F5F5
310
F5F5F5F5F5F5F5F5F5F5F5F5F5F5F5F5F5F5F5F5F5F5F5F5F5F5F5F5F5F5F5F5F5F5F5F5F5F5F5F5F5F5F5F5F5F5F5F5F5F5F5F5F5F5F5F5F5F5F5F5F5F5F5F5F5F5F5F5F5F5F5F5F5F5F5F5F5E2E2EFF5F5F5F5F5F5F5F5F5F5F5F5F5F5F5F5F5F5F5F5F5F5F5F5F5F5F5F5F5F5F5F5F5F5F5F5F5F5F5F5F5F5F5F5F5F5F5
310
F5F5F5F5F5F5F5F5F5F5F5F5F5F5F5F5F5F5F5F5F5F5F5F5F5F5F5F5F5F5F5F5F5F5F5F5F5F5F5F5F5F5F5F5F5F5F5F5F5F5F5F5F5F5F5F5F5F5F5F5F5F5F5F5F5F5F5F5F5F5F5F5F5F5F5F5F5F5F5F5F5F5F5F5F5F5F5F5F5F5F5F5F5F5F5F5F5F5F5F5F5F5F5F5F5F5F5F5F5F5F5F5F5F5F5F5F5F5F5F5F5F5F5F5F5F5F5
310
F5F5F5E2E2EFF5F5F5E2E2E2E2E2E2E2E2F5F5F5F5F5F5F5F5F5E2E2E2E2E2E2E2E2E2E2E2E2E2E2E2E2F5F5F5F5F5F5F5F5E2E2E2E2E2E2E2E2E2E2E2E2E2E2E2E2F5F5F5F5F5F5F5F5F5E2E2E2E2E2E2E2E2E2E2E2E2E2E2E2F5F5F5F5F5F5F5F5F5E2E2E2E2E2E2E2E2E2E2E2E2E2E2E2F5F5F5F5F5F5F5F5F5E2E2E2E2
310
E2E2E2E2E2E2E2E2E2E2E2E2F5F5F5F5F5F5F5F5E2E2E2E2E2E2E2E2E2E2E2E2E2E2E2E2F5F5F5F5F5F5F5F5F5E2E2E2E2E2E2E2E2F5F5F5E2E2EFF5F5F5E2F5F5F5F5F5F5F5F5F5F5F5F5F5F5F5F5F5F5F5F5F5F5F5F5F5F5F5F5F5F5F5F5F5F5F5F5F5F5F5F5F5F5F5F5F5F5F5F5F5F5F5F5F5F5F5F5F5F5F5F5F5F5F5F5
310
F5F5F5F5F5F5F5F5F5F5F5F5F5F5F5F5F5F5F5F5F5F5F5F5F5F5F5F5F5F5F5F5F5F5F5F5F5F5F5F5F5F5F5F5F5F5F5F5F5F5F5F5F5F5F5F5F5F5F5F5F5F5F5F5F5F5F5F5F5F5F5F5F5F5F5F5F5F5F5F5F5F5F5F5F5F5F5F5F5F5F5F5F5F5F5F5F5F5F5F5F5F5F5F5F5E2F5F5F5E2E2EFF5F5F5E2F5F5F5F5F5F5F5F5F5F5F5
310
F5F5F5F5F5F5F5F5F5F5F5F5F5F5F5F5F5F5F5F5F5F5F5F5F5F5F5F5F5F5F5F5F5F5F5F5F5F5F5F5F5F5F5F5F5F5F5F5F5F5F5F5F5F5F5F5F5F5F5F5F5F5F5F5F5F5F5F5F5F5F5F5F5F5F5F5F5F5F5F5F5F5F5F5F5F5F5F5F5F5F5F5F5F5F5F5F5F5F5F5F5F5F5F5F5F5F5F5F5F5F5F5F5F5F5F5F5F5F5F5F5F5F5F5F5F5F5
310
F5F5F5F5F5F5F5F5F5F5F5F5F5F5F5F5F5F5F5F5F5F5F5F5F5F5F5F5F5F5F5E2F5F5F5E2E2EFF5F5F5E2F5F5F5F5F5F5F5F5F5F5F5F5F5F5F5F5F5F5F5F5F5F5F5F5F5F5F5F5F5F5F5F5F5F5F5F5F5F5F5F5F5F5F5F5F5F5F5F5F5F5F5F5F5F5F5F5F5F5F5F5F5F5F5F5F5F5F5F5F5F5F5F5F5F5F5F5F5F5F5F5F5F5F5F5F5
310
F5F5F5F5F5F5F5F5F5F5F5F5F5F5F5F5F5F5F5F5F5F5F5F5F5F5F5F5F5F5F5F5F5F5F5F5F5F5F5F5F5F5F5F5F5F5F5F5F5F5F5F5F5F5F5F5F5F5F5F5F5F5F5F5F5F5F5F5F5F5F5F5F5F5F5F5F5F5F5F5F5F5F5F5E2F5F5F5E2E2EFF5F5F5E2F5F5F5F5F5F5F5F5F5F5F5F5F5F5F5F5F5F5F5F5F5F5F5F5F5F5F5F5F5F5F5F5
310
F5F5F5F5F5F5F5F5F5F5F5F5F5F5F5F5F5F5F5F5F5F5F5F5F5F5F5F5F5F5F5F5F5F5F5F5F5F5F5F5F5F5F5F5F5F5F5F5F5F5F5F5F5F5F5F5F5F5F5F5F5F5F5F5F5F5F5F5F5F5F5F5F5F5F5F5F5F5F5F5F5F5F5F5F5F5F5F5F5F5F5F5F5F5F5F5F5F5F5F5F5F5F5F5F5F5F5F5F5F5F5F5F5F5F5F5F5F5F5F5F5F5F5F5F5F5F5
310
F5F5F5F5F5F5F5F5F5F5E2F5F5F5E2E2EFF5F5F5E2F5F5F5F5F5F5F5F5F5F5F5F5F5F5F5F5F5F5F5F5F5F5F5F5F5F5F5F5F5F5F5F5F5F5F5F5F5F5F5F5F5F5F5F5F5F5F5F5F5F5F5F5F5F5F5F5F5F5F5F5F5F5F5F5F5F5F5F5F5F5F5F5F5F5F5F5F5F5F5F5F5F5F5F5F5F5F5F5F5F5F5F5F5F5F5F5F5F5F5F5F5F5F5F5F5F5
310
F5F5F5F5F5F5F5F5F5F5F5F5F5F5F5F5F5F5F5F5F5F5F5F5F5F5F5F5F5F5F5F5F5F5F5F5F5F5F5F5F5F5F5F5F5F5F5F5F5F5F5F5F5F5F5F5F5F5F5F5F5F5F5E2F5F5F5E2E2EFF5F5F5E2F5F5F5F5F5F5F5F5F5F5F5F5F5F5F5F5F5F5F5F5F5F5F5F5F5F5F5F5F5F5F5F5F5F5F5F5F5F5F5F5F5F5F5F5F5F5F5F5F5F5F5F5F5
310
F5F5F5F5F5F5F5F5F5F5F5F5F5F5F5F5F5F5F5F5F5F5F5F5F5F5F5F5F5F5F5F5F5F5F5F5F5F5F5F5F5F5F5F5F5F5F5F5F5F5F5F5F5F5F5F5F5F5F5F5F5F5F5F5F5F5F5F5F5F5F5F5F5F5F5F5F5F5F5F5F5F5F5F5F5F5F5F5F5F5F5F5F5F5F5F5F5F5F5F5F5F5F5F5F5F5F5F5F5F5F5F5F5F5F5F5E2F5F5F5E2E2EFF5F5F5E2
310
F5F5F5F5F5F5F5F5F5F5F5F5F5F5F5F5F5F5F5F5F5F5F5F5F5F5F5F5F5F5F5F5F5F5F5F5F5F5F5F5F5F5F5F5F5F5F5F5F5F5F5F5F5F5F5F5F5F5F5F5F5F5F5F5F5F5F5F5F5F5F5F5F5F5F5F5F5F5F5F5F5F5F5F5F5F5F5F5F5F5F5F5F5F5F5F5F5F5F5F5F5F5F5F5F5F5F5F5F5F5F5F5F5F5F5F5F5F5F5F5F5F5F5F5F5F5F5
310
F5F5F5F5F5F5F5F5F5F5F5F5F5F5F5F5F5F5F5F5F5F5F5F5F5F5F5F5F5F5F5F5F5F5F5F5F5F5F5F5F5F5E2F5F5F5E2E2EFF5F5F5E2F5F5F5F5F5F5F5F5F5F5F5F5F5F5F5F5F5F5F5F5F5F5F5F5F5F5F5F5F5F5F5F5F5F5F5F5F5F5F5F5F5F5F5F5F5F5F5F5F5F5F5F5F5F5F5F5F5F5F5F5F5F5F5F5F5F5F5F5F5F5F5F5F5F5
310
F5F5F5F5F5F5F5F5F5F5F5F5F5F5F5F5F5F5F5F5F5F5F5F5F5F5F5F5F5F5F5F5F5F5F5F5F5F5F5F5F5F5F5F5F5F5F5F5F5F5F5F5F5F5F5F5F5F5F5F5F5F5F5F5F5F5F5F5F5F5F5F5F5F5F5F5F5F5F5F5F5F5F5F5F5F5F5F5F5F5F5F5F5F5F5E2F5F5F5E2E2EFF5F5F5F5F5F5F5F5F5F5F5F5F5F5F5F5F5F5F5F5F5F5F5F5F5
310
F5F5F5F5F5F5F5F5F5F5F5F5F5F5F5F5F5F5F5F5F5F5F5F5F5F5F5F5F5F5F5F5F5F5F5F5F5F5F5F5F5F5F5F5F5F5F5F5F5F5F5F5F5F5F5F5F5F5F5F5F5F5F5F5F5F5F5F5F5F5F5F5F5F5F5F5F5F5F5F5F5F5F5F5F5F5F5F5F5F5F5F5F5F5F5F5F5F5F5F5F5F5F5F5F5F5F5F5F5F5F5F5F5F5F5F5F5F5F5F5F5F5F5F5F5F5F5
310
F5F5F5F5F5F5F5F5F5F5F5F5F5F5F5F5F5F5F5F5F5F5F5F5F5E2E2EFF5F5F5F5F5F5F5F5F5F5F5F5F5F5F5F5F5F5F5F5F5F5F5F5F5F5F5F5F5F5F5F5F5F5F5F5F5F5F5F5F5F5F5F5F5F5F5F5F5F5F5F5F5F5F5F5F5F5F5F5F5F5F5F5F5F5F5F5F5F5F5F5F5F5F5F5F5F5F5F5F5F5F5F5F5F5F5F5F5F5F5F5F5F5F5F5F5F5F5
310
F5F5F5F5F5F5F5F5F5F5F5F5F5F5F5F5F5F5F5F5F5F5F5F5F5F5F5F5F5F5F5F5F5F5F5F5F5F5F5F5F5F5F5F5F5F5F5F5F5F5F5F5F5F5F5F5F5F5F5F5F5F5F5F5F5F5F5F5F5F5F5F5F5F5F5F5F5F5E2E2EFF5F5F5F5F5F5F5F5F5F5F5F5F5F5F5F5F5F5F5F5F5F5F5F5F5F5F5F5F5F5F5F5F5F5F5F5F5F5F5F5F5F5F5F5F5F5
310
F5F5F5F5F5F5F5F5F5F5F5F5F5F5F5F5F5F5F5F5F5F5F5F5F5F5F5F5F5F5F5F5F5F5F5F5F5F5F5F5F5F5F5F5F5F5F5F5F5F5F5F5F5F5F5F5F5F5F5F5F5F5F5F5F5F5F5F5F5F5F5F5F5F5F5F5F5F5F5F5F5F5F5F5F5F5F5F5F5F5F5F5F5F5F5F5F5F5F5F5F5F5F5F5F5F5F5F5F5F5F5F5F5F5F5F5F5F5F5F5F5F5F5F5F5F5F5
310
F5F5F5F5E2E2EFF5F5F5F5F5F5F5F5F5F5F5F5F5F5F5F5F5F5F5F5F5F5F5F5F5F5F5F5F5F5F5F5F5F5F5F5F5F5F5F5F5F5F5F5F5F5F5F5F5F5F5F5F5F5F5F5F5F5F5F5F5F5F5F5F5F5F5F5F5F5F5F5F5F5F5F5F5F5F5F5F5F5F5F5F5F5F5F5F5F5F5F5F5F5F5F5F5F5F5F5F5F5F5F5F5F5F5F5F5F5F5F5F5F5F5F5F5F5F5F5
310
F5F5F5F5F5F5F5F5F5F5F5F5F5F5F5F5F5F5F5F5F5F5F5F5F5F5F5F5F5F5F5F5F5F5F5F5F5F5F5F5F5F5F5F5F5F5F5F5F5F5F5F5F5F5F5F5F5E2E2EFF5F5F5F5F5F5F5F5F5F5F5F5F5F5F5F5F5F5F5F5E2E2E2E2E2E2E2E2E2E2E2E2E2E2E2E2E2E2E2E2E2E2E2E2E2E2E2E2E2E2E2E2E2E2E2E2E2E2E2E2E2E2E2E2E2E2E2
310
E2E2E2E2E2E2E2E2E2E2E2E2E2E2E2E2E2E2E2E2E2E2E2E2E2E2E2E2E2E2E2E2E2E2E2E2E2E2E2E2E2E2E2E2E2E2E2E2E2E2E2E2E2E2E2E2E2E2E2E2E2E2E2E2E2E2E2E2E2E2E2E2E2E2E2E2E2E2E2E2E2E2E2E2E2E2E2E2E2E2F5F5F5F5F5F5F5F5F5F5F5F5F5F5F5F5F5F5F5F5E2E2EFF5F5F5F5F5F5F5F5F5F5F5F5F5F5
310
F5F5F5F5F5F5E2F5F5F5F5F5F5F5F5F5F5F5F5F5F5F5F5F5F5F5F5F5F5F5F5F5F5F5F5F5F5F5F5F5F5F5F5F5F5F5F5F5F5F5F5F5F5F5F5F5F5F5F5F5F5F5F5F5F5F5F5F5F5F5F5F5F5F5F5F5F5F5F5F5F5F5F5F5F5F5F5F5F5F5F5F5F5F5F5F5F5F5F5F5F5F5F5F5F5F5F5F5F5F5F5F5F5F5F5F5F5F5F5F5F5F5F5F5F5F5F5
310
F5F5F5F5F5F5F5F5F5F5F5F5F5F5F5E2F5F5F5F5F5F5F5F5F5F5F5F5F5F5F5F5F5F5F5F5E2E2EFF5F5F5F5F5F5F5F5F5F5F5F5F5F5F5F5F5F5F5F5E2F5F5F5F5F5F5F5F5F5F5F5F5F5F5F5F5F5F5F5F5F5F5F5F5F5F5F5F5F5F5F5F5F5F5F5F5F5F5F5F5F5F5F5F5F5F5F5F5F5F5F5F5F5F5F5F5F5F5F5F5F5F5F5F5F5F5F5
310
F5F5F5F5F5F5F5F5F5F5F5F5F5F5F5F5F5F5F5F5F5F5F5F5F5F5F5F5F5F5F5F5F5F5F5F5F5F5F5F5F5F5F5F5F5F5F5F5F5F5F5F5F5F5F5F5F5F5F5F5F5F5F5F5F5F5F5F5E2F5F5F5F5F5F5F5F5F5F5F5F5F5F5F5F5F5F5F5F5E2E2EFF5F5F5F5F5F5F5F5F5F5F5F5F5F5F5F5F5F5F5F5E2F5F5F5F5F5F5F5F5F5F5F5F5F5F5
310
F5F5F5F5F5F5F5F5F5F5F5F5F5F5F5F5F5F5F5F5F5F5F5F5F5F5F5F5F5F5F5F5F5F5F5F5F5F5F5F5F5F5F5F5F5F5F5F5F5F5F5F5F5F5F5F5F5F5F5F5F5F5F5F5F5F5F5F5F5F5F5F5F5F5F5F5F5F5F5F5F5F5F5F5F5F5F5F5F5F5F5F5F5F5F5F5F5F5F5F5F5F5F5F5F5F5F5F5F5F5F5F5F5F5F5F5F5F5F5F5F5E2F5F5F5F5F5
310
F5F5F5F5F5F5F5F5F5F5F5F5F5F5F5E2E2EFF5F5F5F5F5F5F5F5F5F5F5F5F5F5F5F5F5F5F5F5E2F5F5F5F5F5F5F5F5F5F5F5F5F5F5F5F5F5F5F5F5F5F5F5F5F5F5F5F5F5F5F5F5F5F5F5F5F5F5F5F5F5F5F5F5F5F5F5F5F5F5F5F5F5F5F5F5F5F5F5F5F5F5F5F5F5F5F5F5F5F5F5F5F5F5F5F5F5F5F5F5F5F5F5F5F5F5F5F5
310
F5F5F5F5F5F5F5F5F5F5F5F5F5F5F5F5F5F5F5F5F5F5F5F5F5F5F5F5F5F5F5F5F5F5F5F5F5F5F5F5F5F5F5F5F5F5F5E2F5F5F5F5F5F5F5F5F5F5F5F5F5F5F5F5F5F5F5F5E2E2EFF5F5F5E2F5F5F5F5F5F5F5F5F5F5F5F5F5F5F5F5E2F5F5F5F5F5F5F5F5F5F5F5F5F5F5F5F5F5F5F5F5F5F5F5F5F5F5F5F5F5F5F5F5F5F5F5
310
F5F5F5F5F5F5F5F5F5F5F5F5F5F5F5F5F5F5F5F5F5F5F5F5F5F5F5F5F5F5F5F5F5F5F5F5F5F5F5F5F5F5F5F5F5F5F5F5F5F5F5F5F5F5F5F5F5F5F5F5F5F5F5F5F5F5F5F5F5F5F5F5F5F5F5F5F5F5F5F5F5F5F5F5F5F5F5F5F5F5F5F5F5F5F5F5F5F5F5F5E2F5F5F5F5F5F5F5F5F5F5F5F5F5F5F5F5E2F5F5F5E2E2EFF5F5F5
310
E2F5F5F5F5F5F5F5F5F5F5F5F5F5F5F5F5E2F5F5F5F5F5F5F5F5F5F5F5F5F5F5F5F5F5F5F5F5F5F5F5F5F5F5F5F5F5F5F5F5F5F5F5F5F5F5F5F5F5F5F5F5F5F5F5F5F5F5F5F5F5F5F5F5F5F5F5F5F5F5F5F5F5F5F5F5F5F5F5F5F5F5F5F5F5F5F5F5F5F5F5F5F5F5F5F5F5F5F5F5F5F5F5F5F5F5F5F5F5F5F5F5F5F5F5F5F5
310
F5F5F5F5F5F5F5F5F5F5F5F5F5F5F5F5F5F5F5F5F5F5F5F5F5F5E2F5F5F5F5F5F5F5F5F5F5F5F5F5F5F5F5E2F5F5F5E2E2EFF5F5F5E2F5F5F5F5F5F5F5F5F5F5F5F5F5F5F5F5E2F5F5F5F5F5F5F5F5F5F5F5F5F5F5F5F5F5F5F5F5F5F5F5F5F5F5F5F5F5F5F5F5F5F5F5F5F5F5F5F5F5F5F5F5F5F5F5F5F5F5F5F5F5F5F5F5
310
F5F5F5F5F5F5F5F5F5F5F5F5F5F5F5F5F5F5F5F5F5F5F5F5F5F5F5F5F5F5F5F5F5F5F5F5F5F5F5F5F5F5F5F5F5F5F5F5F5F5F5F5F5F5F5F5F5F5F5F5F5F5F5F5F5F5F5F5F5F5F5F5F5F5F5F5F5F5F5E2F5F5F5F5F5F5F5F5F5F5F5F5F5F5F5F5E2F5F5F5E2E2EFF5F5F5E2F5F5F5F5F5F5F5F5F5F5F5F5F5F5F5F5E2F5F5F5
310
F5F5F5F5F5F5F5F5F5F5F5F5F5F5F5F5F5F5F5F5F5F5F5F5F5F5F5F5F5F5F5F5F5F5F5F5F5F5F5F5F5F5F5F5F5F5F5F5F5F5F5F5F5F5F5F5F5F5F5F5F5F5F5F5F5F5F5F5F5F5F5F5F5F5F5F5F5F5F5F5F5F5F5F5F5F5F5F5F5F5F5F5F5F5F5F5F5F5F5F5F5F5F5F5F5F5F5F5F5F5F5F5F5F5F5F5F5F5F5F5F5F5F5F5F5F5F5
310
F5F5F5F5F5E2F5F5F5F5F5F5F5F5F5F5F5F5F5F5F5F5E2F5F5F5E2E2EFF5F5F5E2F5F5F5F5F5F5F5F5F5F5F5F5F5F5F5F5E2F5F5F5F5F5F5F5F5F5F5F5F5F5F5F5F5F5F5F5F5F5F5F5F5F5F5F5F5F5F5F5F5F5F5F5F5F5F5F5F5F5F5F5F5F5F5F5F5F5F5F5F5F5F5F5F5F5F5F5F5F5F5F5F5F5F5F5F5F5F5F5F5F5F5F5F5F5
310
F5F5F5F5F5F5F5F5F5F5F5F5F5F5F5F5F5F5F5F5F5F5F5F5F5F5F5F5F5F5F5F5F5F5F5F5F5F5F5F5F5F5F5F5F5F5F5F5F5F5F5F5F5F5F5F5F5F5E2F5F5F5F5F5F5F5F5F5F5F5F5F5F5F5F5E2F5F5F5E2E2EFF5F5F5E2F5F5F5F5F5F5F5F5F5F5F5F5F5F5F5F5E2F5F5F5F5F5F5F5F5F5F5F5F5F5F5F5F5F5F5F5F5F5F5F5F5
310
F5F5F5F5F5F5F5F5F5F5F5F5F5F5F5F5F5F5F5F5F5F5F5F5F5F5F5F5F5F5F5F5F5F5F5F5F5F5F5F5F5F5F5F5F5F5F5F5F5F5F5F5F5F5F5F5F5F5F5F5F5F5F5F5F5F5F5F5F5F5F5F5F5F5F5F5F5F5F5F5F5F5F5F5F5F5F5F5F5F5F5F5F5F5F5F5F5F5F5F5F5F5F5F5F5F5F5F5F5F5F5E2F5F5F5F5F5F5F5F5F5F5F5F5F5F5F5
310
F5E2F5F5F5E2E2EFF5F5F5E2F5F5F5F5F5F5F5F5F5F5F5F5F5F5F5F5E2F5F5F5F5F5F5F5F5F5F5F5F5F5F5F5F5F5F5F5F5F5F5F5F5F5F5F5F5F5F5F5F5F5F5F5F5F5F5F5F5F5F5F5F5F5F5F5F5F5F5F5F5F5F5F5F5F5F5F5F5F5F5F5F5F5F5F5F5F5F5F5F5F5F5F5F5F5F5F5F5F5F5F5F5F5F5F5F5F5F5F5F5F5F5F5F5F5F5
310
F5F5F5F5F5F5F5F5F5F5F5F5F5F5F5F5F5F5F5F5F5F5F5F5F5F5F5F5F5F5F5F5F5F5F5F5F5E2F5F5F5F5F5F5F5F5F5F5F5F5F5F5F5F5E2F5F5F5E2E2EFF5F5F5E2F5F5F5F5F5F5F5F5F5F5F5F5F5F5F5F5E2F5F5F5F5F5F5F5F5F5F5F5F5F5F5F5F5F5F5F5F5F5F5F5F5F5F5F5F5F5F5F5F5F5F5F5F5F5F5F5F5F5F5F5F5F5
310
F5F5F5F5F5F5F5F5F5F5F5F5F5F5F5F5F5F5F5F5F5F5F5F5F5F5F5F5F5F5F5F5F5F5F5F5F5F5F5F5F5F5F5F5F5F5F5F5F5F5F5F5F5F5F5F5F5F5F5F5F5F5F5F5F5F5F5F5F5F5F5F5F5F5F5F5F5F5F5F5F5F5F5F5F5F5F5F5F5F5E2F5F5F5F5F5F5F5F5F5F5F5F5F5F5F5F5E2F5F5F5E2E2EFF5F5F5E2F5F5F5F5F5F5F5F5F5
310
F5F5F5F5F5F5F5E2F5F5F5F5F5F5F5F5F5F5F5F5F5F5F5F5F5F5F5F5F5F5F5F5F5F5F5F5F5F5F5F5F5F5F5F5F5F5F5F5F5F5F5F5F5F5F5F5F5F5F5F5F5F5F5F5F5F5F5F5F5F5F5F5F5F5F5F5F5F5F5F5F5F5F5F5F5F5F5F5F5F5F5F5F5F5F5F5F5F5F5F5F5F5F5F5F5F5F5F5F5F5F5F5F5F5F5F5F5F5F5F5F5F5F5F5F5F5F5
310
F5F5F5F5F5F5F5F5F5F5F5F5F5F5F5F5E2F5F5F5F5F5F5F5F5F5F5F5F5F5F5F5F5E2F5F5F5E2E2EFF5F5F5E2F5F5F5F5F5F5F5F5F5F5F5F5F5F5F5F5E2F5F5F5F5F5F5F5F5F5F5F5F5F5F5F5F5F5F5F5F5F5F5F5F5F5F5F5F5F5F5F5F5F5F5F5F5F5F5F5F5F5F5F5F5F5F5F5F5F5F5F5F5F5F5F5F5F5F5F5F5F5F5F5F5F5F5
310
F5F5F5F5F5F5F5F5F5F5F5F5F5F5F5F5F5F5F5F5F5F5F5F5F5F5F5F5F5F5F5F5F5F5F5F5F5F5F5F5F5F5F5F5F5F5F5F5F5F5F5F5F5F5F5F5F5F5F5F5F5F5F5F5F5F5F5F5F5E2F5F5F5F5F5F5F5F5F5F5F5F5F5F5F5F5E2F5F5F5E2E2EFF5F5F5E2F5F5F5F5F5F5F5F5F5F5F5F5F5F5F5F5E2F5F5F5F5F5F5F5F5F5F5F5F5F5
310
F5F5F5F5F5F5F5F5F5F5F5F5F5F5F5F5F5F5F5F5F5F5F5F5F5F5F5F5F5F5F5F5F5F5F5F5F5F5F5F5F5F5F5F5F5F5F5F5F5F5F5F5F5F5F5F5F5F5F5F5F5F5F5F5F5F5F5F5F5F5F5F5F5F5F5F5F5F5F5F5F5F5F5F5F5F5F5F5F5F5F5F5F5F5F5F5F5F5F5F5F5F5F5F5F5F5F5F5F5F5F5F5F5F5F5F5F5F5F5F5F5F5E2F5F5F5F5
310
F5F5F5F5F5F5F5F5F5F5F5F5E2F5F5F5E2E2EFF5F5F5E2F5F5F5F5F5F5F5F5F5F5F5F5F5F5F5F5E2F5F5F5F5F5F5F5F5F5F5F5F5F5F5F5F5F5F5F5F5F5F5F5F5F5F5F5F5F5F5F5F5F5F5F5F5F5F5F5F5F5F5F5F5F5F5F5F5F5F5F5F5F5F5F5F5F5F5F5F5F5F5F5F5F5F5F5F5F5F5F5F5F5F5F5F5F5F5F5F5F5F5F5F5F5F5F5
310
F5F5F5F5F5F5F5F5F5F5F5F5F5F5F5F5F5F5F5F5F5F5F5F5F5F5F5F5F5F5F5F5F5F5F5F5F5F5F5F5F5F5F5F5F5F5F5F5E2F5F5F5F5F5F5F5F5F5F5F5F5F5F5F5F5E2F5F5F5E2E2EFF5F5F5E2F5F5F5F5F5F5F5F5F5F5F5F5F5F5F5F5E2F5F5F5F5F5F5F5F5F5F5F5F5F5F5F5F5F5F5F5F5F5F5F5F5F5F5F5F5F5F5F5F5F5F5
310
F5F5F5F5F5F5F5F5F5F5F5F5F5F5F5F5F5F5F5F5F5F5F5F5F5F5F5F5F5F5F5F5F5F5F5F5F5F5F5F5F5F5F5F5F5F5F5F5F5F5F5F5F5F5F5F5F5F5F5F5F5F5F5F5F5F5F5F5F5F5F5F5F5F5F5F5F5F5F5F5F5F5F5F5F5F5F5F5F5F5F5F5F5F5F5F5F5F5F5F5F5E2F5F5F5F5F5F5F5F5F5F5F5F5F5F5F5F5E2F5F5F5E2E2EFF5F5
310
F5E2F5F5F5F5F5F5F5F5F5F5F5F5F5F5F5F5E2F5F5F5F5F5F5F5F5F5F5F5F5F5F5F5F5F5F5F5F5F5F5F5F5F5F5F5F5F5F5F5F5F5F5F5F5F5F5F5F5F5F5F5F5F5F5F5F5F5F5F5F5F5F5F5F5F5F5F5F5F5F5F5F5F5F5F5F5F5F5F5F5F5F5F5F5F5F5F5F5F5F5F5F5F5F5F5F5F5F5F5F5F5F5F5F5F5F5F5F5F5F5F5F5F5F5F5F5
310
F5F5F5F5F5F5F5F5F5F5F5F5F5F5F5F5F5F5F5F5F5F5F5F5F5F5F5E2F5F5F5F5F5F5F5F5F5F5F5F5F5F5F5F5E2F5F5F5E2E2EFF5F5F5E2F5F5F5F5F5F5F5F5F5F5F5F5F5F5F5F5E2F5F5F5F5F5F5F5F5F5F5F5F5F5F5F5F5F5F5F5F5F5F5F5F5F5F5F5F5F5F5F5F5F5F5F5F5F5F5F5F5F5F5F5F5F5F5F5F5F5F5F5F5F5F5F5
310
F5F5F5F5F5F5F5F5F5F5F5F5F5F5F5F5F5F5F5F5F5F5F5F5F5F5F5F5F5F5F5F5F5F5F5F5F5F5F5F5F5F5F5F5F5F5F5F5F5F5F5F5F5F5F5F5F5F5F5F5F5F5F5F5F5F5F5F5F5F5F5F5F5F5F5F5F5F5F5F5E2F5F5F5F5F5F5F5F5F5F5F5F5F5F5F5F5E2F5F5F5E2E2EFF5F5F5E2F5F5F5F5F5F5F5F5F5F5F5F5F5F5F5F5E2F5F5
310
F5F5F5F5F5F5F5F5F5F5F5F5F5F5F5F5F5F5F5F5F5F5F5F5F5F5F5F5F5F5F5F5F5F5F5F5F5F5F5F5F5F5F5F5F5F5F5F5F5F5F5F5F5F5F5F5F5F5F5F5F5F5F5F5F5F5F5F5F5F5F5F5F5F5F5F5F5F5F5F5F5F5F5F5F5F5F5F5F5F5F5F5F5F5F5F5F5F5F5F5F5F5F5F5F5F5F5F5F5F5F5F5F5F5F5F5F5F5F5F5F5F5F5F5F5F5F5
310
F5F5F5F5F5F5E2F5F5F5F5F5F5F5F5F5F5F5F5F5F5F5F5E2F5F5F5E2E2EFF5F5F5E2F5F5F5F5F5F5F5F5F5F5F5F5F5F5F5F5E2F5F5F5F5F5F5F5F5F5F5F5F5F5F5F5F5F5F5F5F5F5F5F5F5F5F5F5F5F5F5F5F5F5F5F5F5F5F5F5F5F5F5F5F5F5F5F5F5F5F5F5F5F5F5F5F5F5F5F5F5F5F5F5F5F5F5F5F5F5F5F5F5F5F5F5F5
310
F5F5F5F5F5F5F5F5F5F5F5F5F5F5F5F5F5F5F5F5F5F5F5F5F5F5F5F5F5F5F5F5F5F5F5F5F5F5F5F5F5F5F5F5F5F5F5F5F5F5F5F5F5F5F5F5F5F5F5E2F5F5F5F5F5F5F5F5F5F5F5F5F5F5F5F5E2F5F5F5E2E2EFF5F5F5F5F5F5F5F5F5F5F5F5F5F5F5F5F5F5F5F5E2F5F5F5F5F5F5F5F5F5F5F5F5F5F5F5F5F5F5F5F5F5F5F5
310
F5F5F5F5F5F5F5F5F5F5F5F5F5F5F5F5F5F5F5F5F5F5F5F5F5F5F5F5F5F5F5F5F5F5F5F5F5F5F5F5F5F5F5F5F5F5F5F5F5F5F5F5F5F5F5F5F5F5F5F5F5F5F5F5F5F5F5F5F5F5F5F5F5F5F5F5F5F5F5F5F5F5F5F5F5F5F5F5F5F5F5F5F5F5F5F5F5F5F5F5F5F5F5F5F5F5F5F5F5F5F5F5E2F5F5F5F5F5F5F5F5F5F5F5F5F5F5
310
F5F5F5F5F5F5E2E2EFF5F5F5F5F5F5F5F5F5F5F5F5F5F5F5F5F5F5F5F5E2F5F5F5F5F5F5F5F5F5F5F5F5F5F5F5F5F5F5F5F5F5F5F5F5F5F5F5F5F5F5F5F5F5F5F5F5F5F5F5F5F5F5F5F5F5F5F5F5F5F5F5F5F5F5F5F5F5F5F5F5F5F5F5F5F5F5F5F5F5F5F5F5F5F5F5F5F5F5F5F5F5F5F5F5F5F5F5F5F5F5F5F5F5F5F5F5F5
310
F5F5F5F5F5F5F5F5F5F5F5F5F5F5F5F5F5F5F5F5F5F5F5F5F5F5F5F5F5F5F5F5F5F5F5F5F5F5E2F5F5F5F5F5F5F5F5F5F5F5F5F5F5F5F5F5F5F5F5E2E2EFF5F5F5F5F5F5F5F5F5F5F5F5F5F5F5F5F5F5F5F5E2F5F5F5F5F5F5F5F5F5F5F5F5F5F5F5F5F5F5F5F5F5F5F5F5F5F5F5F5F5F5F5F5F5F5F5F5F5F5F5F5F5F5F5F5
310
F5F5F5F5F5F5F5F5F5F5F5F5F5F5F5F5F5F5F5F5F5F5F5F5F5F5F5F5F5F5F5F5F5F5F5F5F5F5F5F5F5F5F5F5F5F5F5F5F5F5F5F5F5F5F5F5F5F5F5F5F5F5F5F5F5F5F5F5F5F5F5F5F5F5F5F5F5F5F5F5F5F5F5F5F5F5F5F5F5F5F5E2F5F5F5F5F5F5F5F5F5F5F5F5F5F5F5F5F5F5F5F5E2E2EFF5F5F5F5F5F5F5F5F5F5F5F5
310
F5F5F5F5F5F5F5F5E2F5F5F5F5F5F5F5F5F5F5F5F5F5F5F5F5F5F5F5F5F5F5F5F5F5F5F5F5F5F5F5F5F5F5F5F5F5F5F5F5F5F5F5F5F5F5F5F5F5F5F5F5F5F5F5F5F5F5F5F5F5F5F5F5F5F5F5F5F5F5F5F5F5F5F5F5F5F5F5F5F5F5F5F5F5F5F5F5F5F5F5F5F5F5F5F5F5F5F5F5F5F5F5F5F5F5F5F5F5F5F5F5F5F5F5F5F5F5
310
F5F5F5F5F5F5F5F5F5F5F5F5F5F5F5F5F5E2F5F5F5F5F5F5F5F5F5F5F5F5F5F5F5F5F5F5F5F5E2E2EFF5F5F5F5F5F5F5F5F5F5F5F5F5F5F5F5F5F5F5F5E2F5F5F5F5F5F5F5F5F5F5F5F5F5F5F5F5F5F5F5F5F5F5F5F5F5F5F5F5F5F5F5F5F5F5F5F5F5F5F5F5F5F5F5F5F5F5F5F5F5F5F5F5F5F5F5F5F5F5F5F5F5F5F5F5F5
310
F5F5F5F5F5F5F5F5F5F5F5F5F5F5F5F5F5F5F5F5F5F5F5F5F5F5F5F5F5F5F5F5F5F5F5F5F5F5F5F5F5F5F5F5F5F5F5F5F5F5F5F5F5F5F5F5F5F5F5F5F5F5F5F5F5F5F5F5F5F5E2F5F5F5F5F5F5F5F5F5F5F5F5F5F5F5F5F5F5F5F5E2E2EFF5F5F5F5F5F5F5F5F5F5F5F5F5F5F5F5F5F5F5F5E2F5F5F5F5F5F5F5F5F5F5F5F5
310
F5F5F5F5F5F5F5F5F5F5F5F5F5F5F5F5F5F5F5F5F5F5F5F5F5F5F5F5F5F5F5F5F5F5F5F5F5F5F5F5F5F5F5F5F5F5F5F5F5F5F5F5F5F5F5F5F5F5F5F5F5F5F5F5F5F5F5F5F5F5F5F5F5F5F5F5F5F5F5F5F5F5F5F5F5F5F5F5F5F5F5F5F5F5F5F5F5F5F5F5F5F5F5F5F5F5F5F5F5F5F5F5F5F5F5F5F5F5F5F5F5F5F5E2F5F5F5
310
F5F5F5F5F5F5F5F5F5F5F5F5F5F5F5F5F5E2E2EFF5F5F5F5F5F5F5F5F5F5F5F5F5F5F5F5F5F5F5F5E2F5F5F5F5F5F5F5F5F5F5F5F5F5F5F5F5F5F5F5F5F5F5F5F5F5F5F5F5F5F5F5F5F5F5F5F5F5F5F5F5F5F5F5F5F5F5F5F5F5F5F5F5F5F5F5F5F5F5F5F5F5F5F5F5F5F5F5F5F5F5F5F5F5F5F5F5F5F5F5F5F5F5F5F5F5F5
310
F5F5F5F5F5F5F5F5F5F5F5F5F5F5F5F5F5F5F5F5F5F5F5F5F5F5F5F5F5F5F5F5F5F5F5F5F5F5F5F5F5F5F5F5F5F5F5F5F5E2F5F5F5F5F5F5F5F5F5F5F5F5F5F5F5F5F5F5F5F5E2E2EFF5F5F5F5F5F5F5F5F5F5F5F5F5F5F5F5F5F5F5F5E2F5F5F5F5F5F5F5F5F5F5F5F5F5F5F5F5F5F5F5F5F5F5F5F5F5F5F5F5F5F5F5F5F5
310
F5F5F5F5F5F5F5F5F5F5F5F5F5F5F5F5F5F5F5F5F5F5F5F5F5F5F5F5F5F5F5F5F5F5F5F5F5F5F5F5F5F5F5F5F5F5F5F5F5F5F5F5F5F5F5F5F5F5F5F5F5F5F5F5F5F5F5F5F5F5F5F5F5F5F5F5F5F5F5F5F5F5F5F5F5F5F5F5F5F5F5F5F5F5F5F5F5F5F5F5F5F5E2F5F5F5F5F5F5F5F5F5F5F5F5F5F5F5F5F5F5F5F5E2E2EFF5
310
F5F5F5F5F5F5F5F5F5F5F5F5F5F5F5F5F5F5F5E2F5F5F5F5F5F5F5F5F5F5F5F5F5F5F5F5F5F5F5F5F5F5F5F5F5F5F5F5F5F5F5F5F5F5F5F5F5F5F5F5F5F5F5F5F5F5F5F5F5F5F5F5F5F5F5F5F5F5F5F5F5F5F5F5F5F5F5F5F5F5F5F5F5F5F5F5F5F5F5F5F5F5F5F5F5F5F5F5F5F5F5F5F5F5F5F5F5F5F5F5F5F5F5F5F5F5F5
310
F5F5F5F5F5F5F5F5F5F5F5F5F5F5F5F5F5F5F5F5F5F5F5F5F5F5F5F5E2F5F5F5F5F5F5F5F5F5F5F5F5F5F5F5F5F5F5F5F5E2E2EFF5F5F5E2F5F5F5F5F5F5F5F5F5F5F5F5F5F5F5F5E2F5F5F5F5F5F5F5F5F5F5F5F5F5F5F5F5F5F5F5F5F5F5F5F5F5F5F5F5F5F5F5F5F5F5F5F5F5F5F5F5F5F5F5F5F5F5F5F5F5F5F5F5F5F5
310
F5F5F5F5F5F5F5F5F5F5F5F5F5F5F5F5F5F5F5F5F5F5F5F5F5F5F5F5F5F5F5F5F5F5F5F5F5F5F5F5F5F5F5F5F5F5F5F5F5F5F5F5F5F5F5F5F5F5F5F5F5F5F5F5F5F5F5F5F5F5F5F5F5F5F5F5F5F5F5F5F5E2F5F5F5F5F5F5F5F5F5F5F5F5F5F5F5F5E2F5F5F5E2E2EFF5F5F5E2F5F5F5F5F5F5F5F5F5F5F5F5F5F5F5F5E2F5
310
F5F5F5F5F5F5F5F5F5F5F5F5F5F5F5F5F5F5F5F5F5F5F5F5F5F5F5F5F5F5F5F5F5F5F5F5F5F5F5F5F5F5F5F5F5F5F5F5F5F5F5F5F5F5F5F5F5F5F5F5F5F5F5F5F5F5F5F5F5F5F5F5F5F5F5F5F5F5F5F5F5F5F5F5F5F5F5F5F5F5F5F5F5F5F5F5F5F5F5F5F5F5F5F5F5F5F5F5F5F5F5F5F5F5F5F5F5F5F5F5F5F5F5F5F5F5F5
310
F5F5F5F5F5F5F5E2F5F5F5F5F5F5F5F5F5F5F5F5F5F5F5F5E2F5F5F5E2E2EFF5F5F5E2F5F5F5F5F5F5F5F5F5F5F5F5F5F5F5F5E2F5F5F5F5F5F5F5F5F5F5F5F5F5F5F5F5F5F5F5F5F5F5F5F5F5F5F5F5F5F5F5F5F5F5F5F5F5F5F5F5F5F5F5F5F5F5F5F5F5F5F5F5F5F5F5F5F5F5F5F5F5F5F5F5F5F5F5F5F5F5F5F5F5F5F5
310
F5F5F5F5F5F5F5F5F5F5F5F5F5F5F5F5F5F5F5F5F5F5F5F5F5F5F5F5F5F5F5F5F5F5F5F5F5F5F5F5F5F5F5F5F5F5F5F5F5F5F5F5F5F5F5F5F5F5F5F5E2F5F5F5F5F5F5F5F5F5F5F5F5F5F5F5F5E2F5F5F5E2E2EFF5F5F5E2F5F5F5F5F5F5F5F5F5F5F5F5F5F5F5F5E2F5F5F5F5F5F5F5F5F5F5F5F5F5F5F5F5F5F5F5F5F5F5
310
F5F5F5F5F5F5F5F5F5F5F5F5F5F5F5F5F5F5F5F5F5F5F5F5F5F5F5F5F5F5F5F5F5F5F5F5F5F5F5F5F5F5F5F5F5F5F5F5F5F5F5F5F5F5F5F5F5F5F5F5F5F5F5F5F5F5F5F5F5F5F5F5F5F5F5F5F5F5F5F5F5F5F5F5F5F5F5F5F5F5F5F5F5F5F5F5F5F5F5F5F5F5F5F5F5F5F5F5F5F5F5F5F5E2F5F5F5F5F5F5F5F5F5F5F5F5F5
310
F5F5F5E2F5F5F5E2E2EFF5F5F5E2F5F5F5F5F5F5F5F5F5F5F5F5F5F5F5F5E2F5F5F5F5F5F5F5F5F5F5F5F5F5F5F5F5F5F5F5F5F5F5F5F5F5F5F5F5F5F5F5F5F5F5F5F5F5F5F5F5F5F5F5F5F5F5F5F5F5F5F5F5F5F5F5F5F5F5F5F5F5F5F5F5F5F5F5F5F5F5F5F5F5F5F5F5F5F5F5F5F5F5F5F5F5F5F5F5F5F5F5F5F5F5F5F5
310
F5F5F5F5F5F5F5F5F5F5F5F5F5F5F5F5F5F5F5F5F5F5F5F5F5F5F5F5F5F5F5F5F5F5F5F5F5F5F5E2F5F5F5F5F5F5F5F5F5F5F5F5F5F5F5F5E2F5F5F5E2E2EFF5F5F5E2F5F5F5F5F5F5F5F5F5F5F5F5F5F5F5F5E2F5F5F5F5F5F5F5F5F5F5F5F5F5F5F5F5F5F5F5F5F5F5F5F5F5F5F5F5F5F5F5F5F5F5F5F5F5F5F5F5F5F5F5
310
F5F5F5F5F5F5F5F5F5F5F5F5F5F5F5F5F5F5F5F5F5F5F5F5F5F5F5F5F5F5F5F5F5F5F5F5F5F5F5F5F5F5F5F5F5F5F5F5F5F5F5F5F5F5F5F5F5F5F5F5F5F5F5F5F5F5F5F5F5F5F5F5F5F5F5F5F5F5F5F5F5F5F5F5F5F5F5F5F5F5F5F5E2F5F5F5F5F5F5F5F5F5F5F5F5F5F5F5F5E2F5F5F5E2E2EFF5F5F5E2F5F5F5F5F5F5F5
310
F5F5F5F5F5F5F5F5F5E2F5F5F5F5F5F5F5F5F5F5F5F5F5F5F5F5F5F5F5F5F5F5F5F5F5F5F5F5F5F5F5F5F5F5F5F5F5F5F5F5F5F5F5F5F5F5F5F5F5F5F5F5F5F5F5F5F5F5F5F5F5F5F5F5F5F5F5F5F5F5F5F5F5F5F5F5F5F5F5F5F5F5F5F5F5F5F5F5F5F5F5F5F5F5F5F5F5F5F5F5F5F5F5F5F5F5F5F5F5F5F5F5F5F5F5F5F5
310
F5F5F5F5F5F5F5F5F5F5F5F5F5F5F5F5F5F5E2F5F5F5F5F5F5F5F5F5F5F5F5F5F5F5F5E2F5F5F5E2E2EFF5F5F5E2F5F5F5F5F5F5F5F5F5F5F5F5F5F5F5F5E2F5F5F5F5F5F5F5F5F5F5F5F5F5F5F5F5F5F5F5F5F5F5F5F5F5F5F5F5F5F5F5F5F5F5F5F5F5F5F5F5F5F5F5F5F5F5F5F5F5F5F5F5F5F5F5F5F5F5F5F5F5F5F5F5
310
F5F5F5F5F5F5F5F5F5F5F5F5F5F5F5F5F5F5F5F5F5F5F5F5F5F5F5F5F5F5F5F5F5F5F5F5F5F5F5F5F5F5F5F5F5F5F5F5F5F5F5F5F5F5F5F5F5F5F5F5F5F5F5F5F5F5F5F5F5F5F5E2F5F5F5F5F5F5F5F5F5F5F5F5F5F5F5F5E2F5F5F5E2E2EFF5F5F5E2F5F5F5F5F5F5F5F5F5F5F5F5F5F5F5F5E2F5F5F5F5F5F5F5F5F5F5F5
310
F5F5F5F5F5F5F5F5F5F5F5F5F5F5F5F5F5F5F5F5F5F5F5F5F5F5F5F5F5F5F5F5F5F5F5F5F5F5F5F5F5F5F5F5F5F5F5F5F5F5F5F5F5F5F5F5F5F5F5F5F5F5F5F5F5F5F5F5F5F5F5F5F5F5F5F5F5F5F5F5F5F5F5F5F5F5F5F5F5F5F5F5F5F5F5F5F5F5F5F5F5F5F5F5F5F5F5F5F5F5F5F5F5F5F5F5F5F5F5F5F5F5F5F5E2F5F5
310
F5F5F5F5F5F5F5F5F5F5F5F5F5F5E2F5F5F5E2E2EFF5F5F5E2F5F5F5F5F5F5F5F5F5F5F5F5F5F5F5F5E2F5F5F5F5F5F5F5F5F5F5F5F5F5F5F5F5F5F5F5F5F5F5F5F5F5F5F5F5F5F5F5F5F5F5F5F5F5F5F5F5F5F5F5F5F5F5F5F5F5F5F5F5F5F5F5F5F5F5F5F5F5F5F5F5F5F5F5F5F5F5F5F5F5F5F5F5F5F5F5F5F5F5F5F5F5
310
F5F5F5F5F5F5F5F5F5F5F5F5F5F5F5F5F5F5F5F5F5F5F5F5F5F5F5F5F5F5F5F5F5F5F5F5F5F5F5F5F5F5F5F5F5F5F5F5F5F5E2F5F5F5F5F5F5F5F5F5F5F5F5F5F5F5F5E2F5F5F5E2E2EFF5F5F5E2F5F5F5F5F5F5F5F5F5F5F5F5F5F5F5F5E2F5F5F5F5F5F5F5F5F5F5F5F5F5F5F5F5F5F5F5F5F5F5F5F5F5F5F5F5F5F5F5F5
310
F5F5F5F5F5F5F5F5F5F5F5F5F5F5F5F5F5F5F5F5F5F5F5F5F5F5F5F5F5F5F5F5F5F5F5F5F5F5F5F5F5F5F5F5F5F5F5F5F5F5F5F5F5F5F5F5F5F5F5F5F5F5F5F5F5F5F5F5F5F5F5F5F5F5F5F5F5F5F5F5F5F5F5F5F5F5F5F5F5F5F5F5F5F5F5F5F5F5F5F5F5F5F5E2F5F5F5F5F5F5F5F5F5F5F5F5F5F5F5F5E2F5F5F5E2E2EF
310
F5F5F5E2F5F5F5F5F5F5F5F5F5F5F5F5F5F5F5F5E2F5F5F5F5F5F5F5F5F5F5F5F5F5F5F5F5F5F5F5F5F5F5F5F5F5F5F5F5F5F5F5F5F5F5F5F5F5F5F5F5F5F5F5F5F5F5F5F5F5F5F5F5F5F5F5F5F5F5F5F5F5F5F5F5F5F5F5F5F5F5F5F5F5F5F5F5F5F5F5F5F5F5F5F5F5F5F5F5F5F5F5F5F5F5F5F5F5F5F5F5F5F5F5F5F5F5
310
F5F5F5F5F5F5F5F5F5F5F5F5F5F5F5F5F5F5F5F5F5F5F5F5F5F5F5F5F5E2F5F5F5F5F5F5F5F5F5F5F5F5F5F5F5F5E2F5F5F5E2E2EFF5F5F5E2F5F5F5F5F5F5F5F5F5F5F5F5F5F5F5F5E2F5F5F5F5F5F5F5F5F5F5F5F5F5F5F5F5F5F5F5F5F5F5F5F5F5F5F5F5F5F5F5F5F5F5F5F5F5F5F5F5F5F5F5F5F5F5F5F5F5F5F5F5F5
310
F5F5F5F5F5F5F5F5F5F5F5F5F5F5F5F5F5F5F5F5F5F5F5F5F5F5F5F5F5F5F5F5F5F5F5F5F5F5F5F5F5F5F5F5F5F5F5F5F5F5F5F5F5F5F5F5F5F5F5F5F5F5F5F5F5F5F5F5F5F5F5F5F5F5F5F5F5F5F5F5F5F5E2F5F5F5F5F5F5F5F5F5F5F5F5F5F5F5F5E2F5F5F5E2E2EFF5F5F5E2F5F5F5F5F5F5F5F5F5F5F5F5F5F5F5F5E2
310
F5F5F5F5F5F5F5F5F5F5F5F5F5F5F5F5F5F5F5F5F5F5F5F5F5F5F5F5F5F5F5F5F5F5F5F5F5F5F5F5F5F5F5F5F5F5F5F5F5F5F5F5F5F5F5F5F5F5F5F5F5F5F5F5F5F5F5F5F5F5F5F5F5F5F5F5F5F5F5F5F5F5F5F5F5F5F5F5F5F5F5F5F5F5F5F5F5F5F5F5F5F5F5F5F5F5F5F5F5F5F5F5F5F5F5F5F5F5F5F5F5F5F5F5F5F5F5
310
F5F5F5F5F5F5F5F5E2F5F5F5F5F5F5F5F5F5F5F5F5F5F5F5F5E2F5F5F5E2E2EFF5F5F5E2F5F5F5F5F5F5F5F5F5F5F5F5F5F5F5F5E2F5F5F5F5F5F5F5F5F5F5F5F5F5F5F5F5F5F5F5F5F5F5F5F5F5F5F5F5F5F5F5F5F5F5F5F5F5F5F5F5F5F5F5F5F5F5F5F5F5F5F5F5F5F5F5F5F5F5F5F5F5F5F5F5F5F5F5F5F5F5F5F5F5F5
310
F5F5F5F5F5F5F5F5F5F5F5F5F5F5F5F5F5F5F5F5F5F5F5F5F5F5F5F5F5F5F5F5F5F5F5F5F5F5F5F5F5F5F5F5F5F5F5F5F5F5F5F5F5F5F5F5F5F5F5F5F5E2F5F5F5F5F5F5F5F5F5F5F5F5F5F5F5F5E2F5F5F5E2E2EFF5F5F5E2F5F5F5F5F5F5F5F5F5F5F5F5F5F5F5F5E2F5F5F5F5F5F5F5F5F5F5F5F5F5F5F5F5F5F5F5F5F5
310
F5F5F5F5F5F5F5F5F5F5F5F5F5F5F5F5F5F5F5F5F5F5F5F5F5F5F5F5F5F5F5F5F5F5F5F5F5F5F5F5F5F5F5F5F5F5F5F5F5F5F5F5F5F5F5F5F5F5F5F5F5F5F5F5F5F5F5F5F5F5F5F5F5F5F5F5F5F5F5F5F5F5F5F5F5F5F5F5F5F5F5F5F5F5F5F5F5F5F5F5F5F5F5F5F5F5F5F5F5F5F5F5F5F5E2F5F5F5F5F5F5F5F5F5F5F5F5
310
F5F5F5F5E2F5F5F5E2E2EFF5F5F5E2F5F5F5F5F5F5F5F5F5F5F5F5F5F5F5F5E2F5F5F5F5F5F5F5F5F5F5F5F5F5F5F5F5F5F5F5F5F5F5F5F5F5F5F5F5F5F5F5F5F5F5F5F5F5F5F5F5F5F5F5F5F5F5F5F5F5F5F5F5F5F5F5F5F5F5F5F5F5F5F5F5F5F5F5F5F5F5F5F5F5F5F5F5F5F5F5F5F5F5F5F5F5F5F5F5F5F5F5F5F5F5F5
310
F5F5F5F5F5F5F5F5F5F5F5F5F5F5F5F5F5F5F5F5F5F5F5F5F5F5F5F5F5F5F5F5F5F5F5F5F5F5F5F5E2F5F5F5F5F5F5F5F5F5F5F5F5F5F5F5F5E2F5F5F5E2E2EFF5F5F5F5F5F5F5F5F5F5F5F5F5F5F5F5F5F5F5F5E2F5F5F5F5F5F5F5F5F5F5F5F5F5F5F5F5F5F5F5F5F5F5F5F5F5F5F5F5F5F5F5F5F5F5F5F5F5F5F5F5F5F5
310
F5F5F5F5F5F5F5F5F5F5F5F5F5F5F5F5F5F5F5F5F5F5F5F5F5F5F5F5F5F5F5F5F5F5F5F5F5F5F5F5F5F5F5F5F5F5F5F5F5F5F5F5F5F5F5F5F5F5F5F5F5F5F5F5F5F5F5F5F5F5F5F5F5F5F5F5F5F5F5F5F5F5F5F5F5F5F5F5F5F5F5F5F5E2F5F5F5F5F5F5F5F5F5F5F5F5F5F5F5F5F5F5F5F5E2E2EFF5F5F5F5F5F5F5F5F5F5
310
F5F5F5F5F5F5F5F5F5F5E2F5F5F5F5F5F5F5F5F5F5F5F5F5F5F5F5F5F5F5F5F5F5F5F5F5F5F5F5F5F5F5F5F5F5F5F5F5F5F5F5F5F5F5F5F5F5F5F5F5F5F5F5F5F5F5F5F5F5F5F5F5F5F5F5F5F5F5F5F5F5F5F5F5F5F5F5F5F5F5F5F5F5F5F5F5F5F5F5F5F5F5F5F5F5F5F5F5F5F5F5F5F5F5F5F5F5F5F5F5F5F5F5F5F5F5F5
310
F5F5F5F5F5F5F5F5F5F5F5F5F5F5F5F5F5F5F5E2F5F5F5F5F5F5F5F5F5F5F5F5F5F5F5F5F5F5F5F5E2E2EFF5F5F5F5F5F5F5F5F5F5F5F5F5F5F5F5F5F5F5F5E2F5F5F5F5F5F5F5F5F5F5F5F5F5F5F5F5F5F5F5F5F5F5F5F5F5F5F5F5F5F5F5F5F5F5F5F5F5F5F5F5F5F5F5F5F5F5F5F5F5F5F5F5F5F5F5F5F5F5F5F5F5F5F5
310
F5F5F5F5F5F5F5F5F5F5F5F5F5F5F5F5F5F5F5F5F5F5F5F5F5F5F5F5F5F5F5F5F5F5F5F5F5F5F5F5F5F5F5F5F5F5F5F5F5F5F5F5F5F5F5F5F5F5F5F5F5F5F5F5F5F5F5F5F5F5F5F5E2F5F5F5F5F5F5F5F5F5F5F5F5F5F5F5F5F5F5F5F5E2E2EFF5F5F5F5F5F5F5F5F5F5F5F5F5F5F5F5F5F5F5F5E2F5F5F5F5F5F5F5F5F5F5
310
F5F5F5F5F5F5F5F5F5F5F5F5F5F5F5F5F5F5F5F5F5F5F5F5F5F5F5F5F5F5F5F5F5F5F5F5F5F5F5F5F5F5F5F5F5F5F5F5F5F5F5F5F5F5F5F5F5F5F5F5F5F5F5F5F5F5F5F5F5F5F5F5F5F5F5F5F5F5F5F5F5F5F5F5F5F5F5F5F5F5F5F5F5F5F5F5F5F5F5F5F5F5F5F5F5F5F5F5F5F5F5F5F5F5F5F5F5F5F5F5F5F5F5F5F5E2F5
310
F5F5F5F5F5F5F5F5F5F5F5F5F5F5F5F5F5F5F5E2E2EFF5F5F5F5F5F5F5F5F5F5F5F5F5F5F5F5F5F5F5F5E2F5F5F5F5F5F5F5F5F5F5F5F5F5F5F5F5F5F5F5F5F5F5F5F5F5F5F5F5F5F5F5F5F5F5F5F5F5F5F5F5F5F5F5F5F5F5F5F5F5F5F5F5F5F5F5F5F5F5F5F5F5F5F5F5F5F5F5F5F5F5F5F5F5F5F5F5F5F5F5F5F5F5F5F5
310
F5F5F5F5F5F5F5F5F5F5F5F5F5F5F5F5F5F5F5F5F5F5F5F5F5F5F5F5F5F5F5F5F5F5F5F5F5F5F5F5F5F5F5F5F5F5F5F5F5F5F5E2F5F5F5F5F5F5F5F5F5F5F5F5F5F5F5F5F5F5F5F5E2E2EFF5F5F5F5F5F5F5F5F5F5F5F5F5F5F5F5F5F5F5F5E2F5F5F5F5F5F5F5F5F5F5F5F5F5F5F5F5F5F5F5F5F5F5F5F5F5F5F5F5F5F5F5
310
F5F5F5F5F5F5F5F5F5F5F5F5F5F5F5F5F5F5F5F5F5F5F5F5F5F5F5F5F5F5F5F5F5F5F5F5F5F5F5F5F5F5F5F5F5F5F5F5F5F5F5F5F5F5F5F5F5F5F5F5F5F5F5F5F5F5F5F5F5F5F5F5F5F5F5F5F5F5F5F5F5F5F5F5F5F5F5F5F5F5F5F5F5F5F5F5F5F5F5F5F5F5F5F5E2F5F5F5F5F5F5F5F5F5F5F5F5F5F5F5F5F5F5F5F5E2E2
310
EFF5F5F5F5F5F5F5F5F5F5F5F5F5F5F5F5F5F5F5F5E2F5F5F5F5F5F5F5F5F5F5F5F5F5F5F5F5F5F5F5F5F5F5F5F5F5F5F5F5F5F5F5F5F5F5F5F5F5F5F5F5F5F5F5F5F5F5F5F5F5F5F5F5F5F5F5F5F5F5F5F5F5F5F5F5F5F5F5F5F5F5F5F5F5F5F5F5F5F5F5F5F5F5F5F5F5F5F5F5F5F5F5F5F5F5F5F5F5F5F5F5F5F5F5F5F5
310
F5F5F5F5F5F5F5F5F5F5F5F5F5F5F5F5F5F5F5F5F5F5F5F5F5F5F5F5F5F5E2F5F5F5F5F5F5F5F5F5F5F5F5F5F5F5F5F5F5F5F5E2E2EFF5F5F5F5F5F5F5F5F5F5F5F5F5F5F5F5F5F5F5F5E2F5F5F5F5F5F5F5F5F5F5F5F5F5F5F5F5F5F5F5F5F5F5F5F5F5F5F5F5F5F5F5F5F5F5F5F5F5F5F5F5F5F5F5F5F5F5F5F5F5F5F5F5
310
F5F5F5F5F5F5F5F5F5F5F5F5F5F5F5F5F5F5F5F5F5F5F5F5F5F5F5F5F5F5F5F5F5F5F5F5F5F5F5F5F5F5F5F5F5F5F5F5F5F5F5F5F5F5F5F5F5F5F5F5F5F5F5F5F5F5F5F5F5F5F5F5F5F5F5F5F5F5F5F5F5F5F5E2F5F5F5F5F5F5F5F5F5F5F5F5F5F5F5F5F5F5F5F5E2E2EFF5F5F5F5F5F5F5F5F5F5F5F5F5F5F5F5F5F5F5F5
310
E2F5F5F5F5F5F5F5F5F5F5F5F5F5F5F5F5F5F5F5F5F5F5F5F5F5F5F5F5F5F5F5F5F5F5F5F5F5F5F5F5F5F5F5F5F5F5F5F5F5F5F5F5F5F5F5F5F5F5F5F5F5F5F5F5F5F5F5F5F5F5F5F5F5F5F5F5F5F5F5F5F5F5F5F5F5F5F5F5F5F5F5F5F5F5F5F5F5F5F5F5F5F5F5F5F5F5F5F5F5F5F5F5F5F5F5F5F5F5F5F5F5F5F5F5F5F5
310
F5F5F5F5F5F5F5F5F5E2F5F5F5F5F5F5F5F5F5F5F5F5F5F5F5F5F5F5F5F5E2E2EFF5F5F5E2F5F5F5F5F5F5F5F5F5F5F5F5F5F5F5F5E2F5F5F5F5F5F5F5F5F5F5F5F5F5F5F5F5F5F5F5F5F5F5F5F5F5F5F5F5F5F5F5F5F5F5F5F5F5F5F5F5F5F5F5F5F5F5F5F5F5F5F5F5F5F5F5F5F5F5F5F5F5F5F5F5F5F5F5F5F5F5F5F5F5
310
F5F5F5F5F5F5F5F5F5F5F5F5F5F5F5F5F5F5F5F5F5F5F5F5F5F5F5F5F5F5F5F5F5F5F5F5F5F5F5F5F5F5F5F5F5F5F5F5F5F5F5F5F5F5F5F5F5F5F5F5F5F5E2F5F5F5F5F5F5F5F5F5F5F5F5F5F5F5F5E2F5F5F5E2E2EFF5F5F5E2F5F5F5F5F5F5F5F5F5F5F5F5F5F5F5F5E2F5F5F5F5F5F5F5F5F5F5F5F5F5F5F5F5F5F5F5F5
310
F5F5F5F5F5F5F5F5F5F5F5F5F5F5F5F5F5F5F5F5F5F5F5F5F5F5F5F5F5F5F5F5F5F5F5F5F5F5F5F5F5F5F5F5F5F5F5F5F5F5F5F5F5F5F5F5F5F5F5F5F5F5F5F5F5F5F5F5F5F5F5F5F5F5F5F5F5F5F5F5F5F5F5F5F5F5F5F5F5F5F5F5F5F5F5F5F5F5F5F5F5F5F5F5F5F5F5F5F5F5F5F5F5F5F5E2F5F5F5F5F5F5F5F5F5F5F5
310
F5F5F5F5F5E2F5F5F5E2E2EFF5F5F5E2F5F5F5F5F5F5F5F5F5F5F5F5F5F5F5F5E2F5F5F5F5F5F5F5F5F5F5F5F5F5F5F5F5F5F5F5F5F5F5F5F5F5F5F5F5F5F5F5F5F5F5F5F5F5F5F5F5F5F5F5F5F5F5F5F5F5F5F5F5F5F5F5F5F5F5F5F5F5F5F5F5F5F5F5F5F5F5F5F5F5F5F5F5F5F5F5F5F5F5F5F5F5F5F5F5F5F5F5F5F5F5
310
F5F5F5F5F5F5F5F5F5F5F5F5F5F5F5F5F5F5F5F5F5F5F5F5F5F5F5F5F5F5F5F5F5F5F5F5F5F5F5F5F5E2F5F5F5F5F5F5F5F5F5F5F5F5F5F5F5F5E2F5F5F5E2E2EFF5F5F5E2F5F5F5F5F5F5F5F5F5F5F5F5F5F5F5F5E2F5F5F5F5F5F5F5F5F5F5F5F5F5F5F5F5F5F5F5F5F5F5F5F5F5F5F5F5F5F5F5F5F5F5F5F5F5F5F5F5F5
310
F5F5F5F5F5F5F5F5F5F5F5F5F5F5F5F5F5F5F5F5F5F5F5F5F5F5F5F5F5F5F5F5F5F5F5F5F5F5F5F5F5F5F5F5F5F5F5F5F5F5F5F5F5F5F5F5F5F5F5F5F5F5F5F5F5F5F5F5F5F5F5F5F5F5F5F5F5F5F5F5F5F5F5F5F5F5F5F5F5F5F5F5F5F5E2F5F5F5F5F5F5F5F5F5F5F5F5F5F5F5F5E2F5F5F5E2E2EFF5F5F5E2F5F5F5F5F5
310
F5F5F5F5F5F5F5F5F5F5F5E2F5F5F5F5F5F5F5F5F5F5F5F5F5F5F5F5F5F5F5F5F5F5F5F5F5F5F5F5F5F5F5F5F5F5F5F5F5F5F5F5F5F5F5F5F5F5F5F5F5F5F5F5F5F5F5F5F5F5F5F5F5F5F5F5F5F5F5F5F5F5F5F5F5F5F5F5F5F5F5F5F5F5F5F5F5F5F5F5F5F5F5F5F5F5F5F5F5F5F5F5F5F5F5F5F5F5F5F5F5F5F5F5F5F5F5
310
F5F5F5F5F5F5F5F5F5F5F5F5F5F5F5F5F5F5F5F5E2F5F5F5F5F5F5F5F5F5F5F5F5F5F5F5F5E2F5F5F5E2E2EFF5F5F5E2F5F5F5F5F5F5F5F5F5F5F5F5F5F5F5F5E2F5F5F5F5F5F5F5F5F5F5F5F5F5F5F5F5F5F5F5F5F5F5F5F5F5F5F5F5F5F5F5F5F5F5F5F5F5F5F5F5F5F5F5F5F5F5F5F5F5F5F5F5F5F5F5F5F5F5F5F5F5F5
310
F5F5F5F5F5F5F5F5F5F5F5F5F5F5F5F5F5F5F5F5F5F5F5F5F5F5F5F5F5F5F5F5F5F5F5F5F5F5F5F5F5F5F5F5F5F5F5F5F5F5F5F5F5F5F5F5F5F5F5F5F5F5F5F5F5F5F5F5F5F5F5F5F5E2F5F5F5F5F5F5F5F5F5F5F5F5F5F5F5F5E2F5F5F5E2E2EFF5F5F5E2F5F5F5F5F5F5F5F5F5F5F5F5F5F5F5F5E2F5F5F5F5F5F5F5F5F5
310
F5F5F5F5F5F5F5F5F5F5F5F5F5F5F5F5F5F5F5F5F5F5F5F5F5F5F5F5F5F5F5F5F5F5F5F5F5F5F5F5F5F5F5F5F5F5F5F5F5F5F5F5F5F5F5F5F5F5F5F5F5F5F5F5F5F5F5F5F5F5F5F5F5F5F5F5F5F5F5F5F5F5F5F5F5F5F5F5F5F5F5F5F5F5F5F5F5F5F5F5F5F5F5F5F5F5F5F5F5F5F5F5F5F5F5F5F5F5F5F5F5F5F5F5F5F5E2
310
F5F5F5F5F5F5F5F5F5F5F5F5F5F5F5F5E2F5F5F5E2E2EFF5F5F5E2F5F5F5F5F5F5F5F5F5F5F5F5F5F5F5F5E2F5F5F5F5F5F5F5F5F5F5F5F5F5F5F5F5F5F5F5F5F5F5F5F5F5F5F5F5F5F5F5F5F5F5F5F5F5F5F5F5F5F5F5F5F5F5F5F5F5F5F5F5F5F5F5F5F5F5F5F5F5F5F5F5F5F5F5F5F5F5F5F5F5F5F5F5F5F5F5F5F5F5F5
310
F5F5F5F5F5F5F5F5F5F5F5F5F5F5F5F5F5F5F5F5F5F5F5F5F5F5F5F5F5F5F5F5F5F5F5F5F5F5F5F5F5F5F5F5F5F5F5F5F5F5F5F5E2F5F5F5F5F5F5F5F5F5F5F5F5F5F5F5F5E2F5F5F5E2E2EFF5F5F5E2F5F5F5F5F5F5F5F5F5F5F5F5F5F5F5F5E2F5F5F5F5F5F5F5F5F5F5F5F5F5F5F5F5F5F5F5F5F5F5F5F5F5F5F5F5F5F5
310
F5F5F5F5F5F5F5F5F5F5F5F5F5F5F5F5F5F5F5F5F5F5F5F5F5F5F5F5F5F5F5F5F5F5F5F5F5F5F5F5F5F5F5F5F5F5F5F5F5F5F5F5F5F5F5F5F5F5F5F5F5F5F5F5F5F5F5F5F5F5F5F5F5F5F5F5F5F5F5F5F5F5F5F5F5F5F5F5F5F5F5F5F5F5F5F5F5F5F5F5F5F5F5F5F5E2F5F5F5F5F5F5F5F5F5F5F5F5F5F5F5F5E2F5F5F5E2
310
E2EFF5F5F5E2F5F5F5F5F5F5F5F5F5F5F5F5F5F5F5F5E2F5F5F5F5F5F5F5F5F5F5F5F5F5F5F5F5F5F5F5F5F5F5F5F5F5F5F5F5F5F5F5F5F5F5F5F5F5F5F5F5F5F5F5F5F5F5F5F5F5F5F5F5F5F5F5F5F5F5F5F5F5F5F5F5F5F5F5F5F5F5F5F5F5F5F5F5F5F5F5F5F5F5F5F5F5F5F5F5F5F5F5F5F5F5F5F5F5F5F5F5F5F5F5F5
310
F5F5F5F5F5F5F5F5F5F5F5F5F5F5F5F5F5F5F5F5F5F5F5F5F5F5F5F5F5F5F5E2F5F5F5F5F5F5F5F5F5F5F5F5F5F5F5F5E2F5F5F5E2E2EFF5F5F5E2F5F5F5F5F5F5F5F5F5F5F5F5F5F5F5F5E2F5F5F5F5F5F5F5F5F5F5F5F5F5F5F5F5F5F5F5F5F5F5F5F5F5F5F5F5F5F5F5F5F5F5F5F5F5F5F5F5F5F5F5F5F5F5F5F5F5F5F5
310
F5F5F5F5F5F5F5F5F5F5F5F5F5F5F5F5F5F5F5F5F5F5F5F5F5F5F5F5F5F5F5F5F5F5F5F5F5F5F5F5F5F5F5F5F5F5F5F5F5F5F5F5F5F5F5F5F5F5F5F5F5F5F5F5F5F5F5F5F5F5F5F5F5F5F5F5F5F5F5F5F5F5F5F5E2F5F5F5F5F5F5F5F5F5F5F5F5F5F5F5F5E2F5F5F5E2E2EFF5F5F5E2F5F5F5F5F5F5F5F5F5F5F5F5F5F5F5
310
F5E2F5F5F5F5F5F5F5F5F5F5F5F5F5F5F5F5F5F5F5F5F5F5F5F5F5F5F5F5F5F5F5F5F5F5F5F5F5F5F5F5F5F5F5F5F5F5F5F5F5F5F5F5F5F5F5F5F5F5F5F5F5F5F5F5F5F5F5F5F5F5F5F5F5F5F5F5F5F5F5F5F5F5F5F5F5F5F5F5F5F5F5F5F5F5F5F5F5F5F5F5F5F5F5F5F5F5F5F5F5F5F5F5F5F5F5F5F5F5F5F5F5F5F5F5F5
310
F5F5F5F5F5F5F5F5F5F5E2F5F5F5F5F5F5F5F5F5F5F5F5F5F5F5F5E2F5F5F5E2E2EFF5F5F5E2F5F5F5F5F5F5F5F5F5F5F5F5F5F5F5F5E2F5F5F5F5F5F5F5F5F5F5F5F5F5F5F5F5F5F5F5F5F5F5F5F5F5F5F5F5F5F5F5F5F5F5F5F5F5F5F5F5F5F5F5F5F5F5F5F5F5F5F5F5F5F5F5F5F5F5F5F5F5F5F5F5F5F5F5F5F5F5F5F5
310
F5F5F5F5F5F5F5F5F5F5F5F5F5F5F5F5F5F5F5F5F5F5F5F5F5F5F5F5F5F5F5F5F5F5F5F5F5F5F5F5F5F5F5F5F5F5F5F5F5F5F5F5F5F5F5F5F5F5F5F5F5F5F5E2F5F5F5F5F5F5F5F5F5F5F5F5F5F5F5F5E2F5F5F5E2E2EFF5F5F5E2F5F5F5F5F5F5F5F5F5F5F5F5F5F5F5F5E2F5F5F5F5F5F5F5F5F5F5F5F5F5F5F5F5F5F5F5
310
F5F5F5F5F5F5F5F5F5F5F5F5F5F5F5F5F5F5F5F5F5F5F5F5F5F5F5F5F5F5F5F5F5F5F5F5F5F5F5F5F5F5F5F5F5F5F5F5F5F5F5F5F5F5F5F5F5F5F5F5F5F5F5F5F5F5F5F5F5F5F5F5F5F5F5F5F5F5F5F5F5F5F5F5F5F5F5F5F5F5F5F5F5F5F5F5F5F5F5F5F5F5F5F5F5F5F5F5F5F5F5F5F5F5F5F5E2F5F5F5F5F5F5F5F5F5F5
310
F5F5F5F5F5F5E2F5F5F5E2E2EFF5F5F5E2F5F5F5F5F5F5F5F5F5F5F5F5F5F5F5F5E2F5F5F5F5F5F5F5F5F5F5F5F5F5F5F5F5F5F5F5F5F5F5F5F5F5F5F5F5F5F5F5F5F5F5F5F5F5F5F5F5F5F5F5F5F5F5F5F5F5F5F5F5F5F5F5F5F5F5F5F5F5F5F5F5F5F5F5F5F5F5F5F5F5F5F5F5F5F5F5F5F5F5F5F5F5F5F5F5F5F5F5F5F5
310
F5F5F5F5F5F5F5F5F5F5F5F5F5F5F5F5F5F5F5F5F5F5F5F5F5F5F5F5F5F5F5F5F5F5F5F5F5F5F5F5F5F5E2F5F5F5F5F5F5F5F5F5F5F5F5F5F5F5F5E2F5F5F5E2E2EFF5F5F5E2F5F5F5F5F5F5F5F5F5F5F5F5F5F5F5F5E2F5F5F5F5F5F5F5F5F5F5F5F5F5F5F5F5F5F5F5F5F5F5F5F5F5F5F5F5F5F5F5F5F5F5F5F5F5F5F5F5
310
F5F5F5F5F5F5F5F5F5F5F5F5F5F5F5F5F5F5F5F5F5F5F5F5F5F5F5F5F5F5F5F5F5F5F5F5F5F5F5F5F5F5F5F5F5F5F5F5F5F5F5F5F5F5F5F5F5F5F5F5F5F5F5F5F5F5F5F5F5F5F5F5F5F5F5F5F5F5F5F5F5F5F5F5F5F5F5F5F5F5F5F5F5F5F5E2F5F5F5F5F5F5F5F5F5F5F5F5F5F5F5F5E2F5F5F5E2E2EFF5F5F5E2F5F5F5F5
310
F5F5F5F5F5F5F5F5F5F5F5F5E2F5F5F5F5F5F5F5F5F5F5F5F5F5F5F5F5F5F5F5F5F5F5F5F5F5F5F5F5F5F5F5F5F5F5F5F5F5F5F5F5F5F5F5F5F5F5F5F5F5F5F5F5F5F5F5F5F5F5F5F5F5F5F5F5F5F5F5F5F5F5F5F5F5F5F5F5F5F5F5F5F5F5F5F5F5F5F5F5F5F5F5F5F5F5F5F5F5F5F5F5F5F5F5F5F5F5F5F5F5F5F5F5F5F5
310
F5F5F5F5F5F5F5F5F5F5F5F5F5F5F5F5F5F5F5F5F5E2F5F5F5F5F5F5F5F5F5F5F5F5F5F5F5F5E2F5F5F5E2E2EFF5F5F5F5F5F5F5F5F5F5F5F5F5F5F5F5F5F5F5F5E2F5F5F5F5F5F5F5F5F5F5F5F5F5F5F5F5F5F5F5F5F5F5F5F5F5F5F5F5F5F5F5F5F5F5F5F5F5F5F5F5F5F5F5F5F5F5F5F5F5F5F5F5F5F5F5F5F5F5F5F5F5
310
F5F5F5F5F5F5F5F5F5F5F5F5F5F5F5F5F5F5F5F5F5F5F5F5F5F5F5F5F5F5F5F5F5F5F5F5F5F5F5F5F5F5F5F5F5F5F5F5F5F5F5F5F5F5F5F5F5F5F5F5F5F5F5F5F5F5F5F5F5F5F5F5F5F5E2F5F5F5F5F5F5F5F5F5F5F5F5F5F5F5F5F5F5F5F5E2E2EFF5F5F5F5F5F5F5F5F5F5F5F5F5F5F5F5F5F5F5F5E2F5F5F5F5F5F5F5F5
310
F5F5F5F5F5F5F5F5F5F5F5F5F5F5F5F5F5F5F5F5F5F5F5F5F5F5F5F5F5F5F5F5F5F5F5F5F5F5F5F5F5F5F5F5F5F5F5F5F5F5F5F5F5F5F5F5F5F5F5F5F5F5F5F5F5F5F5F5F5F5F5F5F5F5F5F5F5F5F5F5F5F5F5F5F5F5F5F5F5F5F5F5F5F5F5F5F5F5F5F5F5F5F5F5F5F5F5F5F5F5F5F5F5F5F5F5F5F5F5F5F5F5F5F5F5F5F5
310
E2F5F5F5F5F5F5F5F5F5F5F5F5F5F5F5F5F5F5F5F5E2E2EFF5F5F5F5F5F5F5F5F5F5F5F5F5F5F5F5F5F5F5F5E2F5F5F5F5F5F5F5F5F5F5F5F5F5F5F5F5F5F5F5F5F5F5F5F5F5F5F5F5F5F5F5F5F5F5F5F5F5F5F5F5F5F5F5F5F5F5F5F5F5F5F5F5F5F5F5F5F5F5F5F5F5F5F5F5F5F5F5F5F5F5F5F5F5F5F5F5F5F5F5F5F5F5
310
F5F5F5F5F5F5F5F5F5F5F5F5F5F5F5F5F5F5F5F5F5F5F5F5F5F5F5F5F5F5F5F5F5F5F5F5F5F5F5F5F5F5F5F5F5F5F5F5F5F5F5F5F5E2F5F5F5F5F5F5F5F5F5F5F5F5F5F5F5F5F5F5F5F5E2E2EFF5F5F5F5F5F5F5F5F5F5F5F5F5F5F5F5F5F5F5F5E2F5F5F5F5F5F5F5F5F5F5F5F5F5F5F5F5F5F5F5F5F5F5F5F5F5F5F5F5F5
310
F5F5F5F5F5F5F5F5F5F5F5F5F5F5F5F5F5F5F5F5F5F5F5F5F5F5F5F5F5F5F5F5F5F5F5F5F5F5F5F5F5F5F5F5F5F5F5F5F5F5F5F5F5F5F5F5F5F5F5F5F5F5F5F5F5F5F5F5F5F5F5F5F5F5F5F5F5F5F5F5F5F5F5F5F5F5F5F5F5F5F5F5F5F5F5F5F5F5F5F5F5F5F5F5F5F5E2F5F5F5F5F5F5F5F5F5F5F5F5F5F5F5F5F5F5F5F5
310
E2E2EFF5F5F5F5F5F5F5F5F5F5F5F5F5F5F5F5F5F5F5F5E2F5F5F5F5F5F5F5F5F5F5F5F5F5F5F5F5F5F5F5F5F5F5F5F5F5F5F5F5F5F5F5F5F5F5F5F5F5F5F5F5F5F5F5F5F5F5F5F5F5F5F5F5F5F5F5F5F5F5F5F5F5F5F5F5F5F5F5F5F5F5F5F5F5F5F5F5F5F5F5F5F5F5F5F5F5F5F5F5F5F5F5F5F5F5F5F5F5F5F5F5F5F5F5
310
F5F5F5F5F5F5F5F5F5F5F5F5F5F5F5F5F5F5F5F5F5F5F5F5F5F5F5F5F5F5F5F5E2F5F5F5F5F5F5F5F5F5F5F5F5F5F5F5F5F5F5F5F5E2E2EFF5F5F5F5F5F5F5F5F5F5F5F5F5F5F5F5F5F5F5F5E2F5F5F5F5F5F5F5F5F5F5F5F5F5F5F5F5F5F5F5F5F5F5F5F5F5F5F5F5F5F5F5F5F5F5F5F5F5F5F5F5F5F5F5F5F5F5F5F5F5F5
310
F5F5F5F5F5F5F5F5F5F5F5F5F5F5F5F5F5F5F5F5F5F5F5F5F5F5F5F5F5F5F5F5F5F5F5F5F5F5F5F5F5F5F5F5F5F5F5F5F5F5F5F5F5F5F5F5F5F5F5F5F5F5F5F5F5F5F5F5F5F5F5F5F5F5F5F5F5F5F5F5F5F5F5F5F5E2F5F5F5F5F5F5F5F5F5F5F5F5F5F5F5F5F5F5F5F5E2E2EFF5F5F5F5F5F5F5F5F5F5F5F5F5F5F5F5F5F5
310
F5F5E2F5F5F5F5F5F5F5F5F5F5F5F5F5F5F5F5F5F5F5F5F5F5F5F5F5F5F5F5F5F5F5F5F5F5F5F5F5F5F5F5F5F5F5F5F5F5F5F5F5F5F5F5F5F5F5F5F5F5F5F5F5F5F5F5F5F5F5F5F5F5F5F5F5F5F5F5F5F5F5F5F5F5F5F5F5F5F5F5F5F5F5F5F5F5F5F5F5F5F5F5F5F5F5F5F5F5F5F5F5F5F5F5F5F5F5F5F5F5F5F5F5F5F5F5
310
F5F5F5F5F5F5F5F5F5F5F5E2F5F5F5F5F5F5F5F5F5F5F5F5F5F5F5F5F5F5F5F5E2E2EFF5F5F5F5F5F5F5F5F5F5F5F5F5F5F5F5F5F5F5F5E2F5F5F5F5F5F5F5F5F5F5F5F5F5F5F5F5F5F5F5F5F5F5F5F5F5F5F5F5F5F5F5F5F5F5F5F5F5F5F5F5F5F5F5F5F5F5F5F5F5F5F5F5F5F5F5F5F5F5F5F5F5F5F5F5F5F5F5F5F5F5F5
310
F5F5F5F5F5F5F5F5F5F5F5F5F5F5F5F5F5F5F5F5F5F5F5F5F5F5F5F5F5F5F5F5F5F5F5F5F5F5F5F5F5F5F5F5F5F5F5F5F5F5F5F5F5F5F5F5F5F5F5F5F5F5F5F5E2F5F5F5F5F5F5F5F5F5F5F5F5F5F5F5F5F5F5F5F5E2E2EFF5F5F5F5F5F5F5F5F5F5F5F5F5F5F5F5F5F5F5F5E2F5F5F5F5F5F5F5F5F5F5F5F5F5F5F5F5F5F5
310
F5F5F5F5F5F5F5F5F5F5F5F5F5F5F5F5F5F5F5F5F5F5F5F5F5F5F5F5F5F5F5F5F5F5F5F5F5F5F5F5F5F5F5F5F5F5F5F5F5F5F5F5F5F5F5F5F5F5F5F5F5F5F5F5F5F5F5F5F5F5F5F5F5F5F5F5F5F5F5F5F5F5F5F5F5F5F5F5F5F5F5F5F5F5F5F5F5F5F5F5F5F5F5F5F5F5F5F5F5F5F5F5F5F5F5F5F5E2F5F5F5F5F5F5F5F5F5
310
F5F5F5F5F5F5F5F5F5F5F5E2E2EFF5F5F5E2F5F5F5F5F5F5F5F5F5F5F5F5F5F5F5F5E2F5F5F5F5F5F5F5F5F5F5F5F5F5F5F5F5F5F5F5F5F5F5F5F5F5F5F5F5F5F5F5F5F5F5F5F5F5F5F5F5F5F5F5F5F5F5F5F5F5F5F5F5F5F5F5F5F5F5F5F5F5F5F5F5F5F5F5F5F5F5F5F5F5F5F5F5F5F5F5F5F5F5F5F5F5F5F5F5F5F5F5F5
310
F5F5F5F5F5F5F5F5F5F5F5F5F5F5F5F5F5F5F5F5F5F5F5F5F5F5F5F5F5F5F5F5F5F5F5F5F5F5F5F5F5F5F5E2F5F5F5F5F5F5F5F5F5F5F5F5F5F5F5F5E2F5F5F5E2E2EFF5F5F5E2F5F5F5F5F5F5F5F5F5F5F5F5F5F5F5F5E2F5F5F5F5F5F5F5F5F5F5F5F5F5F5F5F5F5F5F5F5F5F5F5F5F5F5F5F5F5F5F5F5F5F5F5F5F5F5F5
310
F5F5F5F5F5F5F5F5F5F5F5F5F5F5F5F5F5F5F5F5F5F5F5F5F5F5F5F5F5F5F5F5F5F5F5F5F5F5F5F5F5F5F5F5F5F5F5F5F5F5F5F5F5F5F5F5F5F5F5F5F5F5F5F5F5F5F5F5F5F5F5F5F5F5F5F5F5F5F5F5F5F5F5F5F5F5F5F5F5F5F5F5F5F5F5F5E2F5F5F5F5F5F5F5F5F5F5F5F5F5F5F5F5E2F5F5F5E2E2EFF5F5F5E2F5F5F5
310
F5F5F5F5F5F5F5F5F5F5F5F5F5E2F5F5F5F5F5F5F5F5F5F5F5F5F5F5F5F5F5F5F5F5F5F5F5F5F5F5F5F5F5F5F5F5F5F5F5F5F5F5F5F5F5F5F5F5F5F5F5F5F5F5F5F5F5F5F5F5F5F5F5F5F5F5F5F5F5F5F5F5F5F5F5F5F5F5F5F5F5F5F5F5F5F5F5F5F5F5F5F5F5F5F5F5F5F5F5F5F5F5F5F5F5F5F5F5F5F5F5F5F5F5F5F5F5
310
F5F5F5F5F5F5F5F5F5F5F5F5F5F5F5F5F5F5F5F5F5F5E2F5F5F5F5F5F5F5F5F5F5F5F5F5F5F5F5E2F5F5F5E2E2EFF5F5F5E2F5F5F5F5F5F5F5F5F5F5F5F5F5F5F5F5E2F5F5F5F5F5F5F5F5F5F5F5F5F5F5F5F5F5F5F5F5F5F5F5F5F5F5F5F5F5F5F5F5F5F5F5F5F5F5F5F5F5F5F5F5F5F5F5F5F5F5F5F5F5F5F5F5F5F5F5F5
310
F5F5F5F5F5F5F5F5F5F5F5F5F5F5F5F5F5F5F5F5F5F5F5F5F5F5F5F5F5F5F5F5F5F5F5F5F5F5F5F5F5F5F5F5F5F5F5F5F5F5F5F5F5F5F5F5F5F5F5F5F5F5F5F5F5F5F5F5F5F5F5F5F5F5F5E2F5F5F5F5F5F5F5F5F5F5F5F5F5F5F5F5E2F5F5F5E2E2EFF5F5F5E2F5F5F5F5F5F5F5F5F5F5F5F5F5F5F5F5E2F5F5F5F5F5F5F5
310
F5F5F5F5F5F5F5F5F5F5F5F5F5F5F5F5F5F5F5F5F5F5F5F5F5F5F5F5F5F5F5F5F5F5F5F5F5F5F5F5F5F5F5F5F5F5F5F5F5F5F5F5F5F5F5F5F5F5F5F5F5F5F5F5F5F5F5F5F5F5F5F5F5F5F5F5F5F5F5F5F5F5F5F5F5F5F5F5F5F5F5F5F5F5F5F5F5F5F5F5F5F5F5F5F5F5F5F5F5F5F5F5F5F5F5F5F5F5F5F5F5F5F5F5F5F5F5
310
F5E2F5F5F5F5F5F5F5F5F5F5F5F5F5F5F5F5E2F5F5F5E2E2EFF5F5F5E2F5F5F5F5F5F5F5F5F5F5F5F5F5F5F5F5E2F5F5F5F5F5F5F5F5F5F5F5F5F5F5F5F5F5F5F5F5F5F5F5F5F5F5F5F5F5F5F5F5F5F5F5F5F5F5F5F5F5F5F5F5F5F5F5F5F5F5F5F5F5F5F5F5F5F5F5F5F5F5F5F5F5F5F5F5F5F5F5F5F5F5F5F5F5F5F5F5F5
310
F5F5F5F5F5F5F5F5F5F5F5F5F5F5F5F5F5F5F5F5F5F5F5F5F5F5F5F5F5F5F5F5F5F5F5F5F5F5F5F5F5F5F5F5F5F5F5F5F5F5F5F5F5F5E2F5F5F5F5F5F5F5F5F5F5F5F5F5F5F5F5E2F5F5F5E2E2EFF5F5F5E2F5F5F5F5F5F5F5F5F5F5F5F5F5F5F5F5E2F5F5F5F5F5F5F5F5F5F5F5F5F5F5F5F5F5F5F5F5F5F5F5F5F5F5F5F5
310
F5F5F5F5F5F5F5F5F5F5F5F5F5F5F5F5F5F5F5F5F5F5F5F5F5F5F5F5F5F5F5F5F5F5F5F5F5F5F5F5F5F5F5F5F5F5F5F5F5F5F5F5F5F5F5F5F5F5F5F5F5F5F5F5F5F5F5F5F5F5F5F5F5F5F5F5F5F5F5F5F5F5F5F5F5F5F5F5F5F5F5F5F5F5F5F5F5F5F5F5F5F5F5F5F5F5F5E2F5F5F5F5F5F5F5F5F5F5F5F5F5F5F5F5E2F5F5
310
F5E2E2EFF5F5F5E2F5F5F5F5F5F5F5F5F5F5F5F5F5F5F5F5E2F5F5F5F5F5F5F5F5F5F5F5F5F5F5F5F5F5F5F5F5F5F5F5F5F5F5F5F5F5F5F5F5F5F5F5F5F5F5F5F5F5F5F5F5F5F5F5F5F5F5F5F5F5F5F5F5F5F5F5F5F5F5F5F5F5F5F5F5F5F5F5F5F5F5F5F5F5F5F5F5F5F5F5F5F5F5F5F5F5F5F5F5F5F5F5F5F5F5F5F5F5F5
310
F5F5F5F5F5F5F5F5F5F5F5F5F5F5F5F5F5F5F5F5F5F5F5F5F5F5F5F5F5F5F5F5F5E2F5F5F5F5F5F5F5F5F5F5F5F5F5F5F5F5E2F5F5F5E2E2EFF5F5F5E2F5F5F5F5F5F5F5F5F5F5F5F5F5F5F5F5E2F5F5F5F5F5F5F5F5F5F5F5F5F5F5F5F5F5F5F5F5F5F5F5F5F5F5F5F5F5F5F5F5F5F5F5F5F5F5F5F5F5F5F5F5F5F5F5F5F5
310
F5F5F5F5F5F5F5F5F5F5F5F5F5F5F5F5F5F5F5F5F5F5F5F5F5F5F5F5F5F5F5F5F5F5F5F5F5F5F5F5F5F5F5F5F5F5F5F5F5F5F5F5F5F5F5F5F5F5F5F5F5F5F5F5F5F5F5F5F5F5F5F5F5F5F5F5F5F5F5F5F5F5F5F5F5F5E2F5F5F5F5F5F5F5F5F5F5F5F5F5F5F5F5E2F5F5F5E2E2EFF5F5F5E2F5F5F5F5F5F5F5F5F5F5F5F5F5
310
F5F5F5E2F5F5F5F5F5F5F5F5F5F5F5F5F5F5F5F5F5F5F5F5F5F5F5F5F5F5F5F5F5F5F5F5F5F5F5F5F5F5F5F5F5F5F5F5F5F5F5F5F5F5F5F5F5F5F5F5F5F5F5F5F5F5F5F5F5F5F5F5F5F5F5F5F5F5F5F5F5F5F5F5F5F5F5F5F5F5F5F5F5F5F5F5F5F5F5F5F5F5F5F5F5F5F5F5F5F5F5F5F5F5F5F5F5F5F5F5F5F5F5F5F5F5F5
310
F5F5F5F5F5F5F5F5F5F5F5F5E2F5F5F5F5F5F5F5F5F5F5F5F5F5F5F5F5E2F5F5F5E2E2EFF5F5F5E2F5F5F5F5F5F5F5F5F5F5F5F5F5F5F5F5E2F5F5F5F5F5F5F5F5F5F5F5F5F5F5F5F5F5F5F5F5F5F5F5F5F5F5F5F5F5F5F5F5F5F5F5F5F5F5F5F5F5F5F5F5F5F5F5F5F5F5F5F5F5F5F5F5F5F5F5F5F5F5F5F5F5F5F5F5F5F5
310
F5F5F5F5F5F5F5F5F5F5F5F5F5F5F5F5F5F5F5F5F5F5F5F5F5F5F5F5F5F5F5F5F5F5F5F5F5F5F5F5F5F5F5F5F5F5F5F5F5F5F5F5F5F5F5F5F5F5F5F5F5F5F5F5F5E2F5F5F5F5F5F5F5F5F5F5F5F5F5F5F5F5E2F5F5F5E2E2EFF5F5F5E2F5F5F5F5F5F5F5F5F5F5F5F5F5F5F5F5E2F5F5F5F5F5F5F5F5F5F5F5F5F5F5F5F5F5
310
F5F5F5F5F5F5F5F5F5F5F5F5F5F5F5F5F5F5F5F5F5F5F5F5F5F5F5F5F5F5F5F5F5F5F5F5F5F5F5F5F5F5F5F5F5F5F5F5F5F5F5F5F5F5F5F5F5F5F5F5F5F5F5F5F5F5F5F5F5F5F5F5F5F5F5F5F5F5F5F5F5F5F5F5F5F5F5F5F5F5F5F5F5F5F5F5F5F5F5F5F5F5F5F5F5F5F5F5F5F5F5F5F5F5F5F5F5F5E2F5F5F5F5F5F5F5F5
310
F5F5F5F5F5F5F5F5E2F5F5F5E2E2EFF5F5F5E2F5F5F5F5F5F5F5F5F5F5F5F5F5F5F5F5E2F5F5F5F5F5F5F5F5F5F5F5F5F5F5F5F5F5F5F5F5F5F5F5F5F5F5F5F5F5F5F5F5F5F5F5F5F5F5F5F5F5F5F5F5F5F5F5F5F5F5F5F5F5F5F5F5F5F5F5F5F5F5F5F5F5F5F5F5F5F5F5F5F5F5F5F5F5F5F5F5F5F5F5F5F5F5F5F5F5F5F5
310
F5F5F5F5F5F5F5F5F5F5F5F5F5F5F5F5F5F5F5F5F5F5F5F5F5F5F5F5F5F5F5F5F5F5F5F5F5F5F5F5F5F5F5F5E2F5F5F5F5F5F5F5F5F5F5F5F5F5F5F5F5E2F5F5F5E2E2EFF5F5F5E2F5F5F5F5F5F5F5F5F5F5F5F5F5F5F5F5E2F5F5F5F5F5F5F5F5F5F5F5F5F5F5F5F5F5F5F5F5F5F5F5F5F5F5F5F5F5F5F5F5F5F5F5F5F5F5
310
F5F5F5F5F5F5F5F5F5F5F5F5F5F5F5F5F5F5F5F5F5F5F5F5F5F5F5F5F5F5F5F5F5F5F5F5F5F5F5F5F5F5F5F5F5F5F5F5F5F5F5F5F5F5F5F5F5F5F5F5F5F5F5F5F5F5F5F5F5F5F5F5F5F5F5F5F5F5F5F5F5F5F5F5F5F5F5F5F5F5F5F5F5F5F5F5F5E2F5F5F5F5F5F5F5F5F5F5F5F5F5F5F5F5E2F5F5F5E2E2EFF5F5F5E2F5F5
310
F5F5F5F5F5F5F5F5F5F5F5F5F5F5E2F5F5F5F5F5F5F5F5F5F5F5F5F5F5F5F5F5F5F5F5F5F5F5F5F5F5F5F5F5F5F5F5F5F5F5F5F5F5F5F5F5F5F5F5F5F5F5F5F5F5F5F5F5F5F5F5F5F5F5F5F5F5F5F5F5F5F5F5F5F5F5F5F5F5F5F5F5F5F5F5F5F5F5F5F5F5F5F5F5F5F5F5F5F5F5F5F5F5F5F5F5F5F5F5F5F5F5F5F5F5F5F5
310
F5F5F5F5F5F5F5F5F5F5F5F5F5F5F5F5F5F5F5F5F5F5F5E2F5F5F5F5F5F5F5F5F5F5F5F5F5F5F5F5E2F5F5F5E2E2EFF5F5F5E2F5F5F5F5F5F5F5F5F5F5F5F5F5F5F5F5E2F5F5F5F5F5F5F5F5F5F5F5F5F5F5F5F5F5F5F5F5F5F5F5F5F5F5F5F5F5F5F5F5F5F5F5F5F5F5F5F5F5F5F5F5F5F5F5F5F5F5F5F5F5F5F5F5F5F5F5
310
F5F5F5F5F5F5F5F5F5F5F5F5F5F5F5F5F5F5F5F5F5F5F5F5F5F5F5F5F5F5F5F5F5F5F5F5F5F5F5F5F5F5F5F5F5F5F5F5F5F5F5F5F5F5F5F5F5F5F5F5F5F5F5F5F5F5F5F5F5F5F5F5F5F5F5F5E2F5F5F5F5F5F5F5F5F5F5F5F5F5F5F5F5E2F5F5F5E2E2EFF5F5F5E2F5F5F5F5F5F5F5F5F5F5F5F5F5F5F5F5E2F5F5F5F5F5F5
310
F5F5F5F5F5F5F5F5F5F5F5F5F5F5F5F5F5F5F5F5F5F5F5F5F5F5F5F5F5F5F5F5F5F5F5F5F5F5F5F5F5F5F5F5F5F5F5F5F5F5F5F5F5F5F5F5F5F5F5F5F5F5F5F5F5F5F5F5F5F5F5F5F5F5F5F5F5F5F5F5F5F5F5F5F5F5F5F5F5F5F5F5F5F5F5F5F5F5F5F5F5F5F5F5F5F5F5F5F5F5F5F5F5F5F5F5F5F5F5F5F5F5F5F5F5F5F5
310
F5F5E2F5F5F5F5F5F5F5F5F5F5F5F5F5F5F5F5E2F5F5F5E2E2EFF5F5F5F5F5F5F5F5F5F5F5F5F5F5F5F5F5F5F5F5E2F5F5F5F5F5F5F5F5F5F5F5F5F5F5F5F5F5F5F5F5F5F5F5F5F5F5F5F5F5F5F5F5F5F5F5F5F5F5F5F5F5F5F5F5F5F5F5F5F5F5F5F5F5F5F5F5F5F5F5F5F5F5F5F5F5F5F5F5F5F5F5F5F5F5F5F5F5F5F5F5
310
F5F5F5F5F5F5F5F5F5F5F5F5F5F5F5F5F5F5F5F5F5F5F5F5F5F5F5F5F5F5F5F5F5F5F5F5F5F5F5F5F5F5F5F5F5F5F5F5F5F5F5F5F5F5F5E2F5F5F5F5F5F5F5F5F5F5F5F5F5F5F5F5F5F5F5F5E2E2EFF5F5F5F5F5F5F5F5F5F5F5F5F5F5F5F5F5F5F5F5E2F5F5F5F5F5F5F5F5F5F5F5F5F5F5F5F5F5F5F5F5F5F5F5F5F5F5F5
310
F5F5F5F5F5F5F5F5F5F5F5F5F5F5F5F5F5F5F5F5F5F5F5F5F5F5F5F5F5F5F5F5F5F5F5F5F5F5F5F5F5F5F5F5F5F5F5F5F5F5F5F5F5F5F5F5F5F5F5F5F5F5F5F5F5F5F5F5F5F5F5F5F5F5F5F5F5F5F5F5F5F5F5F5F5F5F5F5F5F5F5F5F5F5F5F5F5F5F5F5F5F5F5F5F5F5F5F5E2F5F5F5F5F5F5F5F5F5F5F5F5F5F5F5F5F5F5
310
F5F5E2E2EFF5F5F5F5F5F5F5F5F5F5F5F5F5F5F5F5F5F5F5F5E2F5F5F5F5F5F5F5F5F5F5F5F5F5F5F5F5F5F5F5F5F5F5F5F5F5F5F5F5F5F5F5F5F5F5F5F5F5F5F5F5F5F5F5F5F5F5F5F5F5F5F5F5F5F5F5F5F5F5F5F5F5F5F5F5F5F5F5F5F5F5F5F5F5F5F5F5F5F5F5F5F5F5F5F5F5F5F5F5F5F5F5F5F5F5F5F5F5F5F5F5F5
310
F5F5F5F5F5F5F5F5F5F5F5F5F5F5F5F5F5F5F5F5F5F5F5F5F5F5F5F5F5F5F5F5F5F5E2F5F5F5F5F5F5F5F5F5F5F5F5F5F5F5F5F5F5F5F5E2E2EFF5F5F5F5F5F5F5F5F5F5F5F5F5F5F5F5F5F5F5F5E2F5F5F5F5F5F5F5F5F5F5F5F5F5F5F5F5F5F5F5F5F5F5F5F5F5F5F5F5F5F5F5F5F5F5F5F5F5F5F5F5F5F5F5F5F5F5F5F5
310
F5F5F5F5F5F5F5F5F5F5F5F5F5F5F5F5F5F5F5F5F5F5F5F5F5F5F5F5F5F5F5F5F5F5F5F5F5F5F5F5F5F5F5F5F5F5F5F5F5F5F5F5F5F5F5F5F5F5F5F5F5F5F5F5F5F5F5F5F5F5F5F5F5F5F5F5F5F5F5F5F5F5F5F5F5F5F5E2F5F5F5F5F5F5F5F5F5F5F5F5F5F5F5F5F5F5F5F5E2E2EFF5F5F5F5F5F5F5F5F5F5F5F5F5F5F5F5
310
F5F5F5F5E2E2E2E2E2E2E2E2E2E2E2E2E2E2E2E2E2E2E2E2E2E2E2E2E2E2E2E2E2E2E2E2E2E2E2E2E2E2E2E2E2E2E2E2E2E2E2E2E2E2E2E2E2E2E2E2E2E2E2E2E2E2E2E2E2E2E2E2E2E2E2E2E2E2E2E2E2E2E2E2E2E2E2E2E2E2E2E2E2E2E2E2E2E2E2E2E2E2E2E2E2E2E2E2E2E2E2E2E2E2E2E2E2E2E2E2E2E2E2E2E2E2E2
310
E2E2E2E2E2E2E2E2E2E2E2E2E2E2F5F5F5F5F5F5F5F5F5F5F5F5F5F5F5F5F5F5F5F5E2E2EFF5F5F5F5F5F5F5F5F5F5F5F5F5F5F5F5F5F5F5F5F5F5F5F5F5F5F5F5F5F5F5F5F5F5F5F5F5F5F5F5F5F5F5F5F5F5F5F5F5F5F5F5F5F5F5F5F5F5F5F5F5F5F5F5F5F5F5F5F5F5F5F5F5F5F5F5F5F5F5F5F5F5F5F5F5F5F5F5F5F5
310
F5F5F5F5F5F5F5F5F5F5F5F5F5F5F5F5F5F5F5F5F5F5F5F5F5F5F5F5F5F5F5F5F5F5F5F5F5F5F5F5F5F5F5F5F5F5F5F5F5F5F5F5F5F5F5F5F5F5F5F5F5F5F5F5F5F5F5F5F5F5F5F5F5F5F5F5F5F5F5F5F5F5F5F5F5F5F5E2E2EFF5F5F5F5F5F5F5F5F5F5F5F5F5F5F5F5F5F5F5F5F5F5F5F5F5F5F5F5F5F5F5F5F5F5F5F5F5
310
F5F5F5F5F5F5F5F5F5F5F5F5F5F5F5F5F5F5F5F5F5F5F5F5F5F5F5F5F5F5F5F5F5F5F5F5F5F5F5F5F5F5F5F5F5F5F5F5F5F5F5F5F5F5F5F5F5F5F5F5F5F5F5F5F5F5F5F5F5F5F5F5F5F5F5F5F5F5F5F5F5F5F5F5F5F5F5F5F5F5F5F5F5F5F5F5F5F5F5F5F5F5F5F5F5F5F5F5F5F5F5F5F5F5F5F5F5F5F5F5F5F5F5F5F5F5F5
310
F5F5F5F5F5F5F5F5F5F5F5F5F5E2E2EFF5F5F5F5F5F5F5F5F5F5F5F5F5F5F5F5F5F5F5F5F5F5F5F5F5F5F5F5F5F5F5F5F5F5F5F5F5F5F5F5F5F5F5F5F5F5F5F5F5F5F5F5F5F5F5F5F5F5F5F5F5F5F5F5F5F5F5F5F5F5F5F5F5F5F5F5F5F5F5F5F5F5F5F5F5F5F5F5F5F5F5F5F5F5F5F5F5F5F5F5F5F5F5F5F5F5F5F5F5F5F5
310
F5F5F5F5F5F5F5F5F5F5F5F5F5F5F5F5F5F5F5F5F5F5F5F5F5F5F5F5F5F5F5F5F5F5F5F5F5F5F5F5F5F5F5F5F5F5F5F5F5F5F5F5F5F5F5F5F5F5F5F5F5F5F5F5F5F5E2E2EFF5F5F5F5F5F5F5F5F5F5F5F5F5F5F5F5F5F5F5F5F5F5F5F5F5F5F5F5F5F5F5F5F5F5F5F5F5F5F5F5F5F5F5F5F5F5F5F5F5F5F5F5F5F5F5F5F5F5
310
F5F5F5F5F5F5F5F5F5F5F5F5F5F5F5F5F5F5F5F5F5F5F5F5F5F5F5F5F5F5F5F5F5F5F5F5F5F5F5F5F5F5F5F5F5F5F5F5F5F5F5F5F5F5F5F5F5F5F5F5F5F5F5F5F5F5F5F5F5F5F5F5F5F5F5F5F5F5F5F5F5F5F5F5F5F5F5F5F5F5F5F5F5F5F5F5F5F5F5F5F5F5F5F5F5F5F5F5F5F5F5F5F5F5F5F5F5F5F5E2E2EFF5F5F5E2F5
310
F5F5F5F5F5F5F5F5F5F5F5F5F5F5F5F5F5F5F5F5F5F5F5F5F5F5F5F5F5F5F5F5F5F5F5F5F5F5F5F5F5F5F5F5F5F5F5F5F5F5F5F5F5F5F5F5F5F5F5F5F5F5F5F5F5F5F5F5F5F5F5F5F5F5F5F5F5F5F5F5F5F5F5F5F5F5F5F5F5F5F5F5F5F5F5F5F5F5F5F5F5F5F5F5F5F5F5F5F5F5F5F5F5F5F5F5F5F5F5F5F5F5F5F5F5F5F5
310
F5F5F5F5F5F5F5F5F5F5F5F5F5F5F5F5F5F5F5F5F5F5F5F5F5F5F5F5F5F5F5F5F5F5F5F5F5F5F5F5F5E2F5F5F5E2E2EFF5F5F5E2F5F5F5F5F5F5F5F5F5F5F5F5F5F5F5F5F5F5F5F5F5F5F5F5F5F5F5F5F5F5F5F5F5F5F5F5F5F5F5F5F5F5F5F5F5F5F5F5F5F5F5F5F5F5F5F5F5F5F5F5F5F5F5F5F5F5F5F5F5F5F5F5F5F5F5
310
F5F5F5F5F5F5F5F5F5F5F5F5F5F5F5F5F5F5F5F5F5F5F5F5F5F5F5F5F5F5F5F5F5F5F5F5F5F5F5F5F5F5F5F5F5F5F5F5F5F5F5F5F5F5F5F5F5F5F5F5F5F5F5F5F5F5F5F5F5F5F5F5F5F5F5F5F5F5F5F5F5F5F5F5F5F5F5F5F5F5F5F5F5F5E2F5F5F5E2E2EFF5F5F5E2F5F5F5F5F5F5F5F5F5F5F5F5F5F5F5F5F5F5F5F5F5F5
310
F5F5F5F5F5F5F5F5F5F5F5F5F5F5F5F5F5F5F5F5F5F5F5F5F5F5F5F5F5F5F5F5F5F5F5F5F5F5F5F5F5F5F5F5F5F5F5F5F5F5F5F5F5F5F5F5F5F5F5F5F5F5F5F5F5F5F5F5F5F5F5F5F5F5F5F5F5F5F5F5F5F5F5F5F5F5F5F5F5F5F5F5F5F5F5F5F5F5F5F5F5F5F5F5F5F5F5F5F5F5F5F5F5F5F5F5F5F5F5F5F5F5F5F5F5F5F5
310
F5F5F5F5F5F5F5F5F5F5F5F5F5F5F5F5F5F5F5F5E2F5F5F5E2E2EFF5F5F5E2F5F5F5F5F5F5F5F5F5F5F5F5F5F5F5F5F5F5F5F5F5F5F5F5F5F5F5F5F5F5F5F5F5F5F5F5F5F5F5F5F5F5F5F5F5F5F5F5F5F5F5F5F5F5F5F5F5F5F5F5F5F5F5F5F5F5F5F5F5F5F5F5F5F5F5F5F5F5F5F5F5F5F5F5F5F5F5F5F5F5F5F5F5F5F5F5
310
F5F5F5F5F5F5F5F5F5F5F5F5F5F5F5F5F5F5F5F5F5F5F5F5F5F5F5F5F5F5F5F5F5F5F5F5F5F5F5F5F5F5F5F5F5F5F5F5F5F5F5F5F5F5F5F5F5F5F5F5F5F5F5F5F5F5F5F5F5F5F5F5F5E2F5F5F5E2E2EFF5F5F5E2F5F5F5F5F5F5F5F5F5F5F5F5F5F5F5F5F5F5F5F5F5F5F5F5F5F5F5F5F5F5F5F5F5F5F5F5F5F5F5F5F5F5F5
310
F5F5F5F5F5F5F5F5F5F5F5F5F5F5F5F5F5F5F5F5F5F5F5F5F5F5F5F5F5F5F5F5F5F5F5F5F5F5F5F5F5F5F5F5F5F5F5F5F5F5F5F5F5F5F5F5F5F5F5F5F5F5F5F5F5F5F5F5F5F5F5F5F5F5F5F5F5F5F5F5F5F5F5F5F5F5F5F5F5F5F5F5F5F5F5F5F5F5F5F5F5F5F5F5F5F5F5F5F5F5F5F5F5F5F5F5F5F5F5F5F5F5F5F5F5F5E2
310
F5F5F5E2E2EFF5F5F5E2F5F5F5F5F5F5F5F5F5F5F5F5F5F5F5F5F5F5F5F5F5F5F5F5F5F5F5F5F5F5F5F5F5F5F5F5F5F5F5F5F5F5F5F5F5F5F5F5F5F5F5F5F5F5F5F5F5F5F5F5F5F5F5F5F5F5F5F5F5F5F5F5F5F5F5F5F5F5F5F5F5F5F5F5F5F5F5F5F5F5F5F5F5F5F5F5F5F5F5F5F5F5F5F5F5F5F5F5F5F5F5F5F5F5F5F5F5
310
F5F5F5F5F5F5F5F5F5F5F5F5F5F5F5F5F5F5F5F5F5F5F5F5F5F5F5F5F5F5F5F5F5F5F5F5F5F5F5F5F5F5F5F5F5F5F5F5F5F5F5F5E2F5F5F5E2E2EFF5F5F5E2F5F5F5F5F5F5F5F5F5F5F5F5F5F5F5F5F5F5F5F5F5F5F5F5F5F5F5F5F5F5F5F5F5F5F5F5F5F5F5F5F5F5F5F5F5F5F5F5F5F5F5F5F5F5F5F5F5F5F5F5F5F5F5F5
310
F5F5F5F5F5F5F5F5F5F5F5F5F5F5F5F5F5F5F5F5F5F5F5F5F5F5F5F5F5F5F5F5F5F5F5F5F5F5F5F5F5F5F5F5F5F5F5F5F5F5F5F5F5F5F5F5F5F5F5F5F5F5F5F5F5F5F5F5F5F5F5F5F5F5F5F5F5F5F5F5F5F5F5F5F5F5F5F5F5F5F5F5F5F5F5F5F5F5F5F5F5F5F5F5F5E2F5F5F5E2E2EFF5F5F5E2F5F5F5F5F5F5F5F5F5F5F5
310
F5F5F5F5F5F5F5F5F5F5F5F5F5F5F5F5F5F5F5F5F5F5F5F5F5F5F5F5F5F5F5F5F5F5F5F5F5F5F5F5F5F5F5F5F5F5F5F5F5F5F5F5F5F5F5F5F5F5F5F5F5F5F5F5F5F5F5F5F5F5F5F5F5F5F5F5F5F5F5F5F5F5F5F5F5F5F5F5F5F5F5F5F5F5F5F5F5F5F5F5F5F5F5F5F5F5F5F5F5F5F5F5F5F5F5F5F5F5F5F5F5F5F5F5F5F5F5
310
F5F5F5F5F5F5F5F5F5F5F5F5F5F5F5F5F5F5F5F5F5F5F5F5F5F5F5F5F5F5F5E2F5F5F5E2E2EFF5F5F5E2E2E2E2E2E2E2E2F5F5F5F5F5F5F5F5F5E2E2E2E2E2E2E2E2E2E2E2E2E2E2E2E2F5F5F5F5F5F5F5F5E2E2E2E2E2E2E2E2E2E2E2E2E2E2E2E2F5F5F5F5F5F5F5F5F5E2E2E2E2E2E2E2E2E2E2E2E2E2E2E2F5F5F5F5F5
310
F5F5F5F5E2E2E2E2E2E2E2E2E2E2E2E2E2E2E2F5F5F5F5F5F5F5F5F5E2E2E2E2E2E2E2E2E2E2E2E2E2E2E2E2F5F5F5F5F5F5F5F5E2E2E2E2E2E2E2E2E2E2E2E2E2E2E2E2F5F5F5F5F5F5F5F5F5E2E2E2E2E2E2E2E2F5F5F5E2E2EFF5F5F5F5F5F5F5F5F5F5F5F5F5F5F5F5F5F5F5F5F5F5F5F5F5F5F5F5F5F5F5F5F5F5F5F5
310
F5F5F5F5F5F5F5F5F5F5F5F5F5F5F5F5F5F5F5F5F5F5F5F5F5F5F5F5F5F5F5F5F5F5F5F5F5F5F5F5F5F5F5F5F5F5F5F5F5F5F5F5F5F5F5F5F5F5F5F5F5F5F5F5F5F5F5F5F5F5F5F5F5F5F5F5F5F5F5F5F5F5F5F5F5F5F5F5F5F5F5F5F5F5F5F5F5F5F5F5F5F5F5F5F5F5F5F5F5F5F5F5F5F5F5F5F5F5F5F5F5F5F5F5F5F5F5
310
F5F5F5F5F5F5F5F5F5F5F5F5F5F5E2E2EFF5F5F5F5F5F5F5F5F5F5F5F5F5F5F5F5F5F5F5F5F5F5F5F5F5F5F5F5F5F5F5F5F5F5F5F5F5F5F5F5F5F5F5F5F5F5F5F5F5F5F5F5F5F5F5F5F5F5F5F5F5F5F5F5F5F5F5F5F5F5F5F5F5F5F5F5F5F5F5F5F5F5F5F5F5F5F5F5F5F5F5F5F5F5F5F5F5F5F5F5F5F5F5F5F5F5F5F5F5F5
310
F5F5F5F5F5F5F5F5F5F5F5F5F5F5F5F5F5F5F5F5F5F5F5F5F5F5F5F5F5F5F5F5F5F5F5F5F5F5F5F5F5F5F5F5F5F5F5F5F5F5F5F5F5F5F5F5F5F5F5F5F5F5F5F5F5F5F5E2EFEFF5F5F5F5F5F5F5F5F5F5F5F5F5F5F5F5F5F5F5F5F5F5F5F5F5F5F5F5F5F5F5F5F5F5F5F5F5F5F5F5F5F5F5F5F5F5F5F5F5F5F5F5F5F5F5F5F5
310
F5F5F5F5F5F5F5F5F5F5F5F5F5F5F5F5F5F5F5F5F5F5F5F5F5F5F5F5F5F5F5F5F5F5F5F5F5F5F5F5F5F5F5F5F5F5F5F5F5F5F5F5F5F5F5F5F5F5F5F5F5F5F5F5F5F5F5F5F5F5F5F5F5F5F5F5F5F5F5F5F5F5F5F5F5F5F5F5F5F5F5F5F5F5F5F5F5F5F5F5F5F5F5F5F5F5F5F5F5F5F5F5F5F5F5F5F5F5F5F5E2EFEFE2E2E2E2
310
E2E2E2E2E2E2E2E2E2E2E2E2E2E2E2E2E2E2E2E2E2E2E2E2E2E2E2E2E2E2E2E2E2E2E2E2E2E2E2E2E2E2E2E2E2E2E2E2E2E2E2E2E2E2E2E2E2E2E2E2E2E2E2E2E2E2E2E2E2E2E2E2E2E2E2E2E2E2E2E2E2E2E2E2E2E2E2E2E2E2E2E2E2E2E2E2E2E2E2E2E2E2E2E2E2E2E2E2E2E2E2E2E2E2E2E2E2E2E2E2E2E2E2E2E2E2E2
310
E2E2E2E2E2E2E2E2E2E2E2E2E2E2E2E2E2E2E2E2E2E2E2E2E2E2E2E2E2E2E2E2E2E2E2E2E2E2E2E2E2E2E2E2E2E2E2EFEF
  0
XRECORD
  5
11CC
102
{ACAD_REACTORS
330
11CB
102
}
330
11CB
100
AcDbXrecord
280
     1
270
     1
271
     1
  0
XRECORD
  5
11CD
102
{ACAD_REACTORS
330
11CB
102
}
330
11CB
100
AcDbXrecord
280
     1
270
     1
271
     1
  0
XRECORD
  5
11CE
102
{ACAD_REACTORS
330
11CB
102
}
330
11CB
100
AcDbXrecord
280
     1
270
     1
271
     1
  0
XRECORD
  5
11CF
102
{ACAD_REACTORS
330
11CB
102
}
330
11CB
100
AcDbXrecord
280
     1
270
     1
271
     1
  0
XRECORD
  5
11D0
102
{ACAD_REACTORS
330
11CB
102
}
330
11CB
100
AcDbXrecord
280
     1
270
     1
271
     1
  0
XRECORD
  5
11D1
102
{ACAD_REACTORS
330
11CB
102
}
330
11CB
100
AcDbXrecord
280
     1
270
     1
271
     1
  0
XRECORD
  5
11C4
102
{ACAD_REACTORS
330
11C3
102
}
330
11C3
100
AcDbXrecord
280
     1
270
     1
271
     1
  0
XRECORD
  5
11C5
102
{ACAD_REACTORS
330
11C3
102
}
330
11C3
100
AcDbXrecord
280
     1
270
     1
271
     1
  0
XRECORD
  5
11C6
102
{ACAD_REACTORS
330
11C3
102
}
330
11C3
100
AcDbXrecord
280
     1
270
     1
271
     1
  0
XRECORD
  5
11C7
102
{ACAD_REACTORS
330
11C3
102
}
330
11C3
100
AcDbXrecord
280
     1
270
     1
271
     1
  0
XRECORD
  5
11C8
102
{ACAD_REACTORS
330
11C3
102
}
330
11C3
100
AcDbXrecord
280
     1
270
     1
271
     1
  0
XRECORD
  5
11C9
102
{ACAD_REACTORS
330
11C3
102
}
330
11C3
100
AcDbXrecord
280
     1
270
     1
271
     1
  0
XRECORD
  5
119A
102
{ACAD_REACTORS
330
1199
102
}
330
1199
100
AcDbXrecord
280
     1
270
     1
271
     1
  0
XRECORD
  5
119B
102
{ACAD_REACTORS
330
1199
102
}
330
1199
100
AcDbXrecord
280
     1
270
     1
271
     1
  0
XRECORD
  5
119C
102
{ACAD_REACTORS
330
1199
102
}
330
1199
100
AcDbXrecord
280
     1
270
     1
271
     1
  0
XRECORD
  5
119D
102
{ACAD_REACTORS
330
1199
102
}
330
1199
100
AcDbXrecord
280
     1
270
     1
271
     1
  0
XRECORD
  5
119E
102
{ACAD_REACTORS
330
1199
102
}
330
1199
100
AcDbXrecord
280
     1
270
     1
271
     1
  0
XRECORD
  5
119F
102
{ACAD_REACTORS
330
1199
102
}
330
1199
100
AcDbXrecord
280
     1
270
     1
271
     1
  0
CELLSTYLEMAP
  5
197D
102
{ACAD_REACTORS
330
1346
102
}
330
1346
100
AcDbCellStyleMap
 90
        3
300
CELLSTYLE
  1
TABLEFORMAT_BEGIN
 90
        5
170
     1
 91
        0
 92
    32768
 62
   257
 93
        1
300
CONTENTFORMAT
  1
CONTENTFORMAT_BEGIN
 90
        0
 91
        0
 92
        4
 93
        0
300

 40
0.0
140
1.0
 94
        5
 62
     0
340
11AF
144
0.25
309
CONTENTFORMAT_END
171
     1
301
MARGIN
  1
CELLMARGIN_BEGIN
 40
0.06
 40
0.06
 40
0.06
 40
0.06
 40
0.18
 40
0.18
309
CELLMARGIN_END
 94
        6
 95
        1
302
GRIDFORMAT
  1
GRIDFORMAT_BEGIN
 90
        0
 91
        1
 62
     0
 92
       -2
340
0
 93
        0
 40
0.045
309
GRIDFORMAT_END
 95
        2
302
GRIDFORMAT
  1
GRIDFORMAT_BEGIN
 90
        0
 91
        1
 62
     0
 92
       -2
340
0
 93
        0
 40
0.045
309
GRIDFORMAT_END
 95
        4
302
GRIDFORMAT
  1
GRIDFORMAT_BEGIN
 90
        0
 91
        1
 62
     0
 92
       -2
340
0
 93
        0
 40
0.045
309
GRIDFORMAT_END
 95
        8
302
GRIDFORMAT
  1
GRIDFORMAT_BEGIN
 90
        0
 91
        1
 62
     0
 92
       -2
340
0
 93
        0
 40
0.045
309
GRIDFORMAT_END
 95
       16
302
GRIDFORMAT
  1
GRIDFORMAT_BEGIN
 90
        0
 91
        1
 62
     0
 92
       -2
340
0
 93
        0
 40
0.045
309
GRIDFORMAT_END
 95
       32
302
GRIDFORMAT
  1
GRIDFORMAT_BEGIN
 90
        0
 91
        1
 62
     0
 92
       -2
340
0
 93
        0
 40
0.045
309
GRIDFORMAT_END
309
TABLEFORMAT_END
  1
CELLSTYLE_BEGIN
 90
        1
 91
        1
300
_TITLE
309
CELLSTYLE_END
300
CELLSTYLE
  1
TABLEFORMAT_BEGIN
 90
        5
170
     1
 91
        0
 92
        0
 62
   257
 93
        1
300
CONTENTFORMAT
  1
CONTENTFORMAT_BEGIN
 90
        0
 91
        0
 92
        4
 93
        0
300

 40
0.0
140
1.0
 94
        5
 62
     0
340
11AF
144
0.18
309
CONTENTFORMAT_END
171
     1
301
MARGIN
  1
CELLMARGIN_BEGIN
 40
0.06
 40
0.06
 40
0.06
 40
0.06
 40
0.18
 40
0.18
309
CELLMARGIN_END
 94
        6
 95
        1
302
GRIDFORMAT
  1
GRIDFORMAT_BEGIN
 90
        0
 91
        1
 62
     0
 92
       -2
340
0
 93
        0
 40
0.045
309
GRIDFORMAT_END
 95
        2
302
GRIDFORMAT
  1
GRIDFORMAT_BEGIN
 90
        0
 91
        1
 62
     0
 92
       -2
340
0
 93
        0
 40
0.045
309
GRIDFORMAT_END
 95
        4
302
GRIDFORMAT
  1
GRIDFORMAT_BEGIN
 90
        0
 91
        1
 62
     0
 92
       -2
340
0
 93
        0
 40
0.045
309
GRIDFORMAT_END
 95
        8
302
GRIDFORMAT
  1
GRIDFORMAT_BEGIN
 90
        0
 91
        1
 62
     0
 92
       -2
340
0
 93
        0
 40
0.045
309
GRIDFORMAT_END
 95
       16
302
GRIDFORMAT
  1
GRIDFORMAT_BEGIN
 90
        0
 91
        1
 62
     0
 92
       -2
340
0
 93
        0
 40
0.045
309
GRIDFORMAT_END
 95
       32
302
GRIDFORMAT
  1
GRIDFORMAT_BEGIN
 90
        0
 91
        1
 62
     0
 92
       -2
340
0
 93
        0
 40
0.045
309
GRIDFORMAT_END
309
TABLEFORMAT_END
  1
CELLSTYLE_BEGIN
 90
        2
 91
        1
300
_HEADER
309
CELLSTYLE_END
300
CELLSTYLE
  1
TABLEFORMAT_BEGIN
 90
        5
170
     1
 91
        0
 92
        0
 62
   257
 93
        1
300
CONTENTFORMAT
  1
CONTENTFORMAT_BEGIN
 90
        0
 91
        0
 92
        4
 93
        0
300

 40
0.0
140
1.0
 94
        2
 62
     0
340
11AF
144
0.18
309
CONTENTFORMAT_END
171
     1
301
MARGIN
  1
CELLMARGIN_BEGIN
 40
0.06
 40
0.06
 40
0.06
 40
0.06
 40
0.18
 40
0.18
309
CELLMARGIN_END
 94
        6
 95
        1
302
GRIDFORMAT
  1
GRIDFORMAT_BEGIN
 90
        0
 91
        1
 62
     0
 92
       -2
340
0
 93
        0
 40
0.045
309
GRIDFORMAT_END
 95
        2
302
GRIDFORMAT
  1
GRIDFORMAT_BEGIN
 90
        0
 91
        1
 62
     0
 92
       -2
340
0
 93
        0
 40
0.045
309
GRIDFORMAT_END
 95
        4
302
GRIDFORMAT
  1
GRIDFORMAT_BEGIN
 90
        0
 91
        1
 62
     0
 92
       -2
340
0
 93
        0
 40
0.045
309
GRIDFORMAT_END
 95
        8
302
GRIDFORMAT
  1
GRIDFORMAT_BEGIN
 90
        0
 91
        1
 62
     0
 92
       -2
340
0
 93
        0
 40
0.045
309
GRIDFORMAT_END
 95
       16
302
GRIDFORMAT
  1
GRIDFORMAT_BEGIN
 90
        0
 91
        1
 62
     0
 92
       -2
340
0
 93
        0
 40
0.045
309
GRIDFORMAT_END
 95
       32
302
GRIDFORMAT
  1
GRIDFORMAT_BEGIN
 90
        0
 91
        1
 62
     0
 92
       -2
340
0
 93
        0
 40
0.045
309
GRIDFORMAT_END
309
TABLEFORMAT_END
  1
CELLSTYLE_BEGIN
 90
        3
 91
        2
300
_DATA
309
CELLSTYLE_END
  0
XRECORD
  5
1980
102
{ACAD_REACTORS
330
197F
102
}
330
197F
100
AcDbXrecord
280
     1
102
RTVSPropertyOp0
 70
     1
102
RTVSPropertyOp1
 70
     1
102
RTVSPropertyOp2
 70
     1
102
RTVSPropertyOp3
 70
     1
102
RTVSPropertyOp4
 70
     1
102
RTVSPropertyOp5
 70
     1
102
RTVSPropertyOp6
 70
     1
102
RTVSPropertyOp7
 70
     1
102
RTVSPropertyOp8
 70
     1
102
RTVSPropertyOp9
 70
     1
102
RTVSPropertyOp10
 70
     1
102
RTVSPropertyOp11
 70
     1
102
RTVSPropertyOp12
 70
     1
102
RTVSPropertyOp13
 70
     1
102
RTVSPropertyOp14
 70
     1
102
RTVSPropertyOp15
 70
     1
102
RTVSPropertyOp16
 70
     1
102
RTVSPropertyOp17
 70
     1
102
RTVSPropertyOp18
 70
     1
102
RTVSPropertyOp19
 70
     1
102
RTVSPropertyOp20
 70
     1
102
RTVSPropertyOp21
 70
     1
102
RTVSPropertyOp22
 70
     1
102
RTVSPropertyOp23
 70
     1
102
RTVSPropertyOp24
 70
     1
102
RTVSPropertyOp25
 70
     1
102
RTVSPropertyOp26
 70
     1
102
RTVSPropertyOp27
 70
     1
  0
XRECORD
  5
1990
102
{ACAD_REACTORS
330
198F
102
}
330
198F
100
AcDbXrecord
280
     1
102
RTVSPropertyOp0
 70
     1
102
RTVSPropertyOp1
 70
     1
102
RTVSPropertyOp2
 70
     1
102
RTVSPropertyOp3
 70
     1
102
RTVSPropertyOp4
 70
     1
102
RTVSPropertyOp5
 70
     1
102
RTVSPropertyOp6
 70
     1
102
RTVSPropertyOp7
 70
     1
102
RTVSPropertyOp8
 70
     1
102
RTVSPropertyOp9
 70
     1
102
RTVSPropertyOp10
 70
     1
102
RTVSPropertyOp11
 70
     1
102
RTVSPropertyOp12
 70
     1
102
RTVSPropertyOp13
 70
     1
102
RTVSPropertyOp14
 70
     1
102
RTVSPropertyOp15
 70
     1
102
RTVSPropertyOp16
 70
     1
102
RTVSPropertyOp17
 70
     1
102
RTVSPropertyOp18
 70
     1
102
RTVSPropertyOp19
 70
     1
102
RTVSPropertyOp20
 70
     1
102
RTVSPropertyOp21
 70
     1
102
RTVSPropertyOp22
 70
     1
102
RTVSPropertyOp23
 70
     1
102
RTVSPropertyOp24
 70
     1
102
RTVSPropertyOp25
 70
     1
102
RTVSPropertyOp26
 70
     1
102
RTVSPropertyOp27
 70
     1
  0
XRECORD
  5
1984
102
{ACAD_REACTORS
330
1983
102
}
330
1983
100
AcDbXrecord
280
     1
102
RTVSPropertyOp0
 70
     1
102
RTVSPropertyOp1
 70
     1
102
RTVSPropertyOp2
 70
     1
102
RTVSPropertyOp3
 70
     1
102
RTVSPropertyOp4
 70
     1
102
RTVSPropertyOp5
 70
     1
102
RTVSPropertyOp6
 70
     1
102
RTVSPropertyOp7
 70
     1
102
RTVSPropertyOp8
 70
     1
102
RTVSPropertyOp9
 70
     1
102
RTVSPropertyOp10
 70
     1
102
RTVSPropertyOp11
 70
     1
102
RTVSPropertyOp12
 70
     1
102
RTVSPropertyOp13
 70
     1
102
RTVSPropertyOp14
 70
     1
102
RTVSPropertyOp15
 70
     1
102
RTVSPropertyOp16
 70
     1
102
RTVSPropertyOp17
 70
     1
102
RTVSPropertyOp18
 70
     1
102
RTVSPropertyOp19
 70
     1
102
RTVSPropertyOp20
 70
     1
102
RTVSPropertyOp21
 70
     1
102
RTVSPropertyOp22
 70
     1
102
RTVSPropertyOp23
 70
     1
102
RTVSPropertyOp24
 70
     1
102
RTVSPropertyOp25
 70
     1
102
RTVSPropertyOp26
 70
     1
102
RTVSPropertyOp27
 70
     1
  0
XRECORD
  5
198E
102
{ACAD_REACTORS
330
198D
102
}
330
198D
100
AcDbXrecord
280
     1
102
RTVSPropertyOp0
 70
     1
102
RTVSPropertyOp1
 70
     1
102
RTVSPropertyOp2
 70
     1
102
RTVSPropertyOp3
 70
     1
102
RTVSPropertyOp4
 70
     1
102
RTVSPropertyOp5
 70
     1
102
RTVSPropertyOp6
 70
     1
102
RTVSPropertyOp7
 70
     1
102
RTVSPropertyOp8
 70
     1
102
RTVSPropertyOp9
 70
     1
102
RTVSPropertyOp10
 70
     1
102
RTVSPropertyOp11
 70
     1
102
RTVSPropertyOp12
 70
     1
102
RTVSPropertyOp13
 70
     1
102
RTVSPropertyOp14
 70
     1
102
RTVSPropertyOp15
 70
     1
102
RTVSPropertyOp16
 70
     1
102
RTVSPropertyOp17
 70
     1
102
RTVSPropertyOp18
 70
     1
102
RTVSPropertyOp19
 70
     1
102
RTVSPropertyOp20
 70
     1
102
RTVSPropertyOp21
 70
     1
102
RTVSPropertyOp22
 70
     1
102
RTVSPropertyOp23
 70
     1
102
RTVSPropertyOp24
 70
     1
102
RTVSPropertyOp25
 70
     1
102
RTVSPropertyOp26
 70
     1
102
RTVSPropertyOp27
 70
     1
  0
XRECORD
  5
1996
102
{ACAD_REACTORS
330
1995
102
}
330
1995
100
AcDbXrecord
280
     1
102
RTVSPropertyOp0
 70
     1
102
RTVSPropertyOp1
 70
     1
102
RTVSPropertyOp2
 70
     1
102
RTVSPropertyOp3
 70
     1
102
RTVSPropertyOp4
 70
     1
102
RTVSPropertyOp5
 70
     1
102
RTVSPropertyOp6
 70
     1
102
RTVSPropertyOp7
 70
     1
102
RTVSPropertyOp8
 70
     1
102
RTVSPropertyOp9
 70
     1
102
RTVSPropertyOp10
 70
     1
102
RTVSPropertyOp11
 70
     1
102
RTVSPropertyOp12
 70
     1
102
RTVSPropertyOp13
 70
     1
102
RTVSPropertyOp14
 70
     1
102
RTVSPropertyOp15
 70
     1
102
RTVSPropertyOp16
 70
     1
102
RTVSPropertyOp17
 70
     1
102
RTVSPropertyOp18
 70
     1
102
RTVSPropertyOp19
 70
     1
102
RTVSPropertyOp20
 70
     1
102
RTVSPropertyOp21
 70
     1
102
RTVSPropertyOp22
 70
     1
102
RTVSPropertyOp23
 70
     1
102
RTVSPropertyOp24
 70
     1
102
RTVSPropertyOp25
 70
     1
102
RTVSPropertyOp26
 70
     1
102
RTVSPropertyOp27
 70
     1
  0
XRECORD
  5
199E
102
{ACAD_REACTORS
330
199D
102
}
330
199D
100
AcDbXrecord
280
     1
102
RTVSPropertyOp0
 70
     1
102
RTVSPropertyOp1
 70
     1
102
RTVSPropertyOp2
 70
     1
102
RTVSPropertyOp3
 70
     1
102
RTVSPropertyOp4
 70
     1
102
RTVSPropertyOp5
 70
     1
102
RTVSPropertyOp6
 70
     1
102
RTVSPropertyOp7
 70
     1
102
RTVSPropertyOp8
 70
     1
102
RTVSPropertyOp9
 70
     1
102
RTVSPropertyOp10
 70
     1
102
RTVSPropertyOp11
 70
     1
102
RTVSPropertyOp12
 70
     1
102
RTVSPropertyOp13
 70
     1
102
RTVSPropertyOp14
 70
     1
102
RTVSPropertyOp15
 70
     1
102
RTVSPropertyOp16
 70
     1
102
RTVSPropertyOp17
 70
     1
102
RTVSPropertyOp18
 70
     1
102
RTVSPropertyOp19
 70
     1
102
RTVSPropertyOp20
 70
     1
102
RTVSPropertyOp21
 70
     1
102
RTVSPropertyOp22
 70
     1
102
RTVSPropertyOp23
 70
     1
102
RTVSPropertyOp24
 70
     1
102
RTVSPropertyOp25
 70
     1
102
RTVSPropertyOp26
 70
     1
102
RTVSPropertyOp27
 70
     1
  0
XRECORD
  5
1992
102
{ACAD_REACTORS
330
1991
102
}
330
1991
100
AcDbXrecord
280
     1
102
RTVSPropertyOp0
 70
     1
102
RTVSPropertyOp1
 70
     1
102
RTVSPropertyOp2
 70
     1
102
RTVSPropertyOp3
 70
     1
102
RTVSPropertyOp4
 70
     1
102
RTVSPropertyOp5
 70
     1
102
RTVSPropertyOp6
 70
     1
102
RTVSPropertyOp7
 70
     1
102
RTVSPropertyOp8
 70
     1
102
RTVSPropertyOp9
 70
     1
102
RTVSPropertyOp10
 70
     1
102
RTVSPropertyOp11
 70
     1
102
RTVSPropertyOp12
 70
     1
102
RTVSPropertyOp13
 70
     1
102
RTVSPropertyOp14
 70
     1
102
RTVSPropertyOp15
 70
     1
102
RTVSPropertyOp16
 70
     1
102
RTVSPropertyOp17
 70
     1
102
RTVSPropertyOp18
 70
     1
102
RTVSPropertyOp19
 70
     1
102
RTVSPropertyOp20
 70
     1
102
RTVSPropertyOp21
 70
     1
102
RTVSPropertyOp22
 70
     1
102
RTVSPropertyOp23
 70
     1
102
RTVSPropertyOp24
 70
     1
102
RTVSPropertyOp25
 70
     1
102
RTVSPropertyOp26
 70
     1
102
RTVSPropertyOp27
 70
     1
  0
XRECORD
  5
1994
102
{ACAD_REACTORS
330
1993
102
}
330
1993
100
AcDbXrecord
280
     1
102
RTVSPropertyOp0
 70
     1
102
RTVSPropertyOp1
 70
     1
102
RTVSPropertyOp2
 70
     1
102
RTVSPropertyOp3
 70
     1
102
RTVSPropertyOp4
 70
     1
102
RTVSPropertyOp5
 70
     1
102
RTVSPropertyOp6
 70
     1
102
RTVSPropertyOp7
 70
     1
102
RTVSPropertyOp8
 70
     1
102
RTVSPropertyOp9
 70
     1
102
RTVSPropertyOp10
 70
     1
102
RTVSPropertyOp11
 70
     1
102
RTVSPropertyOp12
 70
     1
102
RTVSPropertyOp13
 70
     1
102
RTVSPropertyOp14
 70
     1
102
RTVSPropertyOp15
 70
     1
102
RTVSPropertyOp16
 70
     1
102
RTVSPropertyOp17
 70
     1
102
RTVSPropertyOp18
 70
     1
102
RTVSPropertyOp19
 70
     1
102
RTVSPropertyOp20
 70
     1
102
RTVSPropertyOp21
 70
     1
102
RTVSPropertyOp22
 70
     1
102
RTVSPropertyOp23
 70
     1
102
RTVSPropertyOp24
 70
     1
102
RTVSPropertyOp25
 70
     1
102
RTVSPropertyOp26
 70
     1
102
RTVSPropertyOp27
 70
     1
  0
XRECORD
  5
19A4
102
{ACAD_REACTORS
330
19A3
102
}
330
19A3
100
AcDbXrecord
280
     1
102
RTVSPropertyOp0
 70
     0
102
RTVSPropertyOp1
 70
     0
102
RTVSPropertyOp2
 70
     0
102
RTVSPropertyOp3
 70
     0
102
RTVSPropertyOp4
 70
     0
102
RTVSPropertyOp5
 70
     0
102
RTVSPropertyOp6
 70
     0
102
RTVSPropertyOp7
 70
     0
102
RTVSPropertyOp8
 70
     0
102
RTVSPropertyOp9
 70
     0
102
RTVSPropertyOp10
 70
     0
102
RTVSPropertyOp11
 70
     0
102
RTVSPropertyOp12
 70
     0
102
RTVSPropertyOp13
 70
     0
102
RTVSPropertyOp14
 70
     2
102
RTVSPropertyOp15
 70
     0
102
RTVSPropertyOp16
 70
     0
102
RTVSPropertyOp17
 70
     0
102
RTVSPropertyOp18
 70
     0
102
RTVSPropertyOp19
 70
     0
102
RTVSPropertyOp20
 70
     0
102
RTVSPropertyOp21
 70
     0
102
RTVSPropertyOp22
 70
     0
102
RTVSPropertyOp23
 70
     0
102
RTVSPropertyOp24
 70
     0
102
RTVSPropertyOp25
 70
     0
102
RTVSPropertyOp26
 70
     0
102
RTVSPropertyOp27
 70
     0
  0
XRECORD
  5
199C
102
{ACAD_REACTORS
330
199B
102
}
330
199B
100
AcDbXrecord
280
     1
102
RTVSPropertyOp0
 70
     1
102
RTVSPropertyOp1
 70
     1
102
RTVSPropertyOp2
 70
     1
102
RTVSPropertyOp3
 70
     1
102
RTVSPropertyOp4
 70
     1
102
RTVSPropertyOp5
 70
     1
102
RTVSPropertyOp6
 70
     1
102
RTVSPropertyOp7
 70
     1
102
RTVSPropertyOp8
 70
     1
102
RTVSPropertyOp9
 70
     1
102
RTVSPropertyOp10
 70
     1
102
RTVSPropertyOp11
 70
     1
102
RTVSPropertyOp12
 70
     1
102
RTVSPropertyOp13
 70
     1
102
RTVSPropertyOp14
 70
     1
102
RTVSPropertyOp15
 70
     1
102
RTVSPropertyOp16
 70
     1
102
RTVSPropertyOp17
 70
     1
102
RTVSPropertyOp18
 70
     1
102
RTVSPropertyOp19
 70
     1
102
RTVSPropertyOp20
 70
     1
102
RTVSPropertyOp21
 70
     1
102
RTVSPropertyOp22
 70
     1
102
RTVSPropertyOp23
 70
     1
102
RTVSPropertyOp24
 70
     1
102
RTVSPropertyOp25
 70
     1
102
RTVSPropertyOp26
 70
     1
102
RTVSPropertyOp27
 70
     1
  0
XRECORD
  5
1986
102
{ACAD_REACTORS
330
1985
102
}
330
1985
100
AcDbXrecord
280
     1
102
RTVSPropertyOp0
 70
     1
102
RTVSPropertyOp1
 70
     1
102
RTVSPropertyOp2
 70
     1
102
RTVSPropertyOp3
 70
     1
102
RTVSPropertyOp4
 70
     1
102
RTVSPropertyOp5
 70
     1
102
RTVSPropertyOp6
 70
     1
102
RTVSPropertyOp7
 70
     1
102
RTVSPropertyOp8
 70
     1
102
RTVSPropertyOp9
 70
     1
102
RTVSPropertyOp10
 70
     1
102
RTVSPropertyOp11
 70
     1
102
RTVSPropertyOp12
 70
     1
102
RTVSPropertyOp13
 70
     1
102
RTVSPropertyOp14
 70
     1
102
RTVSPropertyOp15
 70
     1
102
RTVSPropertyOp16
 70
     1
102
RTVSPropertyOp17
 70
     1
102
RTVSPropertyOp18
 70
     1
102
RTVSPropertyOp19
 70
     1
102
RTVSPropertyOp20
 70
     1
102
RTVSPropertyOp21
 70
     1
102
RTVSPropertyOp22
 70
     1
102
RTVSPropertyOp23
 70
     1
102
RTVSPropertyOp24
 70
     1
102
RTVSPropertyOp25
 70
     1
102
RTVSPropertyOp26
 70
     1
102
RTVSPropertyOp27
 70
     1
  0
XRECORD
  5
1988
102
{ACAD_REACTORS
330
1987
102
}
330
1987
100
AcDbXrecord
280
     1
102
RTVSPropertyOp0
 70
     1
102
RTVSPropertyOp1
 70
     1
102
RTVSPropertyOp2
 70
     1
102
RTVSPropertyOp3
 70
     1
102
RTVSPropertyOp4
 70
     1
102
RTVSPropertyOp5
 70
     1
102
RTVSPropertyOp6
 70
     1
102
RTVSPropertyOp7
 70
     1
102
RTVSPropertyOp8
 70
     1
102
RTVSPropertyOp9
 70
     1
102
RTVSPropertyOp10
 70
     1
102
RTVSPropertyOp11
 70
     1
102
RTVSPropertyOp12
 70
     1
102
RTVSPropertyOp13
 70
     1
102
RTVSPropertyOp14
 70
     1
102
RTVSPropertyOp15
 70
     1
102
RTVSPropertyOp16
 70
     1
102
RTVSPropertyOp17
 70
     1
102
RTVSPropertyOp18
 70
     1
102
RTVSPropertyOp19
 70
     1
102
RTVSPropertyOp20
 70
     1
102
RTVSPropertyOp21
 70
     1
102
RTVSPropertyOp22
 70
     1
102
RTVSPropertyOp23
 70
     1
102
RTVSPropertyOp24
 70
     1
102
RTVSPropertyOp25
 70
     1
102
RTVSPropertyOp26
 70
     1
102
RTVSPropertyOp27
 70
     1
  0
XRECORD
  5
198A
102
{ACAD_REACTORS
330
1989
102
}
330
1989
100
AcDbXrecord
280
     1
102
RTVSPropertyOp0
 70
     1
102
RTVSPropertyOp1
 70
     1
102
RTVSPropertyOp2
 70
     1
102
RTVSPropertyOp3
 70
     1
102
RTVSPropertyOp4
 70
     1
102
RTVSPropertyOp5
 70
     1
102
RTVSPropertyOp6
 70
     1
102
RTVSPropertyOp7
 70
     1
102
RTVSPropertyOp8
 70
     1
102
RTVSPropertyOp9
 70
     1
102
RTVSPropertyOp10
 70
     1
102
RTVSPropertyOp11
 70
     1
102
RTVSPropertyOp12
 70
     1
102
RTVSPropertyOp13
 70
     1
102
RTVSPropertyOp14
 70
     1
102
RTVSPropertyOp15
 70
     1
102
RTVSPropertyOp16
 70
     1
102
RTVSPropertyOp17
 70
     1
102
RTVSPropertyOp18
 70
     1
102
RTVSPropertyOp19
 70
     1
102
RTVSPropertyOp20
 70
     1
102
RTVSPropertyOp21
 70
     1
102
RTVSPropertyOp22
 70
     1
102
RTVSPropertyOp23
 70
     1
102
RTVSPropertyOp24
 70
     1
102
RTVSPropertyOp25
 70
     1
102
RTVSPropertyOp26
 70
     1
102
RTVSPropertyOp27
 70
     1
  0
XRECORD
  5
198C
102
{ACAD_REACTORS
330
198B
102
}
330
198B
100
AcDbXrecord
280
     1
102
RTVSPropertyOp0
 70
     1
102
RTVSPropertyOp1
 70
     1
102
RTVSPropertyOp2
 70
     1
102
RTVSPropertyOp3
 70
     1
102
RTVSPropertyOp4
 70
     1
102
RTVSPropertyOp5
 70
     1
102
RTVSPropertyOp6
 70
     1
102
RTVSPropertyOp7
 70
     1
102
RTVSPropertyOp8
 70
     1
102
RTVSPropertyOp9
 70
     1
102
RTVSPropertyOp10
 70
     1
102
RTVSPropertyOp11
 70
     1
102
RTVSPropertyOp12
 70
     1
102
RTVSPropertyOp13
 70
     1
102
RTVSPropertyOp14
 70
     1
102
RTVSPropertyOp15
 70
     1
102
RTVSPropertyOp16
 70
     1
102
RTVSPropertyOp17
 70
     1
102
RTVSPropertyOp18
 70
     1
102
RTVSPropertyOp19
 70
     1
102
RTVSPropertyOp20
 70
     1
102
RTVSPropertyOp21
 70
     1
102
RTVSPropertyOp22
 70
     1
102
RTVSPropertyOp23
 70
     1
102
RTVSPropertyOp24
 70
     1
102
RTVSPropertyOp25
 70
     1
102
RTVSPropertyOp26
 70
     1
102
RTVSPropertyOp27
 70
     1
  0
XRECORD
  5
19A0
102
{ACAD_REACTORS
330
199F
102
}
330
199F
100
AcDbXrecord
280
     1
102
RTVSPropertyOp0
 70
     0
102
RTVSPropertyOp1
 70
     0
102
RTVSPropertyOp2
 70
     0
102
RTVSPropertyOp3
 70
     0
102
RTVSPropertyOp4
 70
     0
102
RTVSPropertyOp5
 70
     0
102
RTVSPropertyOp6
 70
     0
102
RTVSPropertyOp7
 70
     0
102
RTVSPropertyOp8
 70
     0
102
RTVSPropertyOp9
 70
     0
102
RTVSPropertyOp10
 70
     0
102
RTVSPropertyOp11
 70
     0
102
RTVSPropertyOp12
 70
     0
102
RTVSPropertyOp13
 70
     0
102
RTVSPropertyOp14
 70
     2
102
RTVSPropertyOp15
 70
     0
102
RTVSPropertyOp16
 70
     0
102
RTVSPropertyOp17
 70
     0
102
RTVSPropertyOp18
 70
     0
102
RTVSPropertyOp19
 70
     0
102
RTVSPropertyOp20
 70
     0
102
RTVSPropertyOp21
 70
     0
102
RTVSPropertyOp22
 70
     0
102
RTVSPropertyOp23
 70
     0
102
RTVSPropertyOp24
 70
     0
102
RTVSPropertyOp25
 70
     0
102
RTVSPropertyOp26
 70
     0
102
RTVSPropertyOp27
 70
     0
  0
XRECORD
  5
199A
102
{ACAD_REACTORS
330
1999
102
}
330
1999
100
AcDbXrecord
280
     1
102
RTVSPropertyOp0
 70
     1
102
RTVSPropertyOp1
 70
     1
102
RTVSPropertyOp2
 70
     1
102
RTVSPropertyOp3
 70
     1
102
RTVSPropertyOp4
 70
     1
102
RTVSPropertyOp5
 70
     1
102
RTVSPropertyOp6
 70
     1
102
RTVSPropertyOp7
 70
     1
102
RTVSPropertyOp8
 70
     1
102
RTVSPropertyOp9
 70
     1
102
RTVSPropertyOp10
 70
     1
102
RTVSPropertyOp11
 70
     1
102
RTVSPropertyOp12
 70
     1
102
RTVSPropertyOp13
 70
     1
102
RTVSPropertyOp14
 70
     1
102
RTVSPropertyOp15
 70
     1
102
RTVSPropertyOp16
 70
     1
102
RTVSPropertyOp17
 70
     1
102
RTVSPropertyOp18
 70
     1
102
RTVSPropertyOp19
 70
     1
102
RTVSPropertyOp20
 70
     1
102
RTVSPropertyOp21
 70
     1
102
RTVSPropertyOp22
 70
     1
102
RTVSPropertyOp23
 70
     1
102
RTVSPropertyOp24
 70
     1
102
RTVSPropertyOp25
 70
     1
102
RTVSPropertyOp26
 70
     1
102
RTVSPropertyOp27
 70
     1
  0
XRECORD
  5
19A2
102
{ACAD_REACTORS
330
19A1
102
}
330
19A1
100
AcDbXrecord
280
     1
102
RTVSPropertyOp0
 70
     0
102
RTVSPropertyOp1
 70
     0
102
RTVSPropertyOp2
 70
     0
102
RTVSPropertyOp3
 70
     0
102
RTVSPropertyOp4
 70
     0
102
RTVSPropertyOp5
 70
     0
102
RTVSPropertyOp6
 70
     0
102
RTVSPropertyOp7
 70
     0
102
RTVSPropertyOp8
 70
     0
102
RTVSPropertyOp9
 70
     0
102
RTVSPropertyOp10
 70
     0
102
RTVSPropertyOp11
 70
     0
102
RTVSPropertyOp12
 70
     0
102
RTVSPropertyOp13
 70
     0
102
RTVSPropertyOp14
 70
     2
102
RTVSPropertyOp15
 70
     0
102
RTVSPropertyOp16
 70
     0
102
RTVSPropertyOp17
 70
     0
102
RTVSPropertyOp18
 70
     0
102
RTVSPropertyOp19
 70
     0
102
RTVSPropertyOp20
 70
     0
102
RTVSPropertyOp21
 70
     0
102
RTVSPropertyOp22
 70
     0
102
RTVSPropertyOp23
 70
     0
102
RTVSPropertyOp24
 70
     0
102
RTVSPropertyOp25
 70
     0
102
RTVSPropertyOp26
 70
     0
102
RTVSPropertyOp27
 70
     0
  0
XRECORD
  5
1982
102
{ACAD_REACTORS
330
1981
102
}
330
1981
100
AcDbXrecord
280
     1
102
RTVSPropertyOp0
 70
     1
102
RTVSPropertyOp1
 70
     1
102
RTVSPropertyOp2
 70
     1
102
RTVSPropertyOp3
 70
     1
102
RTVSPropertyOp4
 70
     1
102
RTVSPropertyOp5
 70
     1
102
RTVSPropertyOp6
 70
     1
102
RTVSPropertyOp7
 70
     1
102
RTVSPropertyOp8
 70
     1
102
RTVSPropertyOp9
 70
     1
102
RTVSPropertyOp10
 70
     1
102
RTVSPropertyOp11
 70
     1
102
RTVSPropertyOp12
 70
     1
102
RTVSPropertyOp13
 70
     1
102
RTVSPropertyOp14
 70
     1
102
RTVSPropertyOp15
 70
     1
102
RTVSPropertyOp16
 70
     1
102
RTVSPropertyOp17
 70
     1
102
RTVSPropertyOp18
 70
     1
102
RTVSPropertyOp19
 70
     1
102
RTVSPropertyOp20
 70
     1
102
RTVSPropertyOp21
 70
     1
102
RTVSPropertyOp22
 70
     1
102
RTVSPropertyOp23
 70
     1
102
RTVSPropertyOp24
 70
     1
102
RTVSPropertyOp25
 70
     1
102
RTVSPropertyOp26
 70
     1
102
RTVSPropertyOp27
 70
     1
  0
XRECORD
  5
1998
102
{ACAD_REACTORS
330
1997
102
}
330
1997
100
AcDbXrecord
280
     1
102
RTVSPropertyOp0
 70
     1
102
RTVSPropertyOp1
 70
     1
102
RTVSPropertyOp2
 70
     1
102
RTVSPropertyOp3
 70
     1
102
RTVSPropertyOp4
 70
     1
102
RTVSPropertyOp5
 70
     1
102
RTVSPropertyOp6
 70
     1
102
RTVSPropertyOp7
 70
     1
102
RTVSPropertyOp8
 70
     1
102
RTVSPropertyOp9
 70
     1
102
RTVSPropertyOp10
 70
     1
102
RTVSPropertyOp11
 70
     1
102
RTVSPropertyOp12
 70
     1
102
RTVSPropertyOp13
 70
     1
102
RTVSPropertyOp14
 70
     1
102
RTVSPropertyOp15
 70
     1
102
RTVSPropertyOp16
 70
     1
102
RTVSPropertyOp17
 70
     1
102
RTVSPropertyOp18
 70
     1
102
RTVSPropertyOp19
 70
     1
102
RTVSPropertyOp20
 70
     1
102
RTVSPropertyOp21
 70
     1
102
RTVSPropertyOp22
 70
     1
102
RTVSPropertyOp23
 70
     1
102
RTVSPropertyOp24
 70
     1
102
RTVSPropertyOp25
 70
     1
102
RTVSPropertyOp26
 70
     1
102
RTVSPropertyOp27
 70
     1
  0
ENDSEC
  0
EOF
