  0
SECTION
  2
HEADER
  9
$ACADVER
  1
AC1021
  9
$ACADMAINTVER
 70
    50
  9
$DWGCODEPAGE
  3
ANSI_1252
  9
$AUTHOR
  1
dworden
  9
$LASTSAVEDBY
  1
dworden
  9
$INSBASE
 10
0.0
 20
0.0
 30
0.0
  9
$EXTMIN
 10
-26.429807
 20
-0.500102
 30
-0.000146
  9
$EXTMAX
 10
2.177335
 20
16.499799
 30
0.000004
  9
$LIMMIN
 10
-78.680431
 20
-58.554346
  9
$LIMMAX
 10
54.427959
 20
74.554043
  9
$ORTHOMODE
 70
     0
  9
$REGENMODE
 70
     1
  9
$FILLMODE
 70
     1
  9
$QTEXTMODE
 70
     0
  9
$MIRRTEXT
 70
     0
  9
$LTSCALE
 40
1.0
  9
$ATTMODE
 70
     1
  9
$TEXTSIZE
 40
0.03
  9
$TRACEWID
 40
0.05
  9
$TEXTSTYLE
  7
Standard
  9
$CLAYER
  8
Level 1
  9
$CELTYPE
  6
Continuous
  9
$CECOLOR
 62
     7
  9
$CELTSCALE
 40
1.0
  9
$DISPSILH
 70
     0
  9
$DIMSCALE
 40
1.0
  9
$DIMASZ
 40
0.045
  9
$DIMEXO
 40
0.018
  9
$DIMDLI
 40
0.0
  9
$DIMRND
 40
0.0
  9
$DIMDLE
 40
0.0
  9
$DIMEXE
 40
0.015
  9
$DIMTP
 40
0.002
  9
$DIMTM
 40
0.002
  9
$DIMTXT
 40
0.03
  9
$DIMCEN
 40
0.09
  9
$DIMTSZ
 40
0.0
  9
$DIMTOL
 70
     0
  9
$DIMLIM
 70
     0
  9
$DIMTIH
 70
     1
  9
$DIMTOH
 70
     1
  9
$DIMSE1
 70
     0
  9
$DIMSE2
 70
     0
  9
$DIMTAD
 70
     0
  9
$DIMZIN
 70
     7
  9
$DIMBLK
  1

  9
$DIMASO
 70
     1
  9
$DIMSHO
 70
     1
  9
$DIMPOST
  1
\X
  9
$DIMAPOST
  1

  9
$DIMALT
 70
     1
  9
$DIMALTD
 70
     2
  9
$DIMALTF
 40
25.4
  9
$DIMLFAC
 40
1.0
  9
$DIMTOFL
 70
     0
  9
$DIMTVP
 40
0.0
  9
$DIMTIX
 70
     0
  9
$DIMSOXD
 70
     0
  9
$DIMSAH
 70
     0
  9
$DIMBLK1
  1

  9
$DIMBLK2
  1

  9
$DIMSTYLE
  2
Standard
  9
$DIMCLRD
 70
     0
  9
$DIMCLRE
 70
     0
  9
$DIMCLRT
 70
     0
  9
$DIMTFAC
 40
1.0
  9
$DIMGAP
 40
0.009
  9
$DIMJUST
 70
     0
  9
$DIMSD1
 70
     0
  9
$DIMSD2
 70
     0
  9
$DIMTOLJ
 70
     0
  9
$DIMTZIN
 70
     7
  9
$DIMALTZ
 70
    15
  9
$DIMALTTZ
 70
    15
  9
$DIMUPT
 70
     1
  9
$DIMDEC
 70
     3
  9
$DIMTDEC
 70
     3
  9
$DIMALTU
 70
     2
  9
$DIMALTTD
 70
     2
  9
$DIMTXSTY
  7
Style-WORKING
  9
$DIMAUNIT
 70
     0
  9
$DIMADEC
 70
     0
  9
$DIMALTRND
 40
0.0
  9
$DIMAZIN
 70
     3
  9
$DIMDSEP
 70
    46
  9
$DIMATFIT
 70
     1
  9
$DIMFRAC
 70
     2
  9
$DIMLDRBLK
  1

  9
$DIMLUNIT
 70
     2
  9
$DIMLWD
 70
    -2
  9
$DIMLWE
 70
    -2
  9
$DIMTMOVE
 70
     0
  9
$DIMFXL
 40
1.0
  9
$DIMFXLON
 70
     0
  9
$DIMJOGANG
 40
0.785398
  9
$DIMTFILL
 70
     0
  9
$DIMTFILLCLR
 70
     0
  9
$DIMARCSYM
 70
     0
  9
$DIMLTYPE
  6

  9
$DIMLTEX1
  6

  9
$DIMLTEX2
  6

  9
$LUNITS
 70
     2
  9
$LUPREC
 70
     4
  9
$SKETCHINC
 40
0.1
  9
$FILLETRAD
 40
0.0
  9
$AUNITS
 70
     0
  9
$AUPREC
 70
     4
  9
$MENU
  1
.
  9
$ELEVATION
 40
0.0
  9
$PELEVATION
 40
0.0
  9
$THICKNESS
 40
0.0
  9
$LIMCHECK
 70
     0
  9
$CHAMFERA
 40
0.0
  9
$CHAMFERB
 40
0.0
  9
$CHAMFERC
 40
0.0
  9
$CHAMFERD
 40
0.0
  9
$SKPOLY
 70
     0
  9
$TDCREATE
 40
2454144.486357349
  9
$TDUCREATE
 40
2454144.778024017
  9
$TDUPDATE
 40
2454144.487020359
  9
$TDUUPDATE
 40
2454144.778687026
  9
$TDINDWG
 40
0.0161837500
  9
$TDUSRTIMER
 40
0.0161823148
  9
$USRTIMER
 70
     1
  9
$ANGBASE
 50
0.0
  9
$ANGDIR
 70
     0
  9
$PDMODE
 70
     0
  9
$PDSIZE
 40
0.0
  9
$PLINEWID
 40
0.0
  9
$SPLFRAME
 70
     0
  9
$SPLINETYPE
 70
     6
  9
$SPLINESEGS
 70
     8
  9
$HANDSEED
  5
2551
  9
$SURFTAB1
 70
     6
  9
$SURFTAB2
 70
     6
  9
$SURFTYPE
 70
     6
  9
$SURFU
 70
     6
  9
$SURFV
 70
     6
  9
$UCSBASE
  2

  9
$UCSNAME
  2

  9
$UCSORG
 10
0.0
 20
0.0
 30
0.0
  9
$UCSXDIR
 10
1.0
 20
0.0
 30
0.0
  9
$UCSYDIR
 10
0.0
 20
1.0
 30
0.0
  9
$UCSORTHOREF
  2

  9
$UCSORTHOVIEW
 70
     0
  9
$UCSORGTOP
 10
0.0
 20
0.0
 30
0.0
  9
$UCSORGBOTTOM
 10
0.0
 20
0.0
 30
0.0
  9
$UCSORGLEFT
 10
0.0
 20
0.0
 30
0.0
  9
$UCSORGRIGHT
 10
0.0
 20
0.0
 30
0.0
  9
$UCSORGFRONT
 10
0.0
 20
0.0
 30
0.0
  9
$UCSORGBACK
 10
0.0
 20
0.0
 30
0.0
  9
$PUCSBASE
  2

  9
$PUCSNAME
  2

  9
$PUCSORG
 10
0.0
 20
0.0
 30
0.0
  9
$PUCSXDIR
 10
1.0
 20
0.0
 30
0.0
  9
$PUCSYDIR
 10
0.0
 20
1.0
 30
0.0
  9
$PUCSORTHOREF
  2

  9
$PUCSORTHOVIEW
 70
     0
  9
$PUCSORGTOP
 10
0.0
 20
0.0
 30
0.0
  9
$PUCSORGBOTTOM
 10
0.0
 20
0.0
 30
0.0
  9
$PUCSORGLEFT
 10
0.0
 20
0.0
 30
0.0
  9
$PUCSORGRIGHT
 10
0.0
 20
0.0
 30
0.0
  9
$PUCSORGFRONT
 10
0.0
 20
0.0
 30
0.0
  9
$PUCSORGBACK
 10
0.0
 20
0.0
 30
0.0
  9
$USERI1
 70
     0
  9
$USERI2
 70
     0
  9
$USERI3
 70
     0
  9
$USERI4
 70
     0
  9
$USERI5
 70
     0
  9
$USERR1
 40
0.0
  9
$USERR2
 40
0.0
  9
$USERR3
 40
0.0
  9
$USERR4
 40
0.0
  9
$USERR5
 40
0.0
  9
$WORLDVIEW
 70
     1
  9
$SHADEDGE
 70
     3
  9
$SHADEDIF
 70
    70
  9
$TILEMODE
 70
     1
  9
$MAXACTVP
 70
    64
  9
$PINSBASE
 10
0.0
 20
0.0
 30
0.0
  9
$PLIMCHECK
 70
     0
  9
$PEXTMIN
 10
1.049744
 20
0.799667
 30
-0.001526
  9
$PEXTMAX
 10
9.450623
 20
7.200577
 30
0.0
  9
$PLIMMIN
 10
-0.25
 20
-0.25
  9
$PLIMMAX
 10
10.75
 20
8.25
  9
$UNITMODE
 70
     0
  9
$VISRETAIN
 70
     1
  9
$PLINEGEN
 70
     0
  9
$PSLTSCALE
 70
     0
  9
$TREEDEPTH
 70
  3020
  9
$CMLSTYLE
  2
Standard
  9
$CMLJUST
 70
     0
  9
$CMLSCALE
 40
1.0
  9
$PROXYGRAPHICS
 70
     1
  9
$MEASUREMENT
 70
     0
  9
$CELWEIGHT
370
     0
  9
$ENDCAPS
280
     0
  9
$JOINSTYLE
280
     0
  9
$LWDISPLAY
290
     1
  9
$INSUNITS
 70
     1
  9
$HYPERLINKBASE
  1

  9
$STYLESHEET
  1

  9
$XEDIT
290
     1
  9
$CEPSNTYPE
380
     0
  9
$PSTYLEMODE
290
     1
  9
$FINGERPRINTGUID
  2
{2F4509EF-217F-4DE1-8F5F-D930A9F1C2B1}
  9
$VERSIONGUID
  2
{82C521FC-BF81-46B3-825E-420B6BD93A99}
  9
$EXTNAMES
290
     1
  9
$PSVPSCALE
 40
0.0
  9
$OLESTARTUP
290
     0
  9
$SORTENTS
280
   127
  9
$INDEXCTL
280
     0
  9
$HIDETEXT
280
     1
  9
$XCLIPFRAME
290
     0
  9
$HALOGAP
280
     0
  9
$OBSCOLOR
 70
   257
  9
$OBSLTYPE
280
     0
  9
$INTERSECTIONDISPLAY
280
     0
  9
$INTERSECTIONCOLOR
 70
   257
  9
$DIMASSOC
280
     1
  9
$PROJECTNAME
  1

  9
$CAMERADISPLAY
290
     0
  9
$LENSLENGTH
 40
50.0
  9
$CAMERAHEIGHT
 40
0.0
  9
$STEPSPERSEC
 40
2.0
  9
$STEPSIZE
 40
6.0
  9
$3DDWFPREC
 40
2.0
  9
$PSOLWIDTH
 40
0.25
  9
$PSOLHEIGHT
 40
4.0
  9
$LOFTANG1
 40
1.570796
  9
$LOFTANG2
 40
1.570796
  9
$LOFTMAG1
 40
0.0
  9
$LOFTMAG2
 40
0.0
  9
$LOFTPARAM
 70
     7
  9
$LOFTNORMALS
280
     1
  9
$LATITUDE
 40
37.795
  9
$LONGITUDE
 40
-122.394
  9
$NORTHDIRECTION
 40
0.0
  9
$TIMEZONE
 70
 -8000
  9
$LIGHTGLYPHDISPLAY
280
     1
  9
$TILEMODELIGHTSYNCH
280
     1
  9
$CMATERIAL
347
12DF
  9
$SOLIDHIST
280
     1
  9
$SHOWHIST
280
     1
  9
$DWFFRAME
280
     2
  9
$DGNFRAME
280
     0
  9
$REALWORLDSCALE
290
     1
  9
$INTERFERECOLOR
 62
     1
  9
$INTERFEREOBJVS
345
12F5
  9
$INTERFEREVPVS
346
12F6
  9
$CSHADOW
280
     0
  9
$SHADOWPLANELOCATION
 40
0.0
  0
ENDSEC
  0
SECTION
  2
CLASSES
  0
CLASS
  1
ACDBDICTIONARYWDFLT
  2
AcDbDictionaryWithDefault
  3
ObjectDBX Classes
 90
        0
 91
        1
280
     0
281
     0
  0
CLASS
  1
DICTIONARYVAR
  2
AcDbDictionaryVar
  3
ObjectDBX Classes
 90
        0
 91
        7
280
     0
281
     0
  0
CLASS
  1
TABLESTYLE
  2
AcDbTableStyle
  3
ObjectDBX Classes
 90
     4095
 91
        1
280
     0
281
     0
  0
CLASS
  1
MATERIAL
  2
AcDbMaterial
  3
ObjectDBX Classes
 90
     1153
 91
        3
280
     0
281
     0
  0
CLASS
  1
VISUALSTYLE
  2
AcDbVisualStyle
  3
ObjectDBX Classes
 90
     4095
 91
       19
280
     0
281
     0
  0
CLASS
  1
SCALE
  2
AcDbScale
  3
ObjectDBX Classes
 90
     1153
 91
       33
280
     0
281
     0
  0
CLASS
  1
MLEADERSTYLE
  2
AcDbMLeaderStyle
  3
ACDB_MLEADERSTYLE_CLASS
 90
     4095
 91
        1
280
     0
281
     0
  0
CLASS
  1
SORTENTSTABLE
  2
AcDbSortentsTable
  3
ObjectDBX Classes
 90
        0
 91
        2
280
     0
281
     0
  0
CLASS
  1
CELLSTYLEMAP
  2
AcDbCellStyleMap
  3
ObjectDBX Classes
 90
     1152
 91
        2
280
     0
281
     0
  0
ENDSEC
  0
SECTION
  2
TABLES
  0
TABLE
  2
VPORT
  5
12D3
330
0
100
AcDbSymbolTable
 70
     1
  0
VPORT
  5
102
330
12D3
100
AcDbSymbolTableRecord
100
AcDbViewportTableRecord
  2
*ACTIVE
 70
     0
 10
0.0
 20
0.0
 11
1.0
 21
1.0
 12
1.011584
 22
5.768541
 13
0.0
 23
0.0
 14
0.001
 24
0.001
 15
0.001
 25
0.001
 16
0.0
 26
0.0
 36
1.0
 17
0.0
 27
0.0
 37
0.0
 40
1.38536
 41
2.025496
 42
50.0
 43
0.0
 44
0.0
 50
0.0
 51
0.0
 71
     0
 72
   100
 73
     1
 74
     0
 75
     0
 76
     0
 77
     0
 78
     1
281
     0
 65
     1
110
0.0
120
0.0
130
0.0
111
1.0
121
0.0
131
0.0
112
0.0
122
1.0
132
0.0
 79
     0
146
0.0
348
12D5
 60
     3
 61
  1000
292
     1
282
     1
141
0.0
142
0.0
 63
   250
421
  3355443
  0
ENDTAB
  0
TABLE
  2
LTYPE
  5
12CE
330
0
100
AcDbSymbolTable
 70
     2
  0
LTYPE
  5
12CF
330
12CE
100
AcDbSymbolTableRecord
100
AcDbLinetypeTableRecord
  2
ByBlock
 70
     0
  3

 72
    65
 73
     0
 40
0.0
  0
LTYPE
  5
12D0
330
12CE
100
AcDbSymbolTableRecord
100
AcDbLinetypeTableRecord
  2
ByLayer
 70
     0
  3

 72
    65
 73
     0
 40
0.0
  0
LTYPE
  5
12BD
330
12CE
100
AcDbSymbolTableRecord
100
AcDbLinetypeTableRecord
  2
Continuous
 70
     0
  3
Solid line
 72
    65
 73
     0
 40
0.0
  0
LTYPE
  5
13A5
330
12CE
100
AcDbSymbolTableRecord
100
AcDbLinetypeTableRecord
  2
DGN Style 4
 70
     0
  3
Dgn Style 4
 72
    65
 73
     4
 40
0.045097
 49
0.022534
 74
     0
 49
-0.011267
 74
     0
 49
0.000028
 74
     0
 49
-0.011267
 74
     0
  0
ENDTAB
  0
TABLE
  2
LAYER
  5
12C8
102
{ACAD_XDICTIONARY
360
12C9
102
}
330
0
100
AcDbSymbolTable
 70
   254
  0
LAYER
  5
12B0
330
12C8
100
AcDbSymbolTableRecord
100
AcDbLayerTableRecord
  2
0
 70
     0
 62
     7
  6
Continuous
370
    -3
390
12B1
347
12B4
  0
LAYER
  5
3C
330
12C8
100
AcDbSymbolTableRecord
100
AcDbLayerTableRecord
  2
Level 1
 70
     0
 62
     7
  6
Continuous
370
     0
390
12B1
347
12B4
  0
LAYER
  5
3D
330
12C8
100
AcDbSymbolTableRecord
100
AcDbLayerTableRecord
  2
Level 2
 70
     0
 62
     7
  6
Continuous
370
     0
390
12B1
347
12B4
  0
LAYER
  5
3E
330
12C8
100
AcDbSymbolTableRecord
100
AcDbLayerTableRecord
  2
Level 3
 70
     0
 62
     7
  6
Continuous
370
     0
390
12B1
347
12B4
  0
LAYER
  5
3F
330
12C8
100
AcDbSymbolTableRecord
100
AcDbLayerTableRecord
  2
Level 4
 70
     0
 62
     7
  6
Continuous
370
     0
390
12B1
347
12B4
  0
LAYER
  5
40
330
12C8
100
AcDbSymbolTableRecord
100
AcDbLayerTableRecord
  2
Level 5
 70
     0
 62
     7
  6
Continuous
370
     0
390
12B1
347
12B4
  0
LAYER
  5
41
330
12C8
100
AcDbSymbolTableRecord
100
AcDbLayerTableRecord
  2
Level 6
 70
     0
 62
     7
  6
Continuous
370
     0
390
12B1
347
12B4
  0
LAYER
  5
42
330
12C8
100
AcDbSymbolTableRecord
100
AcDbLayerTableRecord
  2
Level 7
 70
     0
 62
     7
  6
Continuous
370
     0
390
12B1
347
12B4
  0
LAYER
  5
43
330
12C8
100
AcDbSymbolTableRecord
100
AcDbLayerTableRecord
  2
Level 8
 70
     0
 62
     7
  6
Continuous
370
     0
390
12B1
347
12B4
  0
LAYER
  5
44
330
12C8
100
AcDbSymbolTableRecord
100
AcDbLayerTableRecord
  2
Level 9
 70
     0
 62
     7
  6
Continuous
370
     0
390
12B1
347
12B4
  0
LAYER
  5
45
330
12C8
100
AcDbSymbolTableRecord
100
AcDbLayerTableRecord
  2
Level 10
 70
     0
 62
     7
  6
Continuous
370
     0
390
12B1
347
12B4
  0
LAYER
  5
46
330
12C8
100
AcDbSymbolTableRecord
100
AcDbLayerTableRecord
  2
Level 11
 70
     0
 62
     7
  6
Continuous
370
     0
390
12B1
347
12B4
  0
LAYER
  5
47
330
12C8
100
AcDbSymbolTableRecord
100
AcDbLayerTableRecord
  2
Level 12
 70
     0
 62
     7
  6
Continuous
370
     0
390
12B1
347
12B4
  0
LAYER
  5
48
330
12C8
100
AcDbSymbolTableRecord
100
AcDbLayerTableRecord
  2
Level 13
 70
     0
 62
     7
  6
Continuous
370
     0
390
12B1
347
12B4
  0
LAYER
  5
49
330
12C8
100
AcDbSymbolTableRecord
100
AcDbLayerTableRecord
  2
Level 14
 70
     0
 62
     7
  6
Continuous
370
     0
390
12B1
347
12B4
  0
LAYER
  5
4A
330
12C8
100
AcDbSymbolTableRecord
100
AcDbLayerTableRecord
  2
Level 15
 70
     0
 62
     7
  6
Continuous
370
     0
390
12B1
347
12B4
  0
LAYER
  5
4B
330
12C8
100
AcDbSymbolTableRecord
100
AcDbLayerTableRecord
  2
Level 16
 70
     0
 62
     7
  6
Continuous
370
     0
390
12B1
347
12B4
  0
LAYER
  5
4C
330
12C8
100
AcDbSymbolTableRecord
100
AcDbLayerTableRecord
  2
Level 17
 70
     0
 62
     7
  6
Continuous
370
     0
390
12B1
347
12B4
  0
LAYER
  5
4D
330
12C8
100
AcDbSymbolTableRecord
100
AcDbLayerTableRecord
  2
Level 18
 70
     0
 62
     7
  6
Continuous
370
     0
390
12B1
347
12B4
  0
LAYER
  5
4E
330
12C8
100
AcDbSymbolTableRecord
100
AcDbLayerTableRecord
  2
Level 19
 70
     0
 62
     7
  6
Continuous
370
     0
390
12B1
347
12B4
  0
LAYER
  5
4F
330
12C8
100
AcDbSymbolTableRecord
100
AcDbLayerTableRecord
  2
Level 20
 70
     0
 62
     7
  6
Continuous
370
     0
390
12B1
347
12B4
  0
LAYER
  5
50
330
12C8
100
AcDbSymbolTableRecord
100
AcDbLayerTableRecord
  2
Level 21
 70
     0
 62
     7
  6
Continuous
370
     0
390
12B1
347
12B4
  0
LAYER
  5
51
330
12C8
100
AcDbSymbolTableRecord
100
AcDbLayerTableRecord
  2
Level 22
 70
     0
 62
     7
  6
Continuous
370
     0
390
12B1
347
12B4
  0
LAYER
  5
52
330
12C8
100
AcDbSymbolTableRecord
100
AcDbLayerTableRecord
  2
Level 23
 70
     0
 62
     7
  6
Continuous
370
     0
390
12B1
347
12B4
  0
LAYER
  5
53
330
12C8
100
AcDbSymbolTableRecord
100
AcDbLayerTableRecord
  2
Level 24
 70
     0
 62
     7
  6
Continuous
370
     0
390
12B1
347
12B4
  0
LAYER
  5
54
330
12C8
100
AcDbSymbolTableRecord
100
AcDbLayerTableRecord
  2
Level 25
 70
     0
 62
     7
  6
Continuous
370
     0
390
12B1
347
12B4
  0
LAYER
  5
55
330
12C8
100
AcDbSymbolTableRecord
100
AcDbLayerTableRecord
  2
Level 26
 70
     0
 62
     7
  6
Continuous
370
     0
390
12B1
347
12B4
  0
LAYER
  5
56
330
12C8
100
AcDbSymbolTableRecord
100
AcDbLayerTableRecord
  2
Level 27
 70
     0
 62
     7
  6
Continuous
370
     0
390
12B1
347
12B4
  0
LAYER
  5
57
330
12C8
100
AcDbSymbolTableRecord
100
AcDbLayerTableRecord
  2
Level 28
 70
     0
 62
     7
  6
Continuous
370
     0
390
12B1
347
12B4
  0
LAYER
  5
58
330
12C8
100
AcDbSymbolTableRecord
100
AcDbLayerTableRecord
  2
Level 29
 70
     0
 62
     7
  6
Continuous
370
     0
390
12B1
347
12B4
  0
LAYER
  5
59
330
12C8
100
AcDbSymbolTableRecord
100
AcDbLayerTableRecord
  2
Level 30
 70
     0
 62
     7
  6
Continuous
370
     0
390
12B1
347
12B4
  0
LAYER
  5
5A
330
12C8
100
AcDbSymbolTableRecord
100
AcDbLayerTableRecord
  2
Level 31
 70
     0
 62
     7
  6
Continuous
370
     0
390
12B1
347
12B4
  0
LAYER
  5
5B
330
12C8
100
AcDbSymbolTableRecord
100
AcDbLayerTableRecord
  2
Level 32
 70
     0
 62
     7
  6
Continuous
370
     0
390
12B1
347
12B4
  0
LAYER
  5
5C
330
12C8
100
AcDbSymbolTableRecord
100
AcDbLayerTableRecord
  2
Level 33
 70
     0
 62
     7
  6
Continuous
370
     0
390
12B1
347
12B4
  0
LAYER
  5
5D
330
12C8
100
AcDbSymbolTableRecord
100
AcDbLayerTableRecord
  2
Level 34
 70
     0
 62
     7
  6
Continuous
370
     0
390
12B1
347
12B4
  0
LAYER
  5
5E
330
12C8
100
AcDbSymbolTableRecord
100
AcDbLayerTableRecord
  2
Level 35
 70
     0
 62
     7
  6
Continuous
370
     0
390
12B1
347
12B4
  0
LAYER
  5
5F
330
12C8
100
AcDbSymbolTableRecord
100
AcDbLayerTableRecord
  2
Level 36
 70
     0
 62
     7
  6
Continuous
370
     0
390
12B1
347
12B4
  0
LAYER
  5
60
330
12C8
100
AcDbSymbolTableRecord
100
AcDbLayerTableRecord
  2
Level 37
 70
     0
 62
     7
  6
Continuous
370
     0
390
12B1
347
12B4
  0
LAYER
  5
61
330
12C8
100
AcDbSymbolTableRecord
100
AcDbLayerTableRecord
  2
Level 38
 70
     0
 62
     7
  6
Continuous
370
     0
390
12B1
347
12B4
  0
LAYER
  5
62
330
12C8
100
AcDbSymbolTableRecord
100
AcDbLayerTableRecord
  2
Level 39
 70
     0
 62
     7
  6
Continuous
370
     0
390
12B1
347
12B4
  0
LAYER
  5
63
330
12C8
100
AcDbSymbolTableRecord
100
AcDbLayerTableRecord
  2
Level 40
 70
     0
 62
     7
  6
Continuous
370
     0
390
12B1
347
12B4
  0
LAYER
  5
64
330
12C8
100
AcDbSymbolTableRecord
100
AcDbLayerTableRecord
  2
Level 41
 70
     0
 62
     7
  6
Continuous
370
     0
390
12B1
347
12B4
  0
LAYER
  5
65
330
12C8
100
AcDbSymbolTableRecord
100
AcDbLayerTableRecord
  2
Level 42
 70
     0
 62
     7
  6
Continuous
370
     0
390
12B1
347
12B4
  0
LAYER
  5
66
330
12C8
100
AcDbSymbolTableRecord
100
AcDbLayerTableRecord
  2
Level 43
 70
     0
 62
     7
  6
Continuous
370
     0
390
12B1
347
12B4
  0
LAYER
  5
67
330
12C8
100
AcDbSymbolTableRecord
100
AcDbLayerTableRecord
  2
Level 44
 70
     0
 62
     7
  6
Continuous
370
     0
390
12B1
347
12B4
  0
LAYER
  5
68
330
12C8
100
AcDbSymbolTableRecord
100
AcDbLayerTableRecord
  2
Level 45
 70
     0
 62
     7
  6
Continuous
370
     0
390
12B1
347
12B4
  0
LAYER
  5
69
330
12C8
100
AcDbSymbolTableRecord
100
AcDbLayerTableRecord
  2
Level 46
 70
     0
 62
     7
  6
Continuous
370
     0
390
12B1
347
12B4
  0
LAYER
  5
6A
330
12C8
100
AcDbSymbolTableRecord
100
AcDbLayerTableRecord
  2
Level 47
 70
     0
 62
     7
  6
Continuous
370
     0
390
12B1
347
12B4
  0
LAYER
  5
6B
330
12C8
100
AcDbSymbolTableRecord
100
AcDbLayerTableRecord
  2
Level 48
 70
     0
 62
     7
  6
Continuous
370
     0
390
12B1
347
12B4
  0
LAYER
  5
6C
330
12C8
100
AcDbSymbolTableRecord
100
AcDbLayerTableRecord
  2
Level 49
 70
     0
 62
     7
  6
Continuous
370
     0
390
12B1
347
12B4
  0
LAYER
  5
6D
330
12C8
100
AcDbSymbolTableRecord
100
AcDbLayerTableRecord
  2
Level 50
 70
     0
 62
     7
  6
Continuous
370
     0
390
12B1
347
12B4
  0
LAYER
  5
6E
330
12C8
100
AcDbSymbolTableRecord
100
AcDbLayerTableRecord
  2
Level 51
 70
     0
 62
     7
  6
Continuous
370
     0
390
12B1
347
12B4
  0
LAYER
  5
6F
330
12C8
100
AcDbSymbolTableRecord
100
AcDbLayerTableRecord
  2
Level 52
 70
     0
 62
     7
  6
Continuous
370
     0
390
12B1
347
12B4
  0
LAYER
  5
70
330
12C8
100
AcDbSymbolTableRecord
100
AcDbLayerTableRecord
  2
Level 53
 70
     0
 62
     7
  6
Continuous
370
     0
390
12B1
347
12B4
  0
LAYER
  5
71
330
12C8
100
AcDbSymbolTableRecord
100
AcDbLayerTableRecord
  2
Level 54
 70
     0
 62
     7
  6
Continuous
370
     0
390
12B1
347
12B4
  0
LAYER
  5
72
330
12C8
100
AcDbSymbolTableRecord
100
AcDbLayerTableRecord
  2
Level 55
 70
     0
 62
     7
  6
Continuous
370
     0
390
12B1
347
12B4
  0
LAYER
  5
73
330
12C8
100
AcDbSymbolTableRecord
100
AcDbLayerTableRecord
  2
Level 56
 70
     0
 62
     7
  6
Continuous
370
     0
390
12B1
347
12B4
  0
LAYER
  5
74
330
12C8
100
AcDbSymbolTableRecord
100
AcDbLayerTableRecord
  2
Level 57
 70
     0
 62
     7
  6
Continuous
370
     0
390
12B1
347
12B4
  0
LAYER
  5
75
330
12C8
100
AcDbSymbolTableRecord
100
AcDbLayerTableRecord
  2
Level 58
 70
     0
 62
     7
  6
Continuous
370
     0
390
12B1
347
12B4
  0
LAYER
  5
76
330
12C8
100
AcDbSymbolTableRecord
100
AcDbLayerTableRecord
  2
Level 59
 70
     0
 62
     7
  6
Continuous
370
     0
390
12B1
347
12B4
  0
LAYER
  5
77
330
12C8
100
AcDbSymbolTableRecord
100
AcDbLayerTableRecord
  2
Level 60
 70
     0
 62
     7
  6
Continuous
370
     0
390
12B1
347
12B4
  0
LAYER
  5
78
330
12C8
100
AcDbSymbolTableRecord
100
AcDbLayerTableRecord
  2
Level 61
 70
     0
 62
     7
  6
Continuous
370
     0
390
12B1
347
12B4
  0
LAYER
  5
79
330
12C8
100
AcDbSymbolTableRecord
100
AcDbLayerTableRecord
  2
Level 62
 70
     0
 62
     7
  6
Continuous
370
     0
390
12B1
347
12B4
  0
LAYER
  5
7A
330
12C8
100
AcDbSymbolTableRecord
100
AcDbLayerTableRecord
  2
Level 63
 70
     0
 62
     7
  6
Continuous
370
     0
390
12B1
347
12B4
  0
LAYER
  5
131D
330
12C8
100
AcDbSymbolTableRecord
100
AcDbLayerTableRecord
  2
umiborder|Level 1
 70
    16
 62
     7
  6
Continuous
370
     0
390
12B1
347
12B4
  0
LAYER
  5
131E
330
12C8
100
AcDbSymbolTableRecord
100
AcDbLayerTableRecord
  2
umiborder|Level 2
 70
    16
 62
     7
  6
Continuous
370
     0
390
12B1
347
12B4
  0
LAYER
  5
131F
330
12C8
100
AcDbSymbolTableRecord
100
AcDbLayerTableRecord
  2
umiborder|Level 3
 70
    16
 62
     7
  6
Continuous
370
     0
390
12B1
347
12B4
  0
LAYER
  5
1320
330
12C8
100
AcDbSymbolTableRecord
100
AcDbLayerTableRecord
  2
umiborder|Level 4
 70
    16
 62
     7
  6
Continuous
370
     0
390
12B1
347
12B4
  0
LAYER
  5
1321
330
12C8
100
AcDbSymbolTableRecord
100
AcDbLayerTableRecord
  2
umiborder|Level 5
 70
    16
 62
     7
  6
Continuous
370
     0
390
12B1
347
12B4
  0
LAYER
  5
1322
330
12C8
100
AcDbSymbolTableRecord
100
AcDbLayerTableRecord
  2
umiborder|Level 6
 70
    16
 62
     7
  6
Continuous
370
     0
390
12B1
347
12B4
  0
LAYER
  5
1323
330
12C8
100
AcDbSymbolTableRecord
100
AcDbLayerTableRecord
  2
umiborder|Level 7
 70
    16
 62
     7
  6
Continuous
370
     0
390
12B1
347
12B4
  0
LAYER
  5
1324
330
12C8
100
AcDbSymbolTableRecord
100
AcDbLayerTableRecord
  2
umiborder|Level 8
 70
    16
 62
     7
  6
Continuous
370
     0
390
12B1
347
12B4
  0
LAYER
  5
1325
330
12C8
100
AcDbSymbolTableRecord
100
AcDbLayerTableRecord
  2
umiborder|Level 9
 70
    16
 62
     7
  6
Continuous
370
     0
390
12B1
347
12B4
  0
LAYER
  5
1326
330
12C8
100
AcDbSymbolTableRecord
100
AcDbLayerTableRecord
  2
umiborder|Level 10
 70
    16
 62
     7
  6
Continuous
370
     0
390
12B1
347
12B4
  0
LAYER
  5
1327
330
12C8
100
AcDbSymbolTableRecord
100
AcDbLayerTableRecord
  2
umiborder|Level 11
 70
    16
 62
     7
  6
Continuous
370
     0
390
12B1
347
12B4
  0
LAYER
  5
1328
330
12C8
100
AcDbSymbolTableRecord
100
AcDbLayerTableRecord
  2
umiborder|Level 12
 70
    16
 62
     7
  6
Continuous
370
     0
390
12B1
347
12B4
  0
LAYER
  5
1329
330
12C8
100
AcDbSymbolTableRecord
100
AcDbLayerTableRecord
  2
umiborder|Level 13
 70
    16
 62
     7
  6
Continuous
370
     0
390
12B1
347
12B4
  0
LAYER
  5
132A
330
12C8
100
AcDbSymbolTableRecord
100
AcDbLayerTableRecord
  2
umiborder|Level 14
 70
    16
 62
     7
  6
Continuous
370
     0
390
12B1
347
12B4
  0
LAYER
  5
132B
330
12C8
100
AcDbSymbolTableRecord
100
AcDbLayerTableRecord
  2
umiborder|Level 15
 70
    16
 62
     7
  6
Continuous
370
     0
390
12B1
347
12B4
  0
LAYER
  5
132C
330
12C8
100
AcDbSymbolTableRecord
100
AcDbLayerTableRecord
  2
umiborder|Level 16
 70
    16
 62
     7
  6
Continuous
370
     0
390
12B1
347
12B4
  0
LAYER
  5
132D
330
12C8
100
AcDbSymbolTableRecord
100
AcDbLayerTableRecord
  2
umiborder|Level 17
 70
    16
 62
     7
  6
Continuous
370
     0
390
12B1
347
12B4
  0
LAYER
  5
132E
330
12C8
100
AcDbSymbolTableRecord
100
AcDbLayerTableRecord
  2
umiborder|Level 18
 70
    16
 62
     7
  6
Continuous
370
     0
390
12B1
347
12B4
  0
LAYER
  5
132F
330
12C8
100
AcDbSymbolTableRecord
100
AcDbLayerTableRecord
  2
umiborder|Level 19
 70
    16
 62
     7
  6
Continuous
370
     0
390
12B1
347
12B4
  0
LAYER
  5
1330
330
12C8
100
AcDbSymbolTableRecord
100
AcDbLayerTableRecord
  2
umiborder|Level 20
 70
    16
 62
     7
  6
Continuous
370
     0
390
12B1
347
12B4
  0
LAYER
  5
1331
330
12C8
100
AcDbSymbolTableRecord
100
AcDbLayerTableRecord
  2
umiborder|Level 21
 70
    16
 62
     7
  6
Continuous
370
     0
390
12B1
347
12B4
  0
LAYER
  5
1332
330
12C8
100
AcDbSymbolTableRecord
100
AcDbLayerTableRecord
  2
umiborder|Level 22
 70
    16
 62
     7
  6
Continuous
370
     0
390
12B1
347
12B4
  0
LAYER
  5
1333
330
12C8
100
AcDbSymbolTableRecord
100
AcDbLayerTableRecord
  2
umiborder|Level 23
 70
    16
 62
     7
  6
Continuous
370
     0
390
12B1
347
12B4
  0
LAYER
  5
1334
330
12C8
100
AcDbSymbolTableRecord
100
AcDbLayerTableRecord
  2
umiborder|Level 24
 70
    16
 62
     7
  6
Continuous
370
     0
390
12B1
347
12B4
  0
LAYER
  5
1335
330
12C8
100
AcDbSymbolTableRecord
100
AcDbLayerTableRecord
  2
umiborder|Level 25
 70
    16
 62
     7
  6
Continuous
370
     0
390
12B1
347
12B4
  0
LAYER
  5
1336
330
12C8
100
AcDbSymbolTableRecord
100
AcDbLayerTableRecord
  2
umiborder|Level 26
 70
    16
 62
     7
  6
Continuous
370
     0
390
12B1
347
12B4
  0
LAYER
  5
1337
330
12C8
100
AcDbSymbolTableRecord
100
AcDbLayerTableRecord
  2
umiborder|Level 27
 70
    16
 62
     7
  6
Continuous
370
     0
390
12B1
347
12B4
  0
LAYER
  5
1338
330
12C8
100
AcDbSymbolTableRecord
100
AcDbLayerTableRecord
  2
umiborder|Level 28
 70
    16
 62
     7
  6
Continuous
370
     0
390
12B1
347
12B4
  0
LAYER
  5
1339
330
12C8
100
AcDbSymbolTableRecord
100
AcDbLayerTableRecord
  2
umiborder|Level 29
 70
    16
 62
     7
  6
Continuous
370
     0
390
12B1
347
12B4
  0
LAYER
  5
133A
330
12C8
100
AcDbSymbolTableRecord
100
AcDbLayerTableRecord
  2
umiborder|Level 30
 70
    16
 62
     7
  6
Continuous
370
     0
390
12B1
347
12B4
  0
LAYER
  5
133B
330
12C8
100
AcDbSymbolTableRecord
100
AcDbLayerTableRecord
  2
umiborder|Level 31
 70
    16
 62
     7
  6
Continuous
370
     0
390
12B1
347
12B4
  0
LAYER
  5
133C
330
12C8
100
AcDbSymbolTableRecord
100
AcDbLayerTableRecord
  2
umiborder|Level 32
 70
    16
 62
     7
  6
Continuous
370
     0
390
12B1
347
12B4
  0
LAYER
  5
133D
330
12C8
100
AcDbSymbolTableRecord
100
AcDbLayerTableRecord
  2
umiborder|Level 33
 70
    16
 62
     7
  6
Continuous
370
     0
390
12B1
347
12B4
  0
LAYER
  5
133E
330
12C8
100
AcDbSymbolTableRecord
100
AcDbLayerTableRecord
  2
umiborder|Level 34
 70
    16
 62
     7
  6
Continuous
370
     0
390
12B1
347
12B4
  0
LAYER
  5
133F
330
12C8
100
AcDbSymbolTableRecord
100
AcDbLayerTableRecord
  2
umiborder|Level 35
 70
    16
 62
     7
  6
Continuous
370
     0
390
12B1
347
12B4
  0
LAYER
  5
1340
330
12C8
100
AcDbSymbolTableRecord
100
AcDbLayerTableRecord
  2
umiborder|Level 36
 70
    16
 62
     7
  6
Continuous
370
     0
390
12B1
347
12B4
  0
LAYER
  5
1341
330
12C8
100
AcDbSymbolTableRecord
100
AcDbLayerTableRecord
  2
umiborder|Level 37
 70
    16
 62
     7
  6
Continuous
370
     0
390
12B1
347
12B4
  0
LAYER
  5
1342
330
12C8
100
AcDbSymbolTableRecord
100
AcDbLayerTableRecord
  2
umiborder|Level 38
 70
    16
 62
     7
  6
Continuous
370
     0
390
12B1
347
12B4
  0
LAYER
  5
1343
330
12C8
100
AcDbSymbolTableRecord
100
AcDbLayerTableRecord
  2
umiborder|Level 39
 70
    16
 62
     7
  6
Continuous
370
     0
390
12B1
347
12B4
  0
LAYER
  5
1344
330
12C8
100
AcDbSymbolTableRecord
100
AcDbLayerTableRecord
  2
umiborder|Level 40
 70
    16
 62
     7
  6
Continuous
370
     0
390
12B1
347
12B4
  0
LAYER
  5
1345
330
12C8
100
AcDbSymbolTableRecord
100
AcDbLayerTableRecord
  2
umiborder|Level 41
 70
    16
 62
     7
  6
Continuous
370
     0
390
12B1
347
12B4
  0
LAYER
  5
1346
330
12C8
100
AcDbSymbolTableRecord
100
AcDbLayerTableRecord
  2
umiborder|Level 42
 70
    16
 62
     7
  6
Continuous
370
     0
390
12B1
347
12B4
  0
LAYER
  5
1347
330
12C8
100
AcDbSymbolTableRecord
100
AcDbLayerTableRecord
  2
umiborder|Level 43
 70
    16
 62
     7
  6
Continuous
370
     0
390
12B1
347
12B4
  0
LAYER
  5
1348
330
12C8
100
AcDbSymbolTableRecord
100
AcDbLayerTableRecord
  2
umiborder|Level 44
 70
    16
 62
     7
  6
Continuous
370
     0
390
12B1
347
12B4
  0
LAYER
  5
1349
330
12C8
100
AcDbSymbolTableRecord
100
AcDbLayerTableRecord
  2
umiborder|Level 45
 70
    16
 62
     7
  6
Continuous
370
     0
390
12B1
347
12B4
  0
LAYER
  5
134A
330
12C8
100
AcDbSymbolTableRecord
100
AcDbLayerTableRecord
  2
umiborder|Level 46
 70
    16
 62
     7
  6
Continuous
370
     0
390
12B1
347
12B4
  0
LAYER
  5
134B
330
12C8
100
AcDbSymbolTableRecord
100
AcDbLayerTableRecord
  2
umiborder|Level 47
 70
    16
 62
     7
  6
Continuous
370
     0
390
12B1
347
12B4
  0
LAYER
  5
134C
330
12C8
100
AcDbSymbolTableRecord
100
AcDbLayerTableRecord
  2
umiborder|Level 48
 70
    16
 62
     7
  6
Continuous
370
     0
390
12B1
347
12B4
  0
LAYER
  5
134D
330
12C8
100
AcDbSymbolTableRecord
100
AcDbLayerTableRecord
  2
umiborder|Level 49
 70
    16
 62
     7
  6
Continuous
370
     0
390
12B1
347
12B4
  0
LAYER
  5
134E
330
12C8
100
AcDbSymbolTableRecord
100
AcDbLayerTableRecord
  2
umiborder|Level 50
 70
    16
 62
     7
  6
Continuous
370
     0
390
12B1
347
12B4
  0
LAYER
  5
134F
330
12C8
100
AcDbSymbolTableRecord
100
AcDbLayerTableRecord
  2
umiborder|Level 51
 70
    16
 62
     7
  6
Continuous
370
     0
390
12B1
347
12B4
  0
LAYER
  5
1350
330
12C8
100
AcDbSymbolTableRecord
100
AcDbLayerTableRecord
  2
umiborder|Level 52
 70
    16
 62
     7
  6
Continuous
370
     0
390
12B1
347
12B4
  0
LAYER
  5
1351
330
12C8
100
AcDbSymbolTableRecord
100
AcDbLayerTableRecord
  2
umiborder|Level 53
 70
    16
 62
     7
  6
Continuous
370
     0
390
12B1
347
12B4
  0
LAYER
  5
1352
330
12C8
100
AcDbSymbolTableRecord
100
AcDbLayerTableRecord
  2
umiborder|Level 54
 70
    16
 62
     7
  6
Continuous
370
     0
390
12B1
347
12B4
  0
LAYER
  5
1353
330
12C8
100
AcDbSymbolTableRecord
100
AcDbLayerTableRecord
  2
umiborder|Level 55
 70
    16
 62
     7
  6
Continuous
370
     0
390
12B1
347
12B4
  0
LAYER
  5
1354
330
12C8
100
AcDbSymbolTableRecord
100
AcDbLayerTableRecord
  2
umiborder|Level 56
 70
    16
 62
     7
  6
Continuous
370
     0
390
12B1
347
12B4
  0
LAYER
  5
1355
330
12C8
100
AcDbSymbolTableRecord
100
AcDbLayerTableRecord
  2
umiborder|Level 57
 70
    16
 62
     7
  6
Continuous
370
     0
390
12B1
347
12B4
  0
LAYER
  5
1356
330
12C8
100
AcDbSymbolTableRecord
100
AcDbLayerTableRecord
  2
umiborder|Level 58
 70
    16
 62
     7
  6
Continuous
370
     0
390
12B1
347
12B4
  0
LAYER
  5
1357
330
12C8
100
AcDbSymbolTableRecord
100
AcDbLayerTableRecord
  2
umiborder|Level 59
 70
    16
 62
     7
  6
Continuous
370
     0
390
12B1
347
12B4
  0
LAYER
  5
1358
330
12C8
100
AcDbSymbolTableRecord
100
AcDbLayerTableRecord
  2
umiborder|Level 60
 70
    16
 62
     7
  6
Continuous
370
     0
390
12B1
347
12B4
  0
LAYER
  5
1359
330
12C8
100
AcDbSymbolTableRecord
100
AcDbLayerTableRecord
  2
umiborder|Level 61
 70
    16
 62
     7
  6
Continuous
370
     0
390
12B1
347
12B4
  0
LAYER
  5
135A
330
12C8
100
AcDbSymbolTableRecord
100
AcDbLayerTableRecord
  2
umiborder|Level 62
 70
    16
 62
     7
  6
Continuous
370
     0
390
12B1
347
12B4
  0
LAYER
  5
135B
330
12C8
100
AcDbSymbolTableRecord
100
AcDbLayerTableRecord
  2
umiborder|Level 63
 70
    16
 62
     7
  6
Continuous
370
     0
390
12B1
347
12B4
  0
LAYER
  5
135F
330
12C8
100
AcDbSymbolTableRecord
100
AcDbLayerTableRecord
  2
Style 1  PCB layouts|Level 1
 70
    16
 62
     7
  6
Continuous
370
     0
390
12B1
347
12B4
  0
LAYER
  5
1360
330
12C8
100
AcDbSymbolTableRecord
100
AcDbLayerTableRecord
  2
Style 1  PCB layouts|Level 2
 70
    16
 62
     7
  6
Continuous
370
     0
390
12B1
347
12B4
  0
LAYER
  5
1361
330
12C8
100
AcDbSymbolTableRecord
100
AcDbLayerTableRecord
  2
Style 1  PCB layouts|Level 3
 70
    16
 62
     7
  6
Continuous
370
     0
390
12B1
347
12B4
  0
LAYER
  5
1362
330
12C8
100
AcDbSymbolTableRecord
100
AcDbLayerTableRecord
  2
Style 1  PCB layouts|Level 4
 70
    16
 62
     7
  6
Continuous
370
     0
390
12B1
347
12B4
  0
LAYER
  5
1363
330
12C8
100
AcDbSymbolTableRecord
100
AcDbLayerTableRecord
  2
Style 1  PCB layouts|Level 5
 70
    16
 62
     7
  6
Continuous
370
     0
390
12B1
347
12B4
  0
LAYER
  5
1364
330
12C8
100
AcDbSymbolTableRecord
100
AcDbLayerTableRecord
  2
Style 1  PCB layouts|Level 6
 70
    16
 62
     7
  6
Continuous
370
     0
390
12B1
347
12B4
  0
LAYER
  5
1365
330
12C8
100
AcDbSymbolTableRecord
100
AcDbLayerTableRecord
  2
Style 1  PCB layouts|Level 7
 70
    16
 62
     7
  6
Continuous
370
     0
390
12B1
347
12B4
  0
LAYER
  5
1366
330
12C8
100
AcDbSymbolTableRecord
100
AcDbLayerTableRecord
  2
Style 1  PCB layouts|Level 8
 70
    16
 62
     7
  6
Continuous
370
     0
390
12B1
347
12B4
  0
LAYER
  5
1367
330
12C8
100
AcDbSymbolTableRecord
100
AcDbLayerTableRecord
  2
Style 1  PCB layouts|Level 9
 70
    16
 62
     7
  6
Continuous
370
     0
390
12B1
347
12B4
  0
LAYER
  5
1368
330
12C8
100
AcDbSymbolTableRecord
100
AcDbLayerTableRecord
  2
Style 1  PCB layouts|Level 10
 70
    16
 62
     7
  6
Continuous
370
     0
390
12B1
347
12B4
  0
LAYER
  5
1369
330
12C8
100
AcDbSymbolTableRecord
100
AcDbLayerTableRecord
  2
Style 1  PCB layouts|Level 11
 70
    16
 62
     7
  6
Continuous
370
     0
390
12B1
347
12B4
  0
LAYER
  5
136A
330
12C8
100
AcDbSymbolTableRecord
100
AcDbLayerTableRecord
  2
Style 1  PCB layouts|Level 12
 70
    16
 62
     7
  6
Continuous
370
     0
390
12B1
347
12B4
  0
LAYER
  5
136B
330
12C8
100
AcDbSymbolTableRecord
100
AcDbLayerTableRecord
  2
Style 1  PCB layouts|Level 13
 70
    16
 62
     7
  6
Continuous
370
     0
390
12B1
347
12B4
  0
LAYER
  5
136C
330
12C8
100
AcDbSymbolTableRecord
100
AcDbLayerTableRecord
  2
Style 1  PCB layouts|Level 14
 70
    16
 62
     7
  6
Continuous
370
     0
390
12B1
347
12B4
  0
LAYER
  5
136D
330
12C8
100
AcDbSymbolTableRecord
100
AcDbLayerTableRecord
  2
Style 1  PCB layouts|Level 15
 70
    16
 62
     7
  6
Continuous
370
     0
390
12B1
347
12B4
  0
LAYER
  5
136E
330
12C8
100
AcDbSymbolTableRecord
100
AcDbLayerTableRecord
  2
Style 1  PCB layouts|Level 16
 70
    16
 62
     7
  6
Continuous
370
     0
390
12B1
347
12B4
  0
LAYER
  5
136F
330
12C8
100
AcDbSymbolTableRecord
100
AcDbLayerTableRecord
  2
Style 1  PCB layouts|Level 17
 70
    16
 62
     7
  6
Continuous
370
     0
390
12B1
347
12B4
  0
LAYER
  5
1370
330
12C8
100
AcDbSymbolTableRecord
100
AcDbLayerTableRecord
  2
Style 1  PCB layouts|Level 18
 70
    16
 62
     7
  6
Continuous
370
     0
390
12B1
347
12B4
  0
LAYER
  5
1371
330
12C8
100
AcDbSymbolTableRecord
100
AcDbLayerTableRecord
  2
Style 1  PCB layouts|Level 19
 70
    16
 62
     7
  6
Continuous
370
     0
390
12B1
347
12B4
  0
LAYER
  5
1372
330
12C8
100
AcDbSymbolTableRecord
100
AcDbLayerTableRecord
  2
Style 1  PCB layouts|Level 20
 70
    16
 62
     7
  6
Continuous
370
     0
390
12B1
347
12B4
  0
LAYER
  5
1373
330
12C8
100
AcDbSymbolTableRecord
100
AcDbLayerTableRecord
  2
Style 1  PCB layouts|Level 21
 70
    16
 62
     7
  6
Continuous
370
     0
390
12B1
347
12B4
  0
LAYER
  5
1374
330
12C8
100
AcDbSymbolTableRecord
100
AcDbLayerTableRecord
  2
Style 1  PCB layouts|Level 22
 70
    16
 62
     7
  6
Continuous
370
     0
390
12B1
347
12B4
  0
LAYER
  5
1375
330
12C8
100
AcDbSymbolTableRecord
100
AcDbLayerTableRecord
  2
Style 1  PCB layouts|Level 23
 70
    16
 62
     7
  6
Continuous
370
     0
390
12B1
347
12B4
  0
LAYER
  5
1376
330
12C8
100
AcDbSymbolTableRecord
100
AcDbLayerTableRecord
  2
Style 1  PCB layouts|Level 24
 70
    16
 62
     7
  6
Continuous
370
     0
390
12B1
347
12B4
  0
LAYER
  5
1377
330
12C8
100
AcDbSymbolTableRecord
100
AcDbLayerTableRecord
  2
Style 1  PCB layouts|Level 25
 70
    16
 62
     7
  6
Continuous
370
     0
390
12B1
347
12B4
  0
LAYER
  5
1378
330
12C8
100
AcDbSymbolTableRecord
100
AcDbLayerTableRecord
  2
Style 1  PCB layouts|Level 26
 70
    16
 62
     7
  6
Continuous
370
     0
390
12B1
347
12B4
  0
LAYER
  5
1379
330
12C8
100
AcDbSymbolTableRecord
100
AcDbLayerTableRecord
  2
Style 1  PCB layouts|Level 27
 70
    16
 62
     7
  6
Continuous
370
     0
390
12B1
347
12B4
  0
LAYER
  5
137A
330
12C8
100
AcDbSymbolTableRecord
100
AcDbLayerTableRecord
  2
Style 1  PCB layouts|Level 28
 70
    16
 62
     7
  6
Continuous
370
     0
390
12B1
347
12B4
  0
LAYER
  5
137B
330
12C8
100
AcDbSymbolTableRecord
100
AcDbLayerTableRecord
  2
Style 1  PCB layouts|Level 29
 70
    16
 62
     7
  6
Continuous
370
     0
390
12B1
347
12B4
  0
LAYER
  5
137C
330
12C8
100
AcDbSymbolTableRecord
100
AcDbLayerTableRecord
  2
Style 1  PCB layouts|Level 30
 70
    16
 62
     7
  6
Continuous
370
     0
390
12B1
347
12B4
  0
LAYER
  5
137D
330
12C8
100
AcDbSymbolTableRecord
100
AcDbLayerTableRecord
  2
Style 1  PCB layouts|Level 31
 70
    16
 62
     7
  6
Continuous
370
     0
390
12B1
347
12B4
  0
LAYER
  5
137E
330
12C8
100
AcDbSymbolTableRecord
100
AcDbLayerTableRecord
  2
Style 1  PCB layouts|Level 32
 70
    16
 62
     7
  6
Continuous
370
     0
390
12B1
347
12B4
  0
LAYER
  5
137F
330
12C8
100
AcDbSymbolTableRecord
100
AcDbLayerTableRecord
  2
Style 1  PCB layouts|Level 33
 70
    16
 62
     7
  6
Continuous
370
     0
390
12B1
347
12B4
  0
LAYER
  5
1380
330
12C8
100
AcDbSymbolTableRecord
100
AcDbLayerTableRecord
  2
Style 1  PCB layouts|Level 34
 70
    16
 62
     7
  6
Continuous
370
     0
390
12B1
347
12B4
  0
LAYER
  5
1381
330
12C8
100
AcDbSymbolTableRecord
100
AcDbLayerTableRecord
  2
Style 1  PCB layouts|Level 35
 70
    16
 62
     7
  6
Continuous
370
     0
390
12B1
347
12B4
  0
LAYER
  5
1382
330
12C8
100
AcDbSymbolTableRecord
100
AcDbLayerTableRecord
  2
Style 1  PCB layouts|Level 36
 70
    16
 62
     7
  6
Continuous
370
     0
390
12B1
347
12B4
  0
LAYER
  5
1383
330
12C8
100
AcDbSymbolTableRecord
100
AcDbLayerTableRecord
  2
Style 1  PCB layouts|Level 37
 70
    16
 62
     7
  6
Continuous
370
     0
390
12B1
347
12B4
  0
LAYER
  5
1384
330
12C8
100
AcDbSymbolTableRecord
100
AcDbLayerTableRecord
  2
Style 1  PCB layouts|Level 38
 70
    16
 62
     7
  6
Continuous
370
     0
390
12B1
347
12B4
  0
LAYER
  5
1385
330
12C8
100
AcDbSymbolTableRecord
100
AcDbLayerTableRecord
  2
Style 1  PCB layouts|Level 39
 70
    16
 62
     7
  6
Continuous
370
     0
390
12B1
347
12B4
  0
LAYER
  5
1386
330
12C8
100
AcDbSymbolTableRecord
100
AcDbLayerTableRecord
  2
Style 1  PCB layouts|Level 40
 70
    16
 62
     7
  6
Continuous
370
     0
390
12B1
347
12B4
  0
LAYER
  5
1387
330
12C8
100
AcDbSymbolTableRecord
100
AcDbLayerTableRecord
  2
Style 1  PCB layouts|Level 41
 70
    16
 62
     7
  6
Continuous
370
     0
390
12B1
347
12B4
  0
LAYER
  5
1388
330
12C8
100
AcDbSymbolTableRecord
100
AcDbLayerTableRecord
  2
Style 1  PCB layouts|Level 42
 70
    16
 62
     7
  6
Continuous
370
     0
390
12B1
347
12B4
  0
LAYER
  5
1389
330
12C8
100
AcDbSymbolTableRecord
100
AcDbLayerTableRecord
  2
Style 1  PCB layouts|Level 43
 70
    16
 62
     7
  6
Continuous
370
     0
390
12B1
347
12B4
  0
LAYER
  5
138A
330
12C8
100
AcDbSymbolTableRecord
100
AcDbLayerTableRecord
  2
Style 1  PCB layouts|Level 44
 70
    16
 62
     7
  6
Continuous
370
     0
390
12B1
347
12B4
  0
LAYER
  5
138B
330
12C8
100
AcDbSymbolTableRecord
100
AcDbLayerTableRecord
  2
Style 1  PCB layouts|Level 45
 70
    16
 62
     7
  6
Continuous
370
     0
390
12B1
347
12B4
  0
LAYER
  5
138C
330
12C8
100
AcDbSymbolTableRecord
100
AcDbLayerTableRecord
  2
Style 1  PCB layouts|Level 46
 70
    16
 62
     7
  6
Continuous
370
     0
390
12B1
347
12B4
  0
LAYER
  5
138D
330
12C8
100
AcDbSymbolTableRecord
100
AcDbLayerTableRecord
  2
Style 1  PCB layouts|Level 47
 70
    16
 62
     7
  6
Continuous
370
     0
390
12B1
347
12B4
  0
LAYER
  5
138E
330
12C8
100
AcDbSymbolTableRecord
100
AcDbLayerTableRecord
  2
Style 1  PCB layouts|Level 48
 70
    16
 62
     7
  6
Continuous
370
     0
390
12B1
347
12B4
  0
LAYER
  5
138F
330
12C8
100
AcDbSymbolTableRecord
100
AcDbLayerTableRecord
  2
Style 1  PCB layouts|Level 49
 70
    16
 62
     7
  6
Continuous
370
     0
390
12B1
347
12B4
  0
LAYER
  5
1390
330
12C8
100
AcDbSymbolTableRecord
100
AcDbLayerTableRecord
  2
Style 1  PCB layouts|Level 50
 70
    16
 62
     7
  6
Continuous
370
     0
390
12B1
347
12B4
  0
LAYER
  5
1391
330
12C8
100
AcDbSymbolTableRecord
100
AcDbLayerTableRecord
  2
Style 1  PCB layouts|Level 51
 70
    16
 62
     7
  6
Continuous
370
     0
390
12B1
347
12B4
  0
LAYER
  5
1392
330
12C8
100
AcDbSymbolTableRecord
100
AcDbLayerTableRecord
  2
Style 1  PCB layouts|Level 52
 70
    16
 62
     7
  6
Continuous
370
     0
390
12B1
347
12B4
  0
LAYER
  5
1393
330
12C8
100
AcDbSymbolTableRecord
100
AcDbLayerTableRecord
  2
Style 1  PCB layouts|Level 53
 70
    16
 62
     7
  6
Continuous
370
     0
390
12B1
347
12B4
  0
LAYER
  5
1394
330
12C8
100
AcDbSymbolTableRecord
100
AcDbLayerTableRecord
  2
Style 1  PCB layouts|Level 54
 70
    16
 62
     7
  6
Continuous
370
     0
390
12B1
347
12B4
  0
LAYER
  5
1395
330
12C8
100
AcDbSymbolTableRecord
100
AcDbLayerTableRecord
  2
Style 1  PCB layouts|Level 55
 70
    16
 62
     7
  6
Continuous
370
     0
390
12B1
347
12B4
  0
LAYER
  5
1396
330
12C8
100
AcDbSymbolTableRecord
100
AcDbLayerTableRecord
  2
Style 1  PCB layouts|Level 56
 70
    16
 62
     7
  6
Continuous
370
     0
390
12B1
347
12B4
  0
LAYER
  5
1397
330
12C8
100
AcDbSymbolTableRecord
100
AcDbLayerTableRecord
  2
Style 1  PCB layouts|Level 57
 70
    16
 62
     7
  6
Continuous
370
     0
390
12B1
347
12B4
  0
LAYER
  5
1398
330
12C8
100
AcDbSymbolTableRecord
100
AcDbLayerTableRecord
  2
Style 1  PCB layouts|Level 58
 70
    16
 62
     7
  6
Continuous
370
     0
390
12B1
347
12B4
  0
LAYER
  5
1399
330
12C8
100
AcDbSymbolTableRecord
100
AcDbLayerTableRecord
  2
Style 1  PCB layouts|Level 59
 70
    16
 62
     7
  6
Continuous
370
     0
390
12B1
347
12B4
  0
LAYER
  5
139A
330
12C8
100
AcDbSymbolTableRecord
100
AcDbLayerTableRecord
  2
Style 1  PCB layouts|Level 60
 70
    16
 62
     7
  6
Continuous
370
     0
390
12B1
347
12B4
  0
LAYER
  5
139B
330
12C8
100
AcDbSymbolTableRecord
100
AcDbLayerTableRecord
  2
Style 1  PCB layouts|Level 61
 70
    16
 62
     7
  6
Continuous
370
     0
390
12B1
347
12B4
  0
LAYER
  5
139C
330
12C8
100
AcDbSymbolTableRecord
100
AcDbLayerTableRecord
  2
Style 1  PCB layouts|Level 62
 70
    16
 62
     7
  6
Continuous
370
     0
390
12B1
347
12B4
  0
LAYER
  5
139D
330
12C8
100
AcDbSymbolTableRecord
100
AcDbLayerTableRecord
  2
Style 1  PCB layouts|Level 63
 70
    16
 62
     7
  6
Continuous
370
     0
390
12B1
347
12B4
  0
LAYER
  5
13B4
330
12C8
100
AcDbSymbolTableRecord
100
AcDbLayerTableRecord
  2
Defpoints
 70
     0
 62
     7
  6
Continuous
290
     0
370
    -3
390
12B1
347
12B4
  0
LAYER
  5
1802
330
12C8
100
AcDbSymbolTableRecord
100
AcDbLayerTableRecord
  2
st6 footprints11|Level 1
 70
    16
 62
     7
  6
Continuous
370
     0
390
12B1
347
12B4
  0
LAYER
  5
1803
330
12C8
100
AcDbSymbolTableRecord
100
AcDbLayerTableRecord
  2
st6 footprints11|Level 2
 70
    16
 62
     7
  6
Continuous
370
     0
390
12B1
347
12B4
  0
LAYER
  5
1804
330
12C8
100
AcDbSymbolTableRecord
100
AcDbLayerTableRecord
  2
st6 footprints11|Level 3
 70
    16
 62
     7
  6
Continuous
370
     0
390
12B1
347
12B4
  0
LAYER
  5
1805
330
12C8
100
AcDbSymbolTableRecord
100
AcDbLayerTableRecord
  2
st6 footprints11|Level 4
 70
    16
 62
     7
  6
Continuous
370
     0
390
12B1
347
12B4
  0
LAYER
  5
1806
330
12C8
100
AcDbSymbolTableRecord
100
AcDbLayerTableRecord
  2
st6 footprints11|Level 5
 70
    16
 62
     7
  6
Continuous
370
     0
390
12B1
347
12B4
  0
LAYER
  5
1807
330
12C8
100
AcDbSymbolTableRecord
100
AcDbLayerTableRecord
  2
st6 footprints11|Level 6
 70
    16
 62
     7
  6
Continuous
370
     0
390
12B1
347
12B4
  0
LAYER
  5
1808
330
12C8
100
AcDbSymbolTableRecord
100
AcDbLayerTableRecord
  2
st6 footprints11|Level 7
 70
    16
 62
     7
  6
Continuous
370
     0
390
12B1
347
12B4
  0
LAYER
  5
1809
330
12C8
100
AcDbSymbolTableRecord
100
AcDbLayerTableRecord
  2
st6 footprints11|Level 8
 70
    16
 62
     7
  6
Continuous
370
     0
390
12B1
347
12B4
  0
LAYER
  5
180A
330
12C8
100
AcDbSymbolTableRecord
100
AcDbLayerTableRecord
  2
st6 footprints11|Level 9
 70
    16
 62
     7
  6
Continuous
370
     0
390
12B1
347
12B4
  0
LAYER
  5
180B
330
12C8
100
AcDbSymbolTableRecord
100
AcDbLayerTableRecord
  2
st6 footprints11|Level 10
 70
    16
 62
     7
  6
Continuous
370
     0
390
12B1
347
12B4
  0
LAYER
  5
180C
330
12C8
100
AcDbSymbolTableRecord
100
AcDbLayerTableRecord
  2
st6 footprints11|Level 11
 70
    16
 62
     7
  6
Continuous
370
     0
390
12B1
347
12B4
  0
LAYER
  5
180D
330
12C8
100
AcDbSymbolTableRecord
100
AcDbLayerTableRecord
  2
st6 footprints11|Level 12
 70
    16
 62
     7
  6
Continuous
370
     0
390
12B1
347
12B4
  0
LAYER
  5
180E
330
12C8
100
AcDbSymbolTableRecord
100
AcDbLayerTableRecord
  2
st6 footprints11|Level 13
 70
    16
 62
     7
  6
Continuous
370
     0
390
12B1
347
12B4
  0
LAYER
  5
180F
330
12C8
100
AcDbSymbolTableRecord
100
AcDbLayerTableRecord
  2
st6 footprints11|Level 14
 70
    16
 62
     7
  6
Continuous
370
     0
390
12B1
347
12B4
  0
LAYER
  5
1810
330
12C8
100
AcDbSymbolTableRecord
100
AcDbLayerTableRecord
  2
st6 footprints11|Level 15
 70
    16
 62
     7
  6
Continuous
370
     0
390
12B1
347
12B4
  0
LAYER
  5
1811
330
12C8
100
AcDbSymbolTableRecord
100
AcDbLayerTableRecord
  2
st6 footprints11|Level 16
 70
    16
 62
     7
  6
Continuous
370
     0
390
12B1
347
12B4
  0
LAYER
  5
1812
330
12C8
100
AcDbSymbolTableRecord
100
AcDbLayerTableRecord
  2
st6 footprints11|Level 17
 70
    16
 62
     7
  6
Continuous
370
     0
390
12B1
347
12B4
  0
LAYER
  5
1813
330
12C8
100
AcDbSymbolTableRecord
100
AcDbLayerTableRecord
  2
st6 footprints11|Level 18
 70
    16
 62
     7
  6
Continuous
370
     0
390
12B1
347
12B4
  0
LAYER
  5
1814
330
12C8
100
AcDbSymbolTableRecord
100
AcDbLayerTableRecord
  2
st6 footprints11|Level 19
 70
    16
 62
     7
  6
Continuous
370
     0
390
12B1
347
12B4
  0
LAYER
  5
1815
330
12C8
100
AcDbSymbolTableRecord
100
AcDbLayerTableRecord
  2
st6 footprints11|Level 20
 70
    16
 62
     7
  6
Continuous
370
     0
390
12B1
347
12B4
  0
LAYER
  5
1816
330
12C8
100
AcDbSymbolTableRecord
100
AcDbLayerTableRecord
  2
st6 footprints11|Level 21
 70
    16
 62
     7
  6
Continuous
370
     0
390
12B1
347
12B4
  0
LAYER
  5
1817
330
12C8
100
AcDbSymbolTableRecord
100
AcDbLayerTableRecord
  2
st6 footprints11|Level 22
 70
    16
 62
     7
  6
Continuous
370
     0
390
12B1
347
12B4
  0
LAYER
  5
1818
330
12C8
100
AcDbSymbolTableRecord
100
AcDbLayerTableRecord
  2
st6 footprints11|Level 23
 70
    16
 62
     7
  6
Continuous
370
     0
390
12B1
347
12B4
  0
LAYER
  5
1819
330
12C8
100
AcDbSymbolTableRecord
100
AcDbLayerTableRecord
  2
st6 footprints11|Level 24
 70
    16
 62
     7
  6
Continuous
370
     0
390
12B1
347
12B4
  0
LAYER
  5
181A
330
12C8
100
AcDbSymbolTableRecord
100
AcDbLayerTableRecord
  2
st6 footprints11|Level 25
 70
    16
 62
     7
  6
Continuous
370
     0
390
12B1
347
12B4
  0
LAYER
  5
181B
330
12C8
100
AcDbSymbolTableRecord
100
AcDbLayerTableRecord
  2
st6 footprints11|Level 26
 70
    16
 62
     7
  6
Continuous
370
     0
390
12B1
347
12B4
  0
LAYER
  5
181C
330
12C8
100
AcDbSymbolTableRecord
100
AcDbLayerTableRecord
  2
st6 footprints11|Level 27
 70
    16
 62
     7
  6
Continuous
370
     0
390
12B1
347
12B4
  0
LAYER
  5
181D
330
12C8
100
AcDbSymbolTableRecord
100
AcDbLayerTableRecord
  2
st6 footprints11|Level 28
 70
    16
 62
     7
  6
Continuous
370
     0
390
12B1
347
12B4
  0
LAYER
  5
181E
330
12C8
100
AcDbSymbolTableRecord
100
AcDbLayerTableRecord
  2
st6 footprints11|Level 29
 70
    16
 62
     7
  6
Continuous
370
     0
390
12B1
347
12B4
  0
LAYER
  5
181F
330
12C8
100
AcDbSymbolTableRecord
100
AcDbLayerTableRecord
  2
st6 footprints11|Level 30
 70
    16
 62
     7
  6
Continuous
370
     0
390
12B1
347
12B4
  0
LAYER
  5
1820
330
12C8
100
AcDbSymbolTableRecord
100
AcDbLayerTableRecord
  2
st6 footprints11|Level 31
 70
    16
 62
     7
  6
Continuous
370
     0
390
12B1
347
12B4
  0
LAYER
  5
1821
330
12C8
100
AcDbSymbolTableRecord
100
AcDbLayerTableRecord
  2
st6 footprints11|Level 32
 70
    16
 62
     7
  6
Continuous
370
     0
390
12B1
347
12B4
  0
LAYER
  5
1822
330
12C8
100
AcDbSymbolTableRecord
100
AcDbLayerTableRecord
  2
st6 footprints11|Level 33
 70
    16
 62
     7
  6
Continuous
370
     0
390
12B1
347
12B4
  0
LAYER
  5
1823
330
12C8
100
AcDbSymbolTableRecord
100
AcDbLayerTableRecord
  2
st6 footprints11|Level 34
 70
    16
 62
     7
  6
Continuous
370
     0
390
12B1
347
12B4
  0
LAYER
  5
1824
330
12C8
100
AcDbSymbolTableRecord
100
AcDbLayerTableRecord
  2
st6 footprints11|Level 35
 70
    16
 62
     7
  6
Continuous
370
     0
390
12B1
347
12B4
  0
LAYER
  5
1825
330
12C8
100
AcDbSymbolTableRecord
100
AcDbLayerTableRecord
  2
st6 footprints11|Level 36
 70
    16
 62
     7
  6
Continuous
370
     0
390
12B1
347
12B4
  0
LAYER
  5
1826
330
12C8
100
AcDbSymbolTableRecord
100
AcDbLayerTableRecord
  2
st6 footprints11|Level 37
 70
    16
 62
     7
  6
Continuous
370
     0
390
12B1
347
12B4
  0
LAYER
  5
1827
330
12C8
100
AcDbSymbolTableRecord
100
AcDbLayerTableRecord
  2
st6 footprints11|Level 38
 70
    16
 62
     7
  6
Continuous
370
     0
390
12B1
347
12B4
  0
LAYER
  5
1828
330
12C8
100
AcDbSymbolTableRecord
100
AcDbLayerTableRecord
  2
st6 footprints11|Level 39
 70
    16
 62
     7
  6
Continuous
370
     0
390
12B1
347
12B4
  0
LAYER
  5
1829
330
12C8
100
AcDbSymbolTableRecord
100
AcDbLayerTableRecord
  2
st6 footprints11|Level 40
 70
    16
 62
     7
  6
Continuous
370
     0
390
12B1
347
12B4
  0
LAYER
  5
182A
330
12C8
100
AcDbSymbolTableRecord
100
AcDbLayerTableRecord
  2
st6 footprints11|Level 41
 70
    16
 62
     7
  6
Continuous
370
     0
390
12B1
347
12B4
  0
LAYER
  5
182B
330
12C8
100
AcDbSymbolTableRecord
100
AcDbLayerTableRecord
  2
st6 footprints11|Level 42
 70
    16
 62
     7
  6
Continuous
370
     0
390
12B1
347
12B4
  0
LAYER
  5
182C
330
12C8
100
AcDbSymbolTableRecord
100
AcDbLayerTableRecord
  2
st6 footprints11|Level 43
 70
    16
 62
     7
  6
Continuous
370
     0
390
12B1
347
12B4
  0
LAYER
  5
182D
330
12C8
100
AcDbSymbolTableRecord
100
AcDbLayerTableRecord
  2
st6 footprints11|Level 44
 70
    16
 62
     7
  6
Continuous
370
     0
390
12B1
347
12B4
  0
LAYER
  5
182E
330
12C8
100
AcDbSymbolTableRecord
100
AcDbLayerTableRecord
  2
st6 footprints11|Level 45
 70
    16
 62
     7
  6
Continuous
370
     0
390
12B1
347
12B4
  0
LAYER
  5
182F
330
12C8
100
AcDbSymbolTableRecord
100
AcDbLayerTableRecord
  2
st6 footprints11|Level 46
 70
    16
 62
     7
  6
Continuous
370
     0
390
12B1
347
12B4
  0
LAYER
  5
1830
330
12C8
100
AcDbSymbolTableRecord
100
AcDbLayerTableRecord
  2
st6 footprints11|Level 47
 70
    16
 62
     7
  6
Continuous
370
     0
390
12B1
347
12B4
  0
LAYER
  5
1831
330
12C8
100
AcDbSymbolTableRecord
100
AcDbLayerTableRecord
  2
st6 footprints11|Level 48
 70
    16
 62
     7
  6
Continuous
370
     0
390
12B1
347
12B4
  0
LAYER
  5
1832
330
12C8
100
AcDbSymbolTableRecord
100
AcDbLayerTableRecord
  2
st6 footprints11|Level 49
 70
    16
 62
     7
  6
Continuous
370
     0
390
12B1
347
12B4
  0
LAYER
  5
1833
330
12C8
100
AcDbSymbolTableRecord
100
AcDbLayerTableRecord
  2
st6 footprints11|Level 50
 70
    16
 62
     7
  6
Continuous
370
     0
390
12B1
347
12B4
  0
LAYER
  5
1834
330
12C8
100
AcDbSymbolTableRecord
100
AcDbLayerTableRecord
  2
st6 footprints11|Level 51
 70
    16
 62
     7
  6
Continuous
370
     0
390
12B1
347
12B4
  0
LAYER
  5
1835
330
12C8
100
AcDbSymbolTableRecord
100
AcDbLayerTableRecord
  2
st6 footprints11|Level 52
 70
    16
 62
     7
  6
Continuous
370
     0
390
12B1
347
12B4
  0
LAYER
  5
1836
330
12C8
100
AcDbSymbolTableRecord
100
AcDbLayerTableRecord
  2
st6 footprints11|Level 53
 70
    16
 62
     7
  6
Continuous
370
     0
390
12B1
347
12B4
  0
LAYER
  5
1837
330
12C8
100
AcDbSymbolTableRecord
100
AcDbLayerTableRecord
  2
st6 footprints11|Level 54
 70
    16
 62
     7
  6
Continuous
370
     0
390
12B1
347
12B4
  0
LAYER
  5
1838
330
12C8
100
AcDbSymbolTableRecord
100
AcDbLayerTableRecord
  2
st6 footprints11|Level 55
 70
    16
 62
     7
  6
Continuous
370
     0
390
12B1
347
12B4
  0
LAYER
  5
1839
330
12C8
100
AcDbSymbolTableRecord
100
AcDbLayerTableRecord
  2
st6 footprints11|Level 56
 70
    16
 62
     7
  6
Continuous
370
     0
390
12B1
347
12B4
  0
LAYER
  5
183A
330
12C8
100
AcDbSymbolTableRecord
100
AcDbLayerTableRecord
  2
st6 footprints11|Level 57
 70
    16
 62
     7
  6
Continuous
370
     0
390
12B1
347
12B4
  0
LAYER
  5
183B
330
12C8
100
AcDbSymbolTableRecord
100
AcDbLayerTableRecord
  2
st6 footprints11|Level 58
 70
    16
 62
     7
  6
Continuous
370
     0
390
12B1
347
12B4
  0
LAYER
  5
183C
330
12C8
100
AcDbSymbolTableRecord
100
AcDbLayerTableRecord
  2
st6 footprints11|Level 59
 70
    16
 62
     7
  6
Continuous
370
     0
390
12B1
347
12B4
  0
LAYER
  5
183D
330
12C8
100
AcDbSymbolTableRecord
100
AcDbLayerTableRecord
  2
st6 footprints11|Level 60
 70
    16
 62
     7
  6
Continuous
370
     0
390
12B1
347
12B4
  0
LAYER
  5
183E
330
12C8
100
AcDbSymbolTableRecord
100
AcDbLayerTableRecord
  2
st6 footprints11|Level 61
 70
    16
 62
     7
  6
Continuous
370
     0
390
12B1
347
12B4
  0
LAYER
  5
183F
330
12C8
100
AcDbSymbolTableRecord
100
AcDbLayerTableRecord
  2
st6 footprints11|Level 62
 70
    16
 62
     7
  6
Continuous
370
     0
390
12B1
347
12B4
  0
LAYER
  5
1840
330
12C8
100
AcDbSymbolTableRecord
100
AcDbLayerTableRecord
  2
st6 footprints11|Level 63
 70
    16
 62
     7
  6
Continuous
370
     0
390
12B1
347
12B4
  0
ENDTAB
  0
TABLE
  2
STYLE
  5
12CB
330
0
100
AcDbSymbolTable
 70
     3
  0
STYLE
  5
12CC
330
12CB
100
AcDbSymbolTableRecord
100
AcDbTextStyleTableRecord
  2
Standard
 70
     0
 40
0.0
 41
1.0
 50
0.0
 71
     0
 42
0.03
  3
txt.shx
  4

  0
STYLE
  5
13A3
330
12CB
100
AcDbSymbolTableRecord
100
AcDbTextStyleTableRecord
  2
Style-WORKING
 70
     0
 40
0.0
 41
1.0
 50
0.0
 71
     0
 42
0.03
  3
WORKING.shx
  4

  0
STYLE
  5
13A6
330
12CB
100
AcDbSymbolTableRecord
100
AcDbTextStyleTableRecord
  2
Style-ANSI_SYMBOLS
 70
     0
 40
0.0
 41
1.0
 50
0.0
 71
     0
 42
0.03
  3
ANSI_SYMBOLS.shx
  4

  0
ENDTAB
  0
TABLE
  2
VIEW
  5
12D1
330
0
100
AcDbSymbolTable
 70
     2
  0
VIEW
  5
110
102
{ACAD_XDICTIONARY
360
139F
102
}
330
12D1
100
AcDbSymbolTableRecord
100
AcDbViewTableRecord
  2
VIEW 5
 70
     0
 40
11.630165
 10
-7.758911
 20
5.32565
 41
18.974736
 11
0.0
 21
0.0
 31
1.0
 12
0.0
 22
0.0
 32
0.0
 42
50.0
 43
0.001969
 44
-0.001969
 50
0.0
 71
    16
281
     0
 72
     0
 73
     0
348
12D5
  0
VIEW
  5
112
102
{ACAD_XDICTIONARY
360
13A1
102
}
330
12D1
100
AcDbSymbolTableRecord
100
AcDbViewTableRecord
  2
V2
 70
     0
 40
13.786559
 10
9.249309
 20
6.341453
 41
18.16465
 11
0.0
 21
0.0
 31
1.0
 12
0.0
 22
0.0
 32
0.0
 42
50.0
 43
0.001969
 44
-0.001969
 50
0.0
 71
    16
281
     0
 72
     0
 73
     0
348
12D5
  0
ENDTAB
  0
TABLE
  2
UCS
  5
12D2
330
0
100
AcDbSymbolTable
 70
     0
  0
ENDTAB
  0
TABLE
  2
APPID
  5
12D7
330
0
100
AcDbSymbolTable
 70
     3
  0
APPID
  5
12D8
330
12D7
100
AcDbSymbolTableRecord
100
AcDbRegAppTableRecord
  2
ACAD
 70
     0
  0
APPID
  5
12C7
330
12D7
100
AcDbSymbolTableRecord
100
AcDbRegAppTableRecord
  2
ACAD_PSEXT
 70
     0
  0
APPID
  5
15D6
330
12D7
100
AcDbSymbolTableRecord
100
AcDbRegAppTableRecord
  2
ACAD_MLEADERVER
 70
     0
  0
ENDTAB
  0
TABLE
  2
DIMSTYLE
  5
12D9
330
0
100
AcDbSymbolTable
 70
     1
100
AcDbDimStyleTable
 71
     1
340
12DA
  0
DIMSTYLE
105
12DA
102
{ACAD_REACTORS
330
12AB
330
DA2
330
DA3
330
DAE
330
F35
330
DAD
102
}
330
12D9
100
AcDbSymbolTableRecord
100
AcDbDimStyleTableRecord
  2
Standard
 70
     0
 42
0.0625
 44
0.18
147
0.09
340
12CC
  0
ENDTAB
  0
TABLE
  2
BLOCK_RECORD
  5
12AD
330
0
100
AcDbSymbolTable
 70
    29
  0
BLOCK_RECORD
  5
12AE
102
{ACAD_XDICTIONARY
360
143A
102
}
330
12AD
100
AcDbSymbolTableRecord
100
AcDbBlockTableRecord
  2
*Model_Space
340
12BF
 70
     0
280
     1
281
     0
  0
BLOCK_RECORD
  5
12C1
102
{ACAD_XDICTIONARY
360
1725
102
}
330
12AD
100
AcDbSymbolTableRecord
100
AcDbBlockTableRecord
  2
*Paper_Space
340
12C4
 70
     0
280
     1
281
     0
  0
BLOCK_RECORD
  5
131A
330
12AD
100
AcDbSymbolTableRecord
100
AcDbBlockTableRecord
  2
umiborder
340
0
102
{BLKREFS
331
6F0
102
}
 70
     0
280
     1
281
     0
  0
BLOCK_RECORD
  5
135C
330
12AD
100
AcDbSymbolTableRecord
100
AcDbBlockTableRecord
  2
Style 1  PCB layouts
340
0
102
{BLKREFS
331
73A
332
17FF
102
}
 70
     0
280
     1
281
     0
  0
BLOCK_RECORD
  5
13A8
330
12AD
100
AcDbSymbolTableRecord
100
AcDbBlockTableRecord
  2
*D2
340
0
 70
     0
280
     1
281
     0
  0
BLOCK_RECORD
  5
13B9
330
12AD
100
AcDbSymbolTableRecord
100
AcDbBlockTableRecord
  2
*D3
340
0
 70
     0
280
     1
281
     0
  0
BLOCK_RECORD
  5
13C6
330
12AD
100
AcDbSymbolTableRecord
100
AcDbBlockTableRecord
  2
*D4
340
0
 70
     0
280
     1
281
     0
  0
BLOCK_RECORD
  5
13D5
330
12AD
100
AcDbSymbolTableRecord
100
AcDbBlockTableRecord
  2
*D5
340
0
 70
     0
280
     1
281
     0
  0
BLOCK_RECORD
  5
13E2
330
12AD
100
AcDbSymbolTableRecord
100
AcDbBlockTableRecord
  2
*D6
340
0
 70
     0
280
     1
281
     0
  0
BLOCK_RECORD
  5
13F2
330
12AD
100
AcDbSymbolTableRecord
100
AcDbBlockTableRecord
  2
*D7
340
0
 70
     0
280
     1
281
     0
  0
BLOCK_RECORD
  5
1400
330
12AD
100
AcDbSymbolTableRecord
100
AcDbBlockTableRecord
  2
*D8
340
0
 70
     0
280
     1
281
     0
  0
BLOCK_RECORD
  5
1410
330
12AD
100
AcDbSymbolTableRecord
100
AcDbBlockTableRecord
  2
*D9
340
0
 70
     0
280
     1
281
     0
  0
BLOCK_RECORD
  5
141D
330
12AD
100
AcDbSymbolTableRecord
100
AcDbBlockTableRecord
  2
*D10
340
0
 70
     0
280
     1
281
     0
  0
BLOCK_RECORD
  5
142D
330
12AD
100
AcDbSymbolTableRecord
100
AcDbBlockTableRecord
  2
*D11
340
0
 70
     0
280
     1
281
     0
  0
BLOCK_RECORD
  5
1532
330
12AD
100
AcDbSymbolTableRecord
100
AcDbBlockTableRecord
  2
*D12
340
0
 70
     0
280
     1
281
     0
  0
BLOCK_RECORD
  5
16AF
330
12AD
100
AcDbSymbolTableRecord
100
AcDbBlockTableRecord
  2
*D13
340
0
 70
     0
280
     1
281
     0
  0
BLOCK_RECORD
  5
17FF
330
12AD
100
AcDbSymbolTableRecord
100
AcDbBlockTableRecord
  2
st6 footprints11
340
0
102
{BLKREFS
332
1841
332
1844
102
}
 70
     0
280
     1
281
     0
  0
BLOCK_RECORD
  5
1841
330
12AD
100
AcDbSymbolTableRecord
100
AcDbBlockTableRecord
  2
sd-83626-9000_s01
340
0
 70
     0
280
     1
281
     0
  0
BLOCK_RECORD
  5
1844
330
12AD
100
AcDbSymbolTableRecord
100
AcDbBlockTableRecord
  2
pg13
340
0
 70
     0
280
     1
281
     0
  0
BLOCK_RECORD
  5
19A4
330
12AD
100
AcDbSymbolTableRecord
100
AcDbBlockTableRecord
  2
*D17
340
0
 70
     0
280
     1
281
     0
  0
BLOCK_RECORD
  5
19BD
330
12AD
100
AcDbSymbolTableRecord
100
AcDbBlockTableRecord
  2
*D18
340
0
 70
     0
280
     1
281
     0
  0
BLOCK_RECORD
  5
19D6
330
12AD
100
AcDbSymbolTableRecord
100
AcDbBlockTableRecord
  2
*D19
340
0
 70
     0
280
     1
281
     0
  0
BLOCK_RECORD
  5
19F1
330
12AD
100
AcDbSymbolTableRecord
100
AcDbBlockTableRecord
  2
*D20
340
0
 70
     0
280
     1
281
     0
  0
BLOCK_RECORD
  5
1A0B
330
12AD
100
AcDbSymbolTableRecord
100
AcDbBlockTableRecord
  2
*D21
340
0
 70
     0
280
     1
281
     0
  0
BLOCK_RECORD
  5
1B8C
330
12AD
100
AcDbSymbolTableRecord
100
AcDbBlockTableRecord
  2
*D22
340
0
 70
     0
280
     1
281
     0
  0
BLOCK_RECORD
  5
21A6
330
12AD
100
AcDbSymbolTableRecord
100
AcDbBlockTableRecord
  2
*D23
340
0
 70
     0
280
     1
281
     0
  0
BLOCK_RECORD
  5
21BF
330
12AD
100
AcDbSymbolTableRecord
100
AcDbBlockTableRecord
  2
*D24
340
0
 70
     0
280
     1
281
     0
  0
BLOCK_RECORD
  5
21DA
330
12AD
100
AcDbSymbolTableRecord
100
AcDbBlockTableRecord
  2
*D25
340
0
 70
     0
280
     1
281
     0
  0
BLOCK_RECORD
  5
21F4
330
12AD
100
AcDbSymbolTableRecord
100
AcDbBlockTableRecord
  2
*D26
340
0
 70
     0
280
     1
281
     0
  0
BLOCK_RECORD
  5
237F
330
12AD
100
AcDbSymbolTableRecord
100
AcDbBlockTableRecord
  2
*D27
340
0
 70
     0
280
     1
281
     0
  0
BLOCK_RECORD
  5
239A
330
12AD
100
AcDbSymbolTableRecord
100
AcDbBlockTableRecord
  2
*D28
340
0
 70
     0
280
     1
281
     0
  0
ENDTAB
  0
ENDSEC
  0
SECTION
  2
BLOCKS
  0
BLOCK
  5
12AF
330
12AE
100
AcDbEntity
  8
0
100
AcDbBlockBegin
  2
*Model_Space
 70
     0
 10
0.0
 20
0.0
 30
0.0
  3
*Model_Space
  1

  0
ENDBLK
  5
12BE
330
12AE
100
AcDbEntity
  8
0
100
AcDbBlockEnd
  0
BLOCK
  5
12C2
330
12C1
100
AcDbEntity
 67
     1
  8
0
100
AcDbBlockBegin
  2
*Paper_Space
 70
     0
 10
0.0
 20
0.0
 30
0.0
  3
*Paper_Space
  1

  0
ENDBLK
  5
12C3
330
12C1
100
AcDbEntity
 67
     1
  8
0
100
AcDbBlockEnd
  0
BLOCK
  5
131B
330
131A
100
AcDbEntity
  8
0
100
AcDbBlockBegin
  2
umiborder
 70
     4
 71
     1
 10
0.0
 20
0.0
 30
0.0
  3
umiborder
  1
C:\D DRIVE\MSTRDWG\umiborder.dwg
  0
ENDBLK
  5
131C
330
131A
100
AcDbEntity
  8
0
100
AcDbBlockEnd
  0
BLOCK
  5
135D
330
135C
100
AcDbEntity
  8
0
100
AcDbBlockBegin
  2
Style 1  PCB layouts
 70
     4
 71
     1
 10
0.0
 20
0.0
 30
0.0
  3
Style 1  PCB layouts
  1
C:\D drive\mstrdwg\pdf catalog drawings\cad files\Style 1  PCB layouts.dwg
  0
ENDBLK
  5
135E
330
135C
100
AcDbEntity
  8
0
100
AcDbBlockEnd
  0
BLOCK
  5
13B2
330
13A8
100
AcDbEntity
  8
0
 62
     7
370
     0
100
AcDbBlockBegin
  2
*D2
 70
     1
 10
0.0
 20
0.0
 30
0.0
  3
*D2
  1

  0
TEXT
  5
13A9
330
13A8
100
AcDbEntity
  8
Level 55
  6
Continuous
 62
     7
370
     0
100
AcDbText
 10
0.822868
 20
6.394579
 30
0.0
 40
0.03
  1
1.800
 41
0.916667
  7
Style-WORKING
 11
0.822868
 21
6.409579
 31
0.0
100
AcDbText
 73
     2
  0
TEXT
  5
13AB
330
13A8
100
AcDbEntity
  8
Level 55
  6
Continuous
 62
     7
370
     0
100
AcDbText
 10
0.815939
 20
6.334579
 30
0.0
 40
0.03
  1
45.72
 41
0.916667
  7
Style-WORKING
 11
0.815939
 21
6.349579
 31
0.0
100
AcDbText
 73
     2
  0
LINE
  5
13AC
330
13A8
100
AcDbEntity
  8
Level 55
  6
Continuous
 62
     7
370
     0
100
AcDbLine
 10
0.815939
 20
6.379579
 30
0.0
 11
0.932197
 21
6.379579
 31
0.0
  0
LINE
  5
13AD
330
13A8
100
AcDbEntity
  8
Level 55
  6
Continuous
 62
     7
370
     0
100
AcDbLine
 10
1.894721
 20
6.379579
 30
0.0
 11
0.094721
 21
6.379579
 31
0.0
  0
SOLID
  5
13AE
330
13A8
100
AcDbEntity
  8
Level 55
  6
Continuous
 62
     7
370
     0
100
AcDbTrace
 10
-1.849721
 20
6.387079
 30
0.0
 11
-1.894721
 21
6.379579
 31
0.0
 12
-1.849721
 22
6.372079
 32
0.0
 13
-1.849721
 23
6.372079
 33
0.0
210
0.0
220
0.0
230
-1.0
  0
SOLID
  5
13AF
330
13A8
100
AcDbEntity
  8
Level 55
  6
Continuous
 62
     7
370
     0
100
AcDbTrace
 10
0.139721
 20
6.372079
 30
0.0
 11
0.094721
 21
6.379579
 31
0.0
 12
0.139721
 22
6.387079
 32
0.0
 13
0.139721
 23
6.387079
 33
0.0
  0
LINE
  5
13B0
330
13A8
100
AcDbEntity
  8
Level 55
  6
Continuous
 62
     7
370
     0
100
AcDbLine
 10
1.894721
 20
5.94621
 30
0.0
 11
1.894721
 21
6.394579
 31
0.0
  0
LINE
  5
13B1
330
13A8
100
AcDbEntity
  8
Level 55
  6
Continuous
 62
     7
370
     0
100
AcDbLine
 10
0.094721
 20
5.94621
 30
0.0
 11
0.094721
 21
6.394579
 31
0.0
  0
POINT
  5
13B5
330
13A8
100
AcDbEntity
  8
Defpoints
  6
Continuous
 62
     7
370
     0
100
AcDbPoint
 10
0.094721
 20
6.379579
 30
0.0
  0
POINT
  5
13B6
330
13A8
100
AcDbEntity
  8
Defpoints
  6
Continuous
 62
     7
370
     0
100
AcDbPoint
 10
1.894721
 20
5.92821
 30
0.0
  0
POINT
  5
13B7
330
13A8
100
AcDbEntity
  8
Defpoints
  6
Continuous
 62
     7
370
     0
100
AcDbPoint
 10
0.094721
 20
5.92821
 30
0.0
  0
POINT
  5
13B8
330
13A8
100
AcDbEntity
  8
Defpoints
  6
Continuous
 62
     7
370
     0
100
AcDbPoint
 10
0.874068
 20
6.379579
 30
0.0
  0
ENDBLK
  5
13B3
330
13A8
100
AcDbEntity
  8
0
 62
     7
370
     0
100
AcDbBlockEnd
  0
BLOCK
  5
13BA
330
13B9
100
AcDbEntity
  8
0
 62
     7
370
     0
100
AcDbBlockBegin
  2
*D3
 70
     1
 10
0.0
 20
0.0
 30
0.0
  3
*D3
  1

  0
LINE
  5
1971
330
13B9
100
AcDbEntity
  8
Level 55
  6
Continuous
 62
     0
370
    -2
100
AcDbLine
 10
1.894721
 20
5.94621
 30
0.0
 11
1.894721
 21
6.394579
 31
0.0
  0
LINE
  5
1972
330
13B9
100
AcDbEntity
  8
Level 55
  6
Continuous
 62
     0
370
    -2
100
AcDbLine
 10
0.094721
 20
5.94621
 30
0.0
 11
0.094721
 21
6.394579
 31
0.0
  0
LINE
  5
1973
330
13B9
100
AcDbEntity
  8
Level 55
  6
Continuous
 62
     0
370
    -2
100
AcDbLine
 10
1.849721
 20
6.379579
 30
0.0
 11
0.973316
 21
6.379579
 31
0.0
  0
LINE
  5
1974
330
13B9
100
AcDbEntity
  8
Level 55
  6
Continuous
 62
     0
370
    -2
100
AcDbLine
 10
0.139721
 20
6.379579
 30
0.0
 11
0.77482
 21
6.379579
 31
0.0
  0
SOLID
  5
1975
330
13B9
100
AcDbEntity
  8
Level 55
  6
Continuous
 62
     0
370
     0
100
AcDbTrace
 10
1.849721
 20
6.387079
 30
0.0
 11
1.849721
 21
6.372079
 31
0.0
 12
1.894721
 22
6.379579
 32
0.0
 13
1.894721
 23
6.379579
 33
0.0
  0
SOLID
  5
1976
330
13B9
100
AcDbEntity
  8
Level 55
  6
Continuous
 62
     0
370
     0
100
AcDbTrace
 10
0.139721
 20
6.387079
 30
0.0
 11
0.139721
 21
6.372079
 31
0.0
 12
0.094721
 22
6.379579
 32
0.0
 13
0.094721
 23
6.379579
 33
0.0
  0
MTEXT
  5
1977
330
13B9
100
AcDbEntity
  8
Level 55
  6
Continuous
 62
     0
370
     0
100
AcDbMText
 10
0.874068
 20
6.379579
 30
0.0
 40
0.03
 41
0.0
 46
0.0
 71
     5
 72
     1
  1
\H1x;\W0.916667;1.800\P [45.72]\H1x;\W0.916667;
  7
Style-WORKING
 73
     1
 44
1.0
  0
POINT
  5
1978
330
13B9
100
AcDbEntity
  8
Defpoints
  6
Continuous
 62
     0
370
     0
100
AcDbPoint
 10
1.894721
 20
5.92821
 30
0.0
  0
POINT
  5
1979
330
13B9
100
AcDbEntity
  8
Defpoints
  6
Continuous
 62
     0
370
     0
100
AcDbPoint
 10
0.094721
 20
5.92821
 30
0.0
  0
POINT
  5
197A
330
13B9
100
AcDbEntity
  8
Defpoints
  6
Continuous
 62
     0
370
     0
100
AcDbPoint
 10
0.094721
 20
6.379579
 30
0.0
  0
ENDBLK
  5
13BB
330
13B9
100
AcDbEntity
  8
0
 62
     7
370
     0
100
AcDbBlockEnd
  0
BLOCK
  5
13CF
330
13C6
100
AcDbEntity
  8
0
 62
     7
370
     0
100
AcDbBlockBegin
  2
*D4
 70
     1
 10
0.0
 20
0.0
 30
0.0
  3
*D4
  1

  0
TEXT
  5
13C7
330
13C6
100
AcDbEntity
  8
Level 55
  6
Continuous
 62
     7
370
     0
100
AcDbText
 10
1.685742
 20
6.275483
 30
0.0
 40
0.03
  1
.275
 41
0.916667
  7
Style-WORKING
 11
1.685742
 21
6.290483
 31
0.0
100
AcDbText
 73
     2
  0
TEXT
  5
13C8
330
13C6
100
AcDbEntity
  8
Level 55
  6
Continuous
 62
     7
370
     0
100
AcDbText
 10
1.687805
 20
6.215483
 30
0.0
 40
0.03
  1
6.99
 41
0.916667
  7
Style-WORKING
 11
1.687805
 21
6.230483
 31
0.0
100
AcDbText
 73
     2
  0
LINE
  5
13C9
330
13C6
100
AcDbEntity
  8
Level 55
  6
Continuous
 62
     7
370
     0
100
AcDbLine
 10
1.685742
 20
6.260483
 30
0.0
 11
1.773203
 21
6.260483
 31
0.0
  0
LINE
  5
13CA
330
13C6
100
AcDbEntity
  8
Level 55
  6
Continuous
 62
     7
370
     0
100
AcDbLine
 10
1.894721
 20
6.260483
 30
0.0
 11
1.619721
 21
6.260483
 31
0.0
  0
SOLID
  5
13CB
330
13C6
100
AcDbEntity
  8
Level 55
  6
Continuous
 62
     7
370
     0
100
AcDbTrace
 10
-1.849721
 20
6.267983
 30
0.0
 11
-1.894721
 21
6.260483
 31
0.0
 12
-1.849721
 22
6.252983
 32
0.0
 13
-1.849721
 23
6.252983
 33
0.0
210
0.0
220
0.0
230
-1.0
  0
SOLID
  5
13CC
330
13C6
100
AcDbEntity
  8
Level 55
  6
Continuous
 62
     7
370
     0
100
AcDbTrace
 10
1.664721
 20
6.252983
 30
0.0
 11
1.619721
 21
6.260483
 31
0.0
 12
1.664721
 22
6.267983
 32
0.0
 13
1.664721
 23
6.267983
 33
0.0
  0
LINE
  5
13CD
330
13C6
100
AcDbEntity
  8
Level 55
  6
Continuous
 62
     7
370
     0
100
AcDbLine
 10
1.894721
 20
5.94621
 30
0.0
 11
1.894721
 21
6.275483
 31
0.0
  0
LINE
  5
13CE
330
13C6
100
AcDbEntity
  8
Level 55
  6
Continuous
 62
     7
370
     0
100
AcDbLine
 10
1.619721
 20
6.04621
 30
0.0
 11
1.619721
 21
6.275483
 31
0.0
  0
POINT
  5
13D1
330
13C6
100
AcDbEntity
  8
Defpoints
  6
Continuous
 62
     7
370
     0
100
AcDbPoint
 10
1.619721
 20
6.260483
 30
0.0
  0
POINT
  5
13D2
330
13C6
100
AcDbEntity
  8
Defpoints
  6
Continuous
 62
     7
370
     0
100
AcDbPoint
 10
1.894721
 20
5.92821
 30
0.0
  0
POINT
  5
13D3
330
13C6
100
AcDbEntity
  8
Defpoints
  6
Continuous
 62
     7
370
     0
100
AcDbPoint
 10
1.619721
 20
6.02821
 30
0.0
  0
POINT
  5
13D4
330
13C6
100
AcDbEntity
  8
Defpoints
  6
Continuous
 62
     7
370
     0
100
AcDbPoint
 10
1.729472
 20
6.260483
 30
0.0
  0
ENDBLK
  5
13D0
330
13C6
100
AcDbEntity
  8
0
 62
     7
370
     0
100
AcDbBlockEnd
  0
BLOCK
  5
13D6
330
13D5
100
AcDbEntity
  8
0
 62
     7
370
     0
100
AcDbBlockBegin
  2
*D5
 70
     1
 10
0.0
 20
0.0
 30
0.0
  3
*D5
  1

  0
LINE
  5
197B
330
13D5
100
AcDbEntity
  8
Level 55
  6
Continuous
 62
     0
370
    -2
100
AcDbLine
 10
1.894721
 20
5.94621
 30
0.0
 11
1.894721
 21
6.275483
 31
0.0
  0
LINE
  5
197C
330
13D5
100
AcDbEntity
  8
Level 55
  6
Continuous
 62
     0
370
    -2
100
AcDbLine
 10
1.619721
 20
6.04621
 30
0.0
 11
1.619721
 21
6.275483
 31
0.0
  0
LINE
  5
197D
330
13D5
100
AcDbEntity
  8
Level 55
  6
Continuous
 62
     0
370
    -2
100
AcDbLine
 10
1.939721
 20
6.260483
 30
0.0
 11
1.984721
 21
6.260483
 31
0.0
  0
LINE
  5
197E
330
13D5
100
AcDbEntity
  8
Level 55
  6
Continuous
 62
     0
370
    -2
100
AcDbLine
 10
1.574721
 20
6.260483
 30
0.0
 11
1.529721
 21
6.260483
 31
0.0
  0
SOLID
  5
197F
330
13D5
100
AcDbEntity
  8
Level 55
  6
Continuous
 62
     0
370
     0
100
AcDbTrace
 10
1.939721
 20
6.267983
 30
0.0
 11
1.939721
 21
6.252983
 31
0.0
 12
1.894721
 22
6.260483
 32
0.0
 13
1.894721
 23
6.260483
 33
0.0
  0
SOLID
  5
1980
330
13D5
100
AcDbEntity
  8
Level 55
  6
Continuous
 62
     0
370
     0
100
AcDbTrace
 10
1.574721
 20
6.267983
 30
0.0
 11
1.574721
 21
6.252983
 31
0.0
 12
1.619721
 22
6.260483
 32
0.0
 13
1.619721
 23
6.260483
 33
0.0
  0
MTEXT
  5
1981
330
13D5
100
AcDbEntity
  8
Level 55
  6
Continuous
 62
     0
370
     0
100
AcDbMText
 10
1.729472
 20
6.260483
 30
0.0
 40
0.03
 41
0.0
 46
0.0
 71
     5
 72
     1
  1
\H1x;\W0.916667;.275\P [6.99]\H1x;\W0.916667;
  7
Style-WORKING
 73
     1
 44
1.0
  0
POINT
  5
1982
330
13D5
100
AcDbEntity
  8
Defpoints
  6
Continuous
 62
     0
370
     0
100
AcDbPoint
 10
1.894721
 20
5.92821
 30
0.0
  0
POINT
  5
1983
330
13D5
100
AcDbEntity
  8
Defpoints
  6
Continuous
 62
     0
370
     0
100
AcDbPoint
 10
1.619721
 20
6.02821
 30
0.0
  0
POINT
  5
1984
330
13D5
100
AcDbEntity
  8
Defpoints
  6
Continuous
 62
     0
370
     0
100
AcDbPoint
 10
1.619721
 20
6.260483
 30
0.0
  0
ENDBLK
  5
13D7
330
13D5
100
AcDbEntity
  8
0
 62
     7
370
     0
100
AcDbBlockEnd
  0
BLOCK
  5
13EC
330
13E2
100
AcDbEntity
  8
0
 62
     7
370
     0
100
AcDbBlockBegin
  2
*D6
 70
     1
 10
0.0
 20
0.0
 30
0.0
  3
*D6
  1

  0
TEXT
  5
13E3
330
13E2
100
AcDbEntity
  8
Level 55
  6
Continuous
 62
     7
370
     0
100
AcDbText
 10
1.990061
 20
6.170688
 30
0.0
 40
0.03
  1
.100 TYP
 41
0.916667
  7
Style-WORKING
 11
1.990061
 21
6.185688
 31
0.0
100
AcDbText
 73
     2
  0
TEXT
  5
13E4
330
13E2
100
AcDbEntity
  8
Level 55
  6
Continuous
 62
     7
370
     0
100
AcDbText
 10
2.03942
 20
6.110688
 30
0.0
 40
0.03
  1
2.54
 41
0.916667
  7
Style-WORKING
 11
2.03942
 21
6.125688
 31
0.0
100
AcDbText
 73
     2
  0
LINE
  5
13E5
330
13E2
100
AcDbEntity
  8
Level 55
  6
Continuous
 62
     7
370
     0
100
AcDbLine
 10
1.990061
 20
6.155688
 30
0.0
 11
2.177331
 21
6.155688
 31
0.0
  0
LINE
  5
13E6
330
13E2
100
AcDbEntity
  8
Level 55
  6
Continuous
 62
     7
370
     0
100
AcDbLine
 10
2.083696
 20
5.85946
 30
0.0
 11
2.083696
 21
5.92821
 31
0.0
  0
LINE
  5
13E7
330
13E2
100
AcDbEntity
  8
Level 55
  6
Continuous
 62
     7
370
     0
100
AcDbLine
 10
2.083696
 20
6.101688
 30
0.0
 11
2.083696
 21
6.02821
 31
0.0
  0
SOLID
  5
13E8
330
13E2
100
AcDbEntity
  8
Level 55
  6
Continuous
 62
     7
370
     0
100
AcDbTrace
 10
-2.076196
 20
5.88321
 30
0.0
 11
-2.083696
 21
5.92821
 31
0.0
 12
-2.091196
 22
5.88321
 32
0.0
 13
-2.091196
 23
5.88321
 33
0.0
210
0.0
220
0.0
230
-1.0
  0
SOLID
  5
13E9
330
13E2
100
AcDbEntity
  8
Level 55
  6
Continuous
 62
     7
370
     0
100
AcDbTrace
 10
2.091196
 20
6.07321
 30
0.0
 11
2.083696
 21
6.02821
 31
0.0
 12
2.076196
 22
6.07321
 32
0.0
 13
2.076196
 23
6.07321
 33
0.0
  0
LINE
  5
13EA
330
13E2
100
AcDbEntity
  8
Level 55
  6
Continuous
 62
     7
370
     0
100
AcDbLine
 10
1.98668
 20
5.92821
 30
0.0
 11
2.098696
 21
5.92821
 31
0.0
  0
LINE
  5
13EB
330
13E2
100
AcDbEntity
  8
Level 55
  6
Continuous
 62
     7
370
     0
100
AcDbLine
 10
1.637721
 20
6.02821
 30
0.0
 11
2.098696
 21
6.02821
 31
0.0
  0
POINT
  5
13EE
330
13E2
100
AcDbEntity
  8
Defpoints
  6
Continuous
 62
     7
370
     0
100
AcDbPoint
 10
2.083696
 20
6.02821
 30
0.0
  0
POINT
  5
13EF
330
13E2
100
AcDbEntity
  8
Defpoints
  6
Continuous
 62
     7
370
     0
100
AcDbPoint
 10
1.96868
 20
5.92821
 30
0.0
  0
POINT
  5
13F0
330
13E2
100
AcDbEntity
  8
Defpoints
  6
Continuous
 62
     7
370
     0
100
AcDbPoint
 10
1.619721
 20
6.02821
 30
0.0
  0
POINT
  5
13F1
330
13E2
100
AcDbEntity
  8
Defpoints
  6
Continuous
 62
     7
370
     0
100
AcDbPoint
 10
2.083696
 20
6.155688
 30
0.0
  0
ENDBLK
  5
13ED
330
13E2
100
AcDbEntity
  8
0
 62
     7
370
     0
100
AcDbBlockEnd
  0
BLOCK
  5
13F3
330
13F2
100
AcDbEntity
  8
0
 62
     7
370
     0
100
AcDbBlockBegin
  2
*D7
 70
     1
 10
0.0
 20
0.0
 30
0.0
  3
*D7
  1

  0
LINE
  5
1512
330
13F2
100
AcDbEntity
  8
Level 55
  6
Continuous
 62
     0
370
    -2
100
AcDbLine
 10
1.95068
 20
5.92821
 30
0.0
 11
1.882107
 21
5.92821
 31
0.0
  0
LINE
  5
1513
330
13F2
100
AcDbEntity
  8
Level 55
  6
Continuous
 62
     0
370
    -2
100
AcDbLine
 10
1.637721
 20
6.02821
 30
0.0
 11
1.912107
 21
6.02821
 31
0.0
  0
LINE
  5
1514
330
13F2
100
AcDbEntity
  8
Level 55
  6
Continuous
 62
     0
370
    -2
100
AcDbLine
 10
1.897107
 20
5.88321
 30
0.0
 11
1.897107
 21
5.83821
 31
0.0
  0
LINE
  5
1515
330
13F2
100
AcDbEntity
  8
Level 55
  6
Continuous
 62
     0
370
    -2
100
AcDbLine
 10
1.897107
 20
6.07321
 30
0.0
 11
1.897107
 21
6.155688
 31
0.0
  0
LINE
  5
1516
330
13F2
100
AcDbEntity
  8
Level 55
  6
Continuous
 62
     0
370
    -2
100
AcDbLine
 10
1.897107
 20
6.155688
 30
0.0
 11
1.942107
 21
6.155688
 31
0.0
  0
SOLID
  5
1517
330
13F2
100
AcDbEntity
  8
Level 55
  6
Continuous
 62
     0
370
     0
100
AcDbTrace
 10
1.889607
 20
5.88321
 30
0.0
 11
1.904607
 21
5.88321
 31
0.0
 12
1.897107
 22
5.92821
 32
0.0
 13
1.897107
 23
5.92821
 33
0.0
  0
SOLID
  5
1518
330
13F2
100
AcDbEntity
  8
Level 55
  6
Continuous
 62
     0
370
     0
100
AcDbTrace
 10
1.889607
 20
6.07321
 30
0.0
 11
1.904607
 21
6.07321
 31
0.0
 12
1.897107
 22
6.02821
 32
0.0
 13
1.897107
 23
6.02821
 33
0.0
  0
MTEXT
  5
1519
330
13F2
100
AcDbEntity
  8
Level 55
  6
Continuous
 62
     0
370
     0
100
AcDbMText
 10
2.083696
 20
6.155688
 30
0.0
 40
0.03
 41
0.0
 46
0.0
 71
     5
 72
     1
  1
\H1x;\W0.916667;.100\P [2.54] TYP\H1x;\W0.916667;
  7
Style-WORKING
 73
     1
 44
1.0
  0
POINT
  5
151A
330
13F2
100
AcDbEntity
  8
Defpoints
  6
Continuous
 62
     0
370
     0
100
AcDbPoint
 10
1.96868
 20
5.92821
 30
0.0
  0
POINT
  5
151B
330
13F2
100
AcDbEntity
  8
Defpoints
  6
Continuous
 62
     0
370
     0
100
AcDbPoint
 10
1.619721
 20
6.02821
 30
0.0
  0
POINT
  5
151C
330
13F2
100
AcDbEntity
  8
Defpoints
  6
Continuous
 62
     0
370
     0
100
AcDbPoint
 10
1.897107
 20
6.02821
 30
0.0
  0
ENDBLK
  5
13F4
330
13F2
100
AcDbEntity
  8
0
 62
     7
370
     0
100
AcDbBlockEnd
  0
BLOCK
  5
140A
330
1400
100
AcDbEntity
  8
0
 62
     7
370
     0
100
AcDbBlockBegin
  2
*D8
 70
     1
 10
0.0
 20
0.0
 30
0.0
  3
*D8
  1

  0
TEXT
  5
1401
330
1400
100
AcDbEntity
  8
Level 55
  6
Continuous
 62
     7
370
     0
100
AcDbText
 10
1.773664
 20
5.342562
 30
0.0
 40
0.03
  1
.050
 41
0.916667
  7
Style-WORKING
 11
1.773664
 21
5.357562
 31
0.0
100
AcDbText
 73
     2
  0
TEXT
  5
1402
330
1400
100
AcDbEntity
  8
Level 55
  6
Continuous
 62
     7
370
     0
100
AcDbText
 10
1.779293
 20
5.282562
 30
0.0
 40
0.03
  1
1.27
 41
0.916667
  7
Style-WORKING
 11
1.779293
 21
5.297562
 31
0.0
100
AcDbText
 73
     2
  0
LINE
  5
1403
330
1400
100
AcDbEntity
  8
Level 55
  6
Continuous
 62
     7
370
     0
100
AcDbLine
 10
1.773664
 20
5.327562
 30
0.0
 11
1.860478
 21
5.327562
 31
0.0
  0
LINE
  5
1404
330
1400
100
AcDbEntity
  8
Level 55
  6
Continuous
 62
     7
370
     0
100
AcDbLine
 10
1.764664
 20
5.327562
 30
0.0
 11
1.619721
 21
5.327562
 31
0.0
  0
LINE
  5
1405
330
1400
100
AcDbEntity
  8
Level 55
  6
Continuous
 62
     7
370
     0
100
AcDbLine
 10
1.500971
 20
5.327562
 30
0.0
 11
1.569721
 21
5.327562
 31
0.0
  0
SOLID
  5
1406
330
1400
100
AcDbEntity
  8
Level 55
  6
Continuous
 62
     7
370
     0
100
AcDbTrace
 10
1.664721
 20
5.320062
 30
0.0
 11
1.619721
 21
5.327562
 31
0.0
 12
1.664721
 22
5.335062
 32
0.0
 13
1.664721
 23
5.335062
 33
0.0
  0
SOLID
  5
1407
330
1400
100
AcDbEntity
  8
Level 55
  6
Continuous
 62
     7
370
     0
100
AcDbTrace
 10
-1.524721
 20
5.335062
 30
0.0
 11
-1.569721
 21
5.327562
 31
0.0
 12
-1.524721
 22
5.320062
 32
0.0
 13
-1.524721
 23
5.320062
 33
0.0
210
0.0
220
0.0
230
-1.0
  0
LINE
  5
1408
330
1400
100
AcDbEntity
  8
Level 55
  6
Continuous
 62
     7
370
     0
100
AcDbLine
 10
1.619721
 20
6.01021
 30
0.0
 11
1.619721
 21
5.312562
 31
0.0
  0
LINE
  5
1409
330
1400
100
AcDbEntity
  8
Level 55
  6
Continuous
 62
     7
370
     0
100
AcDbLine
 10
1.569721
 20
5.51021
 30
0.0
 11
1.569721
 21
5.312562
 31
0.0
  0
POINT
  5
140C
330
1400
100
AcDbEntity
  8
Defpoints
  6
Continuous
 62
     7
370
     0
100
AcDbPoint
 10
1.569721
 20
5.327562
 30
0.0
  0
POINT
  5
140D
330
1400
100
AcDbEntity
  8
Defpoints
  6
Continuous
 62
     7
370
     0
100
AcDbPoint
 10
1.619721
 20
6.02821
 30
0.0
  0
POINT
  5
140E
330
1400
100
AcDbEntity
  8
Defpoints
  6
Continuous
 62
     7
370
     0
100
AcDbPoint
 10
1.569721
 20
5.52821
 30
0.0
  0
POINT
  5
140F
330
1400
100
AcDbEntity
  8
Defpoints
  6
Continuous
 62
     7
370
     0
100
AcDbPoint
 10
1.817071
 20
5.327562
 30
0.0
  0
ENDBLK
  5
140B
330
1400
100
AcDbEntity
  8
0
 62
     7
370
     0
100
AcDbBlockEnd
  0
BLOCK
  5
1411
330
1410
100
AcDbEntity
  8
0
 62
     7
370
     0
100
AcDbBlockBegin
  2
*D9
 70
     1
 10
0.0
 20
0.0
 30
0.0
  3
*D9
  1

  0
LINE
  5
1985
330
1410
100
AcDbEntity
  8
Level 55
  6
Continuous
 62
     0
370
    -2
100
AcDbLine
 10
1.619721
 20
6.01021
 30
0.0
 11
1.619721
 21
5.312562
 31
0.0
  0
LINE
  5
1986
330
1410
100
AcDbEntity
  8
Level 55
  6
Continuous
 62
     0
370
    -2
100
AcDbLine
 10
1.569721
 20
5.51021
 30
0.0
 11
1.569721
 21
5.312562
 31
0.0
  0
LINE
  5
1987
330
1410
100
AcDbEntity
  8
Level 55
  6
Continuous
 62
     0
370
    -2
100
AcDbLine
 10
1.524721
 20
5.327562
 30
0.0
 11
1.479721
 21
5.327562
 31
0.0
  0
LINE
  5
1988
330
1410
100
AcDbEntity
  8
Level 55
  6
Continuous
 62
     0
370
    -2
100
AcDbLine
 10
1.664721
 20
5.327562
 30
0.0
 11
1.73823
 21
5.327562
 31
0.0
  0
SOLID
  5
1989
330
1410
100
AcDbEntity
  8
Level 55
  6
Continuous
 62
     0
370
     0
100
AcDbTrace
 10
1.524721
 20
5.335062
 30
0.0
 11
1.524721
 21
5.320062
 31
0.0
 12
1.569721
 22
5.327562
 32
0.0
 13
1.569721
 23
5.327562
 33
0.0
  0
SOLID
  5
198A
330
1410
100
AcDbEntity
  8
Level 55
  6
Continuous
 62
     0
370
     0
100
AcDbTrace
 10
1.664721
 20
5.335062
 30
0.0
 11
1.664721
 21
5.320062
 31
0.0
 12
1.619721
 22
5.327562
 32
0.0
 13
1.619721
 23
5.327562
 33
0.0
  0
MTEXT
  5
198B
330
1410
100
AcDbEntity
  8
Level 55
  6
Continuous
 62
     0
370
     0
100
AcDbMText
 10
1.817071
 20
5.327562
 30
0.0
 40
0.03
 41
0.0
 46
0.0
 71
     5
 72
     1
  1
\H1x;\W0.916667;.050\P [1.27]\H1x;\W0.916667;
  7
Style-WORKING
 73
     1
 44
1.0
  0
POINT
  5
198C
330
1410
100
AcDbEntity
  8
Defpoints
  6
Continuous
 62
     0
370
     0
100
AcDbPoint
 10
1.619721
 20
6.02821
 30
0.0
  0
POINT
  5
198D
330
1410
100
AcDbEntity
  8
Defpoints
  6
Continuous
 62
     0
370
     0
100
AcDbPoint
 10
1.569721
 20
5.52821
 30
0.0
  0
POINT
  5
198E
330
1410
100
AcDbEntity
  8
Defpoints
  6
Continuous
 62
     0
370
     0
100
AcDbPoint
 10
1.569721
 20
5.327562
 30
0.0
  0
ENDBLK
  5
1412
330
1410
100
AcDbEntity
  8
0
 62
     7
370
     0
100
AcDbBlockEnd
  0
BLOCK
  5
1427
330
141D
100
AcDbEntity
  8
0
 62
     7
370
     0
100
AcDbBlockBegin
  2
*D10
 70
     1
 10
0.0
 20
0.0
 30
0.0
  3
*D10
  1

  0
TEXT
  5
141E
330
141D
100
AcDbEntity
  8
Level 55
  6
Continuous
 62
     7
370
     0
100
AcDbText
 10
1.224935
 20
5.259195
 30
0.0
 40
0.03
  1
.100 TYP
 41
0.916667
  7
Style-WORKING
 11
1.224935
 21
5.274195
 31
0.0
100
AcDbText
 73
     2
  0
TEXT
  5
141F
330
141D
100
AcDbEntity
  8
Level 55
  6
Continuous
 62
     7
370
     0
100
AcDbText
 10
1.274294
 20
5.199195
 30
0.0
 40
0.03
  1
2.54
 41
0.916667
  7
Style-WORKING
 11
1.274294
 21
5.214195
 31
0.0
100
AcDbText
 73
     2
  0
LINE
  5
1420
330
141D
100
AcDbEntity
  8
Level 55
  6
Continuous
 62
     7
370
     0
100
AcDbLine
 10
1.224935
 20
5.244195
 30
0.0
 11
1.412205
 21
5.244195
 31
0.0
  0
LINE
  5
1421
330
141D
100
AcDbEntity
  8
Level 55
  6
Continuous
 62
     7
370
     0
100
AcDbLine
 10
1.688471
 20
5.244195
 30
0.0
 11
1.619721
 21
5.244195
 31
0.0
  0
LINE
  5
1422
330
141D
100
AcDbEntity
  8
Level 55
  6
Continuous
 62
     7
370
     0
100
AcDbLine
 10
1.421205
 20
5.244195
 30
0.0
 11
1.519721
 21
5.244195
 31
0.0
  0
SOLID
  5
1423
330
141D
100
AcDbEntity
  8
Level 55
  6
Continuous
 62
     7
370
     0
100
AcDbTrace
 10
1.664721
 20
5.236695
 30
0.0
 11
1.619721
 21
5.244195
 31
0.0
 12
1.664721
 22
5.251695
 32
0.0
 13
1.664721
 23
5.251695
 33
0.0
  0
SOLID
  5
1424
330
141D
100
AcDbEntity
  8
Level 55
  6
Continuous
 62
     7
370
     0
100
AcDbTrace
 10
-1.474721
 20
5.251695
 30
0.0
 11
-1.519721
 21
5.244195
 31
0.0
 12
-1.474721
 22
5.236695
 32
0.0
 13
-1.474721
 23
5.236695
 33
0.0
210
0.0
220
0.0
230
-1.0
  0
LINE
  5
1425
330
141D
100
AcDbEntity
  8
Level 55
  6
Continuous
 62
     7
370
     0
100
AcDbLine
 10
1.619721
 20
6.01021
 30
0.0
 11
1.619721
 21
5.229195
 31
0.0
  0
LINE
  5
1426
330
141D
100
AcDbEntity
  8
Level 55
  6
Continuous
 62
     7
370
     0
100
AcDbLine
 10
1.519721
 20
5.41021
 30
0.0
 11
1.519721
 21
5.229195
 31
0.0
  0
POINT
  5
1429
330
141D
100
AcDbEntity
  8
Defpoints
  6
Continuous
 62
     7
370
     0
100
AcDbPoint
 10
1.519721
 20
5.244195
 30
0.0
  0
POINT
  5
142A
330
141D
100
AcDbEntity
  8
Defpoints
  6
Continuous
 62
     7
370
     0
100
AcDbPoint
 10
1.619721
 20
6.02821
 30
0.0
  0
POINT
  5
142B
330
141D
100
AcDbEntity
  8
Defpoints
  6
Continuous
 62
     7
370
     0
100
AcDbPoint
 10
1.519721
 20
5.42821
 30
0.0
  0
POINT
  5
142C
330
141D
100
AcDbEntity
  8
Defpoints
  6
Continuous
 62
     7
370
     0
100
AcDbPoint
 10
1.31857
 20
5.244195
 30
0.0
  0
ENDBLK
  5
1428
330
141D
100
AcDbEntity
  8
0
 62
     7
370
     0
100
AcDbBlockEnd
  0
BLOCK
  5
142E
330
142D
100
AcDbEntity
  8
0
 62
     7
370
     0
100
AcDbBlockBegin
  2
*D11
 70
     1
 10
0.0
 20
0.0
 30
0.0
  3
*D11
  1

  0
LINE
  5
198F
330
142D
100
AcDbEntity
  8
Level 55
  6
Continuous
 62
     0
370
    -2
100
AcDbLine
 10
1.619721
 20
6.01021
 30
0.0
 11
1.619721
 21
5.229195
 31
0.0
  0
LINE
  5
1990
330
142D
100
AcDbEntity
  8
Level 55
  6
Continuous
 62
     0
370
    -2
100
AcDbLine
 10
1.519721
 20
5.41021
 30
0.0
 11
1.519721
 21
5.229195
 31
0.0
  0
LINE
  5
1991
330
142D
100
AcDbEntity
  8
Level 55
  6
Continuous
 62
     0
370
    -2
100
AcDbLine
 10
1.664721
 20
5.244195
 30
0.0
 11
1.709721
 21
5.244195
 31
0.0
  0
LINE
  5
1992
330
142D
100
AcDbEntity
  8
Level 55
  6
Continuous
 62
     0
370
    -2
100
AcDbLine
 10
1.474721
 20
5.244195
 30
0.0
 11
1.429721
 21
5.244195
 31
0.0
  0
SOLID
  5
1993
330
142D
100
AcDbEntity
  8
Level 55
  6
Continuous
 62
     0
370
     0
100
AcDbTrace
 10
1.664721
 20
5.251695
 30
0.0
 11
1.664721
 21
5.236695
 31
0.0
 12
1.619721
 22
5.244195
 32
0.0
 13
1.619721
 23
5.244195
 33
0.0
  0
SOLID
  5
1994
330
142D
100
AcDbEntity
  8
Level 55
  6
Continuous
 62
     0
370
     0
100
AcDbTrace
 10
1.474721
 20
5.251695
 30
0.0
 11
1.474721
 21
5.236695
 31
0.0
 12
1.519721
 22
5.244195
 32
0.0
 13
1.519721
 23
5.244195
 33
0.0
  0
MTEXT
  5
1995
330
142D
100
AcDbEntity
  8
Level 55
  6
Continuous
 62
     0
370
     0
100
AcDbMText
 10
1.288132
 20
5.244195
 30
0.0
 40
0.03
 41
0.0
 46
0.0
 71
     5
 72
     1
  1
\H1x;\W0.916667;.100\P [2.54] TYP\H1x;\W0.916667;
  7
Style-WORKING
 73
     1
 44
1.0
  0
POINT
  5
1996
330
142D
100
AcDbEntity
  8
Defpoints
  6
Continuous
 62
     0
370
     0
100
AcDbPoint
 10
1.619721
 20
6.02821
 30
0.0
  0
POINT
  5
1997
330
142D
100
AcDbEntity
  8
Defpoints
  6
Continuous
 62
     0
370
     0
100
AcDbPoint
 10
1.519721
 20
5.42821
 30
0.0
  0
POINT
  5
1998
330
142D
100
AcDbEntity
  8
Defpoints
  6
Continuous
 62
     0
370
     0
100
AcDbPoint
 10
1.519721
 20
5.244195
 30
0.0
  0
ENDBLK
  5
142F
330
142D
100
AcDbEntity
  8
0
 62
     7
370
     0
100
AcDbBlockEnd
  0
BLOCK
  5
153C
330
1532
100
AcDbEntity
  8
0
 62
     7
370
     0
100
AcDbBlockBegin
  2
*D12
 70
     1
 10
0.0
 20
0.0
 30
0.0
  3
*D12
  1

  0
LINE
  5
16A4
330
1532
100
AcDbEntity
  8
Level 55
  6
Continuous
 62
     0
370
    -2
100
AcDbLine
 10
1.98668
 20
5.92821
 30
0.0
 11
2.398203
 21
5.92821
 31
0.0
  0
LINE
  5
16A5
330
1532
100
AcDbEntity
  8
Level 55
  6
Continuous
 62
     0
370
    -2
100
AcDbLine
 10
1.637721
 20
6.02821
 30
0.0
 11
2.398203
 21
6.02821
 31
0.0
  0
LINE
  5
16A6
330
1532
100
AcDbEntity
  8
Level 55
  6
Continuous
 62
     0
370
    -2
100
AcDbLine
 10
2.383203
 20
6.07321
 30
0.0
 11
2.383203
 21
6.11821
 31
0.0
  0
LINE
  5
16A7
330
1532
100
AcDbEntity
  8
Level 55
  6
Continuous
 62
     0
370
    -2
100
AcDbLine
 10
2.383203
 20
5.88321
 30
0.0
 11
2.383203
 21
5.697075
 31
0.0
  0
LINE
  5
16A8
330
1532
100
AcDbEntity
  8
Level 55
  6
Continuous
 62
     0
370
    -2
100
AcDbLine
 10
2.383203
 20
5.697075
 30
0.0
 11
2.338203
 21
5.697075
 31
0.0
  0
SOLID
  5
16A9
330
1532
100
AcDbEntity
  8
Level 55
  6
Continuous
 62
     0
370
     0
100
AcDbTrace
 10
2.375703
 20
6.07321
 30
0.0
 11
2.390703
 21
6.07321
 31
0.0
 12
2.383203
 22
6.02821
 32
0.0
 13
2.383203
 23
6.02821
 33
0.0
  0
SOLID
  5
16AA
330
1532
100
AcDbEntity
  8
Level 55
  6
Continuous
 62
     0
370
     0
100
AcDbTrace
 10
2.375703
 20
5.88321
 30
0.0
 11
2.390703
 21
5.88321
 31
0.0
 12
2.383203
 22
5.92821
 32
0.0
 13
2.383203
 23
5.92821
 33
0.0
  0
MTEXT
  5
16AB
330
1532
100
AcDbEntity
  8
Level 55
  6
Continuous
 62
     0
370
     0
100
AcDbMText
 10
2.196614
 20
5.697075
 30
0.0
 40
0.03
 41
0.0
 46
0.0
 71
     5
 72
     1
  1
\H1x;\W0.916667;.100\P [2.54] TYP\H1x;\W0.916667;
  7
Style-WORKING
 73
     1
 44
1.0
  0
POINT
  5
16AC
330
1532
100
AcDbEntity
  8
Defpoints
  6
Continuous
 62
     0
370
     0
100
AcDbPoint
 10
1.96868
 20
5.92821
 30
0.0
  0
POINT
  5
16AD
330
1532
100
AcDbEntity
  8
Defpoints
  6
Continuous
 62
     0
370
     0
100
AcDbPoint
 10
1.619721
 20
6.02821
 30
0.0
  0
POINT
  5
16AE
330
1532
100
AcDbEntity
  8
Defpoints
  6
Continuous
 62
     0
370
     0
100
AcDbPoint
 10
2.383203
 20
6.02821
 30
0.0
  0
ENDBLK
  5
153D
330
1532
100
AcDbEntity
  8
0
 62
     7
370
     0
100
AcDbBlockEnd
  0
BLOCK
  5
16B9
330
16AF
100
AcDbEntity
  8
0
 62
     7
370
     0
100
AcDbBlockBegin
  2
*D13
 70
     1
 10
0.0
 20
0.0
 30
0.0
  3
*D13
  1

  0
LINE
  5
1999
330
16AF
100
AcDbEntity
  8
Level 55
  6
Continuous
 62
     0
370
    -2
100
AcDbLine
 10
1.98668
 20
5.92821
 30
0.0
 11
2.273044
 21
5.92821
 31
0.0
  0
LINE
  5
199A
330
16AF
100
AcDbEntity
  8
Level 55
  6
Continuous
 62
     0
370
    -2
100
AcDbLine
 10
1.637721
 20
6.02821
 30
0.0
 11
2.273044
 21
6.02821
 31
0.0
  0
LINE
  5
199B
330
16AF
100
AcDbEntity
  8
Level 55
  6
Continuous
 62
     0
370
    -2
100
AcDbLine
 10
2.258044
 20
6.07321
 30
0.0
 11
2.258044
 21
6.11821
 31
0.0
  0
LINE
  5
199C
330
16AF
100
AcDbEntity
  8
Level 55
  6
Continuous
 62
     0
370
    -2
100
AcDbLine
 10
2.258044
 20
5.88321
 30
0.0
 11
2.258044
 21
5.697075
 31
0.0
  0
LINE
  5
199D
330
16AF
100
AcDbEntity
  8
Level 55
  6
Continuous
 62
     0
370
    -2
100
AcDbLine
 10
2.258044
 20
5.697075
 30
0.0
 11
2.213044
 21
5.697075
 31
0.0
  0
SOLID
  5
199E
330
16AF
100
AcDbEntity
  8
Level 55
  6
Continuous
 62
     0
370
     0
100
AcDbTrace
 10
2.250544
 20
6.07321
 30
0.0
 11
2.265544
 21
6.07321
 31
0.0
 12
2.258044
 22
6.02821
 32
0.0
 13
2.258044
 23
6.02821
 33
0.0
  0
SOLID
  5
199F
330
16AF
100
AcDbEntity
  8
Level 55
  6
Continuous
 62
     0
370
     0
100
AcDbTrace
 10
2.250544
 20
5.88321
 30
0.0
 11
2.265544
 21
5.88321
 31
0.0
 12
2.258044
 22
5.92821
 32
0.0
 13
2.258044
 23
5.92821
 33
0.0
  0
MTEXT
  5
19A0
330
16AF
100
AcDbEntity
  8
Level 55
  6
Continuous
 62
     0
370
     0
100
AcDbMText
 10
2.071455
 20
5.697075
 30
0.0
 40
0.03
 41
0.0
 46
0.0
 71
     5
 72
     1
  1
\H1x;\W0.916667;.100\P [2.54] TYP\H1x;\W0.916667;
  7
Style-WORKING
 73
     1
 44
1.0
  0
POINT
  5
19A1
330
16AF
100
AcDbEntity
  8
Defpoints
  6
Continuous
 62
     0
370
     0
100
AcDbPoint
 10
1.96868
 20
5.92821
 30
0.0
  0
POINT
  5
19A2
330
16AF
100
AcDbEntity
  8
Defpoints
  6
Continuous
 62
     0
370
     0
100
AcDbPoint
 10
1.619721
 20
6.02821
 30
0.0
  0
POINT
  5
19A3
330
16AF
100
AcDbEntity
  8
Defpoints
  6
Continuous
 62
     0
370
     0
100
AcDbPoint
 10
2.258044
 20
6.02821
 30
0.0
  0
ENDBLK
  5
16BA
330
16AF
100
AcDbEntity
  8
0
 62
     7
370
     0
100
AcDbBlockEnd
  0
BLOCK
  5
1800
330
17FF
100
AcDbEntity
  8
0
 62
     7
370
     0
100
AcDbBlockBegin
  2
st6 footprints11
 70
     4
 71
     1
 10
0.0
 20
0.0
 30
0.0
  3
st6 footprints11
  1
C:\D drive\mstrdwg\pdf catalog drawings\cad files\st6 footprints11.dwg
  0
ENDBLK
  5
1801
330
17FF
100
AcDbEntity
  8
0
 62
     7
370
     0
100
AcDbBlockEnd
  0
BLOCK
  5
1842
330
1841
100
AcDbEntity
  8
0
 62
     7
370
     0
100
AcDbBlockBegin
  2
sd-83626-9000_s01
 70
     4
 71
     1
 10
0.0
 20
0.0
 30
0.0
  3
sd-83626-9000_s01
  1
sd-83626-9000_s01.dwg
  0
ENDBLK
  5
1843
330
1841
100
AcDbEntity
  8
0
 62
     7
370
     0
100
AcDbBlockEnd
  0
BLOCK
  5
1845
330
1844
100
AcDbEntity
  8
0
 62
     7
370
     0
100
AcDbBlockBegin
  2
pg13
 70
     4
 71
     1
 10
0.0
 20
0.0
 30
0.0
  3
pg13
  1
pg13.dwg
  0
ENDBLK
  5
1846
330
1844
100
AcDbEntity
  8
0
 62
     7
370
     0
100
AcDbBlockEnd
  0
BLOCK
  5
19AD
330
19A4
100
AcDbEntity
  8
0
 62
     7
370
     0
100
AcDbBlockBegin
  2
*D17
 70
     1
 10
0.0
 20
0.0
 30
0.0
  3
*D17
  1

  0
LINE
  5
24F6
330
19A4
100
AcDbEntity
  8
Level 1
  6
Continuous
 62
     0
370
    -2
100
AcDbLine
 10
0.040655
 20
5.94621
 30
0.0
 11
0.040655
 21
6.394579
 31
0.0
  0
LINE
  5
24F7
330
19A4
100
AcDbEntity
  8
Level 1
  6
Continuous
 62
     0
370
    -2
100
AcDbLine
 10
1.840655
 20
5.94621
 30
0.0
 11
1.840655
 21
6.394579
 31
0.0
  0
LINE
  5
24F8
330
19A4
100
AcDbEntity
  8
Level 1
  6
Continuous
 62
     0
370
    -2
100
AcDbLine
 10
0.085655
 20
6.379579
 30
0.0
 11
0.953856
 21
6.379579
 31
0.0
  0
LINE
  5
24F9
330
19A4
100
AcDbEntity
  8
Level 1
  6
Continuous
 62
     0
370
    -2
100
AcDbLine
 10
1.795655
 20
6.379579
 30
0.0
 11
1.16876
 21
6.379579
 31
0.0
  0
SOLID
  5
24FA
330
19A4
100
AcDbEntity
  8
Level 1
  6
Continuous
 62
     0
370
     0
100
AcDbTrace
 10
0.085655
 20
6.387079
 30
0.0
 11
0.085655
 21
6.372079
 31
0.0
 12
0.040655
 22
6.379579
 32
0.0
 13
0.040655
 23
6.379579
 33
0.0
  0
SOLID
  5
24FB
330
19A4
100
AcDbEntity
  8
Level 1
  6
Continuous
 62
     0
370
     0
100
AcDbTrace
 10
1.795655
 20
6.387079
 30
0.0
 11
1.795655
 21
6.372079
 31
0.0
 12
1.840655
 22
6.379579
 32
0.0
 13
1.840655
 23
6.379579
 33
0.0
  0
MTEXT
  5
24FC
330
19A4
100
AcDbEntity
  8
Level 1
  6
Continuous
 62
     0
370
     0
100
AcDbMText
 10
1.061308
 20
6.379579
 30
0.0
 40
0.03
 41
0.0
 46
0.0
 71
     5
 72
     1
  1
1.800\P [45.72]
  7
Style-WORKING
 73
     1
 44
1.0
  0
POINT
  5
24FD
330
19A4
100
AcDbEntity
  8
Defpoints
  6
Continuous
 62
     0
370
     0
100
AcDbPoint
 10
0.040655
 20
5.92821
 30
0.0
  0
POINT
  5
24FE
330
19A4
100
AcDbEntity
  8
Defpoints
  6
Continuous
 62
     0
370
     0
100
AcDbPoint
 10
1.840655
 20
5.92821
 30
0.0
  0
POINT
  5
24FF
330
19A4
100
AcDbEntity
  8
Defpoints
  6
Continuous
 62
     0
370
     0
100
AcDbPoint
 10
1.840655
 20
6.379579
 30
0.0
  0
ENDBLK
  5
19AE
330
19A4
100
AcDbEntity
  8
0
 62
     7
370
     0
100
AcDbBlockEnd
  0
BLOCK
  5
19C6
330
19BD
100
AcDbEntity
  8
0
 62
     7
370
     0
100
AcDbBlockBegin
  2
*D18
 70
     1
 10
0.0
 20
0.0
 30
0.0
  3
*D18
  1

  0
LINE
  5
217D
330
19BD
100
AcDbEntity
  8
Level 1
  6
Continuous
 62
     0
370
    -2
100
AcDbLine
 10
0.040655
 20
5.94621
 30
0.0
 11
0.040655
 21
6.275483
 31
0.0
  0
LINE
  5
217E
330
19BD
100
AcDbEntity
  8
Level 1
  6
Continuous
 62
     0
370
    -2
100
AcDbLine
 10
0.315655
 20
6.04621
 30
0.0
 11
0.315655
 21
6.275483
 31
0.0
  0
LINE
  5
217F
330
19BD
100
AcDbEntity
  8
Level 1
  6
Continuous
 62
     0
370
    -2
100
AcDbLine
 10
-0.004345
 20
6.260483
 30
0.0
 11
-0.049345
 21
6.260483
 31
0.0
  0
LINE
  5
2180
330
19BD
100
AcDbEntity
  8
Level 1
  6
Continuous
 62
     0
370
    -2
100
AcDbLine
 10
0.360655
 20
6.260483
 30
0.0
 11
0.405655
 21
6.260483
 31
0.0
  0
SOLID
  5
2181
330
19BD
100
AcDbEntity
  8
Level 1
  6
Continuous
 62
     0
370
     0
100
AcDbTrace
 10
-0.004345
 20
6.267983
 30
0.0
 11
-0.004345
 21
6.252983
 31
0.0
 12
0.040655
 22
6.260483
 32
0.0
 13
0.040655
 23
6.260483
 33
0.0
  0
SOLID
  5
2182
330
19BD
100
AcDbEntity
  8
Level 1
  6
Continuous
 62
     0
370
     0
100
AcDbTrace
 10
0.360655
 20
6.267983
 30
0.0
 11
0.360655
 21
6.252983
 31
0.0
 12
0.315655
 22
6.260483
 32
0.0
 13
0.315655
 23
6.260483
 33
0.0
  0
MTEXT
  5
2183
330
19BD
100
AcDbEntity
  8
Level 1
  6
Continuous
 62
     0
370
     0
100
AcDbMText
 10
0.205904
 20
6.260483
 30
0.0
 40
0.03
 41
0.0
 46
0.0
 71
     5
 72
     1
  1
.275\P [6.99]
  7
Style-WORKING
 73
     1
 44
1.0
  0
POINT
  5
2184
330
19BD
100
AcDbEntity
  8
Defpoints
  6
Continuous
 62
     0
370
     0
100
AcDbPoint
 10
0.040655
 20
5.92821
 30
0.0
  0
POINT
  5
2185
330
19BD
100
AcDbEntity
  8
Defpoints
  6
Continuous
 62
     0
370
     0
100
AcDbPoint
 10
0.315655
 20
6.02821
 30
0.0
  0
POINT
  5
2186
330
19BD
100
AcDbEntity
  8
Defpoints
  6
Continuous
 62
     0
370
     0
100
AcDbPoint
 10
0.315655
 20
6.260483
 30
0.0
  0
ENDBLK
  5
19C7
330
19BD
100
AcDbEntity
  8
0
 62
     7
370
     0
100
AcDbBlockEnd
  0
BLOCK
  5
19E0
330
19D6
100
AcDbEntity
  8
0
 62
     7
370
     0
100
AcDbBlockBegin
  2
*D19
 70
     1
 10
0.0
 20
0.0
 30
0.0
  3
*D19
  1

  0
LINE
  5
1B6D
330
19D6
100
AcDbEntity
  8
Level 1
  6
Continuous
 62
     0
370
    -2
100
AcDbLine
 10
-0.015304
 20
5.92821
 30
0.0
 11
0.076988
 21
5.92821
 31
0.0
  0
LINE
  5
1B6E
330
19D6
100
AcDbEntity
  8
Level 1
  6
Continuous
 62
     0
370
    -2
100
AcDbLine
 10
0.297655
 20
6.02821
 30
0.0
 11
0.046988
 21
6.02821
 31
0.0
  0
LINE
  5
1B6F
330
19D6
100
AcDbEntity
  8
Level 1
  6
Continuous
 62
     0
370
    -2
100
AcDbLine
 10
0.061988
 20
6.07321
 30
0.0
 11
0.061988
 21
6.11821
 31
0.0
  0
LINE
  5
1B70
330
19D6
100
AcDbEntity
  8
Level 1
  6
Continuous
 62
     0
370
    -2
100
AcDbLine
 10
0.061988
 20
5.88321
 30
0.0
 11
0.061988
 21
5.697075
 31
0.0
  0
LINE
  5
1B71
330
19D6
100
AcDbEntity
  8
Level 1
  6
Continuous
 62
     0
370
    -2
100
AcDbLine
 10
0.061988
 20
5.697075
 30
0.0
 11
0.016988
 21
5.697075
 31
0.0
  0
SOLID
  5
1B72
330
19D6
100
AcDbEntity
  8
Level 1
  6
Continuous
 62
     0
370
     0
100
AcDbTrace
 10
0.054488
 20
6.07321
 30
0.0
 11
0.069488
 21
6.07321
 31
0.0
 12
0.061988
 22
6.02821
 32
0.0
 13
0.061988
 23
6.02821
 33
0.0
  0
SOLID
  5
1B73
330
19D6
100
AcDbEntity
  8
Level 1
  6
Continuous
 62
     0
370
     0
100
AcDbTrace
 10
0.054488
 20
5.88321
 30
0.0
 11
0.069488
 21
5.88321
 31
0.0
 12
0.061988
 22
5.92821
 32
0.0
 13
0.061988
 23
5.92821
 33
0.0
  0
MTEXT
  5
1B74
330
19D6
100
AcDbEntity
  8
Level 1
  6
Continuous
 62
     0
370
     0
100
AcDbMText
 10
-0.136655
 20
5.697075
 30
0.0
 40
0.03
 41
0.0
 46
0.0
 71
     5
 72
     1
  1
.100\P [2.54] TYP
  7
Style-WORKING
 73
     1
 44
1.0
  0
POINT
  5
1B75
330
19D6
100
AcDbEntity
  8
Defpoints
  6
Continuous
 62
     0
370
     0
100
AcDbPoint
 10
-0.033304
 20
5.92821
 30
0.0
  0
POINT
  5
1B76
330
19D6
100
AcDbEntity
  8
Defpoints
  6
Continuous
 62
     0
370
     0
100
AcDbPoint
 10
0.315655
 20
6.02821
 30
0.0
  0
POINT
  5
1B77
330
19D6
100
AcDbEntity
  8
Defpoints
  6
Continuous
 62
     0
370
     0
100
AcDbPoint
 10
0.061988
 20
6.02821
 30
0.0
  0
ENDBLK
  5
19E1
330
19D6
100
AcDbEntity
  8
0
 62
     7
370
     0
100
AcDbBlockEnd
  0
BLOCK
  5
19FB
330
19F1
100
AcDbEntity
  8
0
 62
     7
370
     0
100
AcDbBlockBegin
  2
*D20
 70
     1
 10
0.0
 20
0.0
 30
0.0
  3
*D20
  1

  0
LINE
  5
2187
330
19F1
100
AcDbEntity
  8
Level 1
  6
Continuous
 62
     0
370
    -2
100
AcDbLine
 10
0.315655
 20
6.01021
 30
0.0
 11
0.315655
 21
5.312562
 31
0.0
  0
LINE
  5
2188
330
19F1
100
AcDbEntity
  8
Level 1
  6
Continuous
 62
     0
370
    -2
100
AcDbLine
 10
0.365655
 20
5.51021
 30
0.0
 11
0.365655
 21
5.312562
 31
0.0
  0
LINE
  5
2189
330
19F1
100
AcDbEntity
  8
Level 1
  6
Continuous
 62
     0
370
    -2
100
AcDbLine
 10
0.410655
 20
5.327562
 30
0.0
 11
0.455655
 21
5.327562
 31
0.0
  0
LINE
  5
218A
330
19F1
100
AcDbEntity
  8
Level 1
  6
Continuous
 62
     0
370
    -2
100
AcDbLine
 10
0.270655
 20
5.327562
 30
0.0
 11
0.203495
 21
5.327562
 31
0.0
  0
SOLID
  5
218B
330
19F1
100
AcDbEntity
  8
Level 1
  6
Continuous
 62
     0
370
     0
100
AcDbTrace
 10
0.410655
 20
5.335062
 30
0.0
 11
0.410655
 21
5.320062
 31
0.0
 12
0.365655
 22
5.327562
 32
0.0
 13
0.365655
 23
5.327562
 33
0.0
  0
SOLID
  5
218C
330
19F1
100
AcDbEntity
  8
Level 1
  6
Continuous
 62
     0
370
     0
100
AcDbTrace
 10
0.270655
 20
5.335062
 30
0.0
 11
0.270655
 21
5.320062
 31
0.0
 12
0.315655
 22
5.327562
 32
0.0
 13
0.315655
 23
5.327562
 33
0.0
  0
MTEXT
  5
218D
330
19F1
100
AcDbEntity
  8
Level 1
  6
Continuous
 62
     0
370
     0
100
AcDbMText
 10
0.118305
 20
5.327562
 30
0.0
 40
0.03
 41
0.0
 46
0.0
 71
     5
 72
     1
  1
.050\P [1.27]
  7
Style-WORKING
 73
     1
 44
1.0
  0
POINT
  5
218E
330
19F1
100
AcDbEntity
  8
Defpoints
  6
Continuous
 62
     0
370
     0
100
AcDbPoint
 10
0.315655
 20
6.02821
 30
0.0
  0
POINT
  5
218F
330
19F1
100
AcDbEntity
  8
Defpoints
  6
Continuous
 62
     0
370
     0
100
AcDbPoint
 10
0.365655
 20
5.52821
 30
0.0
  0
POINT
  5
2190
330
19F1
100
AcDbEntity
  8
Defpoints
  6
Continuous
 62
     0
370
     0
100
AcDbPoint
 10
0.365655
 20
5.327562
 30
0.0
  0
ENDBLK
  5
19FC
330
19F1
100
AcDbEntity
  8
0
 62
     7
370
     0
100
AcDbBlockEnd
  0
BLOCK
  5
1A15
330
1A0B
100
AcDbEntity
  8
0
 62
     7
370
     0
100
AcDbBlockBegin
  2
*D21
 70
     1
 10
0.0
 20
0.0
 30
0.0
  3
*D21
  1

  0
LINE
  5
2191
330
1A0B
100
AcDbEntity
  8
Level 1
  6
Continuous
 62
     0
370
    -2
100
AcDbLine
 10
0.315655
 20
6.01021
 30
0.0
 11
0.315655
 21
5.229195
 31
0.0
  0
LINE
  5
2192
330
1A0B
100
AcDbEntity
  8
Level 1
  6
Continuous
 62
     0
370
    -2
100
AcDbLine
 10
0.415655
 20
5.41021
 30
0.0
 11
0.415655
 21
5.229195
 31
0.0
  0
LINE
  5
2193
330
1A0B
100
AcDbEntity
  8
Level 1
  6
Continuous
 62
     0
370
    -2
100
AcDbLine
 10
0.270655
 20
5.244195
 30
0.0
 11
0.225655
 21
5.244195
 31
0.0
  0
LINE
  5
2194
330
1A0B
100
AcDbEntity
  8
Level 1
  6
Continuous
 62
     0
370
    -2
100
AcDbLine
 10
0.460655
 20
5.244195
 30
0.0
 11
0.505655
 21
5.244195
 31
0.0
  0
SOLID
  5
2195
330
1A0B
100
AcDbEntity
  8
Level 1
  6
Continuous
 62
     0
370
     0
100
AcDbTrace
 10
0.270655
 20
5.251695
 30
0.0
 11
0.270655
 21
5.236695
 31
0.0
 12
0.315655
 22
5.244195
 32
0.0
 13
0.315655
 23
5.244195
 33
0.0
  0
SOLID
  5
2196
330
1A0B
100
AcDbEntity
  8
Level 1
  6
Continuous
 62
     0
370
     0
100
AcDbTrace
 10
0.460655
 20
5.251695
 30
0.0
 11
0.460655
 21
5.236695
 31
0.0
 12
0.415655
 22
5.244195
 32
0.0
 13
0.415655
 23
5.244195
 33
0.0
  0
MTEXT
  5
2197
330
1A0B
100
AcDbEntity
  8
Level 1
  6
Continuous
 62
     0
370
     0
100
AcDbMText
 10
0.659298
 20
5.244195
 30
0.0
 40
0.03
 41
0.0
 46
0.0
 71
     5
 72
     1
  1
.100\P [2.54] TYP
  7
Style-WORKING
 73
     1
 44
1.0
  0
POINT
  5
2198
330
1A0B
100
AcDbEntity
  8
Defpoints
  6
Continuous
 62
     0
370
     0
100
AcDbPoint
 10
0.315655
 20
6.02821
 30
0.0
  0
POINT
  5
2199
330
1A0B
100
AcDbEntity
  8
Defpoints
  6
Continuous
 62
     0
370
     0
100
AcDbPoint
 10
0.415655
 20
5.42821
 30
0.0
  0
POINT
  5
219A
330
1A0B
100
AcDbEntity
  8
Defpoints
  6
Continuous
 62
     0
370
     0
100
AcDbPoint
 10
0.415655
 20
5.244195
 30
0.0
  0
ENDBLK
  5
1A16
330
1A0B
100
AcDbEntity
  8
0
 62
     7
370
     0
100
AcDbBlockEnd
  0
BLOCK
  5
1B96
330
1B8C
100
AcDbEntity
  8
0
 62
     7
370
     0
100
AcDbBlockBegin
  2
*D22
 70
     1
 10
0.0
 20
0.0
 30
0.0
  3
*D22
  1

  0
LINE
  5
219B
330
1B8C
100
AcDbEntity
  8
Level 1
  6
Continuous
 62
     0
370
    -2
100
AcDbLine
 10
-0.051304
 20
5.92821
 30
0.0
 11
-0.060928
 21
5.92821
 31
0.0
  0
LINE
  5
219C
330
1B8C
100
AcDbEntity
  8
Level 1
  6
Continuous
 62
     0
370
    -2
100
AcDbLine
 10
0.297655
 20
6.02821
 30
0.0
 11
-0.060928
 21
6.02821
 31
0.0
  0
LINE
  5
219D
330
1B8C
100
AcDbEntity
  8
Level 1
  6
Continuous
 62
     0
370
    -2
100
AcDbLine
 10
-0.045928
 20
6.07321
 30
0.0
 11
-0.045928
 21
6.11821
 31
0.0
  0
LINE
  5
219E
330
1B8C
100
AcDbEntity
  8
Level 1
  6
Continuous
 62
     0
370
    -2
100
AcDbLine
 10
-0.045928
 20
5.88321
 30
0.0
 11
-0.045928
 21
5.697075
 31
0.0
  0
LINE
  5
219F
330
1B8C
100
AcDbEntity
  8
Level 1
  6
Continuous
 62
     0
370
    -2
100
AcDbLine
 10
-0.045928
 20
5.697075
 30
0.0
 11
-0.090928
 21
5.697075
 31
0.0
  0
SOLID
  5
21A0
330
1B8C
100
AcDbEntity
  8
Level 1
  6
Continuous
 62
     0
370
     0
100
AcDbTrace
 10
-0.053428
 20
6.07321
 30
0.0
 11
-0.038428
 21
6.07321
 31
0.0
 12
-0.045928
 22
6.02821
 32
0.0
 13
-0.045928
 23
6.02821
 33
0.0
  0
SOLID
  5
21A1
330
1B8C
100
AcDbEntity
  8
Level 1
  6
Continuous
 62
     0
370
     0
100
AcDbTrace
 10
-0.053428
 20
5.88321
 30
0.0
 11
-0.038428
 21
5.88321
 31
0.0
 12
-0.045928
 22
5.92821
 32
0.0
 13
-0.045928
 23
5.92821
 33
0.0
  0
MTEXT
  5
21A2
330
1B8C
100
AcDbEntity
  8
Level 1
  6
Continuous
 62
     0
370
     0
100
AcDbMText
 10
-0.244571
 20
5.697075
 30
0.0
 40
0.03
 41
0.0
 46
0.0
 71
     5
 72
     1
  1
.100\P [2.54] TYP
  7
Style-WORKING
 73
     1
 44
1.0
  0
POINT
  5
21A3
330
1B8C
100
AcDbEntity
  8
Defpoints
  6
Continuous
 62
     0
370
     0
100
AcDbPoint
 10
-0.033304
 20
5.92821
 30
0.0
  0
POINT
  5
21A4
330
1B8C
100
AcDbEntity
  8
Defpoints
  6
Continuous
 62
     0
370
     0
100
AcDbPoint
 10
0.315655
 20
6.02821
 30
0.0
  0
POINT
  5
21A5
330
1B8C
100
AcDbEntity
  8
Defpoints
  6
Continuous
 62
     0
370
     0
100
AcDbPoint
 10
-0.045928
 20
6.02821
 30
0.0
  0
ENDBLK
  5
1B97
330
1B8C
100
AcDbEntity
  8
0
 62
     7
370
     0
100
AcDbBlockEnd
  0
BLOCK
  5
21AF
330
21A6
100
AcDbEntity
  8
0
 62
     7
370
     0
100
AcDbBlockBegin
  2
*D23
 70
     1
 10
0.0
 20
0.0
 30
0.0
  3
*D23
  1

  0
LINE
  5
2500
330
21A6
100
AcDbEntity
  8
Level 1
  6
Continuous
 62
     0
370
    -2
100
AcDbLine
 10
0.040655
 20
5.94621
 30
0.0
 11
0.040655
 21
6.275483
 31
0.0
  0
LINE
  5
2501
330
21A6
100
AcDbEntity
  8
Level 1
  6
Continuous
 62
     0
370
    -2
100
AcDbLine
 10
0.315655
 20
6.04621
 30
0.0
 11
0.315655
 21
6.275483
 31
0.0
  0
LINE
  5
2502
330
21A6
100
AcDbEntity
  8
Level 1
  6
Continuous
 62
     0
370
    -2
100
AcDbLine
 10
-0.004345
 20
6.260483
 30
0.0
 11
-0.049345
 21
6.260483
 31
0.0
  0
LINE
  5
2503
330
21A6
100
AcDbEntity
  8
Level 1
  6
Continuous
 62
     0
370
    -2
100
AcDbLine
 10
0.360655
 20
6.260483
 30
0.0
 11
0.405655
 21
6.260483
 31
0.0
  0
SOLID
  5
2504
330
21A6
100
AcDbEntity
  8
Level 1
  6
Continuous
 62
     0
370
     0
100
AcDbTrace
 10
-0.004345
 20
6.267983
 30
0.0
 11
-0.004345
 21
6.252983
 31
0.0
 12
0.040655
 22
6.260483
 32
0.0
 13
0.040655
 23
6.260483
 33
0.0
  0
SOLID
  5
2505
330
21A6
100
AcDbEntity
  8
Level 1
  6
Continuous
 62
     0
370
     0
100
AcDbTrace
 10
0.360655
 20
6.267983
 30
0.0
 11
0.360655
 21
6.252983
 31
0.0
 12
0.315655
 22
6.260483
 32
0.0
 13
0.315655
 23
6.260483
 33
0.0
  0
MTEXT
  5
2506
330
21A6
100
AcDbEntity
  8
Level 1
  6
Continuous
 62
     0
370
     0
100
AcDbMText
 10
0.16461
 20
6.260483
 30
0.0
 40
0.03
 41
0.0
 46
0.0
 71
     5
 72
     1
  1
.275\P [6.99]
  7
Style-WORKING
 73
     1
 44
1.0
  0
POINT
  5
2507
330
21A6
100
AcDbEntity
  8
Defpoints
  6
Continuous
 62
     0
370
     0
100
AcDbPoint
 10
0.040655
 20
5.92821
 30
0.0
  0
POINT
  5
2508
330
21A6
100
AcDbEntity
  8
Defpoints
  6
Continuous
 62
     0
370
     0
100
AcDbPoint
 10
0.315655
 20
6.02821
 30
0.0
  0
POINT
  5
2509
330
21A6
100
AcDbEntity
  8
Defpoints
  6
Continuous
 62
     0
370
     0
100
AcDbPoint
 10
0.315655
 20
6.260483
 30
0.0
  0
ENDBLK
  5
21B0
330
21A6
100
AcDbEntity
  8
0
 62
     7
370
     0
100
AcDbBlockEnd
  0
BLOCK
  5
21C9
330
21BF
100
AcDbEntity
  8
0
 62
     7
370
     0
100
AcDbBlockBegin
  2
*D24
 70
     1
 10
0.0
 20
0.0
 30
0.0
  3
*D24
  1

  0
LINE
  5
2360
330
21BF
100
AcDbEntity
  8
Level 1
  6
Continuous
 62
     0
370
    -2
100
AcDbLine
 10
-0.015304
 20
5.92821
 30
0.0
 11
0.106215
 21
5.92821
 31
0.0
  0
LINE
  5
2361
330
21BF
100
AcDbEntity
  8
Level 1
  6
Continuous
 62
     0
370
    -2
100
AcDbLine
 10
0.297655
 20
6.02821
 30
0.0
 11
0.076215
 21
6.02821
 31
0.0
  0
LINE
  5
2362
330
21BF
100
AcDbEntity
  8
Level 1
  6
Continuous
 62
     0
370
    -2
100
AcDbLine
 10
0.091215
 20
6.07321
 30
0.0
 11
0.091215
 21
6.11821
 31
0.0
  0
LINE
  5
2363
330
21BF
100
AcDbEntity
  8
Level 1
  6
Continuous
 62
     0
370
    -2
100
AcDbLine
 10
0.091215
 20
5.88321
 30
0.0
 11
0.091215
 21
5.697075
 31
0.0
  0
LINE
  5
2364
330
21BF
100
AcDbEntity
  8
Level 1
  6
Continuous
 62
     0
370
    -2
100
AcDbLine
 10
0.091215
 20
5.697075
 30
0.0
 11
0.046215
 21
5.697075
 31
0.0
  0
SOLID
  5
2365
330
21BF
100
AcDbEntity
  8
Level 1
  6
Continuous
 62
     0
370
     0
100
AcDbTrace
 10
0.083715
 20
6.07321
 30
0.0
 11
0.098715
 21
6.07321
 31
0.0
 12
0.091215
 22
6.02821
 32
0.0
 13
0.091215
 23
6.02821
 33
0.0
  0
SOLID
  5
2366
330
21BF
100
AcDbEntity
  8
Level 1
  6
Continuous
 62
     0
370
     0
100
AcDbTrace
 10
0.083715
 20
5.88321
 30
0.0
 11
0.098715
 21
5.88321
 31
0.0
 12
0.091215
 22
5.92821
 32
0.0
 13
0.091215
 23
5.92821
 33
0.0
  0
MTEXT
  5
2367
330
21BF
100
AcDbEntity
  8
Level 1
  6
Continuous
 62
     0
370
     0
100
AcDbMText
 10
-0.107428
 20
5.697075
 30
0.0
 40
0.03
 41
0.0
 46
0.0
 71
     5
 72
     1
  1
.100\P [2.54] TYP
  7
Style-WORKING
 73
     1
 44
1.0
  0
POINT
  5
2368
330
21BF
100
AcDbEntity
  8
Defpoints
  6
Continuous
 62
     0
370
     0
100
AcDbPoint
 10
-0.033304
 20
5.92821
 30
0.0
  0
POINT
  5
2369
330
21BF
100
AcDbEntity
  8
Defpoints
  6
Continuous
 62
     0
370
     0
100
AcDbPoint
 10
0.315655
 20
6.02821
 30
0.0
  0
POINT
  5
236A
330
21BF
100
AcDbEntity
  8
Defpoints
  6
Continuous
 62
     0
370
     0
100
AcDbPoint
 10
0.091215
 20
6.02821
 30
0.0
  0
ENDBLK
  5
21CA
330
21BF
100
AcDbEntity
  8
0
 62
     7
370
     0
100
AcDbBlockEnd
  0
BLOCK
  5
21E4
330
21DA
100
AcDbEntity
  8
0
 62
     7
370
     0
100
AcDbBlockBegin
  2
*D25
 70
     1
 10
0.0
 20
0.0
 30
0.0
  3
*D25
  1

  0
LINE
  5
236B
330
21DA
100
AcDbEntity
  8
Level 1
  6
Continuous
 62
     0
370
    -2
100
AcDbLine
 10
0.315655
 20
6.01021
 30
0.0
 11
0.315655
 21
5.271872
 31
0.0
  0
LINE
  5
236C
330
21DA
100
AcDbEntity
  8
Level 1
  6
Continuous
 62
     0
370
    -2
100
AcDbLine
 10
0.365655
 20
5.51021
 30
0.0
 11
0.365655
 21
5.271872
 31
0.0
  0
LINE
  5
236D
330
21DA
100
AcDbEntity
  8
Level 1
  6
Continuous
 62
     0
370
    -2
100
AcDbLine
 10
0.270655
 20
5.286872
 30
0.0
 11
0.225655
 21
5.286872
 31
0.0
  0
LINE
  5
236E
330
21DA
100
AcDbEntity
  8
Level 1
  6
Continuous
 62
     0
370
    -2
100
AcDbLine
 10
0.410655
 20
5.286872
 30
0.0
 11
0.475112
 21
5.286872
 31
0.0
  0
SOLID
  5
236F
330
21DA
100
AcDbEntity
  8
Level 1
  6
Continuous
 62
     0
370
     0
100
AcDbTrace
 10
0.270655
 20
5.294372
 30
0.0
 11
0.270655
 21
5.279372
 31
0.0
 12
0.315655
 22
5.286872
 32
0.0
 13
0.315655
 23
5.286872
 33
0.0
  0
SOLID
  5
2370
330
21DA
100
AcDbEntity
  8
Level 1
  6
Continuous
 62
     0
370
     0
100
AcDbTrace
 10
0.410655
 20
5.294372
 30
0.0
 11
0.410655
 21
5.279372
 31
0.0
 12
0.365655
 22
5.286872
 32
0.0
 13
0.365655
 23
5.286872
 33
0.0
  0
MTEXT
  5
2371
330
21DA
100
AcDbEntity
  8
Level 1
  6
Continuous
 62
     0
370
     0
100
AcDbMText
 10
0.560302
 20
5.286872
 30
0.0
 40
0.03
 41
0.0
 46
0.0
 71
     5
 72
     1
  1
.050\P [1.27]
  7
Style-WORKING
 73
     1
 44
1.0
  0
POINT
  5
2372
330
21DA
100
AcDbEntity
  8
Defpoints
  6
Continuous
 62
     0
370
     0
100
AcDbPoint
 10
0.315655
 20
6.02821
 30
0.0
  0
POINT
  5
2373
330
21DA
100
AcDbEntity
  8
Defpoints
  6
Continuous
 62
     0
370
     0
100
AcDbPoint
 10
0.365655
 20
5.52821
 30
0.0
  0
POINT
  5
2374
330
21DA
100
AcDbEntity
  8
Defpoints
  6
Continuous
 62
     0
370
     0
100
AcDbPoint
 10
0.365655
 20
5.286872
 30
0.0
  0
ENDBLK
  5
21E5
330
21DA
100
AcDbEntity
  8
0
 62
     7
370
     0
100
AcDbBlockEnd
  0
BLOCK
  5
21FE
330
21F4
100
AcDbEntity
  8
0
 62
     7
370
     0
100
AcDbBlockBegin
  2
*D26
 70
     1
 10
0.0
 20
0.0
 30
0.0
  3
*D26
  1

  0
LINE
  5
250A
330
21F4
100
AcDbEntity
  8
Level 1
  6
Continuous
 62
     0
370
    -2
100
AcDbLine
 10
0.315655
 20
6.01021
 30
0.0
 11
0.315655
 21
5.177378
 31
0.0
  0
LINE
  5
250B
330
21F4
100
AcDbEntity
  8
Level 1
  6
Continuous
 62
     0
370
    -2
100
AcDbLine
 10
0.415655
 20
5.41021
 30
0.0
 11
0.415655
 21
5.177378
 31
0.0
  0
LINE
  5
250C
330
21F4
100
AcDbEntity
  8
Level 1
  6
Continuous
 62
     0
370
    -2
100
AcDbLine
 10
0.460655
 20
5.192378
 30
0.0
 11
0.505655
 21
5.192378
 31
0.0
  0
LINE
  5
250D
330
21F4
100
AcDbEntity
  8
Level 1
  6
Continuous
 62
     0
370
    -2
100
AcDbLine
 10
0.270655
 20
5.192378
 30
0.0
 11
0.225655
 21
5.192378
 31
0.0
  0
SOLID
  5
250E
330
21F4
100
AcDbEntity
  8
Level 1
  6
Continuous
 62
     0
370
     0
100
AcDbTrace
 10
0.460655
 20
5.199878
 30
0.0
 11
0.460655
 21
5.184878
 31
0.0
 12
0.415655
 22
5.192378
 32
0.0
 13
0.415655
 23
5.192378
 33
0.0
  0
SOLID
  5
250F
330
21F4
100
AcDbEntity
  8
Level 1
  6
Continuous
 62
     0
370
     0
100
AcDbTrace
 10
0.270655
 20
5.199878
 30
0.0
 11
0.270655
 21
5.184878
 31
0.0
 12
0.315655
 22
5.192378
 32
0.0
 13
0.315655
 23
5.192378
 33
0.0
  0
MTEXT
  5
2510
330
21F4
100
AcDbEntity
  8
Level 1
  6
Continuous
 62
     0
370
     0
100
AcDbMText
 10
0.072012
 20
5.192378
 30
0.0
 40
0.03
 41
0.0
 46
0.0
 71
     5
 72
     1
  1
.100\P [2.54] TYP
  7
Style-WORKING
 73
     1
 44
1.0
  0
POINT
  5
2511
330
21F4
100
AcDbEntity
  8
Defpoints
  6
Continuous
 62
     0
370
     0
100
AcDbPoint
 10
0.315655
 20
6.02821
 30
0.0
  0
POINT
  5
2512
330
21F4
100
AcDbEntity
  8
Defpoints
  6
Continuous
 62
     0
370
     0
100
AcDbPoint
 10
0.415655
 20
5.42821
 30
0.0
  0
POINT
  5
2513
330
21F4
100
AcDbEntity
  8
Defpoints
  6
Continuous
 62
     0
370
     0
100
AcDbPoint
 10
0.415655
 20
5.192378
 30
0.0
  0
ENDBLK
  5
21FF
330
21F4
100
AcDbEntity
  8
0
 62
     7
370
     0
100
AcDbBlockEnd
  0
BLOCK
  5
2389
330
237F
100
AcDbEntity
  8
0
 62
     7
370
     0
100
AcDbBlockBegin
  2
*D27
 70
     1
 10
0.0
 20
0.0
 30
0.0
  3
*D27
  1

  0
LINE
  5
2514
330
237F
100
AcDbEntity
  8
Level 1
  6
Continuous
 62
     0
370
    -2
100
AcDbLine
 10
-0.015304
 20
5.92821
 30
0.0
 11
0.375952
 21
5.92821
 31
0.0
  0
LINE
  5
2515
330
237F
100
AcDbEntity
  8
Level 1
  6
Continuous
 62
     0
370
    -2
100
AcDbLine
 10
0.333655
 20
6.02821
 30
0.0
 11
0.375952
 21
6.02821
 31
0.0
  0
LINE
  5
2516
330
237F
100
AcDbEntity
  8
Level 1
  6
Continuous
 62
     0
370
    -2
100
AcDbLine
 10
0.360952
 20
6.07321
 30
0.0
 11
0.360952
 21
6.11821
 31
0.0
  0
LINE
  5
2517
330
237F
100
AcDbEntity
  8
Level 1
  6
Continuous
 62
     0
370
    -2
100
AcDbLine
 10
0.360952
 20
5.88321
 30
0.0
 11
0.360952
 21
5.697075
 31
0.0
  0
LINE
  5
2518
330
237F
100
AcDbEntity
  8
Level 1
  6
Continuous
 62
     0
370
    -2
100
AcDbLine
 10
0.360952
 20
5.697075
 30
0.0
 11
0.315952
 21
5.697075
 31
0.0
  0
SOLID
  5
2519
330
237F
100
AcDbEntity
  8
Level 1
  6
Continuous
 62
     0
370
     0
100
AcDbTrace
 10
0.353452
 20
6.07321
 30
0.0
 11
0.368452
 21
6.07321
 31
0.0
 12
0.360952
 22
6.02821
 32
0.0
 13
0.360952
 23
6.02821
 33
0.0
  0
SOLID
  5
251A
330
237F
100
AcDbEntity
  8
Level 1
  6
Continuous
 62
     0
370
     0
100
AcDbTrace
 10
0.353452
 20
5.88321
 30
0.0
 11
0.368452
 21
5.88321
 31
0.0
 12
0.360952
 22
5.92821
 32
0.0
 13
0.360952
 23
5.92821
 33
0.0
  0
MTEXT
  5
251B
330
237F
100
AcDbEntity
  8
Level 1
  6
Continuous
 62
     0
370
     0
100
AcDbMText
 10
0.162309
 20
5.697075
 30
0.0
 40
0.03
 41
0.0
 46
0.0
 71
     5
 72
     1
  1
.100\P [2.54] TYP
  7
Style-WORKING
 73
     1
 44
1.0
  0
POINT
  5
251C
330
237F
100
AcDbEntity
  8
Defpoints
  6
Continuous
 62
     0
370
     0
100
AcDbPoint
 10
-0.033304
 20
5.92821
 30
0.0
  0
POINT
  5
251D
330
237F
100
AcDbEntity
  8
Defpoints
  6
Continuous
 62
     0
370
     0
100
AcDbPoint
 10
0.315655
 20
6.02821
 30
0.0
  0
POINT
  5
251E
330
237F
100
AcDbEntity
  8
Defpoints
  6
Continuous
 62
     0
370
     0
100
AcDbPoint
 10
0.360952
 20
6.02821
 30
0.0
  0
ENDBLK
  5
238A
330
237F
100
AcDbEntity
  8
0
 62
     7
370
     0
100
AcDbBlockEnd
  0
BLOCK
  5
23A4
330
239A
100
AcDbEntity
  8
0
 62
     7
370
     0
100
AcDbBlockBegin
  2
*D28
 70
     1
 10
0.0
 20
0.0
 30
0.0
  3
*D28
  1

  0
LINE
  5
251F
330
239A
100
AcDbEntity
  8
Level 1
  6
Continuous
 62
     0
370
    -2
100
AcDbLine
 10
0.315655
 20
6.01021
 30
0.0
 11
0.315655
 21
5.271872
 31
0.0
  0
LINE
  5
2520
330
239A
100
AcDbEntity
  8
Level 1
  6
Continuous
 62
     0
370
    -2
100
AcDbLine
 10
0.365655
 20
5.51021
 30
0.0
 11
0.365655
 21
5.271872
 31
0.0
  0
LINE
  5
2521
330
239A
100
AcDbEntity
  8
Level 1
  6
Continuous
 62
     0
370
    -2
100
AcDbLine
 10
0.270655
 20
5.286872
 30
0.0
 11
0.225655
 21
5.286872
 31
0.0
  0
LINE
  5
2522
330
239A
100
AcDbEntity
  8
Level 1
  6
Continuous
 62
     0
370
    -2
100
AcDbLine
 10
0.410655
 20
5.286872
 30
0.0
 11
0.53072
 21
5.286872
 31
0.0
  0
SOLID
  5
2523
330
239A
100
AcDbEntity
  8
Level 1
  6
Continuous
 62
     0
370
     0
100
AcDbTrace
 10
0.270655
 20
5.294372
 30
0.0
 11
0.270655
 21
5.279372
 31
0.0
 12
0.315655
 22
5.286872
 32
0.0
 13
0.315655
 23
5.286872
 33
0.0
  0
SOLID
  5
2524
330
239A
100
AcDbEntity
  8
Level 1
  6
Continuous
 62
     0
370
     0
100
AcDbTrace
 10
0.410655
 20
5.294372
 30
0.0
 11
0.410655
 21
5.279372
 31
0.0
 12
0.365655
 22
5.286872
 32
0.0
 13
0.365655
 23
5.286872
 33
0.0
  0
MTEXT
  5
2525
330
239A
100
AcDbEntity
  8
Level 1
  6
Continuous
 62
     0
370
     0
100
AcDbMText
 10
0.61591
 20
5.286872
 30
0.0
 40
0.03
 41
0.0
 46
0.0
 71
     5
 72
     1
  1
.050\P [1.27]
  7
Style-WORKING
 73
     1
 44
1.0
  0
POINT
  5
2526
330
239A
100
AcDbEntity
  8
Defpoints
  6
Continuous
 62
     0
370
     0
100
AcDbPoint
 10
0.315655
 20
6.02821
 30
0.0
  0
POINT
  5
2527
330
239A
100
AcDbEntity
  8
Defpoints
  6
Continuous
 62
     0
370
     0
100
AcDbPoint
 10
0.365655
 20
5.52821
 30
0.0
  0
POINT
  5
2528
330
239A
100
AcDbEntity
  8
Defpoints
  6
Continuous
 62
     0
370
     0
100
AcDbPoint
 10
0.365655
 20
5.286872
 30
0.0
  0
ENDBLK
  5
23A5
330
239A
100
AcDbEntity
  8
0
 62
     7
370
     0
100
AcDbBlockEnd
  0
ENDSEC
  0
SECTION
  2
ENTITIES
  0
CIRCLE
  5
B67
330
12AE
100
AcDbEntity
  8
Level 1
  6
Continuous
 62
     7
370
     0
100
AcDbCircle
 10
0.365655
 20
6.12821
 30
0.0
 40
0.01
  0
CIRCLE
  5
B68
330
12AE
100
AcDbEntity
  8
Level 1
  6
Continuous
 62
     7
370
     0
100
AcDbCircle
 10
0.465655
 20
6.12821
 30
0.0
 40
0.01
  0
CIRCLE
  5
B69
330
12AE
100
AcDbEntity
  8
Level 1
  6
Continuous
 62
     7
370
     0
100
AcDbCircle
 10
0.565655
 20
6.12821
 30
0.0
 40
0.01
  0
CIRCLE
  5
B6A
330
12AE
100
AcDbEntity
  8
Level 1
  6
Continuous
 62
     7
370
     0
100
AcDbCircle
 10
0.665655
 20
6.12821
 30
0.0
 40
0.01
  0
CIRCLE
  5
B6B
330
12AE
100
AcDbEntity
  8
Level 1
  6
Continuous
 62
     7
370
     0
100
AcDbCircle
 10
0.765655
 20
6.12821
 30
0.0
 40
0.01
  0
CIRCLE
  5
B6C
330
12AE
100
AcDbEntity
  8
Level 1
  6
Continuous
 62
     7
370
     0
100
AcDbCircle
 10
0.865655
 20
6.12821
 30
0.0
 40
0.01
  0
CIRCLE
  5
B6D
330
12AE
100
AcDbEntity
  8
Level 1
  6
Continuous
 62
     7
370
     0
100
AcDbCircle
 10
0.965655
 20
6.12821
 30
0.0
 40
0.01
  0
CIRCLE
  5
B6E
330
12AE
100
AcDbEntity
  8
Level 1
  6
Continuous
 62
     7
370
     0
100
AcDbCircle
 10
1.065655
 20
6.12821
 30
0.0
 40
0.01
  0
CIRCLE
  5
B6F
330
12AE
100
AcDbEntity
  8
Level 1
  6
Continuous
 62
     7
370
     0
100
AcDbCircle
 10
1.165655
 20
6.12821
 30
0.0
 40
0.01
  0
CIRCLE
  5
B70
330
12AE
100
AcDbEntity
  8
Level 1
  6
Continuous
 62
     7
370
     0
100
AcDbCircle
 10
1.265655
 20
6.12821
 30
0.0
 40
0.01
  0
CIRCLE
  5
B71
330
12AE
100
AcDbEntity
  8
Level 1
  6
Continuous
 62
     7
370
     0
100
AcDbCircle
 10
1.365655
 20
6.12821
 30
0.0
 40
0.01
  0
CIRCLE
  5
B72
330
12AE
100
AcDbEntity
  8
Level 1
  6
Continuous
 62
     7
370
     0
100
AcDbCircle
 10
1.465655
 20
6.12821
 30
0.0
 40
0.01
  0
CIRCLE
  5
B73
330
12AE
100
AcDbEntity
  8
Level 1
  6
Continuous
 62
     7
370
     0
100
AcDbCircle
 10
1.565655
 20
6.12821
 30
0.0
 40
0.01
  0
CIRCLE
  5
B75
330
12AE
100
AcDbEntity
  8
Level 1
  6
Continuous
 62
     7
370
     0
100
AcDbCircle
 10
0.415655
 20
6.02821
 30
0.0
 40
0.01
  0
CIRCLE
  5
B76
330
12AE
100
AcDbEntity
  8
Level 1
  6
Continuous
 62
     7
370
     0
100
AcDbCircle
 10
0.315655
 20
6.02821
 30
0.0
 40
0.01
  0
CIRCLE
  5
B77
330
12AE
100
AcDbEntity
  8
Level 1
  6
Continuous
 62
     7
370
     0
100
AcDbCircle
 10
0.515655
 20
6.02821
 30
0.0
 40
0.01
  0
CIRCLE
  5
B78
330
12AE
100
AcDbEntity
  8
Level 1
  6
Continuous
 62
     7
370
     0
100
AcDbCircle
 10
0.615655
 20
6.02821
 30
0.0
 40
0.01
  0
CIRCLE
  5
B79
330
12AE
100
AcDbEntity
  8
Level 1
  6
Continuous
 62
     7
370
     0
100
AcDbCircle
 10
0.715655
 20
6.02821
 30
0.0
 40
0.01
  0
CIRCLE
  5
B7A
330
12AE
100
AcDbEntity
  8
Level 1
  6
Continuous
 62
     7
370
     0
100
AcDbCircle
 10
0.815655
 20
6.02821
 30
0.0
 40
0.01
  0
CIRCLE
  5
B7B
330
12AE
100
AcDbEntity
  8
Level 1
  6
Continuous
 62
     7
370
     0
100
AcDbCircle
 10
0.915655
 20
6.02821
 30
0.0
 40
0.01
  0
CIRCLE
  5
B7C
330
12AE
100
AcDbEntity
  8
Level 1
  6
Continuous
 62
     7
370
     0
100
AcDbCircle
 10
1.015655
 20
6.02821
 30
0.0
 40
0.01
  0
CIRCLE
  5
B7D
330
12AE
100
AcDbEntity
  8
Level 1
  6
Continuous
 62
     7
370
     0
100
AcDbCircle
 10
1.115655
 20
6.02821
 30
0.0
 40
0.01
  0
CIRCLE
  5
B7E
330
12AE
100
AcDbEntity
  8
Level 1
  6
Continuous
 62
     7
370
     0
100
AcDbCircle
 10
1.215655
 20
6.02821
 30
0.0
 40
0.01
  0
CIRCLE
  5
B7F
330
12AE
100
AcDbEntity
  8
Level 1
  6
Continuous
 62
     7
370
     0
100
AcDbCircle
 10
1.315655
 20
6.02821
 30
0.0
 40
0.01
  0
CIRCLE
  5
B80
330
12AE
100
AcDbEntity
  8
Level 1
  6
Continuous
 62
     7
370
     0
100
AcDbCircle
 10
1.415655
 20
6.02821
 30
0.0
 40
0.01
  0
CIRCLE
  5
B81
330
12AE
100
AcDbEntity
  8
Level 1
  6
Continuous
 62
     7
370
     0
100
AcDbCircle
 10
1.515655
 20
6.02821
 30
0.0
 40
0.01
  0
CIRCLE
  5
B83
330
12AE
100
AcDbEntity
  8
Level 1
  6
Continuous
 62
     7
370
     0
100
AcDbCircle
 10
0.365655
 20
5.92821
 30
0.0
 40
0.01
  0
CIRCLE
  5
B84
330
12AE
100
AcDbEntity
  8
Level 1
  6
Continuous
 62
     7
370
     0
100
AcDbCircle
 10
0.465655
 20
5.92821
 30
0.0
 40
0.01
  0
CIRCLE
  5
B85
330
12AE
100
AcDbEntity
  8
Level 1
  6
Continuous
 62
     7
370
     0
100
AcDbCircle
 10
0.565655
 20
5.92821
 30
0.0
 40
0.01
  0
CIRCLE
  5
B86
330
12AE
100
AcDbEntity
  8
Level 1
  6
Continuous
 62
     7
370
     0
100
AcDbCircle
 10
0.665655
 20
5.92821
 30
0.0
 40
0.01
  0
CIRCLE
  5
B87
330
12AE
100
AcDbEntity
  8
Level 1
  6
Continuous
 62
     7
370
     0
100
AcDbCircle
 10
0.765655
 20
5.92821
 30
0.0
 40
0.01
  0
CIRCLE
  5
B88
330
12AE
100
AcDbEntity
  8
Level 1
  6
Continuous
 62
     7
370
     0
100
AcDbCircle
 10
0.865655
 20
5.92821
 30
0.0
 40
0.01
  0
CIRCLE
  5
B89
330
12AE
100
AcDbEntity
  8
Level 1
  6
Continuous
 62
     7
370
     0
100
AcDbCircle
 10
0.965655
 20
5.92821
 30
0.0
 40
0.01
  0
CIRCLE
  5
B8A
330
12AE
100
AcDbEntity
  8
Level 1
  6
Continuous
 62
     7
370
     0
100
AcDbCircle
 10
1.065655
 20
5.92821
 30
0.0
 40
0.01
  0
CIRCLE
  5
B8B
330
12AE
100
AcDbEntity
  8
Level 1
  6
Continuous
 62
     7
370
     0
100
AcDbCircle
 10
1.165655
 20
5.92821
 30
0.0
 40
0.01
  0
CIRCLE
  5
B8C
330
12AE
100
AcDbEntity
  8
Level 1
  6
Continuous
 62
     7
370
     0
100
AcDbCircle
 10
1.265655
 20
5.92821
 30
0.0
 40
0.01
  0
CIRCLE
  5
B8D
330
12AE
100
AcDbEntity
  8
Level 1
  6
Continuous
 62
     7
370
     0
100
AcDbCircle
 10
1.365655
 20
5.92821
 30
0.0
 40
0.01
  0
CIRCLE
  5
B8E
330
12AE
100
AcDbEntity
  8
Level 1
  6
Continuous
 62
     7
370
     0
100
AcDbCircle
 10
1.465655
 20
5.92821
 30
0.0
 40
0.01
  0
CIRCLE
  5
B8F
330
12AE
100
AcDbEntity
  8
Level 1
  6
Continuous
 62
     7
370
     0
100
AcDbCircle
 10
1.565655
 20
5.92821
 30
0.0
 40
0.01
  0
CIRCLE
  5
B91
330
12AE
100
AcDbEntity
  8
Level 1
  6
Continuous
 62
     7
370
     0
100
AcDbCircle
 10
0.415655
 20
5.82821
 30
0.0
 40
0.01
  0
CIRCLE
  5
B92
330
12AE
100
AcDbEntity
  8
Level 1
  6
Continuous
 62
     7
370
     0
100
AcDbCircle
 10
0.515655
 20
5.82821
 30
0.0
 40
0.01
  0
CIRCLE
  5
B93
330
12AE
100
AcDbEntity
  8
Level 1
  6
Continuous
 62
     7
370
     0
100
AcDbCircle
 10
0.615655
 20
5.82821
 30
0.0
 40
0.01
  0
CIRCLE
  5
B94
330
12AE
100
AcDbEntity
  8
Level 1
  6
Continuous
 62
     7
370
     0
100
AcDbCircle
 10
0.715655
 20
5.82821
 30
0.0
 40
0.01
  0
CIRCLE
  5
B95
330
12AE
100
AcDbEntity
  8
Level 1
  6
Continuous
 62
     7
370
     0
100
AcDbCircle
 10
0.815655
 20
5.82821
 30
0.0
 40
0.01
  0
CIRCLE
  5
B96
330
12AE
100
AcDbEntity
  8
Level 1
  6
Continuous
 62
     7
370
     0
100
AcDbCircle
 10
0.915655
 20
5.82821
 30
0.0
 40
0.01
  0
CIRCLE
  5
B97
330
12AE
100
AcDbEntity
  8
Level 1
  6
Continuous
 62
     7
370
     0
100
AcDbCircle
 10
1.015655
 20
5.82821
 30
0.0
 40
0.01
  0
CIRCLE
  5
B98
330
12AE
100
AcDbEntity
  8
Level 1
  6
Continuous
 62
     7
370
     0
100
AcDbCircle
 10
1.115655
 20
5.82821
 30
0.0
 40
0.01
  0
CIRCLE
  5
B99
330
12AE
100
AcDbEntity
  8
Level 1
  6
Continuous
 62
     7
370
     0
100
AcDbCircle
 10
1.215655
 20
5.82821
 30
0.0
 40
0.01
  0
CIRCLE
  5
B9A
330
12AE
100
AcDbEntity
  8
Level 1
  6
Continuous
 62
     7
370
     0
100
AcDbCircle
 10
1.315655
 20
5.82821
 30
0.0
 40
0.01
  0
CIRCLE
  5
B9B
330
12AE
100
AcDbEntity
  8
Level 1
  6
Continuous
 62
     7
370
     0
100
AcDbCircle
 10
1.415655
 20
5.82821
 30
0.0
 40
0.01
  0
CIRCLE
  5
B9C
330
12AE
100
AcDbEntity
  8
Level 1
  6
Continuous
 62
     7
370
     0
100
AcDbCircle
 10
1.515655
 20
5.82821
 30
0.0
 40
0.01
  0
CIRCLE
  5
B9E
330
12AE
100
AcDbEntity
  8
Level 1
  6
Continuous
 62
     7
370
     0
100
AcDbCircle
 10
0.365655
 20
5.72821
 30
0.0
 40
0.01
  0
CIRCLE
  5
B9F
330
12AE
100
AcDbEntity
  8
Level 1
  6
Continuous
 62
     7
370
     0
100
AcDbCircle
 10
0.465655
 20
5.72821
 30
0.0
 40
0.01
  0
CIRCLE
  5
BA0
330
12AE
100
AcDbEntity
  8
Level 1
  6
Continuous
 62
     7
370
     0
100
AcDbCircle
 10
0.565655
 20
5.72821
 30
0.0
 40
0.01
  0
CIRCLE
  5
BA1
330
12AE
100
AcDbEntity
  8
Level 1
  6
Continuous
 62
     7
370
     0
100
AcDbCircle
 10
0.665655
 20
5.72821
 30
0.0
 40
0.01
  0
CIRCLE
  5
BA2
330
12AE
100
AcDbEntity
  8
Level 1
  6
Continuous
 62
     7
370
     0
100
AcDbCircle
 10
0.765655
 20
5.72821
 30
0.0
 40
0.01
  0
CIRCLE
  5
BA3
330
12AE
100
AcDbEntity
  8
Level 1
  6
Continuous
 62
     7
370
     0
100
AcDbCircle
 10
0.865655
 20
5.72821
 30
0.0
 40
0.01
  0
CIRCLE
  5
BA4
330
12AE
100
AcDbEntity
  8
Level 1
  6
Continuous
 62
     7
370
     0
100
AcDbCircle
 10
0.965655
 20
5.72821
 30
0.0
 40
0.01
  0
CIRCLE
  5
BA5
330
12AE
100
AcDbEntity
  8
Level 1
  6
Continuous
 62
     7
370
     0
100
AcDbCircle
 10
1.065655
 20
5.72821
 30
0.0
 40
0.01
  0
CIRCLE
  5
BA6
330
12AE
100
AcDbEntity
  8
Level 1
  6
Continuous
 62
     7
370
     0
100
AcDbCircle
 10
1.165655
 20
5.72821
 30
0.0
 40
0.01
  0
CIRCLE
  5
BA7
330
12AE
100
AcDbEntity
  8
Level 1
  6
Continuous
 62
     7
370
     0
100
AcDbCircle
 10
1.265655
 20
5.72821
 30
0.0
 40
0.01
  0
CIRCLE
  5
BA8
330
12AE
100
AcDbEntity
  8
Level 1
  6
Continuous
 62
     7
370
     0
100
AcDbCircle
 10
1.365655
 20
5.72821
 30
0.0
 40
0.01
  0
CIRCLE
  5
BA9
330
12AE
100
AcDbEntity
  8
Level 1
  6
Continuous
 62
     7
370
     0
100
AcDbCircle
 10
1.465655
 20
5.72821
 30
0.0
 40
0.01
  0
CIRCLE
  5
BAB
330
12AE
100
AcDbEntity
  8
Level 1
  6
Continuous
 62
     7
370
     0
100
AcDbCircle
 10
0.415655
 20
5.62821
 30
0.0
 40
0.01
  0
CIRCLE
  5
BAC
330
12AE
100
AcDbEntity
  8
Level 1
  6
Continuous
 62
     7
370
     0
100
AcDbCircle
 10
0.515655
 20
5.62821
 30
0.0
 40
0.01
  0
CIRCLE
  5
BAD
330
12AE
100
AcDbEntity
  8
Level 1
  6
Continuous
 62
     7
370
     0
100
AcDbCircle
 10
0.615655
 20
5.62821
 30
0.0
 40
0.01
  0
CIRCLE
  5
BAE
330
12AE
100
AcDbEntity
  8
Level 1
  6
Continuous
 62
     7
370
     0
100
AcDbCircle
 10
0.715655
 20
5.62821
 30
0.0
 40
0.01
  0
CIRCLE
  5
BAF
330
12AE
100
AcDbEntity
  8
Level 1
  6
Continuous
 62
     7
370
     0
100
AcDbCircle
 10
0.815655
 20
5.62821
 30
0.0
 40
0.01
  0
CIRCLE
  5
BB0
330
12AE
100
AcDbEntity
  8
Level 1
  6
Continuous
 62
     7
370
     0
100
AcDbCircle
 10
0.915655
 20
5.62821
 30
0.0
 40
0.01
  0
CIRCLE
  5
BB1
330
12AE
100
AcDbEntity
  8
Level 1
  6
Continuous
 62
     7
370
     0
100
AcDbCircle
 10
1.015655
 20
5.62821
 30
0.0
 40
0.01
  0
CIRCLE
  5
BB2
330
12AE
100
AcDbEntity
  8
Level 1
  6
Continuous
 62
     7
370
     0
100
AcDbCircle
 10
1.115655
 20
5.62821
 30
0.0
 40
0.01
  0
CIRCLE
  5
BB3
330
12AE
100
AcDbEntity
  8
Level 1
  6
Continuous
 62
     7
370
     0
100
AcDbCircle
 10
1.215655
 20
5.62821
 30
0.0
 40
0.01
  0
CIRCLE
  5
BB4
330
12AE
100
AcDbEntity
  8
Level 1
  6
Continuous
 62
     7
370
     0
100
AcDbCircle
 10
1.315655
 20
5.62821
 30
0.0
 40
0.01
  0
CIRCLE
  5
BB5
330
12AE
100
AcDbEntity
  8
Level 1
  6
Continuous
 62
     7
370
     0
100
AcDbCircle
 10
1.415655
 20
5.62821
 30
0.0
 40
0.01
  0
CIRCLE
  5
BB6
330
12AE
100
AcDbEntity
  8
Level 1
  6
Continuous
 62
     7
370
     0
100
AcDbCircle
 10
1.515655
 20
5.62821
 30
0.0
 40
0.01
  0
CIRCLE
  5
BB8
330
12AE
100
AcDbEntity
  8
Level 1
  6
Continuous
 62
     7
370
     0
100
AcDbCircle
 10
0.365655
 20
5.52821
 30
0.0
 40
0.01
  0
CIRCLE
  5
BB9
330
12AE
100
AcDbEntity
  8
Level 1
  6
Continuous
 62
     7
370
     0
100
AcDbCircle
 10
0.465655
 20
5.52821
 30
0.0
 40
0.01
  0
CIRCLE
  5
BBA
330
12AE
100
AcDbEntity
  8
Level 1
  6
Continuous
 62
     7
370
     0
100
AcDbCircle
 10
0.565655
 20
5.52821
 30
0.0
 40
0.01
  0
CIRCLE
  5
BBB
330
12AE
100
AcDbEntity
  8
Level 1
  6
Continuous
 62
     7
370
     0
100
AcDbCircle
 10
0.665655
 20
5.52821
 30
0.0
 40
0.01
  0
CIRCLE
  5
BBC
330
12AE
100
AcDbEntity
  8
Level 1
  6
Continuous
 62
     7
370
     0
100
AcDbCircle
 10
0.765655
 20
5.52821
 30
0.0
 40
0.01
  0
CIRCLE
  5
BBD
330
12AE
100
AcDbEntity
  8
Level 1
  6
Continuous
 62
     7
370
     0
100
AcDbCircle
 10
0.865655
 20
5.52821
 30
0.0
 40
0.01
  0
CIRCLE
  5
BBE
330
12AE
100
AcDbEntity
  8
Level 1
  6
Continuous
 62
     7
370
     0
100
AcDbCircle
 10
0.965655
 20
5.52821
 30
0.0
 40
0.01
  0
CIRCLE
  5
BBF
330
12AE
100
AcDbEntity
  8
Level 1
  6
Continuous
 62
     7
370
     0
100
AcDbCircle
 10
1.065655
 20
5.52821
 30
0.0
 40
0.01
  0
CIRCLE
  5
BC0
330
12AE
100
AcDbEntity
  8
Level 1
  6
Continuous
 62
     7
370
     0
100
AcDbCircle
 10
1.165655
 20
5.52821
 30
0.0
 40
0.01
  0
CIRCLE
  5
BC1
330
12AE
100
AcDbEntity
  8
Level 1
  6
Continuous
 62
     7
370
     0
100
AcDbCircle
 10
1.265655
 20
5.52821
 30
0.0
 40
0.01
  0
CIRCLE
  5
BC2
330
12AE
100
AcDbEntity
  8
Level 1
  6
Continuous
 62
     7
370
     0
100
AcDbCircle
 10
1.365655
 20
5.52821
 30
0.0
 40
0.01
  0
CIRCLE
  5
BC3
330
12AE
100
AcDbEntity
  8
Level 1
  6
Continuous
 62
     7
370
     0
100
AcDbCircle
 10
1.465655
 20
5.52821
 30
0.0
 40
0.01
  0
CIRCLE
  5
BC4
330
12AE
100
AcDbEntity
  8
Level 1
  6
Continuous
 62
     7
370
     0
100
AcDbCircle
 10
1.565655
 20
5.52821
 30
0.0
 40
0.01
  0
CIRCLE
  5
BC5
330
12AE
100
AcDbEntity
  8
Level 1
  6
Continuous
 62
     7
370
     0
100
AcDbCircle
 10
0.415655
 20
5.42821
 30
0.0
 40
0.01
  0
CIRCLE
  5
BC6
330
12AE
100
AcDbEntity
  8
Level 1
  6
Continuous
 62
     7
370
     0
100
AcDbCircle
 10
0.515655
 20
5.42821
 30
0.0
 40
0.01
  0
CIRCLE
  5
BC7
330
12AE
100
AcDbEntity
  8
Level 1
  6
Continuous
 62
     7
370
     0
100
AcDbCircle
 10
0.615655
 20
5.42821
 30
0.0
 40
0.01
  0
CIRCLE
  5
BC8
330
12AE
100
AcDbEntity
  8
Level 1
  6
Continuous
 62
     7
370
     0
100
AcDbCircle
 10
0.715655
 20
5.42821
 30
0.0
 40
0.01
  0
CIRCLE
  5
BC9
330
12AE
100
AcDbEntity
  8
Level 1
  6
Continuous
 62
     7
370
     0
100
AcDbCircle
 10
0.815655
 20
5.42821
 30
0.0
 40
0.01
  0
CIRCLE
  5
BCA
330
12AE
100
AcDbEntity
  8
Level 1
  6
Continuous
 62
     7
370
     0
100
AcDbCircle
 10
0.915655
 20
5.42821
 30
0.0
 40
0.01
  0
CIRCLE
  5
BCB
330
12AE
100
AcDbEntity
  8
Level 1
  6
Continuous
 62
     7
370
     0
100
AcDbCircle
 10
1.015655
 20
5.42821
 30
0.0
 40
0.01
  0
CIRCLE
  5
BCC
330
12AE
100
AcDbEntity
  8
Level 1
  6
Continuous
 62
     7
370
     0
100
AcDbCircle
 10
1.115655
 20
5.42821
 30
0.0
 40
0.01
  0
CIRCLE
  5
BCD
330
12AE
100
AcDbEntity
  8
Level 1
  6
Continuous
 62
     7
370
     0
100
AcDbCircle
 10
1.215655
 20
5.42821
 30
0.0
 40
0.01
  0
CIRCLE
  5
BCE
330
12AE
100
AcDbEntity
  8
Level 1
  6
Continuous
 62
     7
370
     0
100
AcDbCircle
 10
1.315655
 20
5.42821
 30
0.0
 40
0.01
  0
CIRCLE
  5
BCF
330
12AE
100
AcDbEntity
  8
Level 1
  6
Continuous
 62
     7
370
     0
100
AcDbCircle
 10
1.415655
 20
5.42821
 30
0.0
 40
0.01
  0
CIRCLE
  5
BD0
330
12AE
100
AcDbEntity
  8
Level 1
  6
Continuous
 62
     7
370
     0
100
AcDbCircle
 10
1.515655
 20
5.42821
 30
0.0
 40
0.01
  0
CIRCLE
  5
D9F
330
12AE
100
AcDbEntity
  8
Level 1
  6
Continuous
 62
     7
370
     0
100
AcDbCircle
 10
0.040655
 20
5.92821
 30
0.0
 40
0.0465
  0
CIRCLE
  5
DA0
330
12AE
100
AcDbEntity
  8
Level 1
  6
Continuous
 62
     7
370
     0
100
AcDbCircle
 10
1.840655
 20
5.92821
 30
0.0
 40
0.0465
  0
LINE
  5
DA4
330
12AE
100
AcDbEntity
  8
Level 1
  6
Continuous
 62
     7
370
     0
100
AcDbLine
 10
0.365655
 20
6.105396
 30
0.0
 11
0.365655
 21
5.950502
 31
0.0
  0
LINE
  5
DA5
330
12AE
100
AcDbEntity
  8
Level 1
  6
Continuous
 62
     7
370
     0
100
AcDbLine
 10
0.365655
 20
5.907401
 30
0.0
 11
0.365655
 21
5.749813
 31
0.0
  0
LINE
  5
DA6
330
12AE
100
AcDbEntity
  8
Level 1
  6
Continuous
 62
     7
370
     0
100
AcDbLine
 10
0.365655
 20
5.706712
 30
0.0
 11
0.365655
 21
5.551818
 31
0.0
  0
LINE
  5
DA7
330
12AE
100
AcDbEntity
  8
Level 1
  6
Continuous
 62
     7
370
     0
100
AcDbLine
 10
0.415655
 20
6.005725
 30
0.0
 11
0.415655
 21
5.852178
 31
0.0
  0
LINE
  5
DA8
330
12AE
100
AcDbEntity
  8
Level 1
  6
Continuous
 62
     7
370
     0
100
AcDbLine
 10
0.415655
 20
5.813118
 30
0.0
 11
0.415655
 21
5.650142
 31
0.0
  0
LINE
  5
DA9
330
12AE
100
AcDbEntity
  8
Level 1
  6
Continuous
 62
     7
370
     0
100
AcDbLine
 10
0.415655
 20
5.604347
 30
0.0
 11
0.415655
 21
5.452147
 31
0.0
  0
LINE
  5
DAB
330
12AE
100
AcDbEntity
  8
Level 1
  6
DGN Style 4
 62
     7
370
     0
100
AcDbLine
 10
-0.033304
 20
5.92821
 30
0.0
 11
1.895049
 21
5.92821
 31
0.0
  0
TEXT
  5
1003
330
12AE
100
AcDbEntity
  8
Level 1
  6
Continuous
 62
     7
370
     0
100
AcDbText
 10
1.556332
 20
6.085797
 30
0.0
 40
0.0275
  1
1
 41
0.818182
  7
Style-ANSI_SYMBOLS
 72
     1
 11
1.559903
 21
6.099547
 31
0.0
100
AcDbText
 73
     2
  0
TEXT
  5
1004
330
12AE
100
AcDbEntity
  8
Level 1
  6
Continuous
 62
     7
370
     0
100
AcDbText
 10
1.459319
 20
6.085442
 30
0.0
 40
0.0275
  1
3
 41
0.818182
  7
Style-ANSI_SYMBOLS
 72
     1
 11
1.46664
 21
6.099192
 31
0.0
100
AcDbText
 73
     2
  0
TEXT
  5
1005
330
12AE
100
AcDbEntity
  8
Level 1
  6
Continuous
 62
     7
370
     0
100
AcDbText
 10
1.359165
 20
6.085418
 30
0.0
 40
0.0275
  1
5
 41
0.818182
  7
Style-ANSI_SYMBOLS
 72
     1
 11
1.366486
 21
6.099168
 31
0.0
100
AcDbText
 73
     2
  0
TEXT
  5
1006
330
12AE
100
AcDbEntity
  8
Level 1
  6
Continuous
 62
     7
370
     0
100
AcDbText
 10
1.259121
 20
6.085418
 30
0.0
 40
0.0275
  1
7
 41
0.818182
  7
Style-ANSI_SYMBOLS
 72
     1
 11
1.266442
 21
6.099168
 31
0.0
100
AcDbText
 73
     2
  0
TEXT
  5
1007
330
12AE
100
AcDbEntity
  8
Level 1
  6
Continuous
 62
     7
370
     0
100
AcDbText
 10
1.15952
 20
6.085418
 30
0.0
 40
0.0275
  1
9
 41
0.818182
  7
Style-ANSI_SYMBOLS
 72
     1
 11
1.166841
 21
6.099168
 31
0.0
100
AcDbText
 73
     2
  0
TEXT
  5
1008
330
12AE
100
AcDbEntity
  8
Level 1
  6
Continuous
 62
     7
370
     0
100
AcDbText
 10
1.052391
 20
6.085846
 30
0.0
 40
0.0275
  1
11
 41
0.818182
  7
Style-ANSI_SYMBOLS
 72
     1
 11
1.067212
 21
6.099596
 31
0.0
100
AcDbText
 73
     2
  0
TEXT
  5
1009
330
12AE
100
AcDbEntity
  8
Level 1
  6
Continuous
 62
     7
370
     0
100
AcDbText
 10
0.946769
 20
6.08545
 30
0.0
 40
0.0275
  1
13
 41
0.818182
  7
Style-ANSI_SYMBOLS
 72
     1
 11
0.96534
 21
6.0992
 31
0.0
100
AcDbText
 73
     2
  0
TEXT
  5
100A
330
12AE
100
AcDbEntity
  8
Level 1
  6
Continuous
 62
     7
370
     0
100
AcDbText
 10
0.842904
 20
6.085039
 30
0.0
 40
0.0275
  1
15
 41
0.818182
  7
Style-ANSI_SYMBOLS
 72
     1
 11
0.861475
 21
6.098789
 31
0.0
100
AcDbText
 73
     2
  0
TEXT
  5
100B
330
12AE
100
AcDbEntity
  8
Level 1
  6
Continuous
 62
     7
370
     0
100
AcDbText
 10
0.745002
 20
6.085039
 30
0.0
 40
0.0275
  1
17
 41
0.818182
  7
Style-ANSI_SYMBOLS
 72
     1
 11
0.763573
 21
6.098789
 31
0.0
100
AcDbText
 73
     2
  0
TEXT
  5
100C
330
12AE
100
AcDbEntity
  8
Level 1
  6
Continuous
 62
     7
370
     0
100
AcDbText
 10
0.647099
 20
6.085039
 30
0.0
 40
0.0275
  1
19
 41
0.818182
  7
Style-ANSI_SYMBOLS
 72
     1
 11
0.66567
 21
6.098789
 31
0.0
100
AcDbText
 73
     2
  0
TEXT
  5
100D
330
12AE
100
AcDbEntity
  8
Level 1
  6
Continuous
 62
     7
370
     0
100
AcDbText
 10
0.550558
 20
6.085039
 30
0.0
 40
0.0275
  1
21
 41
0.818182
  7
Style-ANSI_SYMBOLS
 72
     1
 11
0.565379
 21
6.098789
 31
0.0
100
AcDbText
 73
     2
  0
TEXT
  5
100E
330
12AE
100
AcDbEntity
  8
Level 1
  6
Continuous
 62
     7
370
     0
100
AcDbText
 10
0.446517
 20
6.085039
 30
0.0
 40
0.0275
  1
23
 41
0.818182
  7
Style-ANSI_SYMBOLS
 72
     1
 11
0.465088
 21
6.098789
 31
0.0
100
AcDbText
 73
     2
  0
TEXT
  5
100F
330
12AE
100
AcDbEntity
  8
Level 1
  6
Continuous
 62
     7
370
     0
100
AcDbText
 10
0.346227
 20
6.085039
 30
0.0
 40
0.0275
  1
25
 41
0.818182
  7
Style-ANSI_SYMBOLS
 72
     1
 11
0.364798
 21
6.098789
 31
0.0
100
AcDbText
 73
     2
  0
TEXT
  5
1010
330
12AE
100
AcDbEntity
  8
Level 1
  6
Continuous
 62
     7
370
     0
100
AcDbText
 10
1.509222
 20
5.986241
 30
0.0
 40
0.0275
  1
2
 41
0.818182
  7
Style-ANSI_SYMBOLS
 72
     1
 11
1.516543
 21
5.999991
 31
0.0
100
AcDbText
 73
     2
  0
TEXT
  5
1011
330
12AE
100
AcDbEntity
  8
Level 1
  6
Continuous
 62
     7
370
     0
100
AcDbText
 10
1.408141
 20
5.986654
 30
0.0
 40
0.0275
  1
4
 41
0.818182
  7
Style-ANSI_SYMBOLS
 72
     1
 11
1.415462
 21
6.000404
 31
0.0
100
AcDbText
 73
     2
  0
TEXT
  5
1012
330
12AE
100
AcDbEntity
  8
Level 1
  6
Continuous
 62
     7
370
     0
100
AcDbText
 10
1.308245
 20
5.985846
 30
0.0
 40
0.0275
  1
6
 41
0.818182
  7
Style-ANSI_SYMBOLS
 72
     1
 11
1.315566
 21
5.999596
 31
0.0
100
AcDbText
 73
     2
  0
TEXT
  5
1013
330
12AE
100
AcDbEntity
  8
Level 1
  6
Continuous
 62
     7
370
     0
100
AcDbText
 10
1.209528
 20
5.986166
 30
0.0
 40
0.0275
  1
8
 41
0.818182
  7
Style-ANSI_SYMBOLS
 72
     1
 11
1.216849
 21
5.999916
 31
0.0
100
AcDbText
 73
     2
  0
TEXT
  5
1014
330
12AE
100
AcDbEntity
  8
Level 1
  6
Continuous
 62
     7
370
     0
100
AcDbText
 10
1.0976
 20
5.986669
 30
0.0
 40
0.0275
  1
10
 41
0.818182
  7
Style-ANSI_SYMBOLS
 72
     1
 11
1.116171
 21
6.000419
 31
0.0
100
AcDbText
 73
     2
  0
TEXT
  5
1015
330
12AE
100
AcDbEntity
  8
Level 1
  6
Continuous
 62
     7
370
     0
100
AcDbText
 10
0.995129
 20
5.986258
 30
0.0
 40
0.0275
  1
12
 41
0.818182
  7
Style-ANSI_SYMBOLS
 72
     1
 11
1.0137
 21
6.000008
 31
0.0
100
AcDbText
 73
     2
  0
TEXT
  5
1016
330
12AE
100
AcDbEntity
  8
Level 1
  6
Continuous
 62
     7
370
     0
100
AcDbText
 10
0.897035
 20
5.986274
 30
0.0
 40
0.0275
  1
14
 41
0.818182
  7
Style-ANSI_SYMBOLS
 72
     1
 11
0.915606
 21
6.000024
 31
0.0
100
AcDbText
 73
     2
  0
TEXT
  5
1017
330
12AE
100
AcDbEntity
  8
Level 1
  6
Continuous
 62
     7
370
     0
100
AcDbText
 10
0.797914
 20
5.986258
 30
0.0
 40
0.0275
  1
16
 41
0.818182
  7
Style-ANSI_SYMBOLS
 72
     1
 11
0.816485
 21
6.000008
 31
0.0
100
AcDbText
 73
     2
  0
TEXT
  5
1018
330
12AE
100
AcDbEntity
  8
Level 1
  6
Continuous
 62
     7
370
     0
100
AcDbText
 10
0.697623
 20
5.986669
 30
0.0
 40
0.0275
  1
18
 41
0.818182
  7
Style-ANSI_SYMBOLS
 72
     1
 11
0.716194
 21
6.000419
 31
0.0
100
AcDbText
 73
     2
  0
TEXT
  5
1019
330
12AE
100
AcDbEntity
  8
Level 1
  6
Continuous
 62
     7
370
     0
100
AcDbText
 10
0.596953
 20
5.986258
 30
0.0
 40
0.0275
  1
20
 41
0.818182
  7
Style-ANSI_SYMBOLS
 72
     1
 11
0.615524
 21
6.000008
 31
0.0
100
AcDbText
 73
     2
  0
TEXT
  5
101A
330
12AE
100
AcDbEntity
  8
Level 1
  6
Continuous
 62
     7
370
     0
100
AcDbText
 10
0.497126
 20
5.985863
 30
0.0
 40
0.0275
  1
22
 41
0.818182
  7
Style-ANSI_SYMBOLS
 72
     1
 11
0.515697
 21
5.999613
 31
0.0
100
AcDbText
 73
     2
  0
TEXT
  5
101B
330
12AE
100
AcDbEntity
  8
Level 1
  6
Continuous
 62
     7
370
     0
100
AcDbText
 10
0.39797
 20
5.986258
 30
0.0
 40
0.0275
  1
24
 41
0.818182
  7
Style-ANSI_SYMBOLS
 72
     1
 11
0.416541
 21
6.000008
 31
0.0
100
AcDbText
 73
     2
  0
TEXT
  5
101C
330
12AE
100
AcDbEntity
  8
Level 1
  6
Continuous
 62
     7
370
     0
100
AcDbText
 10
0.296888
 20
5.986258
 30
0.0
 40
0.0275
  1
26
 41
0.818182
  7
Style-ANSI_SYMBOLS
 72
     1
 11
0.315459
 21
6.000008
 31
0.0
100
AcDbText
 73
     2
  0
TEXT
  5
101D
330
12AE
100
AcDbEntity
  8
Level 1
  6
Continuous
 62
     7
370
     0
100
AcDbText
 10
1.547116
 20
5.886006
 30
0.0
 40
0.0275
  1
27
 41
0.818182
  7
Style-ANSI_SYMBOLS
 72
     1
 11
1.565687
 21
5.899756
 31
0.0
100
AcDbText
 73
     2
  0
TEXT
  5
101E
330
12AE
100
AcDbEntity
  8
Level 1
  6
Continuous
 62
     7
370
     0
100
AcDbText
 10
1.447037
 20
5.886006
 30
0.0
 40
0.0275
  1
29
 41
0.818182
  7
Style-ANSI_SYMBOLS
 72
     1
 11
1.465608
 21
5.899756
 31
0.0
100
AcDbText
 73
     2
  0
TEXT
  5
101F
330
12AE
100
AcDbEntity
  8
Level 1
  6
Continuous
 62
     7
370
     0
100
AcDbText
 10
1.350919
 20
5.886248
 30
0.0
 40
0.0275
  1
31
 41
0.818182
  7
Style-ANSI_SYMBOLS
 72
     1
 11
1.36574
 21
5.899998
 31
0.0
100
AcDbText
 73
     2
  0
TEXT
  5
1020
330
12AE
100
AcDbEntity
  8
Level 1
  6
Continuous
 62
     7
370
     0
100
AcDbText
 10
1.249238
 20
5.88629
 30
0.0
 40
0.0275
  1
33
 41
0.818182
  7
Style-ANSI_SYMBOLS
 72
     1
 11
1.267809
 21
5.90004
 31
0.0
100
AcDbText
 73
     2
  0
TEXT
  5
1021
330
12AE
100
AcDbEntity
  8
Level 1
  6
Continuous
 62
     7
370
     0
100
AcDbText
 10
1.148931
 20
5.885894
 30
0.0
 40
0.0275
  1
35
 41
0.818182
  7
Style-ANSI_SYMBOLS
 72
     1
 11
1.167502
 21
5.899644
 31
0.0
100
AcDbText
 73
     2
  0
TEXT
  5
1022
330
12AE
100
AcDbEntity
  8
Level 1
  6
Continuous
 62
     7
370
     0
100
AcDbText
 10
1.049843
 20
5.885894
 30
0.0
 40
0.0275
  1
37
 41
0.818182
  7
Style-ANSI_SYMBOLS
 72
     1
 11
1.068414
 21
5.899644
 31
0.0
100
AcDbText
 73
     2
  0
TEXT
  5
1023
330
12AE
100
AcDbEntity
  8
Level 1
  6
Continuous
 62
     7
370
     0
100
AcDbText
 10
0.947971
 20
5.886274
 30
0.0
 40
0.0275
  1
39
 41
0.818182
  7
Style-ANSI_SYMBOLS
 72
     1
 11
0.966542
 21
5.900024
 31
0.0
100
AcDbText
 73
     2
  0
TEXT
  5
1024
330
12AE
100
AcDbEntity
  8
Level 1
  6
Continuous
 62
     7
370
     0
100
AcDbText
 10
0.848285
 20
5.885466
 30
0.0
 40
0.0275
  1
41
 41
0.818182
  7
Style-ANSI_SYMBOLS
 72
     1
 11
0.863106
 21
5.899216
 31
0.0
100
AcDbText
 73
     2
  0
TEXT
  5
1025
330
12AE
100
AcDbEntity
  8
Level 1
  6
Continuous
 62
     7
370
     0
100
AcDbText
 10
0.747389
 20
5.885894
 30
0.0
 40
0.0275
  1
43
 41
0.818182
  7
Style-ANSI_SYMBOLS
 72
     1
 11
0.76596
 21
5.899644
 31
0.0
100
AcDbText
 73
     2
  0
TEXT
  5
1026
330
12AE
100
AcDbEntity
  8
Level 1
  6
Continuous
 62
     7
370
     0
100
AcDbText
 10
0.647099
 20
5.88629
 30
0.0
 40
0.0275
  1
45
 41
0.818182
  7
Style-ANSI_SYMBOLS
 72
     1
 11
0.66567
 21
5.90004
 31
0.0
100
AcDbText
 73
     2
  0
TEXT
  5
1027
330
12AE
100
AcDbEntity
  8
Level 1
  6
Continuous
 62
     7
370
     0
100
AcDbText
 10
0.54801
 20
5.885878
 30
0.0
 40
0.0275
  1
47
 41
0.818182
  7
Style-ANSI_SYMBOLS
 72
     1
 11
0.566581
 21
5.899628
 31
0.0
100
AcDbText
 73
     2
  0
TEXT
  5
1028
330
12AE
100
AcDbEntity
  8
Level 1
  6
Continuous
 62
     7
370
     0
100
AcDbText
 10
0.446517
 20
5.886274
 30
0.0
 40
0.0275
  1
49
 41
0.818182
  7
Style-ANSI_SYMBOLS
 72
     1
 11
0.465088
 21
5.900024
 31
0.0
100
AcDbText
 73
     2
  0
TEXT
  5
1029
330
12AE
100
AcDbEntity
  8
Level 1
  6
Continuous
 62
     7
370
     0
100
AcDbText
 10
0.351273
 20
5.886274
 30
0.0
 40
0.0275
  1
51
 41
0.818182
  7
Style-ANSI_SYMBOLS
 72
     1
 11
0.366094
 21
5.900024
 31
0.0
100
AcDbText
 73
     2
  0
TEXT
  5
102A
330
12AE
100
AcDbEntity
  8
Level 1
  6
Continuous
 62
     7
370
     0
100
AcDbText
 10
1.498659
 20
5.786643
 30
0.0
 40
0.0275
  1
28
 41
0.818182
  7
Style-ANSI_SYMBOLS
 72
     1
 11
1.51723
 21
5.800393
 31
0.0
100
AcDbText
 73
     2
  0
TEXT
  5
102B
330
12AE
100
AcDbEntity
  8
Level 1
  6
Continuous
 62
     7
370
     0
100
AcDbText
 10
1.397195
 20
5.78638
 30
0.0
 40
0.0275
  1
30
 41
0.818182
  7
Style-ANSI_SYMBOLS
 72
     1
 11
1.415766
 21
5.80013
 31
0.0
100
AcDbText
 73
     2
  0
TEXT
  5
102C
330
12AE
100
AcDbEntity
  8
Level 1
  6
Continuous
 62
     7
370
     0
100
AcDbText
 10
1.297814
 20
5.786684
 30
0.0
 40
0.0275
  1
32
 41
0.818182
  7
Style-ANSI_SYMBOLS
 72
     1
 11
1.316385
 21
5.800434
 31
0.0
100
AcDbText
 73
     2
  0
TEXT
  5
102D
330
12AE
100
AcDbEntity
  8
Level 1
  6
Continuous
 62
     7
370
     0
100
AcDbText
 10
1.197787
 20
5.786684
 30
0.0
 40
0.0275
  1
34
 41
0.818182
  7
Style-ANSI_SYMBOLS
 72
     1
 11
1.216358
 21
5.800434
 31
0.0
100
AcDbText
 73
     2
  0
TEXT
  5
102E
330
12AE
100
AcDbEntity
  8
Level 1
  6
Continuous
 62
     7
370
     0
100
AcDbText
 10
1.097183
 20
5.78673
 30
0.0
 40
0.0275
  1
36
 41
0.818182
  7
Style-ANSI_SYMBOLS
 72
     1
 11
1.115754
 21
5.80048
 31
0.0
100
AcDbText
 73
     2
  0
TEXT
  5
102F
330
12AE
100
AcDbEntity
  8
Level 1
  6
Continuous
 62
     7
370
     0
100
AcDbText
 10
0.998634
 20
5.78673
 30
0.0
 40
0.0275
  1
38
 41
0.818182
  7
Style-ANSI_SYMBOLS
 72
     1
 11
1.017205
 21
5.80048
 31
0.0
100
AcDbText
 73
     2
  0
TEXT
  5
1030
330
12AE
100
AcDbEntity
  8
Level 1
  6
Continuous
 62
     7
370
     0
100
AcDbText
 10
0.89673
 20
5.786407
 30
0.0
 40
0.0275
  1
40
 41
0.818182
  7
Style-ANSI_SYMBOLS
 72
     1
 11
0.915301
 21
5.800157
 31
0.0
100
AcDbText
 73
     2
  0
TEXT
  5
1031
330
12AE
100
AcDbEntity
  8
Level 1
  6
Continuous
 62
     7
370
     0
100
AcDbText
 10
0.793983
 20
5.78673
 30
0.0
 40
0.0275
  1
42
 41
0.818182
  7
Style-ANSI_SYMBOLS
 72
     1
 11
0.812554
 21
5.80048
 31
0.0
100
AcDbText
 73
     2
  0
TEXT
  5
1032
330
12AE
100
AcDbEntity
  8
Level 1
  6
Continuous
 62
     7
370
     0
100
AcDbText
 10
0.692851
 20
5.786926
 30
0.0
 40
0.0275
  1
44
 41
0.818182
  7
Style-ANSI_SYMBOLS
 72
     1
 11
0.711422
 21
5.800676
 31
0.0
100
AcDbText
 73
     2
  0
TEXT
  5
1033
330
12AE
100
AcDbEntity
  8
Level 1
  6
Continuous
 62
     7
370
     0
100
AcDbText
 10
0.595211
 20
5.78673
 30
0.0
 40
0.0275
  1
46
 41
0.818182
  7
Style-ANSI_SYMBOLS
 72
     1
 11
0.613782
 21
5.80048
 31
0.0
100
AcDbText
 73
     2
  0
TEXT
  5
1034
330
12AE
100
AcDbEntity
  8
Level 1
  6
Continuous
 62
     7
370
     0
100
AcDbText
 10
0.496017
 20
5.78673
 30
0.0
 40
0.0275
  1
48
 41
0.818182
  7
Style-ANSI_SYMBOLS
 72
     1
 11
0.514588
 21
5.80048
 31
0.0
100
AcDbText
 73
     2
  0
TEXT
  5
1035
330
12AE
100
AcDbEntity
  8
Level 1
  6
Continuous
 62
     7
370
     0
100
AcDbText
 10
0.397018
 20
5.78673
 30
0.0
 40
0.0275
  1
50
 41
0.818182
  7
Style-ANSI_SYMBOLS
 72
     1
 11
0.415589
 21
5.80048
 31
0.0
100
AcDbText
 73
     2
  0
TEXT
  5
1036
330
12AE
100
AcDbEntity
  8
Level 1
  6
Continuous
 62
     7
370
     0
100
AcDbText
 10
1.448889
 20
5.68544
 30
0.0
 40
0.0275
  1
53
 41
0.818182
  7
Style-ANSI_SYMBOLS
 72
     1
 11
1.46746
 21
5.69919
 31
0.0
100
AcDbText
 73
     2
  0
TEXT
  5
1037
330
12AE
100
AcDbEntity
  8
Level 1
  6
Continuous
 62
     7
370
     0
100
AcDbText
 10
1.350451
 20
5.685368
 30
0.0
 40
0.0275
  1
55
 41
0.818182
  7
Style-ANSI_SYMBOLS
 72
     1
 11
1.369022
 21
5.699118
 31
0.0
100
AcDbText
 73
     2
  0
TEXT
  5
1038
330
12AE
100
AcDbEntity
  8
Level 1
  6
Continuous
 62
     7
370
     0
100
AcDbText
 10
1.246846
 20
5.685295
 30
0.0
 40
0.0275
  1
57
 41
0.818182
  7
Style-ANSI_SYMBOLS
 72
     1
 11
1.265417
 21
5.699045
 31
0.0
100
AcDbText
 73
     2
  0
TEXT
  5
1039
330
12AE
100
AcDbEntity
  8
Level 1
  6
Continuous
 62
     7
370
     0
100
AcDbText
 10
1.146164
 20
5.685368
 30
0.0
 40
0.0275
  1
59
 41
0.818182
  7
Style-ANSI_SYMBOLS
 72
     1
 11
1.164735
 21
5.699118
 31
0.0
100
AcDbText
 73
     2
  0
TEXT
  5
103A
330
12AE
100
AcDbEntity
  8
Level 1
  6
Continuous
 62
     7
370
     0
100
AcDbText
 10
1.05027
 20
5.685848
 30
0.0
 40
0.0275
  1
61
 41
0.818182
  7
Style-ANSI_SYMBOLS
 72
     1
 11
1.065091
 21
5.699598
 31
0.0
100
AcDbText
 73
     2
  0
TEXT
  5
103B
330
12AE
100
AcDbEntity
  8
Level 1
  6
Continuous
 62
     7
370
     0
100
AcDbText
 10
0.947971
 20
5.685525
 30
0.0
 40
0.0275
  1
63
 41
0.818182
  7
Style-ANSI_SYMBOLS
 72
     1
 11
0.966542
 21
5.699275
 31
0.0
100
AcDbText
 73
     2
  0
TEXT
  5
103C
330
12AE
100
AcDbEntity
  8
Level 1
  6
Continuous
 62
     7
370
     0
100
AcDbText
 10
0.848326
 20
5.685525
 30
0.0
 40
0.0275
  1
65
 41
0.818182
  7
Style-ANSI_SYMBOLS
 72
     1
 11
0.866897
 21
5.699275
 31
0.0
100
AcDbText
 73
     2
  0
TEXT
  5
103D
330
12AE
100
AcDbEntity
  8
Level 1
  6
Continuous
 62
     7
370
     0
100
AcDbText
 10
0.748877
 20
5.686044
 30
0.0
 40
0.0275
  1
67
 41
0.818182
  7
Style-ANSI_SYMBOLS
 72
     1
 11
0.767448
 21
5.699794
 31
0.0
100
AcDbText
 73
     2
  0
TEXT
  5
103E
330
12AE
100
AcDbEntity
  8
Level 1
  6
Continuous
 62
     7
370
     0
100
AcDbText
 10
0.647745
 20
5.685525
 30
0.0
 40
0.0275
  1
69
 41
0.818182
  7
Style-ANSI_SYMBOLS
 72
     1
 11
0.666316
 21
5.699275
 31
0.0
100
AcDbText
 73
     2
  0
TEXT
  5
103F
330
12AE
100
AcDbEntity
  8
Level 1
  6
Continuous
 62
     7
370
     0
100
AcDbText
 10
0.550558
 20
5.686044
 30
0.0
 40
0.0275
  1
71
 41
0.818182
  7
Style-ANSI_SYMBOLS
 72
     1
 11
0.565379
 21
5.699794
 31
0.0
100
AcDbText
 73
     2
  0
TEXT
  5
1040
330
12AE
100
AcDbEntity
  8
Level 1
  6
Continuous
 62
     7
370
     0
100
AcDbText
 10
0.446322
 20
5.685721
 30
0.0
 40
0.0275
  1
73
 41
0.818182
  7
Style-ANSI_SYMBOLS
 72
     1
 11
0.464893
 21
5.699471
 31
0.0
100
AcDbText
 73
     2
  0
TEXT
  5
1041
330
12AE
100
AcDbEntity
  8
Level 1
  6
Continuous
 62
     7
370
     0
100
AcDbText
 10
0.346873
 20
5.685721
 30
0.0
 40
0.0275
  1
75
 41
0.818182
  7
Style-ANSI_SYMBOLS
 72
     1
 11
0.365444
 21
5.699471
 31
0.0
100
AcDbText
 73
     2
  0
TEXT
  5
1042
330
12AE
100
AcDbEntity
  8
Level 1
  6
Continuous
 62
     7
370
     0
100
AcDbText
 10
1.499031
 20
5.586555
 30
0.0
 40
0.0275
  1
52
 41
0.818182
  7
Style-ANSI_SYMBOLS
 72
     1
 11
1.517602
 21
5.600305
 31
0.0
100
AcDbText
 73
     2
  0
TEXT
  5
1043
330
12AE
100
AcDbEntity
  8
Level 1
  6
Continuous
 62
     7
370
     0
100
AcDbText
 10
1.397194
 20
5.586825
 30
0.0
 40
0.0275
  1
54
 41
0.818182
  7
Style-ANSI_SYMBOLS
 72
     1
 11
1.415765
 21
5.600575
 31
0.0
100
AcDbText
 73
     2
  0
TEXT
  5
1044
330
12AE
100
AcDbEntity
  8
Level 1
  6
Continuous
 62
     7
370
     0
100
AcDbText
 10
1.297508
 20
5.586252
 30
0.0
 40
0.0275
  1
56
 41
0.818182
  7
Style-ANSI_SYMBOLS
 72
     1
 11
1.316079
 21
5.600002
 31
0.0
100
AcDbText
 73
     2
  0
TEXT
  5
1045
330
12AE
100
AcDbEntity
  8
Level 1
  6
Continuous
 62
     7
370
     0
100
AcDbText
 10
1.198698
 20
5.586555
 30
0.0
 40
0.0275
  1
58
 41
0.818182
  7
Style-ANSI_SYMBOLS
 72
     1
 11
1.217269
 21
5.600305
 31
0.0
100
AcDbText
 73
     2
  0
TEXT
  5
1046
330
12AE
100
AcDbEntity
  8
Level 1
  6
Continuous
 62
     7
370
     0
100
AcDbText
 10
1.098407
 20
5.586252
 30
0.0
 40
0.0275
  1
60
 41
0.818182
  7
Style-ANSI_SYMBOLS
 72
     1
 11
1.116978
 21
5.600002
 31
0.0
100
AcDbText
 73
     2
  0
TEXT
  5
1047
330
12AE
100
AcDbEntity
  8
Level 1
  6
Continuous
 62
     7
370
     0
100
AcDbText
 10
0.997847
 20
5.586555
 30
0.0
 40
0.0275
  1
62
 41
0.818182
  7
Style-ANSI_SYMBOLS
 72
     1
 11
1.016418
 21
5.600305
 31
0.0
100
AcDbText
 73
     2
  0
TEXT
  5
1048
330
12AE
100
AcDbEntity
  8
Level 1
  6
Continuous
 62
     7
370
     0
100
AcDbText
 10
0.89722
 20
5.586219
 30
0.0
 40
0.0275
  1
64
 41
0.818182
  7
Style-ANSI_SYMBOLS
 72
     1
 11
0.915791
 21
5.599969
 31
0.0
100
AcDbText
 73
     2
  0
TEXT
  5
1049
330
12AE
100
AcDbEntity
  8
Level 1
  6
Continuous
 62
     7
370
     0
100
AcDbText
 10
0.797535
 20
5.586219
 30
0.0
 40
0.0275
  1
66
 41
0.818182
  7
Style-ANSI_SYMBOLS
 72
     1
 11
0.816106
 21
5.599969
 31
0.0
100
AcDbText
 73
     2
  0
TEXT
  5
104A
330
12AE
100
AcDbEntity
  8
Level 1
  6
Continuous
 62
     7
370
     0
100
AcDbText
 10
0.697244
 20
5.586411
 30
0.0
 40
0.0275
  1
68
 41
0.818182
  7
Style-ANSI_SYMBOLS
 72
     1
 11
0.715815
 21
5.600161
 31
0.0
100
AcDbText
 73
     2
  0
TEXT
  5
104B
330
12AE
100
AcDbEntity
  8
Level 1
  6
Continuous
 62
     7
370
     0
100
AcDbText
 10
0.597349
 20
5.586411
 30
0.0
 40
0.0275
  1
70
 41
0.818182
  7
Style-ANSI_SYMBOLS
 72
     1
 11
0.61592
 21
5.600161
 31
0.0
100
AcDbText
 73
     2
  0
TEXT
  5
104C
330
12AE
100
AcDbEntity
  8
Level 1
  6
Continuous
 62
     7
370
     0
100
AcDbText
 10
0.497855
 20
5.586411
 30
0.0
 40
0.0275
  1
72
 41
0.818182
  7
Style-ANSI_SYMBOLS
 72
     1
 11
0.516426
 21
5.600161
 31
0.0
100
AcDbText
 73
     2
  0
TEXT
  5
104D
330
12AE
100
AcDbEntity
  8
Level 1
  6
Continuous
 62
     7
370
     0
100
AcDbText
 10
0.395974
 20
5.585613
 30
0.0
 40
0.0275
  1
74
 41
0.818182
  7
Style-ANSI_SYMBOLS
 72
     1
 11
0.414545
 21
5.599363
 31
0.0
100
AcDbText
 73
     2
  0
TEXT
  5
104E
330
12AE
100
AcDbEntity
  8
Level 1
  6
Continuous
 62
     7
370
     0
100
AcDbText
 10
1.547654
 20
5.485903
 30
0.0
 40
0.0275
  1
76
 41
0.818182
  7
Style-ANSI_SYMBOLS
 72
     1
 11
1.566225
 21
5.499653
 31
0.0
100
AcDbText
 73
     2
  0
TEXT
  5
104F
330
12AE
100
AcDbEntity
  8
Level 1
  6
Continuous
 62
     7
370
     0
100
AcDbText
 10
1.447463
 20
5.485804
 30
0.0
 40
0.0275
  1
78
 41
0.818182
  7
Style-ANSI_SYMBOLS
 72
     1
 11
1.466034
 21
5.499554
 31
0.0
100
AcDbText
 73
     2
  0
TEXT
  5
1050
330
12AE
100
AcDbEntity
  8
Level 1
  6
Continuous
 62
     7
370
     0
100
AcDbText
 10
1.347726
 20
5.48623
 30
0.0
 40
0.0275
  1
80
 41
0.818182
  7
Style-ANSI_SYMBOLS
 72
     1
 11
1.366297
 21
5.49998
 31
0.0
100
AcDbText
 73
     2
  0
TEXT
  5
1051
330
12AE
100
AcDbEntity
  8
Level 1
  6
Continuous
 62
     7
370
     0
100
AcDbText
 10
1.247863
 20
5.486131
 30
0.0
 40
0.0275
  1
82
 41
0.818182
  7
Style-ANSI_SYMBOLS
 72
     1
 11
1.266434
 21
5.499881
 31
0.0
100
AcDbText
 73
     2
  0
TEXT
  5
1052
330
12AE
100
AcDbEntity
  8
Level 1
  6
Continuous
 62
     7
370
     0
100
AcDbText
 10
1.147371
 20
5.48623
 30
0.0
 40
0.0275
  1
84
 41
0.818182
  7
Style-ANSI_SYMBOLS
 72
     1
 11
1.165942
 21
5.49998
 31
0.0
100
AcDbText
 73
     2
  0
TEXT
  5
1053
330
12AE
100
AcDbEntity
  8
Level 1
  6
Continuous
 62
     7
370
     0
100
AcDbText
 10
1.046528
 20
5.485804
 30
0.0
 40
0.0275
  1
86
 41
0.818182
  7
Style-ANSI_SYMBOLS
 72
     1
 11
1.065099
 21
5.499554
 31
0.0
100
AcDbText
 73
     2
  0
TEXT
  5
1054
330
12AE
100
AcDbEntity
  8
Level 1
  6
Continuous
 62
     7
370
     0
100
AcDbText
 10
0.947544
 20
5.485903
 30
0.0
 40
0.0275
  1
88
 41
0.818182
  7
Style-ANSI_SYMBOLS
 72
     1
 11
0.966115
 21
5.499653
 31
0.0
100
AcDbText
 73
     2
  0
TEXT
  5
1055
330
12AE
100
AcDbEntity
  8
Level 1
  6
Continuous
 62
     7
370
     0
100
AcDbText
 10
0.844965
 20
5.48623
 30
0.0
 40
0.0275
  1
90
 41
0.818182
  7
Style-ANSI_SYMBOLS
 72
     1
 11
0.863536
 21
5.49998
 31
0.0
100
AcDbText
 73
     2
  0
TEXT
  5
1056
330
12AE
100
AcDbEntity
  8
Level 1
  6
Continuous
 62
     7
370
     0
100
AcDbText
 10
0.748369
 20
5.486131
 30
0.0
 40
0.0275
  1
92
 41
0.818182
  7
Style-ANSI_SYMBOLS
 72
     1
 11
0.76694
 21
5.499881
 31
0.0
100
AcDbText
 73
     2
  0
TEXT
  5
1057
330
12AE
100
AcDbEntity
  8
Level 1
  6
Continuous
 62
     7
370
     0
100
AcDbText
 10
0.647199
 20
5.486131
 30
0.0
 40
0.0275
  1
94
 41
0.818182
  7
Style-ANSI_SYMBOLS
 72
     1
 11
0.66577
 21
5.499881
 31
0.0
100
AcDbText
 73
     2
  0
TEXT
  5
1058
330
12AE
100
AcDbEntity
  8
Level 1
  6
Continuous
 62
     7
370
     0
100
AcDbText
 10
0.549196
 20
5.485804
 30
0.0
 40
0.0275
  1
96
 41
0.818182
  7
Style-ANSI_SYMBOLS
 72
     1
 11
0.567767
 21
5.499554
 31
0.0
100
AcDbText
 73
     2
  0
TEXT
  5
1059
330
12AE
100
AcDbEntity
  8
Level 1
  6
Continuous
 62
     7
370
     0
100
AcDbText
 10
0.447598
 20
5.48603
 30
0.0
 40
0.0275
  1
98
 41
0.818182
  7
Style-ANSI_SYMBOLS
 72
     1
 11
0.466169
 21
5.49978
 31
0.0
100
AcDbText
 73
     2
  0
TEXT
  5
105A
330
12AE
100
AcDbEntity
  8
Level 1
  6
Continuous
 62
     7
370
     0
100
AcDbText
 10
0.334323
 20
5.485804
 30
0.0
 40
0.0275
  1
100
 41
0.818182
  7
Style-ANSI_SYMBOLS
 72
     1
 11
0.364144
 21
5.499554
 31
0.0
100
AcDbText
 73
     2
  0
TEXT
  5
105B
330
12AE
100
AcDbEntity
  8
Level 1
  6
Continuous
 62
     7
370
     0
100
AcDbText
 10
1.497609
 20
5.385667
 30
0.0
 40
0.0275
  1
77
 41
0.818182
  7
Style-ANSI_SYMBOLS
 72
     1
 11
1.51618
 21
5.399417
 31
0.0
100
AcDbText
 73
     2
  0
TEXT
  5
105C
330
12AE
100
AcDbEntity
  8
Level 1
  6
Continuous
 62
     7
370
     0
100
AcDbText
 10
1.398625
 20
5.385768
 30
0.0
 40
0.0275
  1
79
 41
0.818182
  7
Style-ANSI_SYMBOLS
 72
     1
 11
1.417196
 21
5.399518
 31
0.0
100
AcDbText
 73
     2
  0
TEXT
  5
105D
330
12AE
100
AcDbEntity
  8
Level 1
  6
Continuous
 62
     7
370
     0
100
AcDbText
 10
1.301104
 20
5.385768
 30
0.0
 40
0.0275
  1
81
 41
0.818182
  7
Style-ANSI_SYMBOLS
 72
     1
 11
1.315925
 21
5.399518
 31
0.0
100
AcDbText
 73
     2
  0
TEXT
  5
105E
330
12AE
100
AcDbEntity
  8
Level 1
  6
Continuous
 62
     7
370
     0
100
AcDbText
 10
1.19631
 20
5.385867
 30
0.0
 40
0.0275
  1
83
 41
0.818182
  7
Style-ANSI_SYMBOLS
 72
     1
 11
1.214881
 21
5.399617
 31
0.0
100
AcDbText
 73
     2
  0
TEXT
  5
105F
330
12AE
100
AcDbEntity
  8
Level 1
  6
Continuous
 62
     7
370
     0
100
AcDbText
 10
1.097326
 20
5.386095
 30
0.0
 40
0.0275
  1
85
 41
0.818182
  7
Style-ANSI_SYMBOLS
 72
     1
 11
1.115897
 21
5.399845
 31
0.0
100
AcDbText
 73
     2
  0
TEXT
  5
1060
330
12AE
100
AcDbEntity
  8
Level 1
  6
Continuous
 62
     7
370
     0
100
AcDbText
 10
0.996382
 20
5.386095
 30
0.0
 40
0.0275
  1
87
 41
0.818182
  7
Style-ANSI_SYMBOLS
 72
     1
 11
1.014953
 21
5.399845
 31
0.0
100
AcDbText
 73
     2
  0
TEXT
  5
1061
330
12AE
100
AcDbEntity
  8
Level 1
  6
Continuous
 62
     7
370
     0
100
AcDbText
 10
0.898053
 20
5.385768
 30
0.0
 40
0.0275
  1
89
 41
0.818182
  7
Style-ANSI_SYMBOLS
 72
     1
 11
0.916624
 21
5.399518
 31
0.0
100
AcDbText
 73
     2
  0
TEXT
  5
1062
330
12AE
100
AcDbEntity
  8
Level 1
  6
Continuous
 62
     7
370
     0
100
AcDbText
 10
0.801285
 20
5.385867
 30
0.0
 40
0.0275
  1
91
 41
0.818182
  7
Style-ANSI_SYMBOLS
 72
     1
 11
0.816106
 21
5.399617
 31
0.0
100
AcDbText
 73
     2
  0
TEXT
  5
1063
330
12AE
100
AcDbEntity
  8
Level 1
  6
Continuous
 62
     7
370
     0
100
AcDbText
 10
0.697898
 20
5.386194
 30
0.0
 40
0.0275
  1
93
 41
0.818182
  7
Style-ANSI_SYMBOLS
 72
     1
 11
0.716469
 21
5.399944
 31
0.0
100
AcDbText
 73
     2
  0
TEXT
  5
1064
330
12AE
100
AcDbEntity
  8
Level 1
  6
Continuous
 62
     7
370
     0
100
AcDbText
 10
0.59728
 20
5.385867
 30
0.0
 40
0.0275
  1
95
 41
0.818182
  7
Style-ANSI_SYMBOLS
 72
     1
 11
0.615851
 21
5.399617
 31
0.0
100
AcDbText
 73
     2
  0
TEXT
  5
1065
330
12AE
100
AcDbEntity
  8
Level 1
  6
Continuous
 62
     7
370
     0
100
AcDbText
 10
0.497416
 20
5.385867
 30
0.0
 40
0.0275
  1
97
 41
0.818182
  7
Style-ANSI_SYMBOLS
 72
     1
 11
0.515987
 21
5.399617
 31
0.0
100
AcDbText
 73
     2
  0
TEXT
  5
1066
330
12AE
100
AcDbEntity
  8
Level 1
  6
Continuous
 62
     7
370
     0
100
AcDbText
 10
0.396699
 20
5.386194
 30
0.0
 40
0.0275
  1
99
 41
0.818182
  7
Style-ANSI_SYMBOLS
 72
     1
 11
0.41527
 21
5.399944
 31
0.0
100
AcDbText
 73
     2
  0
DIMENSION
  5
DA2
330
12AE
100
AcDbEntity
  8
Level 1
  6
Continuous
 62
     7
370
     0
100
AcDbDimension
  2
*D17
 10
1.840655
 20
6.379579
 30
0.0
 11
1.061308
 21
6.379579
 31
0.0
 70
   160
 71
     5
 42
1.8
 73
     0
 74
     0
 75
     0
  3
Standard
100
AcDbAlignedDimension
 13
0.040655
 23
5.92821
 33
0.0
 14
1.840655
 24
5.92821
 34
0.0
100
AcDbRotatedDimension
1001
ACAD
1000
DSTYLE
1002
{
1070
    78
1070
     7
1070
   288
1070
     0
1070
   284
1070
     7
1070
   140
1040
0.03
1070
   340
1005
13A3
1070
    47
1040
0.0
1070
   283
1070
     0
1070
    48
1040
0.0
1070
   272
1070
     3
1070
     3
1000
\X
1070
   147
1040
0.009
1070
   276
1070
     2
1070
    42
1040
0.018
1070
    44
1040
0.015
1070
    43
1040
0.0
1070
   271
1070
     3
1070
   289
1070
     1
1070
    41
1040
0.045
1070
   285
1070
    15
1070
   286
1070
    15
1070
   170
1070
     1
1002
}
  0
DIMENSION
  5
DA3
330
12AE
100
AcDbEntity
  8
Level 1
  6
Continuous
 62
     7
370
     0
100
AcDbDimension
  2
*D23
 10
0.315655
 20
6.260483
 30
0.0
 11
0.16461
 21
6.260483
 31
0.0
 70
   160
 71
     5
 42
0.275
 73
     0
 74
     0
 75
     0
  3
Standard
100
AcDbAlignedDimension
 13
0.040655
 23
5.92821
 33
0.0
 14
0.315655
 24
6.02821
 34
0.0
100
AcDbRotatedDimension
1001
ACAD
1000
DSTYLE
1002
{
1070
    78
1070
     7
1070
   288
1070
     0
1070
   284
1070
     7
1070
   140
1040
0.03
1070
   340
1005
13A3
1070
    47
1040
0.0
1070
   283
1070
     0
1070
    48
1040
0.0
1070
   272
1070
     3
1070
     3
1000
\X
1070
   147
1040
0.009
1070
   276
1070
     2
1070
    42
1040
0.018
1070
    44
1040
0.015
1070
    43
1040
0.0
1070
   271
1070
     3
1070
   289
1070
     1
1070
    41
1040
0.045
1070
   285
1070
    15
1070
   286
1070
    15
1070
   170
1070
     1
1002
}
  0
DIMENSION
  5
F35
330
12AE
100
AcDbEntity
  8
Level 1
  6
Continuous
 62
     7
370
     0
100
AcDbDimension
  2
*D27
 10
0.360952
 20
6.02821
 30
0.0
 11
0.162309
 21
5.697075
 31
0.0
 70
   160
  1
<> TYP
 71
     5
 42
0.1
 73
     0
 74
     0
 75
     0
  3
Standard
100
AcDbAlignedDimension
 13
-0.033304
 23
5.92821
 33
0.0
 14
0.315655
 24
6.02821
 34
0.0
 50
90.0
100
AcDbRotatedDimension
1001
ACAD
1000
DSTYLE
1002
{
1070
    78
1070
     7
1070
   288
1070
     0
1070
   284
1070
     7
1070
   140
1040
0.03
1070
   340
1005
13A3
1070
    47
1040
0.0
1070
   283
1070
     0
1070
    48
1040
0.0
1070
   272
1070
     3
1070
     3
1000
\X
1070
   147
1040
0.009
1070
   276
1070
     2
1070
    42
1040
0.018
1070
    44
1040
0.015
1070
    43
1040
0.0
1070
   271
1070
     3
1070
   289
1070
     1
1070
    41
1040
0.045
1070
   285
1070
    15
1070
   286
1070
    15
1070
   170
1070
     1
1002
}
  0
DIMENSION
  5
DAD
330
12AE
100
AcDbEntity
  8
Level 1
  6
Continuous
 62
     7
370
     0
100
AcDbDimension
  2
*D28
 10
0.365655
 20
5.286872
 30
0.0
 11
0.61591
 21
5.286872
 31
0.0
 70
   160
 71
     5
 42
0.05
 73
     0
 74
     0
 75
     0
  3
Standard
100
AcDbAlignedDimension
 13
0.315655
 23
6.02821
 33
0.0
 14
0.365655
 24
5.52821
 34
0.0
100
AcDbRotatedDimension
1001
ACAD
1000
DSTYLE
1002
{
1070
    78
1070
     7
1070
   288
1070
     0
1070
   284
1070
     7
1070
   140
1040
0.03
1070
   340
1005
13A3
1070
    47
1040
0.0
1070
   283
1070
     0
1070
    48
1040
0.0
1070
   272
1070
     3
1070
     3
1000
\X
1070
   147
1040
0.009
1070
   276
1070
     2
1070
    42
1040
0.018
1070
    44
1040
0.015
1070
    43
1040
0.0
1070
   271
1070
     3
1070
   289
1070
     1
1070
    41
1040
0.045
1070
   285
1070
    15
1070
   286
1070
    15
1070
   170
1070
     1
1002
}
  0
DIMENSION
  5
DAE
330
12AE
100
AcDbEntity
  8
Level 1
  6
Continuous
 62
     7
370
     0
100
AcDbDimension
  2
*D26
 10
0.415655
 20
5.192378
 30
0.0
 11
0.072012
 21
5.192378
 31
0.0
 70
   160
  1
<> TYP
 71
     5
 42
0.1
 73
     0
 74
     0
 75
     0
  3
Standard
100
AcDbAlignedDimension
 13
0.315655
 23
6.02821
 33
0.0
 14
0.415655
 24
5.42821
 34
0.0
100
AcDbRotatedDimension
1001
ACAD
1000
DSTYLE
1002
{
1070
    78
1070
     7
1070
   288
1070
     0
1070
   284
1070
     7
1070
   140
1040
0.03
1070
   340
1005
13A3
1070
    47
1040
0.0
1070
   283
1070
     0
1070
    48
1040
0.0
1070
   272
1070
     3
1070
     3
1000
\X
1070
   147
1040
0.009
1070
   276
1070
     2
1070
    42
1040
0.018
1070
    44
1040
0.015
1070
    43
1040
0.0
1070
   271
1070
     3
1070
   289
1070
     1
1070
    41
1040
0.045
1070
   285
1070
    15
1070
   286
1070
    15
1070
   170
1070
     1
1002
}
  0
TEXT
  5
C2D
330
12AE
100
AcDbEntity
  8
Level 1
  6
Continuous
 62
     7
370
     0
100
AcDbText
 10
0.87598
 20
5.215379
 30
0.0
 40
0.03
  1
SIZE 100
 41
0.916667
  7
Style-ANSI_SYMBOLS
 72
     1
 11
0.981178
 21
5.230379
 31
0.0
100
AcDbText
 73
     2
  0
LEADER
  5
12AB
330
12AE
100
AcDbEntity
  8
Level 55
  6
Continuous
 62
     7
370
     0
100
AcDbLeader
  3
Standard
 76
     3
 10
1.878823
 20
5.962742
 30
0.0
 10
1.958163
 20
6.05405
 30
0.0
 10
1.993866
 20
6.05405
 30
0.0
211
-1.0
221
0.0
231
0.0
210
0.0
220
0.0
230
-1.0
1001
ACAD
1000
DSTYLE
1002
{
1070
   140
1040
0.03
1070
   340
1005
13A3
1070
   147
1040
0.015
1070
    41
1040
0.045
1002
}
  0
TEXT
  5
12AC
330
12AE
100
AcDbEntity
  8
Level 1
  6
Continuous
 62
     7
370
     0
100
AcDbText
 10
2.013988
 20
6.043019
 30
0.0
 40
0.03
  1
%%c.096 [2.44]
 41
0.916667
 72
     1
 11
2.144613
 21
6.058019
 31
0.0
100
AcDbText
 73
     2
  0
INSERT
  5
6F0
330
12AE
100
AcDbEntity
  8
0
  6
Continuous
 62
     7
370
     0
100
AcDbBlockReference
  2
umiborder
 10
0.0
 20
0.0
 30
0.0
  0
INSERT
  5
73A
330
12AE
100
AcDbEntity
  8
0
  6
Continuous
 62
     7
370
     0
100
AcDbBlockReference
  2
Style 1  PCB layouts
 10
0.0
 20
0.0
 30
0.0
  0
VIEWPORT
  5
1478
330
12C1
100
AcDbEntity
 67
     1
  8
0
  6
Continuous
 62
     7
370
     0
100
AcDbViewport
 10
5.250184
 20
4.000122
 30
0.0
 40
8.400879
 41
6.40091
 68
     0
 69
     2
 12
5.250184
 22
4.000122
 13
0.0
 23
0.0
 14
0.0
 24
0.0
 15
3.937008
 25
3.937008
 16
0.0
 26
0.0
 36
1.0
 17
0.0
 27
0.0
 37
0.0
 42
50.0
 43
0.0
 44
0.0
 45
6.40091
 50
0.0
 51
0.0
 72
   100
 90
    32768
  1

281
     0
 71
     1
 74
     1
110
0.0
120
0.0
130
0.0
111
1.0
121
0.0
131
0.0
112
0.0
122
1.0
132
0.0
 79
     0
146
0.0
170
     0
 61
    10
348
12D5
292
     1
282
     1
141
0.0
142
0.0
 63
   250
421
  3355443
  0
VIEWPORT
  5
15DF
330
12C1
100
AcDbEntity
 67
     1
  8
0
 62
     7
370
     0
100
AcDbViewport
 10
5.250184
 20
4.000122
 30
0.0
 40
8.400879
 41
6.40091
 68
    -1
 69
     1
 12
5.250184
 22
4.000122
 13
0.0
 23
0.0
 14
0.0
 24
0.0
 15
0.0
 25
0.0
 16
0.0
 26
0.0
 36
1.0
 17
0.0
 27
0.0
 37
0.0
 42
50.0
 43
0.0
 44
0.0
 45
6.40091
 50
0.0
 51
0.0
 72
   100
 90
    32768
  1

281
     0
 71
     1
 74
     1
110
0.0
120
0.0
130
0.0
111
1.0
121
0.0
131
0.0
112
0.0
122
1.0
132
0.0
 79
     0
146
0.0
170
     0
 61
     5
292
     1
282
     1
141
0.0
142
0.0
 63
   250
421
  3355443
  0
ENDSEC
  0
SECTION
  2
OBJECTS
  0
DICTIONARY
  5
12B3
330
0
100
AcDbDictionary
281
     1
  3
ACAD_COLOR
350
12EF
  3
ACAD_GROUP
350
12DC
  3
ACAD_LAYOUT
350
12C0
  3
ACAD_MATERIAL
350
12B5
  3
ACAD_MLEADERSTYLE
350
12F2
  3
ACAD_MLINESTYLE
350
12DD
  3
ACAD_PLOTSETTINGS
350
12DE
  3
ACAD_PLOTSTYLENAME
350
12B2
  3
ACAD_SCALELIST
350
12F0
  3
ACAD_TABLESTYLE
350
12F1
  3
ACAD_VISUALSTYLE
350
12D6
  3
AcadDim
350
13A4
  3
ACDB_RECOMPOSE_DATA
350
252A
  3
AcDbVariableDictionary
350
143D
  3
MicroStation
350
1531
  0
DICTIONARY
  5
12C9
330
12C8
100
AcDbDictionary
280
     1
281
     1
  3
ACAD_LAYERFILTERS
360
139E
  3
ACAD_LAYERSTATES
360
12CA
  0
DICTIONARY
  5
139F
330
110
100
AcDbDictionary
280
     1
281
     1
  3
ADSK_XREC_VTRVIEWINFO
360
13A0
  0
DICTIONARY
  5
13A1
330
112
100
AcDbDictionary
280
     1
281
     1
  3
ADSK_XREC_VTRVIEWINFO
360
13A2
  0
DICTIONARY
  5
143A
330
12AE
100
AcDbDictionary
280
     1
281
     1
  3
ACAD_SORTENTS
360
143B
  0
DICTIONARY
  5
1725
330
12C1
100
AcDbDictionary
280
     1
281
     1
  3
ACAD_SORTENTS
360
1726
  0
DICTIONARY
  5
12EF
102
{ACAD_REACTORS
330
12B3
102
}
330
12B3
100
AcDbDictionary
281
     1
  0
DICTIONARY
  5
12DC
102
{ACAD_REACTORS
330
12B3
102
}
330
12B3
100
AcDbDictionary
281
     1
  0
DICTIONARY
  5
12C0
102
{ACAD_REACTORS
330
12B3
102
}
330
12B3
100
AcDbDictionary
281
     1
  3
Layout1
350
12C4
  3
Model
350
12BF
  0
DICTIONARY
  5
12B5
102
{ACAD_REACTORS
330
12B3
102
}
330
12B3
100
AcDbDictionary
281
     1
  3
ByBlock
350
12E7
  3
ByLayer
350
12DF
  3
Global
350
12B4
  0
DICTIONARY
  5
12F2
102
{ACAD_REACTORS
330
12B3
102
}
330
12B3
100
AcDbDictionary
281
     1
  3
Standard
350
1462
  0
DICTIONARY
  5
12DD
102
{ACAD_REACTORS
330
12B3
102
}
330
12B3
100
AcDbDictionary
281
     1
  3
Standard
350
12F3
  0
DICTIONARY
  5
12DE
102
{ACAD_REACTORS
330
12B3
102
}
330
12B3
100
AcDbDictionary
281
     1
  0
ACDBDICTIONARYWDFLT
  5
12B2
102
{ACAD_REACTORS
330
12B3
102
}
330
12B3
100
AcDbDictionary
281
     1
  3
Normal
350
12B1
100
AcDbDictionaryWithDefault
340
12B1
  0
DICTIONARY
  5
12F0
102
{ACAD_REACTORS
330
12B3
102
}
330
12B3
100
AcDbDictionary
281
     1
  3
A0
350
12F7
  3
A1
350
12F8
  3
A2
350
12F9
  3
A3
350
12FA
  3
A4
350
12FB
  3
A5
350
12FC
  3
A6
350
12FD
  3
A7
350
12FE
  3
A8
350
12FF
  3
A9
350
1300
  3
B0
350
1301
  3
B1
350
1302
  3
B2
350
1303
  3
B3
350
1304
  3
B4
350
1305
  3
B5
350
1306
  3
B6
350
1307
  3
B7
350
1308
  3
B8
350
1309
  3
B9
350
130A
  3
C0
350
130B
  3
C1
350
130C
  3
C2
350
130D
  3
C3
350
130E
  3
C4
350
130F
  3
C5
350
1310
  3
C6
350
1311
  3
C7
350
1312
  3
C8
350
1313
  3
C9
350
1314
  3
D0
350
1315
  3
D1
350
1316
  3
D2
350
1317
  0
DICTIONARY
  5
12F1
102
{ACAD_REACTORS
330
12B3
102
}
330
12B3
100
AcDbDictionary
281
     1
  3
Standard
350
12F4
  0
DICTIONARY
  5
12D6
102
{ACAD_REACTORS
330
12B3
102
}
330
12B3
100
AcDbDictionary
281
     1
  3
2dWireframe
350
12D5
  3
3D Hidden
350
1457
  3
3dWireframe
350
12F6
  3
Basic
350
1456
  3
Brighten
350
145A
  3
ColorChange
350
145E
  3
Conceptual
350
1458
  3
Dim
350
1459
  3
EdgeColorOff
350
1461
  3
Facepattern
350
145D
  3
Flat
350
1452
  3
FlatWithEdges
350
1453
  3
Gouraud
350
1454
  3
GouraudWithEdges
350
1455
  3
JitterOff
350
145F
  3
Linepattern
350
145C
  3
OverhangOff
350
1460
  3
Realistic
350
12F5
  3
Thicken
350
145B
  0
XRECORD
  5
13A4
102
{ACAD_REACTORS
330
12B3
102
}
330
12B3
100
AcDbXrecord
280
     1
 90
   990106
  3
 
 60
     0
 61
     0
 62
     1
 63
     1
 64
     0
 65
     0
 66
     0
 67
     3
 68
     1
 69
     1
 70
     0
 71
     0
 72
     0
 40
0.0
170
     0
  0
XRECORD
  5
252A
102
{ACAD_REACTORS
330
12B3
102
}
330
12B3
100
AcDbXrecord
280
     1
 90
        1
330
12F4
  0
DICTIONARY
  5
143D
102
{ACAD_REACTORS
330
12B3
102
}
330
12B3
100
AcDbDictionary
281
     1
  3
CANNOSCALE
350
1441
  3
CMLEADERSTYLE
350
143F
  3
CTABLESTYLE
350
143E
  3
LAYEREVAL
350
1443
  3
LAYERNOTIFY
350
1444
  3
LIGHTINGUNITS
350
1442
  3
MSLTSCALE
350
1440
  0
DICTIONARY
  5
1531
102
{ACAD_REACTORS
330
12B3
102
}
330
12B3
100
AcDbDictionary
281
     1
  0
DICTIONARY
  5
139E
102
{ACAD_REACTORS
330
12C9
102
}
330
12C9
100
AcDbDictionary
281
     1
  0
DICTIONARY
  5
12CA
102
{ACAD_REACTORS
330
12C9
102
}
330
12C9
100
AcDbDictionary
281
     1
  0
XRECORD
  5
13A0
102
{ACAD_REACTORS
330
139F
102
}
330
139F
100
AcDbXrecord
280
     1
290
     0
292
     0
330
12BF
294
     0
  0
XRECORD
  5
13A2
102
{ACAD_REACTORS
330
13A1
102
}
330
13A1
100
AcDbXrecord
280
     1
290
     0
292
     0
330
12BF
294
     0
  0
SORTENTSTABLE
  5
143B
102
{ACAD_REACTORS
330
143A
102
}
330
143A
100
AcDbSortentsTable
330
12AE
331
BA6
  5
BA6
331
B67
  5
B67
331
103C
  5
1036
331
1044
  5
103E
331
BAE
  5
BAE
331
1005
  5
DAB
331
B6F
  5
B6F
331
104C
  5
1046
331
B77
  5
B77
331
BB6
  5
BB6
331
100D
  5
1007
331
1015
  5
100F
331
1054
  5
104E
331
B7F
  5
B7F
331
BBE
  5
BBE
331
73A
  5
73A
331
12AB
  5
12AB
331
DA3
  5
1062
331
DAB
  5
DA8
331
BC6
  5
BC6
331
101D
  5
1017
331
B87
  5
B87
331
105C
  5
1056
331
BCE
  5
BCE
331
1025
  5
101F
331
B8F
  5
B8F
331
1064
  5
105E
331
B97
  5
B97
331
102D
  5
1027
331
1035
  5
102F
331
B9F
  5
B9F
331
103D
  5
1037
331
B68
  5
B68
331
BA7
  5
BA7
331
1006
  5
DAD
331
1045
  5
103F
331
B70
  5
B70
331
BAF
  5
BAF
331
100E
  5
1008
331
B78
  5
B78
331
104D
  5
1047
331
1055
  5
104F
331
BBF
  5
BBF
331
1016
  5
1010
331
12AC
  5
12AC
331
DA4
  5
DA0
331
B80
  5
B80
331
105D
  5
1057
331
B88
  5
B88
331
BC7
  5
BC7
331
101E
  5
1018
331
1026
  5
1020
331
1065
  5
105F
331
BCF
  5
BCF
331
102E
  5
1028
331
B98
  5
B98
331
1036
  5
1030
331
BA0
  5
BA0
331
C2D
  5
1066
331
BA8
  5
BA8
331
D9F
  5
C2D
331
B69
  5
B69
331
103E
  5
1038
331
1046
  5
1040
331
B71
  5
B71
331
BB0
  5
BB0
331
1007
  5
DAE
331
104E
  5
1048
331
B79
  5
B79
331
BB8
  5
BB8
331
100F
  5
1009
331
1017
  5
1011
331
1056
  5
1050
331
DA5
  5
DA2
331
DAD
  5
1064
331
B81
  5
B81
331
BC0
  5
BC0
331
BC8
  5
BC8
331
101F
  5
1019
331
B89
  5
B89
331
105E
  5
1058
331
1066
  5
1060
331
BD0
  5
BD0
331
1027
  5
1021
331
B91
  5
B91
331
B99
  5
B99
331
102F
  5
1029
331
1037
  5
1031
331
F35
  5
1063
331
BA1
  5
BA1
331
103F
  5
1039
331
B6A
  5
B6A
331
BA9
  5
BA9
331
1008
  5
F35
331
1047
  5
1041
331
B72
  5
B72
331
BB1
  5
BB1
331
BB9
  5
BB9
331
1010
  5
100A
331
B7A
  5
B7A
331
104F
  5
1049
331
1057
  5
1051
331
DA6
  5
DA3
331
DAE
  5
1065
331
BC1
  5
BC1
331
1018
  5
1012
331
105F
  5
1059
331
B8A
  5
B8A
331
BC9
  5
BC9
331
1020
  5
101A
331
1028
  5
1022
331
B92
  5
B92
331
1030
  5
102A
331
B9A
  5
B9A
331
1038
  5
1032
331
BA2
  5
BA2
331
B6B
  5
B6B
331
1040
  5
103A
331
1048
  5
1042
331
B73
  5
B73
331
BB2
  5
BB2
331
1009
  5
1003
331
1011
  5
100B
331
1050
  5
104A
331
B7B
  5
B7B
331
BBA
  5
BBA
331
DA7
  5
DA4
331
1019
  5
1013
331
1058
  5
1052
331
B83
  5
B83
331
BC2
  5
BC2
331
BCA
  5
BCA
331
1021
  5
101B
331
B8B
  5
B8B
331
1060
  5
105A
331
B93
  5
B93
331
1029
  5
1023
331
B9B
  5
B9B
331
1031
  5
102B
331
1039
  5
1033
331
BA3
  5
BA3
331
1041
  5
103B
331
B6C
  5
B6C
331
BAB
  5
BAB
331
100A
  5
1004
331
1049
  5
1043
331
BB3
  5
BB3
331
BBB
  5
BBB
331
1012
  5
100C
331
B7C
  5
B7C
331
1051
  5
104B
331
DA0
  5
D9F
331
DA8
  5
DA5
331
1059
  5
1053
331
B84
  5
B84
331
BC3
  5
BC3
331
101A
  5
1014
331
1022
  5
101C
331
1061
  5
105B
331
B8C
  5
B8C
331
BCB
  5
BCB
331
102A
  5
1024
331
B94
  5
B94
331
1032
  5
102C
331
B9C
  5
B9C
331
6F0
  5
6F0
331
BA4
  5
BA4
331
103A
  5
1034
331
BAC
  5
BAC
331
1003
  5
DA9
331
B6D
  5
B6D
331
1042
  5
103C
331
104A
  5
1044
331
B75
  5
B75
331
BB4
  5
BB4
331
100B
  5
1005
331
1013
  5
100D
331
1052
  5
104C
331
B7D
  5
B7D
331
BBC
  5
BBC
331
DA9
  5
DA6
331
101B
  5
1015
331
105A
  5
1054
331
B85
  5
B85
331
BC4
  5
BC4
331
BCC
  5
BCC
331
1023
  5
101D
331
B8D
  5
B8D
331
1062
  5
105C
331
B95
  5
B95
331
102B
  5
1025
331
1033
  5
102D
331
103B
  5
1035
331
BA5
  5
BA5
331
1004
  5
DAA
331
1043
  5
103D
331
B6E
  5
B6E
331
BAD
  5
BAD
331
BB5
  5
BB5
331
100C
  5
1006
331
B76
  5
B76
331
104B
  5
1045
331
BBD
  5
BBD
331
1014
  5
100E
331
B7E
  5
B7E
331
1053
  5
104D
331
DA2
  5
1061
331
105B
  5
1055
331
B86
  5
B86
331
BC5
  5
BC5
331
101C
  5
1016
331
1024
  5
101E
331
1063
  5
105D
331
B8E
  5
B8E
331
BCD
  5
BCD
331
102C
  5
1026
331
B96
  5
B96
331
1034
  5
102E
331
B9E
  5
B9E
  0
SORTENTSTABLE
  5
1726
102
{ACAD_REACTORS
330
1725
102
}
330
1725
100
AcDbSortentsTable
330
12C1
331
1478
  5
1478
331
15DF
  5
15DF
  0
LAYOUT
  5
12C4
102
{ACAD_XDICTIONARY
360
12C5
102
}
102
{ACAD_REACTORS
330
12C0
102
}
330
12C0
100
AcDbPlotSettings
  1

  2
none_device
  4
Letter_(8.50_x_11.00_Inches)
  6

 40
6.35
 41
6.35
 42
6.350006
 43
6.350006
 44
215.899994
 45
279.399994
 46
0.0
 47
0.0
 48
0.0
 49
0.0
140
0.0
141
0.0
142
1.0
143
1.0
 70
   688
 72
     0
 73
     1
 74
     5
  7

 75
    16
147
1.0
 76
     0
 77
     2
 78
   300
148
0.0
149
0.0
100
AcDbLayout
  1
Layout1
 70
     1
 71
     1
 10
-0.25
 20
-0.25
 11
10.75
 21
8.25
 12
0.0
 22
0.0
 32
0.0
 14
1.049744
 24
0.799667
 34
-0.001526
 15
9.450623
 25
7.200577
 35
0.0
146
0.0
 13
0.0
 23
0.0
 33
0.0
 16
1.0
 26
0.0
 36
0.0
 17
0.0
 27
1.0
 37
0.0
 76
     0
330
12C1
1001
ACAD_PSEXT
1000
None
1000
None
1000
Not applicable
1000
The layout will not be plotted unless a new plotter configuration name is selected.
1070
     0
  0
LAYOUT
  5
12BF
102
{ACAD_REACTORS
330
12C0
102
}
330
12C0
100
AcDbPlotSettings
  1

  2
none_device
  4
ANSI_A_(8.50_x_11.00_Inches)
  6

 40
6.35
 41
19.049999
 42
6.350006
 43
19.049988
 44
215.899994
 45
279.399994
 46
0.0
 47
0.0
 48
0.0
 49
0.0
140
0.0
141
0.0
142
1.0
143
2.584895
 70
 11952
 72
     0
 73
     1
 74
     0
  7

 75
     0
147
0.386863
 76
     0
 77
     2
 78
   300
148
0.0
149
0.0
100
AcDbLayout
  1
Model
 70
     1
 71
     0
 10
0.0
 20
0.0
 11
12.0
 21
9.0
 12
0.0
 22
0.0
 32
0.0
 14
0.0
 24
0.0
 34
0.0
 15
0.0
 25
0.0
 35
0.0
146
0.0
 13
0.0
 23
0.0
 33
0.0
 16
1.0
 26
0.0
 36
0.0
 17
0.0
 27
1.0
 37
0.0
 76
     0
330
12AE
  0
MATERIAL
  5
12E7
102
{ACAD_XDICTIONARY
360
12E8
102
}
102
{ACAD_REACTORS
330
12B5
102
}
330
12B5
100
AcDbMaterial
  1
ByBlock
 72
     0
 43
0.020833
 43
0.0
 43
0.0
 43
0.0
 43
0.0
 43
0.020833
 43
0.0
 43
0.0
 43
0.0
 43
0.0
 43
1.0
 43
0.0
 43
0.0
 43
0.0
 43
0.0
 43
1.0
 77
     0
 47
0.020833
 47
0.0
 47
0.0
 47
0.0
 47
0.0
 47
0.020833
 47
0.0
 47
0.0
 47
0.0
 47
0.0
 47
1.0
 47
0.0
 47
0.0
 47
0.0
 47
0.0
 47
1.0
171
     0
 49
0.020833
 49
0.0
 49
0.0
 49
0.0
 49
0.0
 49
0.020833
 49
0.0
 49
0.0
 49
0.0
 49
0.0
 49
1.0
 49
0.0
 49
0.0
 49
0.0
 49
0.0
 49
1.0
175
     0
142
0.020833
142
0.0
142
0.0
142
0.0
142
0.0
142
0.020833
142
0.0
142
0.0
142
0.0
142
0.0
142
1.0
142
0.0
142
0.0
142
0.0
142
0.0
142
1.0
179
     0
144
0.020833
144
0.0
144
0.0
144
0.0
144
0.0
144
0.020833
144
0.0
144
0.0
144
0.0
144
0.0
144
1.0
144
0.0
144
0.0
144
0.0
144
0.0
144
1.0
147
0.020833
147
0.0
147
0.0
147
0.0
147
0.0
147
0.020833
147
0.0
147
0.0
147
0.0
147
0.0
147
1.0
147
0.0
147
0.0
147
0.0
147
0.0
147
1.0
  0
MATERIAL
  5
12DF
102
{ACAD_XDICTIONARY
360
12E0
102
}
102
{ACAD_REACTORS
330
12B5
102
}
330
12B5
100
AcDbMaterial
  1
ByLayer
 72
     0
 43
0.020833
 43
0.0
 43
0.0
 43
0.0
 43
0.0
 43
0.020833
 43
0.0
 43
0.0
 43
0.0
 43
0.0
 43
1.0
 43
0.0
 43
0.0
 43
0.0
 43
0.0
 43
1.0
 77
     0
 47
0.020833
 47
0.0
 47
0.0
 47
0.0
 47
0.0
 47
0.020833
 47
0.0
 47
0.0
 47
0.0
 47
0.0
 47
1.0
 47
0.0
 47
0.0
 47
0.0
 47
0.0
 47
1.0
171
     0
 49
0.020833
 49
0.0
 49
0.0
 49
0.0
 49
0.0
 49
0.020833
 49
0.0
 49
0.0
 49
0.0
 49
0.0
 49
1.0
 49
0.0
 49
0.0
 49
0.0
 49
0.0
 49
1.0
175
     0
142
0.020833
142
0.0
142
0.0
142
0.0
142
0.0
142
0.020833
142
0.0
142
0.0
142
0.0
142
0.0
142
1.0
142
0.0
142
0.0
142
0.0
142
0.0
142
1.0
179
     0
144
0.020833
144
0.0
144
0.0
144
0.0
144
0.0
144
0.020833
144
0.0
144
0.0
144
0.0
144
0.0
144
1.0
144
0.0
144
0.0
144
0.0
144
0.0
144
1.0
147
0.020833
147
0.0
147
0.0
147
0.0
147
0.0
147
0.020833
147
0.0
147
0.0
147
0.0
147
0.0
147
1.0
147
0.0
147
0.0
147
0.0
147
0.0
147
1.0
  0
MATERIAL
  5
12B4
102
{ACAD_XDICTIONARY
360
12B6
102
}
102
{ACAD_REACTORS
330
12B5
102
}
330
12B5
100
AcDbMaterial
  1
Global
 72
     0
 43
0.020833
 43
0.0
 43
0.0
 43
0.0
 43
0.0
 43
0.020833
 43
0.0
 43
0.0
 43
0.0
 43
0.0
 43
1.0
 43
0.0
 43
0.0
 43
0.0
 43
0.0
 43
1.0
 77
     0
 47
0.020833
 47
0.0
 47
0.0
 47
0.0
 47
0.0
 47
0.020833
 47
0.0
 47
0.0
 47
0.0
 47
0.0
 47
1.0
 47
0.0
 47
0.0
 47
0.0
 47
0.0
 47
1.0
171
     0
 49
0.020833
 49
0.0
 49
0.0
 49
0.0
 49
0.0
 49
0.020833
 49
0.0
 49
0.0
 49
0.0
 49
0.0
 49
1.0
 49
0.0
 49
0.0
 49
0.0
 49
0.0
 49
1.0
175
     0
142
0.020833
142
0.0
142
0.0
142
0.0
142
0.0
142
0.020833
142
0.0
142
0.0
142
0.0
142
0.0
142
1.0
142
0.0
142
0.0
142
0.0
142
0.0
142
1.0
179
     0
144
0.020833
144
0.0
144
0.0
144
0.0
144
0.0
144
0.020833
144
0.0
144
0.0
144
0.0
144
0.0
144
1.0
144
0.0
144
0.0
144
0.0
144
0.0
144
1.0
147
0.020833
147
0.0
147
0.0
147
0.0
147
0.0
147
0.020833
147
0.0
147
0.0
147
0.0
147
0.0
147
1.0
147
0.0
147
0.0
147
0.0
147
0.0
147
1.0
  0
MLEADERSTYLE
  5
1462
102
{ACAD_REACTORS
330
12F2
102
}
330
12F2
100
AcDbMLeaderStyle
170
     2
171
     1
172
     0
 90
        2
 40
0.0
 41
0.0
173
     1
 91
-1056964608
340
12CF
 92
       -2
290
     1
 42
0.09
291
     1
 43
0.36
  3
Standard
 44
0.18
300

342
12CC
174
     1
178
     6
175
     1
176
     0
 93
-1056964608
 45
0.18
292
     0
297
     0
 46
0.18
 94
-1056964608
 47
1.0
 49
1.0
140
1.0
293
     1
141
0.0
294
     1
177
     0
142
1.0
295
     0
296
     0
143
0.125
1001
ACAD_MLEADERVER
1070
     2
  0
MLINESTYLE
  5
12F3
102
{ACAD_REACTORS
330
12DD
102
}
330
12DD
100
AcDbMlineStyle
  2
STANDARD
 70
     0
  3

 62
   256
 51
90.0
 52
90.0
 71
     2
 49
0.5
 62
   256
  6
BYLAYER
 49
-0.5
 62
   256
  6
BYLAYER
  0
ACDBPLACEHOLDER
  5
12B1
102
{ACAD_REACTORS
330
12B2
102
}
330
12B2
  0
SCALE
  5
12F7
102
{ACAD_REACTORS
330
12F0
102
}
330
12F0
100
AcDbScale
 70
     0
300
1:1
140
1.0
141
1.0
290
     1
  0
SCALE
  5
12F8
102
{ACAD_REACTORS
330
12F0
102
}
330
12F0
100
AcDbScale
 70
     0
300
1:2
140
1.0
141
2.0
290
     0
  0
SCALE
  5
12F9
102
{ACAD_REACTORS
330
12F0
102
}
330
12F0
100
AcDbScale
 70
     0
300
1:4
140
1.0
141
4.0
290
     0
  0
SCALE
  5
12FA
102
{ACAD_REACTORS
330
12F0
102
}
330
12F0
100
AcDbScale
 70
     0
300
1:5
140
1.0
141
5.0
290
     0
  0
SCALE
  5
12FB
102
{ACAD_REACTORS
330
12F0
102
}
330
12F0
100
AcDbScale
 70
     0
300
1:8
140
1.0
141
8.0
290
     0
  0
SCALE
  5
12FC
102
{ACAD_REACTORS
330
12F0
102
}
330
12F0
100
AcDbScale
 70
     0
300
1:10
140
1.0
141
10.0
290
     0
  0
SCALE
  5
12FD
102
{ACAD_REACTORS
330
12F0
102
}
330
12F0
100
AcDbScale
 70
     0
300
1:16
140
1.0
141
16.0
290
     0
  0
SCALE
  5
12FE
102
{ACAD_REACTORS
330
12F0
102
}
330
12F0
100
AcDbScale
 70
     0
300
1:20
140
1.0
141
20.0
290
     0
  0
SCALE
  5
12FF
102
{ACAD_REACTORS
330
12F0
102
}
330
12F0
100
AcDbScale
 70
     0
300
1:30
140
1.0
141
30.0
290
     0
  0
SCALE
  5
1300
102
{ACAD_REACTORS
330
12F0
102
}
330
12F0
100
AcDbScale
 70
     0
300
1:40
140
1.0
141
40.0
290
     0
  0
SCALE
  5
1301
102
{ACAD_REACTORS
330
12F0
102
}
330
12F0
100
AcDbScale
 70
     0
300
1:50
140
1.0
141
50.0
290
     0
  0
SCALE
  5
1302
102
{ACAD_REACTORS
330
12F0
102
}
330
12F0
100
AcDbScale
 70
     0
300
1:100
140
1.0
141
100.0
290
     0
  0
SCALE
  5
1303
102
{ACAD_REACTORS
330
12F0
102
}
330
12F0
100
AcDbScale
 70
     0
300
2:1
140
2.0
141
1.0
290
     0
  0
SCALE
  5
1304
102
{ACAD_REACTORS
330
12F0
102
}
330
12F0
100
AcDbScale
 70
     0
300
4:1
140
4.0
141
1.0
290
     0
  0
SCALE
  5
1305
102
{ACAD_REACTORS
330
12F0
102
}
330
12F0
100
AcDbScale
 70
     0
300
8:1
140
8.0
141
1.0
290
     0
  0
SCALE
  5
1306
102
{ACAD_REACTORS
330
12F0
102
}
330
12F0
100
AcDbScale
 70
     0
300
10:1
140
10.0
141
1.0
290
     0
  0
SCALE
  5
1307
102
{ACAD_REACTORS
330
12F0
102
}
330
12F0
100
AcDbScale
 70
     0
300
100:1
140
100.0
141
1.0
290
     0
  0
SCALE
  5
1308
102
{ACAD_REACTORS
330
12F0
102
}
330
12F0
100
AcDbScale
 70
     0
300
1/128" = 1'-0"
140
0.007813
141
12.0
290
     0
  0
SCALE
  5
1309
102
{ACAD_REACTORS
330
12F0
102
}
330
12F0
100
AcDbScale
 70
     0
300
1/64" = 1'-0"
140
0.015625
141
12.0
290
     0
  0
SCALE
  5
130A
102
{ACAD_REACTORS
330
12F0
102
}
330
12F0
100
AcDbScale
 70
     0
300
1/32" = 1'-0"
140
0.03125
141
12.0
290
     0
  0
SCALE
  5
130B
102
{ACAD_REACTORS
330
12F0
102
}
330
12F0
100
AcDbScale
 70
     0
300
1/16" = 1'-0"
140
0.0625
141
12.0
290
     0
  0
SCALE
  5
130C
102
{ACAD_REACTORS
330
12F0
102
}
330
12F0
100
AcDbScale
 70
     0
300
3/32" = 1'-0"
140
0.09375
141
12.0
290
     0
  0
SCALE
  5
130D
102
{ACAD_REACTORS
330
12F0
102
}
330
12F0
100
AcDbScale
 70
     0
300
1/8" = 1'-0"
140
0.125
141
12.0
290
     0
  0
SCALE
  5
130E
102
{ACAD_REACTORS
330
12F0
102
}
330
12F0
100
AcDbScale
 70
     0
300
3/16" = 1'-0"
140
0.1875
141
12.0
290
     0
  0
SCALE
  5
130F
102
{ACAD_REACTORS
330
12F0
102
}
330
12F0
100
AcDbScale
 70
     0
300
1/4" = 1'-0"
140
0.25
141
12.0
290
     0
  0
SCALE
  5
1310
102
{ACAD_REACTORS
330
12F0
102
}
330
12F0
100
AcDbScale
 70
     0
300
3/8" = 1'-0"
140
0.375
141
12.0
290
     0
  0
SCALE
  5
1311
102
{ACAD_REACTORS
330
12F0
102
}
330
12F0
100
AcDbScale
 70
     0
300
1/2" = 1'-0"
140
0.5
141
12.0
290
     0
  0
SCALE
  5
1312
102
{ACAD_REACTORS
330
12F0
102
}
330
12F0
100
AcDbScale
 70
     0
300
3/4" = 1'-0"
140
0.75
141
12.0
290
     0
  0
SCALE
  5
1313
102
{ACAD_REACTORS
330
12F0
102
}
330
12F0
100
AcDbScale
 70
     0
300
1" = 1'-0"
140
1.0
141
12.0
290
     0
  0
SCALE
  5
1314
102
{ACAD_REACTORS
330
12F0
102
}
330
12F0
100
AcDbScale
 70
     0
300
1-1/2" = 1'-0"
140
1.5
141
12.0
290
     0
  0
SCALE
  5
1315
102
{ACAD_REACTORS
330
12F0
102
}
330
12F0
100
AcDbScale
 70
     0
300
3" = 1'-0"
140
3.0
141
12.0
290
     0
  0
SCALE
  5
1316
102
{ACAD_REACTORS
330
12F0
102
}
330
12F0
100
AcDbScale
 70
     0
300
6" = 1'-0"
140
6.0
141
12.0
290
     0
  0
SCALE
  5
1317
102
{ACAD_REACTORS
330
12F0
102
}
330
12F0
100
AcDbScale
 70
     0
300
1'-0" = 1'-0"
140
12.0
141
12.0
290
     0
  0
TABLESTYLE
  5
12F4
102
{ACAD_XDICTIONARY
360
1445
102
}
102
{ACAD_REACTORS
330
12F1
102
}
330
12F1
100
AcDbTableStyle
  3
Standard
 70
     0
 71
     0
 40
0.06
 41
0.06
280
     0
281
     0
  7
Standard
140
0.18
170
     2
 62
     0
 63
     7
283
     0
 90
        4
 91
        0
  1

274
    -2
284
     1
 64
     0
275
    -2
285
     1
 65
     0
276
    -2
286
     1
 66
     0
277
    -2
287
     1
 67
     0
278
    -2
288
     1
 68
     0
279
    -2
289
     1
 69
     0
  7
Standard
140
0.25
170
     5
 62
     0
 63
     7
283
     0
 90
        4
 91
        0
  1

274
    -2
284
     1
 64
     0
275
    -2
285
     1
 65
     0
276
    -2
286
     1
 66
     0
277
    -2
287
     1
 67
     0
278
    -2
288
     1
 68
     0
279
    -2
289
     1
 69
     0
  7
Standard
140
0.18
170
     5
 62
     0
 63
     7
283
     0
 90
        4
 91
        0
  1

274
    -2
284
     1
 64
     0
275
    -2
285
     1
 65
     0
276
    -2
286
     1
 66
     0
277
    -2
287
     1
 67
     0
278
    -2
288
     1
 68
     0
279
    -2
289
     1
 69
     0
  0
VISUALSTYLE
  5
12D5
102
{ACAD_XDICTIONARY
360
252B
102
}
102
{ACAD_REACTORS
330
12D6
102
}
330
12D6
100
AcDbVisualStyle
  2

 70
     4
 71
     0
 72
     2
 73
     0
 90
        0
 40
-0.6
 41
-30.0
 62
     5
 63
     7
421
 16777215
 74
     1
 91
        4
 64
     7
 65
   257
 75
     1
175
     1
 42
1.0
 92
        0
 66
   257
 43
1.0
 76
     1
 77
     6
 78
     2
 67
     7
 79
     5
170
     0
171
     0
290
     0
174
     0
 93
        1
 44
0.0
173
     0
291
     0
 45
0.0
1001
ACAD
1000
AcDbSavedByObjectVersion
1070
     0
  0
VISUALSTYLE
  5
1457
102
{ACAD_XDICTIONARY
360
253B
102
}
102
{ACAD_REACTORS
330
12D6
102
}
330
12D6
100
AcDbVisualStyle
  2

 70
     6
 71
     1
 72
     2
 73
     2
 90
        0
 40
-0.6
 41
-30.0
 62
     5
 63
     7
421
 16777215
 74
     2
 91
        2
 64
     7
 65
   257
 75
     2
175
     1
 42
179.0
 92
        0
 66
   257
 43
1.0
 76
     1
 77
     6
 78
     2
 67
     7
 79
     3
170
     0
171
     0
290
     0
174
     0
 93
        1
 44
0.0
173
     0
291
     0
 45
0.0
1001
ACAD
1000
AcDbSavedByObjectVersion
1070
     0
  0
VISUALSTYLE
  5
12F6
102
{ACAD_XDICTIONARY
360
252F
102
}
102
{ACAD_REACTORS
330
12D6
102
}
330
12D6
100
AcDbVisualStyle
  2

 70
     5
 71
     0
 72
     2
 73
     0
 90
        0
 40
-0.6
 41
-30.0
 62
     5
 63
     7
421
 16777215
 74
     1
 91
        4
 64
     7
 65
   257
 75
     1
175
     1
 42
1.0
 92
        0
 66
   257
 43
1.0
 76
     1
 77
     6
 78
     2
 67
     7
 79
     5
170
     0
171
     0
290
     0
174
     0
 93
        1
 44
0.0
173
     0
291
     0
 45
0.0
1001
ACAD
1000
AcDbSavedByObjectVersion
1070
     0
  0
VISUALSTYLE
  5
1456
102
{ACAD_XDICTIONARY
360
2539
102
}
102
{ACAD_REACTORS
330
12D6
102
}
330
12D6
100
AcDbVisualStyle
  2

 70
     7
 71
     1
 72
     0
 73
     1
 90
        0
 40
-0.6
 41
-30.0
 62
     5
 63
     7
421
 16777215
 74
     0
 91
        4
 64
     7
 65
   257
 75
     1
175
     1
 42
1.0
 92
        8
 66
     7
 43
1.0
 76
     1
 77
     6
 78
     2
 67
     7
 79
     5
170
     0
171
     0
290
     0
174
     0
 93
        1
 44
0.0
173
     0
291
     1
 45
0.0
1001
ACAD
1000
AcDbSavedByObjectVersion
1070
     0
  0
VISUALSTYLE
  5
145A
102
{ACAD_XDICTIONARY
360
2541
102
}
102
{ACAD_REACTORS
330
12D6
102
}
330
12D6
100
AcDbVisualStyle
  2

 70
    12
 71
     2
 72
     2
 73
     0
 90
        0
 40
-0.6
 41
-30.0
 62
     5
 63
     7
421
 16777215
 74
     1
 91
        4
 64
     7
 65
   257
 75
     1
175
     1
 42
1.0
 92
        8
 66
     7
 43
1.0
 76
     1
 77
     6
 78
     2
 67
     7
 79
     5
170
     0
171
     0
290
     0
174
     0
 93
        1
 44
50.0
173
     0
291
     1
 45
0.0
1001
ACAD
1000
AcDbSavedByObjectVersion
1070
     0
  0
VISUALSTYLE
  5
145E
102
{ACAD_XDICTIONARY
360
2549
102
}
102
{ACAD_REACTORS
330
12D6
102
}
330
12D6
100
AcDbVisualStyle
  2

 70
    16
 71
     2
 72
     2
 73
     3
 90
        0
 40
-0.6
 41
-30.0
 62
     5
 63
     8
421
  8421504
 74
     1
 91
        4
 64
     7
 65
   257
 75
     1
175
     1
 42
1.0
 92
        8
 66
     8
424
  8421504
 43
1.0
 76
     1
 77
     6
 78
     2
 67
     7
 79
     5
170
     0
171
     0
290
     0
174
     0
 93
        1
 44
0.0
173
     0
291
     1
 45
0.0
1001
ACAD
1000
AcDbSavedByObjectVersion
1070
     0
  0
VISUALSTYLE
  5
1458
102
{ACAD_XDICTIONARY
360
253D
102
}
102
{ACAD_REACTORS
330
12D6
102
}
330
12D6
100
AcDbVisualStyle
  2

 70
     9
 71
     3
 72
     2
 73
     0
 90
        0
 40
-0.6
 41
-30.0
 62
     5
 63
     7
421
 16777215
 74
     2
 91
        2
 64
     7
 65
   257
 75
     1
175
     1
 42
179.0
 92
        8
 66
     7
 43
1.0
 76
     1
 77
     6
 78
     2
 67
     7
 79
     3
170
     0
171
     0
290
     0
174
     0
 93
        1
 44
0.0
173
     0
291
     0
 45
0.0
1001
ACAD
1000
AcDbSavedByObjectVersion
1070
     0
  0
VISUALSTYLE
  5
1459
102
{ACAD_XDICTIONARY
360
253F
102
}
102
{ACAD_REACTORS
330
12D6
102
}
330
12D6
100
AcDbVisualStyle
  2

 70
    11
 71
     2
 72
     2
 73
     0
 90
        0
 40
-0.6
 41
-30.0
 62
     5
 63
     7
421
 16777215
 74
     1
 91
        4
 64
     7
 65
   257
 75
     1
175
     1
 42
1.0
 92
        8
 66
     7
 43
1.0
 76
     1
 77
     6
 78
     2
 67
     7
 79
     5
170
     0
171
     0
290
     0
174
     0
 93
        1
 44
-50.0
173
     0
291
     1
 45
0.0
1001
ACAD
1000
AcDbSavedByObjectVersion
1070
     0
  0
VISUALSTYLE
  5
1461
102
{ACAD_XDICTIONARY
360
254F
102
}
102
{ACAD_REACTORS
330
12D6
102
}
330
12D6
100
AcDbVisualStyle
  2

 70
    22
 71
     2
 72
     2
 73
     0
 90
        0
 40
-0.6
 41
-30.0
 62
     5
 63
     7
421
 16777215
 74
     1
 91
        4
 64
     7
 65
   257
 75
     1
175
     1
 42
1.0
 92
        8
 66
     7
 43
1.0
 76
     1
 77
     6
 78
     2
 67
     7
 79
     5
170
     0
171
     0
290
     0
174
     0
 93
        1
 44
0.0
173
     0
291
     1
 45
0.0
1001
ACAD
1000
AcDbSavedByObjectVersion
1070
     0
  0
VISUALSTYLE
  5
145D
102
{ACAD_XDICTIONARY
360
2547
102
}
102
{ACAD_REACTORS
330
12D6
102
}
330
12D6
100
AcDbVisualStyle
  2

 70
    15
 71
     2
 72
     2
 73
     0
 90
        0
 40
-0.6
 41
-30.0
 62
     5
 63
     7
421
 16777215
 74
     1
 91
        4
 64
     7
 65
   257
 75
     1
175
     1
 42
1.0
 92
        8
 66
     7
 43
1.0
 76
     1
 77
     6
 78
     2
 67
     7
 79
     5
170
     0
171
     0
290
     0
174
     0
 93
        1
 44
0.0
173
     0
291
     1
 45
0.0
1001
ACAD
1000
AcDbSavedByObjectVersion
1070
     0
  0
VISUALSTYLE
  5
1452
102
{ACAD_XDICTIONARY
360
2531
102
}
102
{ACAD_REACTORS
330
12D6
102
}
330
12D6
100
AcDbVisualStyle
  2

 70
     0
 71
     2
 72
     1
 73
     1
 90
        2
 40
-0.6
 41
30.0
 62
     5
 63
     7
421
 16777215
 74
     0
 91
        4
 64
     7
 65
   257
 75
     1
175
     1
 42
1.0
 92
        8
 66
     7
 43
1.0
 76
     1
 77
     6
 78
     2
 67
     7
 79
     5
170
     0
171
     0
290
     0
174
     0
 93
       13
 44
0.0
173
     0
291
     1
 45
0.0
1001
ACAD
1000
AcDbSavedByObjectVersion
1070
     0
  0
VISUALSTYLE
  5
1453
102
{ACAD_XDICTIONARY
360
2533
102
}
102
{ACAD_REACTORS
330
12D6
102
}
330
12D6
100
AcDbVisualStyle
  2

 70
     1
 71
     2
 72
     1
 73
     1
 90
        2
 40
-0.6
 41
30.0
 62
     5
 63
     7
421
 16777215
 74
     1
 91
        4
 64
     7
 65
   257
 75
     1
175
     1
 42
1.0
 92
        0
 66
   257
 43
1.0
 76
     1
 77
     6
 78
     2
 67
     7
 79
     5
170
     0
171
     0
290
     0
174
     0
 93
       13
 44
0.0
173
     0
291
     1
 45
0.0
1001
ACAD
1000
AcDbSavedByObjectVersion
1070
     0
  0
VISUALSTYLE
  5
1454
102
{ACAD_XDICTIONARY
360
2535
102
}
102
{ACAD_REACTORS
330
12D6
102
}
330
12D6
100
AcDbVisualStyle
  2

 70
     2
 71
     2
 72
     2
 73
     1
 90
        2
 40
-0.6
 41
30.0
 62
     5
 63
     7
421
 16777215
 74
     0
 91
        4
 64
     7
 65
   257
 75
     1
175
     1
 42
1.0
 92
        0
 66
     7
 43
1.0
 76
     1
 77
     6
 78
     2
 67
     7
 79
     5
170
     0
171
     0
290
     0
174
     0
 93
       13
 44
0.0
173
     0
291
     1
 45
0.0
1001
ACAD
1000
AcDbSavedByObjectVersion
1070
     0
  0
VISUALSTYLE
  5
1455
102
{ACAD_XDICTIONARY
360
2537
102
}
102
{ACAD_REACTORS
330
12D6
102
}
330
12D6
100
AcDbVisualStyle
  2

 70
     3
 71
     2
 72
     2
 73
     1
 90
        2
 40
-0.6
 41
30.0
 62
     5
 63
     7
421
 16777215
 74
     1
 91
        4
 64
     7
 65
   257
 75
     1
175
     1
 42
1.0
 92
        0
 66
   257
 43
1.0
 76
     1
 77
     6
 78
     2
 67
     7
 79
     5
170
     0
171
     0
290
     0
174
     0
 93
       13
 44
0.0
173
     0
291
     1
 45
0.0
1001
ACAD
1000
AcDbSavedByObjectVersion
1070
     0
  0
VISUALSTYLE
  5
145F
102
{ACAD_XDICTIONARY
360
254B
102
}
102
{ACAD_REACTORS
330
12D6
102
}
330
12D6
100
AcDbVisualStyle
  2

 70
    20
 71
     2
 72
     2
 73
     0
 90
        0
 40
-0.6
 41
-30.0
 62
     5
 63
     7
421
 16777215
 74
     1
 91
        4
 64
     7
 65
   257
 75
     1
175
     1
 42
1.0
 92
       10
 66
     7
 43
1.0
 76
     1
 77
     6
 78
     2
 67
     7
 79
     5
170
     0
171
     0
290
     0
174
     0
 93
        1
 44
0.0
173
     0
291
     1
 45
0.0
1001
ACAD
1000
AcDbSavedByObjectVersion
1070
     0
  0
VISUALSTYLE
  5
145C
102
{ACAD_XDICTIONARY
360
2545
102
}
102
{ACAD_REACTORS
330
12D6
102
}
330
12D6
100
AcDbVisualStyle
  2

 70
    14
 71
     2
 72
     2
 73
     0
 90
        0
 40
-0.6
 41
-30.0
 62
     5
 63
     7
421
 16777215
 74
     1
 91
        4
 64
     7
 65
   257
 75
     7
175
     7
 42
1.0
 92
        8
 66
     7
 43
1.0
 76
     1
 77
     6
 78
     2
 67
     7
 79
     5
170
     0
171
     0
290
     0
174
     0
 93
        1
 44
0.0
173
     0
291
     1
 45
0.0
1001
ACAD
1000
AcDbSavedByObjectVersion
1070
     0
  0
VISUALSTYLE
  5
1460
102
{ACAD_XDICTIONARY
360
254D
102
}
102
{ACAD_REACTORS
330
12D6
102
}
330
12D6
100
AcDbVisualStyle
  2

 70
    21
 71
     2
 72
     2
 73
     0
 90
        0
 40
-0.6
 41
-30.0
 62
     5
 63
     7
421
 16777215
 74
     1
 91
        4
 64
     7
 65
   257
 75
     1
175
     1
 42
1.0
 92
        9
 66
     7
 43
1.0
 76
     1
 77
     6
 78
     2
 67
     7
 79
     5
170
     0
171
     0
290
     0
174
     0
 93
        1
 44
0.0
173
     0
291
     1
 45
0.0
1001
ACAD
1000
AcDbSavedByObjectVersion
1070
     0
  0
VISUALSTYLE
  5
12F5
102
{ACAD_XDICTIONARY
360
252D
102
}
102
{ACAD_REACTORS
330
12D6
102
}
330
12D6
100
AcDbVisualStyle
  2

 70
     8
 71
     2
 72
     2
 73
     0
 90
        0
 40
-0.6
 41
-30.0
 62
     5
 63
     7
421
 16777215
 74
     1
 91
        0
 64
     7
 65
   257
 75
     1
175
     1
 42
1.0
 92
        8
 66
     8
424
  7895160
 43
1.0
 76
     1
 77
     6
 78
     2
 67
     7
 79
     5
170
     0
171
     0
290
     0
174
     0
 93
       13
 44
0.0
173
     0
291
     0
 45
0.0
1001
ACAD
1000
AcDbSavedByObjectVersion
1070
     0
  0
VISUALSTYLE
  5
145B
102
{ACAD_XDICTIONARY
360
2543
102
}
102
{ACAD_REACTORS
330
12D6
102
}
330
12D6
100
AcDbVisualStyle
  2

 70
    13
 71
     2
 72
     2
 73
     0
 90
        0
 40
-0.6
 41
-30.0
 62
     5
 63
     7
421
 16777215
 74
     1
 91
        4
 64
     7
 65
   257
 75
     1
175
     1
 42
1.0
 92
       12
 66
     7
 43
1.0
 76
     1
 77
     6
 78
     2
 67
     7
 79
     5
170
     0
171
     0
290
     0
174
     0
 93
        1
 44
0.0
173
     0
291
     1
 45
0.0
1001
ACAD
1000
AcDbSavedByObjectVersion
1070
     0
  0
DICTIONARYVAR
  5
1441
102
{ACAD_REACTORS
330
143D
102
}
330
143D
100
DictionaryVariables
280
     0
  1
1:1
  0
DICTIONARYVAR
  5
143F
102
{ACAD_REACTORS
330
143D
102
}
330
143D
100
DictionaryVariables
280
     0
  1
STANDARD
  0
DICTIONARYVAR
  5
143E
102
{ACAD_REACTORS
330
143D
102
}
330
143D
100
DictionaryVariables
280
     0
  1
STANDARD
  0
DICTIONARYVAR
  5
1443
102
{ACAD_REACTORS
330
143D
102
}
330
143D
100
DictionaryVariables
280
     0
  1
1
  0
DICTIONARYVAR
  5
1444
102
{ACAD_REACTORS
330
143D
102
}
330
143D
100
DictionaryVariables
280
     0
  1
15
  0
DICTIONARYVAR
  5
1442
102
{ACAD_REACTORS
330
143D
102
}
330
143D
100
DictionaryVariables
280
     0
  1
0
  0
DICTIONARYVAR
  5
1440
102
{ACAD_REACTORS
330
143D
102
}
330
143D
100
DictionaryVariables
280
     0
  1
0
  0
DICTIONARY
  5
12C5
330
12C4
100
AcDbDictionary
280
     1
281
     1
  3
ADSK_XREC_LAYOUTTHUMBNAIL
360
12C6
  0
DICTIONARY
  5
12E8
330
12E7
100
AcDbDictionary
280
     1
281
     1
  3
BUMPTILE
360
12E9
  3
DIFFUSETILE
360
12EA
  3
OPACITYTILE
360
12EB
  3
REFLECTIONTILE
360
12EC
  3
REFRACTIONTILE
360
12ED
  3
SPECULARTILE
360
12EE
  0
DICTIONARY
  5
12E0
330
12DF
100
AcDbDictionary
280
     1
281
     1
  3
BUMPTILE
360
12E1
  3
DIFFUSETILE
360
12E2
  3
OPACITYTILE
360
12E3
  3
REFLECTIONTILE
360
12E4
  3
REFRACTIONTILE
360
12E5
  3
SPECULARTILE
360
12E6
  0
DICTIONARY
  5
12B6
330
12B4
100
AcDbDictionary
280
     1
281
     1
  3
BUMPTILE
360
12B7
  3
DIFFUSETILE
360
12B8
  3
OPACITYTILE
360
12B9
  3
REFLECTIONTILE
360
12BA
  3
REFRACTIONTILE
360
12BB
  3
SPECULARTILE
360
12BC
  0
DICTIONARY
  5
1445
330
12F4
100
AcDbDictionary
280
     1
281
     1
  3
ACAD_ROUNDTRIP_2008_TABLESTYLE_CELLSTYLEMAP
360
2529
  0
DICTIONARY
  5
252B
330
12D5
100
AcDbDictionary
280
     1
281
     1
  3
ACAD_XREC_ROUNDTRIP
360
252C
  0
DICTIONARY
  5
253B
330
1457
100
AcDbDictionary
280
     1
281
     1
  3
ACAD_XREC_ROUNDTRIP
360
253C
  0
DICTIONARY
  5
252F
330
12F6
100
AcDbDictionary
280
     1
281
     1
  3
ACAD_XREC_ROUNDTRIP
360
2530
  0
DICTIONARY
  5
2539
330
1456
100
AcDbDictionary
280
     1
281
     1
  3
ACAD_XREC_ROUNDTRIP
360
253A
  0
DICTIONARY
  5
2541
330
145A
100
AcDbDictionary
280
     1
281
     1
  3
ACAD_XREC_ROUNDTRIP
360
2542
  0
DICTIONARY
  5
2549
330
145E
100
AcDbDictionary
280
     1
281
     1
  3
ACAD_XREC_ROUNDTRIP
360
254A
  0
DICTIONARY
  5
253D
330
1458
100
AcDbDictionary
280
     1
281
     1
  3
ACAD_XREC_ROUNDTRIP
360
253E
  0
DICTIONARY
  5
253F
330
1459
100
AcDbDictionary
280
     1
281
     1
  3
ACAD_XREC_ROUNDTRIP
360
2540
  0
DICTIONARY
  5
254F
330
1461
100
AcDbDictionary
280
     1
281
     1
  3
ACAD_XREC_ROUNDTRIP
360
2550
  0
DICTIONARY
  5
2547
330
145D
100
AcDbDictionary
280
     1
281
     1
  3
ACAD_XREC_ROUNDTRIP
360
2548
  0
DICTIONARY
  5
2531
330
1452
100
AcDbDictionary
280
     1
281
     1
  3
ACAD_XREC_ROUNDTRIP
360
2532
  0
DICTIONARY
  5
2533
330
1453
100
AcDbDictionary
280
     1
281
     1
  3
ACAD_XREC_ROUNDTRIP
360
2534
  0
DICTIONARY
  5
2535
330
1454
100
AcDbDictionary
280
     1
281
     1
  3
ACAD_XREC_ROUNDTRIP
360
2536
  0
DICTIONARY
  5
2537
330
1455
100
AcDbDictionary
280
     1
281
     1
  3
ACAD_XREC_ROUNDTRIP
360
2538
  0
DICTIONARY
  5
254B
330
145F
100
AcDbDictionary
280
     1
281
     1
  3
ACAD_XREC_ROUNDTRIP
360
254C
  0
DICTIONARY
  5
2545
330
145C
100
AcDbDictionary
280
     1
281
     1
  3
ACAD_XREC_ROUNDTRIP
360
2546
  0
DICTIONARY
  5
254D
330
1460
100
AcDbDictionary
280
     1
281
     1
  3
ACAD_XREC_ROUNDTRIP
360
254E
  0
DICTIONARY
  5
252D
330
12F5
100
AcDbDictionary
280
     1
281
     1
  3
ACAD_XREC_ROUNDTRIP
360
252E
  0
DICTIONARY
  5
2543
330
145B
100
AcDbDictionary
280
     1
281
     1
  3
ACAD_XREC_ROUNDTRIP
360
2544
  0
XRECORD
  5
12C6
102
{ACAD_REACTORS
330
12C5
102
}
330
12C5
100
AcDbXrecord
280
     1
310
28000000B40000008B0000000100080000000000BC61000000000000000000000001000000000000FFFFFF0000000000FFFFFF000000000000000000000000000000000000000000000000000000000000000000330000006600000099000000CC000000FF00000000330000333300006633000099330000CC330000FF3300
310
0000660000336600006666000099660000CC660000FF66000000990000339900006699000099990000CC990000FF99000000CC000033CC000066CC000099CC0000CCCC0000FFCC000000FF000033FF000066FF000099FF0000CCFF0000FFFF000000003300330033006600330099003300CC003300FF003300003333003333
310
33006633330099333300CC333300FF33330000663300336633006666330099663300CC663300FF66330000993300339933006699330099993300CC993300FF99330000CC330033CC330066CC330099CC3300CCCC3300FFCC330000FF330033FF330066FF330099FF3300CCFF3300FFFF330000006600330066006600660099
310
006600CC006600FF00660000336600333366006633660099336600CC336600FF33660000666600336666006666660099666600CC666600FF66660000996600339966006699660099996600CC996600FF99660000CC660033CC660066CC660099CC6600CCCC6600FFCC660000FF660033FF660066FF660099FF6600CCFF6600
310
FFFF660000009900330099006600990099009900CC009900FF00990000339900333399006633990099339900CC339900FF33990000669900336699006666990099669900CC669900FF66990000999900339999006699990099999900CC999900FF99990000CC990033CC990066CC990099CC9900CCCC9900FFCC990000FF99
310
0033FF990066FF990099FF9900CCFF9900FFFF99000000CC003300CC006600CC009900CC00CC00CC00FF00CC000033CC003333CC006633CC009933CC00CC33CC00FF33CC000066CC003366CC006666CC009966CC00CC66CC00FF66CC000099CC003399CC006699CC009999CC00CC99CC00FF99CC0000CCCC0033CCCC0066CC
310
CC0099CCCC00CCCCCC00FFCCCC0000FFCC0033FFCC0066FFCC0099FFCC00CCFFCC00FFFFCC000000FF003300FF006600FF009900FF00CC00FF00FF00FF000033FF003333FF006633FF009933FF00CC33FF00FF33FF000066FF003366FF006666FF009966FF00CC66FF00FF66FF000099FF003399FF006699FF009999FF00CC
310
99FF00FF99FF0000CCFF0033CCFF0066CCFF0099CCFF00CCCCFF00FFCCFF0000FFFF0033FFFF0066FFFF0099FFFF00CCFFFF00FFFFFF00000000000D0D0D001A1A1A00282828003535350043434300505050005D5D5D006B6B6B00787878008686860093939300A1A1A100AEAEAE00BBBBBB00C9C9C900D6D6D600E4E4E400
310
F1F1F100FFFFFF0000000000000000000000000000000000000000000000000000000000000000000000000000000000E2E2E2E2E2E2E2E2E2E2E2E2E2E2E2E2E2E2E2E2E2E2E2E2E2E2E2E2E2E2E2E2E2E2E2E2E2E2E2E2E2E2E2E2E2E2E2E2E2E2E2E2E2E2E2E2E2E2E2E2E2E2E2E2E2E2E2E2E2E2E2E2E2E2E2E2E2E2E2
310
E2E2E2E2E2E2E2E2E2E2E2E2E2E2E2E2E2E2E2E2E2E2E2E2E2E2E2E2E2E2E2E2E2E2E2E2E2E2E2E2E2E2E2E2E2E2E2E2E2E2E2E2E2E2E2E2E2E2E2E2E2E2E2E2E2E2E2E2E2E2E2E2E2E2E2E2E2E2E2E2E2E2E2E2E2E2E2E2E2E2E2E2E2E2E2E2E2E2E2E2EFF5F5F5F5F5F5F5F5F5F5F5F5F5F5F5F5F5F5F5F5F5F5F5F5F5F5
310
F5F5F5F5F5F5F5F5F5F5F5F5F5F5F5F5F5F5F5F5F5F5F5F5F5F5F5F5F5F5F5F5F5F5F5F5F5F5F5F5F5F5F5F5F5F5F5F5F5F5F5F5F5F5F5F5F5F5F5F5F5F5F5F5F5F5F5F5F5F5F5F5F5F5F5F5F5F5F5F5F5F5F5F5F5F5F5F5F5F5F5F5F5F5F5F5F5F5F5F5F5F5F5F5F5F5F5F5F5F5F5F5F5F5F5F5F5F5F5F5F5F5F5F5F5F5F5
310
F5F5F5F5F5F5F5F5F5F5F5F5F5F5F5F5F5F5F5F5F5F5F5F5E2E2EFF5F5F5F5F5F5F5F5F5F5F5F5F5F5F5F5F5F5F5F5F5F5F5F5F5F5F5F5F5F5F5F5F5F5F5F5F5F5F5F5F5F5F5F5F5F5F5F5F5F5F5F5F5F5F5F5F5F5F5F5F5F5F5F5F5F5F5F5F5F5F5F5F5F5F5F5F5F5F5F5F5F5F5F5F5F5F5F5F5F5F5F5F5F5F5F5F5F5F5F5
310
F5F5F5F5F5F5F5F5F5F5F5F5F5F5F5F5F5F5F5F5F5F5F5F5F5F5F5F5F5F5F5F5F5F5F5F5F5F5F5F5F5F5F5F5F5F5F5F5F5F5F5F5F5F5F5F5F5F5F5F5F5F5F5F5F5F5F5F5F5F5F5F5F5F5F5F5F5E2E2EFF5F5F5F5F5F5F5F5F5F5F5F5F5F5F5F5F5F5F5F5F5F5F5F5F5F5F5F5F5F5F5F5F5F5F5F5F5F5F5F5F5F5F5F5F5F5F5
310
F5F5F5F5F5F5F5F5F5F5F5F5F5F5F5F5F5F5F5F5F5F5F5F5F5F5F5F5F5F5F5F5F5F5F5F5F5F5F5F5F5F5F5F5F5F5F5F5F5F5F5F5F5F5F5F5F5F5F5F5F5F5F5F5F5F5F5F5F5F5F5F5F5F5F5F5F5F5F5F5F5F5F5F5F5F5F5F5F5F5F5F5F5F5F5F5F5F5F5F5F5F5F5F5F5F5F5F5F5F5F5F5F5F5F5F5F5F5F5F5F5F5F5F5F5F5F5
310
F5F5F5E2E2EFF5F5F5E2E2E2E2E2E2E2E2F5F5F5F5F5F5F5F5F5E2E2E2E2E2E2E2E2E2E2E2E2E2E2E2E2F5F5F5F5F5F5F5F5E2E2E2E2E2E2E2E2E2E2E2E2E2E2E2E2F5F5F5F5F5F5F5F5F5E2E2E2E2E2E2E2E2E2E2E2E2E2E2E2F5F5F5F5F5F5F5F5F5E2E2E2E2E2E2E2E2E2E2E2E2E2E2E2F5F5F5F5F5F5F5F5F5E2E2E2E2
310
E2E2E2E2E2E2E2E2E2E2E2E2F5F5F5F5F5F5F5F5E2E2E2E2E2E2E2E2E2E2E2E2E2E2E2E2F5F5F5F5F5F5F5F5F5E2E2E2E2E2E2E2E2F5F5F5E2E2EFF5F5F5E2F5F5F5F5F5F5F5F5F5F5F5F5F5F5F5F5F5F5F5F5F5F5F5F5F5F5F5F5F5F5F5F5F5F5F5F5F5F5F5F5F5F5F5F5F5F5F5F5F5F5F5F5F5F5F5F5F5F5F5F5F5F5F5F5
310
F5F5F5F5F5F5F5F5F5F5F5F5F5F5F5F5F5F5F5F5F5F5F5F5F5F5F5F5F5F5F5F5F5F5F5F5F5F5F5F5F5F5F5F5F5F5F5F5F5F5F5F5F5F5F5F5F5F5F5F5F5F5F5F5F5F5F5F5F5F5F5F5F5F5F5F5F5F5F5F5F5F5F5F5F5F5F5F5F5F5F5F5F5F5F5F5F5F5F5F5F5F5F5F5F5E2F5F5F5E2E2EFF5F5F5E2F5F5F5F5F5F5F5F5F5F5F5
310
F5F5F5F5F5F5F5F5F5F5F5F5F5F5F5F5F5F5F5F5F5F5F5F5F5F5F5F5F5F5F5F5F5F5F5F5F5F5F5F5F5F5F5F5F5F5F5F5F5F5F5F5F5F5F5F5F5F5F5F5F5F5F5F5F5F5F5F5F5F5F5F5F5F5F5F5F5F5F5F5F5F5F5F5F5F5F5F5F5F5F5F5F5F5F5F5F5F5F5F5F5F5F5F5F5F5F5F5F5F5F5F5F5F5F5F5F5F5F5F5F5F5F5F5F5F5F5
310
F5F5F5F5F5F5F5F5F5F5F5F5F5F5F5F5F5F5F5F5F5F5F5F5F5F5F5F5F5F5F5E2F5F5F5E2E2EFF5F5F5E2F5F5F5F5F5F5F5F5F5F5F5F5F5F5F5F5F5F5F5F5F5F5F5F5F5F5F5F5F5F5F5F5F5F5F5F5F5F5F5F5F5F5F5F5F5F5F5F5F5F5F5F5F5F5F5F5F5F5F5F5F5F5F5F5F5F5F5F5F5F5F5F5F5F5F5F5F5F5F5F5F5F5F5F5F5
310
F5F5F5F5F5F5F5F5F5F5F5F5F5F5F5F5F5F5F5F5F5F5F5F5F5F5F5F5F5F5F5F5F5F5F5F5F5F5F5F5F5F5F5F5F5F5F5F5F5F5F5F5F5F5F5F5F5F5F5F5F5F5F5F5F5F5F5F5F5F5F5F5F5F5F5F5F5F5F5F5F5F5F5F5E2F5F5F5E2E2EFF5F5F5E2F5F5F5F5F5F5F5F5F5F5F5F5F5F5F5F5F5F5F5F5F5F5F5F5F5F5F5F5F5F5F5F5
310
F5F5F5F5F5F5F5F5F5F5F5F5F5F5F5F5F5F5F5F5F5F5F5F5F5F5F5F5F5F5F5F5F5F5F5F5F5F5F5F5F5F5F5F5F5F5F5F5F5F5F5F5F5F5F5F5F5F5F5F5F5F5F5F5F5F5F5F5F5F5F5F5F5F5F5F5F5F5F5F5F5F5F5F5F5F5F5F5F5F5F5F5F5F5F5F5F5F5F5F5F5F5F5F5F5F5F5F5F5F5F5F5F5F5F5F5F5F5F5F5F5F5F5F5F5F5F5
310
F5F5F5F5F5F5F5F5F5F5E2F5F5F5E2E2EFF5F5F5E2F5F5F5F5F5F5F5F5F5F5F5F5F5F5F5F5F5F5F5F5F5F5F5F5F5F5F5F5F5F5F5F5F5F5F5F5F5F5F5F5F5F5F5F5F5F5F5F5F5F5F5F5F5F5F5F5F5F5F5F5F5F5F5F5F5F5F5F5F5F5F5F5F5F5F5F5F5F5F5F5F5F5F5F5F5F5F5F5F5F5F5F5F5F5F5F5F5F5F5F5F5F5F5F5F5F5
310
F5F5F5F5F5F5F5F5F5F5F5F5F5F5F5F5F5F5F5F5F5F5F5F5F5F5F5F5F5F5F5F5F5F5F5F5F5F5F5F5F5F5F5F5F5F5F5F5F5F5F5F5F5F5F5F5F5F5F5F5F5F5F5E2F5F5F5E2E2EFF5F5F5E2F5F5F5F5F5F5F5F5F5F5F5F5F5F5F5F5F5F5F5F5F5F5F5F5F5F5F5F5F5F5F5F5F5F5F5F5F5F5F5F5F5F5F5F5F5F5F5F5F5F5F5F5F5
310
F5F5F5F5F5F5F5F5F5F5F5F5F5F5F5F5F5F5F5F5F5F5F5F5F5F5F5F5F5F5F5F5F5F5F5F5F5F5F5F5F5F5F5F5F5F5F5F5F5F5F5F5F5F5F5F5F5F5F5F5F5F5F5F5F5F5F5F5F5F5F5F5F5F5F5F5F5F5F5F5F5F5F5F5F5F5F5F5F5F5F5F5F5F5F5F5F5F5F5F5F5F5F5F5F5F5F5F5F5F5F5F5F5F5F5F5E2F5F5F5E2E2EFF5F5F5E2
310
F5F5F5F5F5F5F5F5F5F5F5F5F5F5F5F5F5F5F5F5F5F5F5F5F5F5F5F5F5F5F5F5F5F5F5F5F5F5F5F5F5F5F5F5F5F5F5F5F5F5F5F5F5F5F5F5F5F5F5F5F5F5F5F5F5F5F5F5F5F5F5F5F5F5F5F5F5F5F5F5F5F5F5F5F5F5F5F5F5F5F5F5F5F5F5F5F5F5F5F5F5F5F5F5F5F5F5F5F5F5F5F5F5F5F5F5F5F5F5F5F5F5F5F5F5F5F5
310
F5F5F5F5F5F5F5F5F5F5F5F5F5F5F5F5F5F5F5F5F5F5F5F5F5F5F5F5F5F5F5F5F5F5F5F5F5F5F5F5F5F5E2F5F5F5E2E2EFF5F5F5E2F5F5F5F5F5F5F5F5F5F5F5F5F5F5F5F5F5F5F5F5F5F5F5F5F5F5F5F5F5F5F5F5F5F5F5F5F5F5F5F5F5F5F5F5F5F5F5F5F5F5F5F5F5F5F5F5F5F5F5F5F5F5F5F5F5F5F5F5F5F5F5F5F5F5
310
F5F5F5F5F5F5F5F5F5F5F5F5F5F5F5F5F5F5F5F5F5F5F5F5F5F5F5F5F5F5F5F5F5F5F5F5F5F5F5F5F5F5F5F5F5F5F5F5F5F5F5F5F5F5F5F5F5F5F5F5F5F5F5F5F5F5F5F5F5F5F5F5F5F5F5F5F5F5F5F5F5F5F5F5F5F5F5F5F5F5F5F5F5F5F5E2F5F5F5E2E2EFF5F5F5F5F5F5F5F5F5F5F5F5F5F5F5F5F5F5F5F5F5F5F5F5F5
310
F5F5F5F5F5F5F5F5F5F5F5F5F5F5F5F5F5F5F5F5F5F5F5F5F5F5F5F5F5F5F5F5F5F5F5F5F5F5F5F5F5F5F5F5F5F5F5F5F5F5F5F5F5F5F5F5F5F5F5F5F5F5F5F5F5F5F5F5F5F5F5F5F5F5F5F5F5F5F5F5F5F5F5F5F5F5F5F5F5F5F5F5F5F5F5F5F5F5F5F5F5F5F5F5F5F5F5F5F5F5F5F5F5F5F5F5F5F5F5F5F5F5F5F5F5F5F5
310
F5F5F5F5F5F5F5F5F5F5F5F5F5F5F5F5F5F5F5F5F5F5F5F5F5E2E2EFF5F5F5F5F5F5F5F5F5F5F5F5F5F5F5F5F5F5F5F5F5F5F5F5F5F5F5F5F5F5F5F5F5F5F5F5F5F5F5F5F5F5F5F5F5F5F5F5F5F5F5F5F5F5F5F5F5F5F5F5F5F5F5F5F5F5F5F5F5F5F5F5F5F5F5F5F5F5F5F5F5F5F5F5F5F5F5F5F5F5F5F5F5F5F5F5F5F5F5
310
F5F5F5F5F5F5F5F5F5F5F5F5F5F5F5F5F5F5F5F5F5F5F5F5F5F5F5F5F5F5F5F5F5F5F5F5F5F5F5F5F5F5F5F5F5F5F5F5F5F5F5F5F5F5F5F5F5F5F5F5F5F5F5F5F5F5F5F5F5F5F5F5F5F5F5F5F5F5E2E2EFF5F5F5F5F5F5F5F5F5F5F5F5F5F5F5F5F5F5F5F5F5F5F5F5F5F5F5F5F5F5F5F5F5F5F5F5F5F5F5F5F5F5F5F5F5F5
310
F5F5F5F5F5F5F5F5F5F5F5F5F5F5F5F5F5F5F5F5F5F5F5F5F5F5F5F5F5F5F5F5F5F5F5F5F5F5F5F5F5F5F5F5F5F5F5F5F5F5F5F5F5F5F5F5F5F5F5F5F5F5F5F5F5F5F5F5F5F5F5F5F5F5F5F5F5F5F5F5F5F5F5F5F5F5F5F5F5F5F5F5F5F5F5F5F5F5F5F5F5F5F5F5F5F5F5F5F5F5F5F5F5F5F5F5F5F5F5F5F5F5F5F5F5F5F5
310
F5F5F5F5E2E2EFF5F5F5F5F5F5F5F5F5F5F5F5F5F5F5F5F5F5F5F5F5F5F5F5F5F5F5F5F5F5F5F5F5F5F5F5F5F5F5F5F5F5F5F5F5F5F5F5F5F5F5F5F5F5F5F5F5F5F5F5F5F5F5F5F5F5F5F5F5F5F5F5F5F5F5F5F5F5F5F5F5F5F5F5F5F5F5F5F5F5F5F5F5F5F5F5F5F5F5F5F5F5F5F5F5F5F5F5F5F5F5F5F5F5F5F5F5F5F5F5
310
F5F5F5F5F5F5F5F5F5F5F5F5F5F5F5F5F5F5F5F5F5F5F5F5F5F5F5F5F5F5F5F5F5F5F5F5F5F5F5F5F5F5F5F5F5F5F5F5F5F5F5F5F5F5F5F5F5E2E2EFF5F5F5F5F5F5F5F5F5F5F5F5F5F5F5F5F5F5F5F5E2E2E2E2E2E2E2E2E2E2E2E2E2E2E2E2E2E2E2E2E2E2E2E2E2E2E2E2E2E2E2E2E2E2E2E2E2E2E2E2E2E2E2E2E2E2E2
310
E2E2E2E2E2E2E2E2E2E2E2E2E2E2E2E2E2E2E2E2E2E2E2E2E2E2E2E2E2E2E2E2E2E2E2E2E2E2E2E2E2E2E2E2E2E2E2E2E2E2E2E2E2E2E2E2E2E2E2E2E2E2E2E2E2E2E2E2E2E2E2E2E2E2E2E2E2E2E2E2E2E2E2E2E2E2E2E2E2E2F5F5F5F5F5F5F5F5F5F5F5F5F5F5F5F5F5F5F5F5E2E2EFF5F5F5F5F5F5F5F5F5F5F5F5F5F5
310
F5F5F5F5F5F5E2F5F5F5F5F5F5F5F5F5F5F5F5F5F5F5F5F5F5F5F5F5F5F5F5F5F5F5F5F5F5F5F5F5F5F5F5F5F5F5F5F5F5F5F5F5F5F5F5F5F5F5F5F5F5F5F5F5F5F5F5F5F5F5F5F5F5F5F5F5F5F5F5F5F5F5F5F5F5F5F5F5F5F5F5F5F5F5F5F5F5F5F5F5F5F5F5F5F5F5F5F5F5F5F5F5F5F5F5F5F5F5F5F5F5F5F5F5F5F5F5
310
F5F5F5F5F5F5F5F5F5F5F5F5F5F5F5E2F5F5F5F5F5F5F5F5F5F5F5F5F5F5F5F5F5F5F5F5E2E2EFF5F5F5F5F5F5F5F5F5F5F5F5F5F5F5F5F5F5F5F5E2F5F5F5F5F5F5F5F5F5F5F5F5F5F5F5F5F5F5F5F5F5F5F5F5F5F5F5F5F5F5F5F5F5F5F5F5F5F5F5F5F5F5F5F5F5F5F5F5F5F5F5F5F5F5F5F5F5F5F5F5F5F5F5F5F5F5F5
310
F5F5F5F5F5F5F5F5F5F5F5F5F5F5F5F5F5F5F5F5F5F5F5F5F5F5F5F5F5F5F5F5F5F5F5F5F5F5F5F5F5F5F5F5F5F5F5F5F5F5F5F5F5F5F5F5F5F5F5F5F5F5F5F5F5F5F5F5E2F5F5F5F5F5F5F5F5F5F5F5F5F5F5F5F5F5F5F5F5E2E2EFF5F5F5F5F5F5F5F5F5F5F5F5F5F5F5F5F5F5F5F5E2F5F5F5F5F5F5F5F5F5F5F5F5F5F5
310
F5F5F5F5F5F5F5F5F5F5F5F5F5F5F5F5F5F5F5F5F5F5F5F5F5F5F5F5F5F5F5F5F5F5F5F5F5F5F5F5F5F5F5F5F5F5F5F5F5F5F5F5F5F5F5F5F5F5F5F5F5F5F5F5F5F5F5F5F5F5F5F5F5F5F5F5F5F5F5F5F5F5F5F5F5F5F5F5F5F5F5F5F5F5F5F5F5F5F5F5F5F5F5F5F5F5F5F5F5F5F5F5F5F5F5F5F5F5F5F5F5E2F5F5F5F5F5
310
F5F5F5F5F5F5F5F5F5F5F5F5F5F5F5E2E2EFF5F5F5F5F5F5F5F5F5F5F5F5F5F5F5F5F5F5F5F5E2F5F5F5F5F5F5F5F5F5F5F5F5F5F5F5F5F5F5F5F5F5F5F5F5F5F5F5F5F5F5F5F5F5F5F5F5F5F5F5F5F5F5F5F5F5F5F5F5F5F5F5F5F5F5F5F5F5F5F5F5F5F5F5F5F5F5F5F5F5F5F5F5F5F5F5F5F5F5F5F5F5F5F5F5F5F5F5F5
310
F5F5F5F5F5F5F5F5F5F5F5F5F5F5F5F5F5F5F5F5F5F5F5F5F5F5F5F5F5F5F5F5F5F5F5F5F5F5F5F5F5F5F5F5F5F5F5E2F5F5F5F5F5F5F5F5F5F5F5F5F5F5F5F5F5F5F5F5E2E2EFF5F5F5E2F5F5F5F5F5F5F5F5F5F5F5F5F5F5F5F5E2F5F5F5F5F5F5F5F5F5F5F5F5F5F5F5F5F5F5F5F5F5F5F5F5F5F5F5F5F5F5F5F5F5F5F5
310
F5F5F5F5F5F5F5F5F5F5F5F5F5F5F5F5F5F5F5F5F5F5F5F5F5F5F5F5F5F5F5F5F5F5F5F5F5F5F5F5F5F5F5F5F5F5F5F5F5F5F5F5F5F5F5F5F5F5F5F5F5F5F5F5F5F5F5F5F5F5F5F5F5F5F5F5F5F5F5F5F5F5F5F5F5F5F5F5F5F5F5F5F5F5F5F5F5F5F5F5E2F5F5F5F5F5F5F5F5F5F5F5F5F5F5F5F5E2F5F5F5E2E2EFF5F5F5
310
E2F5F5F5F5F5F5F5F5F5F5F5F5F5F5F5F5E2F5F5F5F5F5F5F5F5F5F5F5F5F5F5F5F5F5F5F5F5F5F5F5F5F5F5F5F5F5F5F5F5F5F5F5F5F5F5F5F5F5F5F5F5F5F5F5F5F5F5F5F5F5F5F5F5F5F5F5F5F5F5F5F5F5F5F5F5F5F5F5F5F5F5F5F5F5F5F5F5F5F5F5F5F5F5F5F5F5F5F5F5F5F5F5F5F5F5F5F5F5F5F5F5F5F5F5F5F5
310
F5F5F5F5F5F5F5F5F5F5F5F5F5F5F5F5F5F5F5F5F5F5F5F5F5F5E2F5F5F5F5F5F5F5F5F5F5F5F5F5F5F5F5E2F5F5F5E2E2EFF5F5F5E2F5F5F5F5F5F5F5F5F5F5F5F5F5F5F5F5E2F5F5F5F5F5F5F5F5F5F5F5F5F5F5F5F5F5F5F5F5F5F5F5F5F5F5F5F5F5F5F5F5F5F5F5F5F5F5F5F5F5F5F5F5F5F5F5F5F5F5F5F5F5F5F5F5
310
F5F5F5F5F5F5F5F5F5F5F5F5F5F5F5F5F5F5F5F5F5F5F5F5F5F5F5F5F5F5F5F5F5F5F5F5F5F5F5F5F5F5F5F5F5F5F5F5F5F5F5F5F5F5F5F5F5F5F5F5F5F5F5F5F5F5F5F5F5F5F5F5F5F5F5F5F5F5F5E2F5F5F5F5F5F5F5F5F5F5F5F5F5F5F5F5E2F5F5F5E2E2EFF5F5F5E2F5F5F5F5F5F5F5F5F5F5F5F5F5F5F5F5E2F5F5F5
310
F5F5F5F5F5F5F5F5F5F5F5F5F5F5F5F5F5F5F5F5F5F5F5F5F5F5F5F5F5F5F5F5F5F5F5F5F5F5F5F5F5F5F5F5F5F5F5F5F5F5F5F5F5F5F5F5F5F5F5F5F5F5F5F5F5F5F5F5F5F5F5F5F5F5F5F5F5F5F5F5F5F5F5F5F5F5F5F5F5F5F5F5F5F5F5F5F5F5F5F5F5F5F5F5F5F5F5F5F5F5F5F5F5F5F5F5F5F5F5F5F5F5F5F5F5F5F5
310
F5F5F5F5F5E2F5F5F5F5F5F5F5F5F5F5F5F5F5F5F5F5E2F5F5F5E2E2EFF5F5F5E2F5F5F5F5F5F5F5F5F5F5F5F5F5F5F5F5E2F5F5F5F5F5F5F5F5F5F5F5F5F5F5F5F5F5F5F5F5F5F5F5F5F5F5F5F5F5F5F5F5F5F5F5F5F5F5F5F5F5F5F5F5F5F5F5F5F5F5F5F5F5F5F5F5F5F5F5F5F5F5F5F5F5F5F5F5F5F5F5F5F5F5F5F5F5
310
F5F5F5F5F5F5F5F5F5F5F5F5F5F5F5F5F5F5F5F5F5F5F5F5F5F5F5F5F5F5F5F5F5F5F5F5F5F5F5F5F5F5F5F5F5F5F5F5F5F5F5F5F5F5F5F5F5F5E2F5F5F5F5F5F5F5F5F5F5F5F5F5F5F5F5E2F5F5F5E2E2EFF5F5F5E2F5F5F5F5F5F5F5F5F5F5F5F5F5F5F5F5E2F5F5F5F5F5F5F5F5F5F5F5F5F5F5F5F5F5F5F5F5F5F5F5F5
310
F5F5F5F5F5F5F5F5F5F5F5F5F5F5F5F5F5F5F5F5F5F5F5F5F5F5F5F5F5F5F5F5F5F5F5F5F5F5F5F5F5F5F5F5F5F5F5F5F5F5F5F5F5F5F5F5F5F5F5F5F5F5F5F5F5F5F5F5F5F5F5F5F5F5F5F5F5F5F5F5F5F5F5F5F5F5F5F5F5F5F5F5F5F5F5F5F5F5F5F5F5F5F5F5F5F5F5F5F5F5F5E2F5F5F5F5F5F5F5F5F5F5F5F5F5F5F5
310
F5E2F5F5F5E2E2EFF5F5F5E2F5F5F5F5F5F5F5F5F5F5F5F5F5F5F5F5E2F5F5F5F5F5F5F5F5F5F5F5F5F5F5F5F5F5F5F5F5F5F5F5F5F5F5F5F5F5F5F5F5F5F5F5F5F5F5F5F5F5F5F5F5F5F5F5F5F5F5F5F5F5F5F5F5F5F5F5F5F5F5F5F5F5F5F5F5F5F5F5F5F5F5F5F5F5F5F5F5F5F5F5F5F5F5F5F5F5F5F5F5F5F5F5F5F5F5
310
F5F5F5F5F5F5F5F5F5F5F5F5F5F5F5F5F5F5F5F5F5F5F5F5F5F5F5F5F5F5F5F5F5F5F5F5F5E2F5F5F5F5F5F5F5F5F5F5F5F5F5F5F5F5E2F5F5F5E2E2EFF5F5F5E2F5F5F5F5F5F5F5F5F5F5F5F5F5F5F5F5E2F5F5F5F5F5F5F5F5F5F5F5F5F5F5F5F5F5F5F5F5F5F5F5F5F5F5F5F5F5F5F5F5F5F5F5F5F5F5F5F5F5F5F5F5F5
310
F5F5F5F5F5F5F5F5F5F5F5F5F5F5F5F5F5F5F5F5F5F5F5F5F5F5F5F5F5F5F5F5F5F5F5F5F5F5F5F5F5F5F5F5F5F5F5F5F5F5F5F5F5F5F5F5F5F5F5F5F5F5F5F5F5F5F5F5F5F5F5F5F5F5F5F5F5F5F5F5F5F5F5F5F5F5F5F5F5F5E2F5F5F5F5F5F5F5F5F5F5F5F5F5F5F5F5E2F5F5F5E2E2EFF5F5F5E2F5F5F5F5F5F5F5F5F5
310
F5F5F5F5F5F5F5E2F5F5F5F5F5F5F5F5F5F5F5F5F5F5F5F5F5F5F5F5F5F5F5F5F5F5F5F5F5F5F5F5F5F5F5F5F5F5F5F5F5F5F5F5F5F5F5F5F5F5F5F5F5F5F5F5F5F5F5F5F5F5F5F5F5F5F5F5F5F5F5F5F5F5F5F5F5F5F5F5F5F5F5F5F5F5F5F5F5F5F5F5F5F5F5F5F5F5F5F5F5F5F5F5F5F5F5F5F5F5F5F5F5F5F5F5F5F5F5
310
F5F5F5F5F5F5F5F5F5F5F5F5F5F5F5F5E2F5F5F5F5F5F5F5F5F5F5F5F5F5F5F5F5E2F5F5F5E2E2EFF5F5F5E2F5F5F5F5F5F5F5F5F5F5F5F5F5F5F5F5E2F5F5F5F5F5F5F5F5F5F5F5F5F5F5F5F5F5F5F5F5F5F5F5F5F5F5F5F5F5F5F5F5F5F5F5F5F5F5F5F5F5F5F5F5F5F5F5F5F5F5F5F5F5F5F5F5F5F5F5F5F5F5F5F5F5F5
310
F5F5F5F5F5F5F5F5F5F5F5F5F5F5F5F5F5F5F5F5F5F5F5F5F5F5F5F5F5F5F5F5F5F5F5F5F5F5F5F5F5F5F5F5F5F5F5F5F5F5F5F5F5F5F5F5F5F5F5F5F5F5F5F5F5F5F5F5F5E2F5F5F5F5F5F5F5F5F5F5F5F5F5F5F5F5E2F5F5F5E2E2EFF5F5F5E2F5F5F5F5F5F5F5F5F5F5F5F5F5F5F5F5E2F5F5F5F5F5F5F5F5F5F5F5F5F5
310
F5F5F5F5F5F5F5F5F5F5F5F5F5F5F5F5F5F5F5F5F5F5F5F5F5F5F5F5F5F5F5F5F5F5F5F5F5F5F5F5F5F5F5F5F5F5F5F5F5F5F5F5F5F5F5F5F5F5F5F5F5F5F5F5F5F5F5F5F5F5F5F5F5F5F5F5F5F5F5F5F5F5F5F5F5F5F5F5F5F5F5F5F5F5F5F5F5F5F5F5F5F5F5F5F5F5F5F5F5F5F5F5F5F5F5F5F5F5F5F5F5F5E2F5F5F5F5
310
F5F5F5F5F5F5F5F5F5F5F5F5E2F5F5F5E2E2EFF5F5F5E2F5F5F5F5F5F5F5F5F5F5F5F5F5F5F5F5E2F5F5F5F5F5F5F5F5F5F5F5F5F5F5F5F5F5F5F5F5F5F5F5F5F5F5F5F5F5F5F5F5F5F5F5F5F5F5F5F5F5F5F5F5F5F5F5F5F5F5F5F5F5F5F5F5F5F5F5F5F5F5F5F5F5F5F5F5F5F5F5F5F5F5F5F5F5F5F5F5F5F5F5F5F5F5F5
310
F5F5F5F5F5F5F5F5F5F5F5F5F5F5F5F5F5F5F5F5F5F5F5F5F5F5F5F5F5F5F5F5F5F5F5F5F5F5F5F5F5F5F5F5F5F5F5F5E2F5F5F5F5F5F5F5F5F5F5F5F5F5F5F5F5E2F5F5F5E2E2EFF5F5F5E2F5F5F5F5F5F5F5F5F5F5F5F5F5F5F5F5E2F5F5F5F5F5F5F5F5F5F5F5F5F5F5F5F5F5F5F5F5F5F5F5F5F5F5F5F5F5F5F5F5F5F5
310
F5F5F5F5F5F5F5F5F5F5F5F5F5F5F5F5F5F5F5F5F5F5F5F5F5F5F5F5F5F5F5F5F5F5F5F5F5F5F5F5F5F5F5F5F5F5F5F5F5F5F5F5F5F5F5F5F5F5F5F5F5F5F5F5F5F5F5F5F5F5F5F5F5F5F5F5F5F5F5F5F5F5F5F5F5F5F5F5F5F5F5F5F5F5F5F5F5F5F5F5F5E2F5F5F5F5F5F5F5F5F5F5F5F5F5F5F5F5E2F5F5F5E2E2EFF5F5
310
F5E2F5F5F5F5F5F5F5F5F5F5F5F5F5F5F5F5E2F5F5F5F5F5F5F5F5F5F5F5F5F5F5F5F5F5F5F5F5F5F5F5F5F5F5F5F5F5F5F5F5F5F5F5F5F5F5F5F5F5F5F5F5F5F5F5F5F5F5F5F5F5F5F5F5F5F5F5F5F5F5F5F5F5F5F5F5F5F5F5F5F5F5F5F5F5F5F5F5F5F5F5F5F5F5F5F5F5F5F5F5F5F5F5F5F5F5F5F5F5F5F5F5F5F5F5F5
310
F5F5F5F5F5F5F5F5F5F5F5F5F5F5F5F5F5F5F5F5F5F5F5F5F5F5F5E2F5F5F5F5F5F5F5F5F5F5F5F5F5F5F5F5E2F5F5F5E2E2EFF5F5F5E2F5F5F5F5F5F5F5F5F5F5F5F5F5F5F5F5E2F5F5F5F5F5F5F5F5F5F5F5F5F5F5F5F5F5F5F5F5F5F5F5F5F5F5F5F5F5F5F5F5F5F5F5F5F5F5F5F5F5F5F5F5F5F5F5F5F5F5F5F5F5F5F5
310
F5F5F5F5F5F5F5F5F5F5F5F5F5F5F5F5F5F5F5F5F5F5F5F5F5F5F5F5F5F5F5F5F5F5F5F5F5F5F5F5F5F5F5F5F5F5F5F5F5F5F5F5F5F5F5F5F5F5F5F5F5F5F5F5F5F5F5F5F5F5F5F5F5F5F5F5F5F5F5F5E2F5F5F5F5F5F5F5F5F5F5F5F5F5F5F5F5E2F5F5F5E2E2EFF5F5F5E2F5F5F5F5F5F5F5F5F5F5F5F5F5F5F5F5E2F5F5
310
F5F5F5F5F5F5F5F5F5F5F5F5F5F5F5F5F5F5F5F5F5F5F5F5F5F5F5F5F5F5F5F5F5F5F5F5F5F5F5F5F5F5F5F5F5F5F5F5F5F5F5F5F5F5F5F5F5F5F5F5F5F5F5F5F5F5F5F5F5F5F5F5F5F5F5F5F5F5F5F5F5F5F5F5F5F5F5F5F5F5F5F5F5F5F5F5F5F5F5F5F5F5F5F5F5F5F5F5F5F5F5F5F5F5F5F5F5F5F5F5F5F5F5F5F5F5F5
310
F5F5F5F5F5F5E2F5F5F5F5F5F5F5F5F5F5F5F5F5F5F5F5E2F5F5F5E2E2EFF5F5F5E2F5F5F5F5F5F5F5F5F5F5F5F5F5F5F5F5E2F5F5F5F5F5F5F5F5F5F5F5F5F5F5F5F5F5F5F5F5F5F5F5F5F5F5F5F5F5F5F5F5F5F5F5F5F5F5F5F5F5F5F5F5F5F5F5F5F5F5F5F5F5F5F5F5F5F5F5F5F5F5F5F5F5F5F5F5F5F5F5F5F5F5F5F5
310
F5F5F5F5F5F5F5F5F5F5F5F5F5F5F5F5F5F5F5F5F5F5F5F5F5F5F5F5F5F5F5F5F5F5F5F5F5F5F5F5F5F5F5F5F5F5F5F5F5F5F5F5F5F5F5F5F5F5F5E2F5F5F5F5F5F5F5F5F5F5F5F5F5F5F5F5E2F5F5F5E2E2EFF5F5F5F5F5F5F5F5F5F5F5F5F5F5F5F5F5F5F5F5E2F5F5F5F5F5F5F5F5F5F5F5F5F5F5F5F5F5F5F5F5F5F5F5
310
F5F5F5F5F5F5F5F5F5F5F5F5F5F5F5F5F5F5F5F5F5F5F5F5F5F5F5F5F5F5F5F5F5F5F5F5F5F5F5F5F5F5F5F5F5F5F5F5F5F5F5F5F5F5F5F5F5F5F5F5F5F5F5F5F5F5F5F5F5F5F5F5F5F5F5F5F5F5F5F5F5F5F5F5F5F5F5F5F5F5F5F5F5F5F5F5F5F5F5F5F5F5F5F5F5F5F5F5F5F5F5F5E2F5F5F5F5F5F5F5F5F5F5F5F5F5F5
310
F5F5F5F5F5F5E2E2EFF5F5F5F5F5F5F5F5F5F5F5F5F5F5F5F5F5F5F5F5E2F5F5F5F5F5F5F5F5F5F5F5F5F5F5F5F5F5F5F5F5F5F5F5F5F5F5F5F5F5F5F5F5F5F5F5F5F5F5F5F5F5F5F5F5F5F5F5F5F5F5F5F5F5F5F5F5F5F5F5F5F5F5F5F5F5F5F5F5F5F5F5F5F5F5F5F5F5F5F5F5F5F5F5F5F5F5F5F5F5F5F5F5F5F5F5F5F5
310
F5F5F5F5F5F5F5F5F5F5F5F5F5F5F5F5F5F5F5F5F5F5F5F5F5F5F5F5F5F5F5F5F5F5F5F5F5F5E2F5F5F5F5F5F5F5F5F5F5F5F5F5F5F5F5F5F5F5F5E2E2EFF5F5F5F5F5F5F5F5F5F5F5F5F5F5F5F5F5F5F5F5E2F5F5F5F5F5F5F5F5F5F5F5F5F5F5F5F5F5F5F5F5F5F5F5F5F5F5F5F5F5F5F5F5F5F5F5F5F5F5F5F5F5F5F5F5
310
F5F5F5F5F5F5F5F5F5F5F5F5F5F5F5F5F5F5F5F5F5F5F5F5F5F5F5F5F5F5F5F5F5F5F5F5F5F5F5F5F5F5F5F5F5F5F5F5F5F5F5F5F5F5F5F5F5F5F5F5F5F5F5F5F5F5F5F5F5F5F5F5F5F5F5F5F5F5F5F5F5F5F5F5F5F5F5F5F5F5F5E2F5F5F5F5F5F5F5F5F5F5F5F5F5F5F5F5F5F5F5F5E2E2EFF5F5F5F5F5F5F5F5F5F5F5F5
310
F5F5F5F5F5F5F5F5E2F5F5F5F5F5F5F5F5F5F5F5F5F5F5F5F5F5F5F5F5F5F5F5F5F5F5F5F5F5F5F5F5F5F5F5F5F5F5F5F5F5F5F5F5F5F5F5F5F5F5F5F5F5F5F5F5F5F5F5F5F5F5F5F5F5F5F5F5F5F5F5F5F5F5F5F5F5F5F5F5F5F5F5F5F5F5F5F5F5F5F5F5F5F5F5F5F5F5F5F5F5F5F5F5F5F5F5F5F5F5F5F5F5F5F5F5F5F5
310
F5F5F5F5F5F5F5F5F5F5F5F5F5F5F5F5F5E2F5F5F5F5F5F5F5F5F5F5F5F5F5F5F5F5F5F5F5F5E2E2EFF5F5F5F5F5F5F5F5F5F5F5F5F5F5F5F5F5F5F5F5E2F5F5F5F5F5F5F5F5F5F5F5F5F5F5F5F5F5F5F5F5F5F5F5F5F5F5F5F5F5F5F5F5F5F5F5F5F5F5F5F5F5F5F5F5F5F5F5F5F5F5F5F5F5F5F5F5F5F5F5F5F5F5F5F5F5
310
F5F5F5F5F5F5F5F5F5F5F5F5F5F5F5F5F5F5F5F5F5F5F5F5F5F5F5F5F5F5F5F5F5F5F5F5F5F5F5F5F5F5F5F5F5F5F5F5F5F5F5F5F5F5F5F5F5F5F5F5F5F5F5F5F5F5F5F5F5F5E2F5F5F5F5F5F5F5F5F5F5F5F5F5F5F5F5F5F5F5F5E2E2EFF5F5F5F5F5F5F5F5F5F5F5F5F5F5F5F5F5F5F5F5E2F5F5F5F5F5F5F5F5F5F5F5F5
310
F5F5F5F5F5F5F5F5F5F5F5F5F5F5F5F5F5F5F5F5F5F5F5F5F5F5F5F5F5F5F5F5F5F5F5F5F5F5F5F5F5F5F5F5F5F5F5F5F5F5F5F5F5F5F5F5F5F5F5F5F5F5F5F5F5F5F5F5F5F5F5F5F5F5F5F5F5F5F5F5F5F5F5F5F5F5F5F5F5F5F5F5F5F5F5F5F5F5F5F5F5F5F5F5F5F5F5F5F5F5F5F5F5F5F5F5F5F5F5F5F5F5F5E2F5F5F5
310
F5F5F5F5F5F5F5F5F5F5F5F5F5F5F5F5F5E2E2EFF5F5F5F5F5F5F5F5F5F5F5F5F5F5F5F5F5F5F5F5E2F5F5F5F5F5F5F5F5F5F5F5F5F5F5F5F5F5F5F5F5F5F5F5F5F5F5F5F5F5F5F5F5F5F5F5F5F5F5F5F5F5F5F5F5F5F5F5F5F5F5F5F5F5F5F5F5F5F5F5F5F5F5F5F5F5F5F5F5F5F5F5F5F5F5F5F5F5F5F5F5F5F5F5F5F5F5
310
F5F5F5F5F5F5F5F5F5F5F5F5F5F5F5F5F5F5F5F5F5F5F5F5F5F5F5F5F5F5F5F5F5F5F5F5F5F5F5F5F5F5F5F5F5F5F5F5F5E2F5F5F5F5F5F5F5F5F5F5F5F5F5F5F5F5F5F5F5F5E2E2EFF5F5F5F5F5F5F5F5F5F5F5F5F5F5F5F5F5F5F5F5E2F5F5F5F5F5F5F5F5F5F5F5F5F5F5F5F5F5F5F5F5F5F5F5F5F5F5F5F5F5F5F5F5F5
310
F5F5F5F5F5F5F5F5F5F5F5F5F5F5F5F5F5F5F5F5F5F5F5F5F5F5F5F5F5F5F5F5F5F5F5F5F5F5F5F5F5F5F5F5F5F5F5F5F5F5F5F5F5F5F5F5F5F5F5F5F5F5F5F5F5F5F5F5F5F5F5F5F5F5F5F5F5F5F5F5F5F5F5F5F5F5F5F5F5F5F5F5F5F5F5F5F5F5F5F5F5F5E2F5F5F5F5F5F5F5F5F5F5F5F5F5F5F5F5F5F5F5F5E2E2EFF5
310
F5F5F5F5F5F5F5F5F5F5F5F5F5F5F5F5F5F5F5E2F5F5F5F5F5F5F5F5F5F5F5F5F5F5F5F5F5F5F5F5F5F5F5F5F5F5F5F5F5F5F5F5F5F5F5F5F5F5F5F5F5F5F5F5F5F5F5F5F5F5F5F5F5F5F5F5F5F5F5F5F5F5F5F5F5F5F5F5F5F5F5F5F5F5F5F5F5F5F5F5F5F5F5F5F5F5F5F5F5F5F5F5F5F5F5F5F5F5F5F5F5F5F5F5F5F5F5
310
F5F5F5F5F5F5F5F5F5F5F5F5F5F5F5F5F5F5F5F5F5F5F5F5F5F5F5F5E2F5F5F5F5F5F5F5F5F5F5F5F5F5F5F5F5F5F5F5F5E2E2EFF5F5F5E2F5F5F5F5F5F5F5F5F5F5F5F5F5F5F5F5E2F5F5F5F5F5F5F5F5F5F5F5F5F5F5F5F5F5F5F5F5F5F5F5F5F5F5F5F5F5F5F5F5F5F5F5F5F5F5F5F5F5F5F5F5F5F5F5F5F5F5F5F5F5F5
310
F5F5F5F5F5F5F5F5F5F5F5F5F5F5F5F5F5F5F5F5F5F5F5F5F5F5F5F5F5F5F5F5F5F5F5F5F5F5F5F5F5F5F5F5F5F5F5F5F5F5F5F5F5F5F5F5F5F5F5F5F5F5F5F5F5F5F5F5F5F5F5F5F5F5F5F5F5F5F5F5F5E2F5F5F5F5F5F5F5F5F5F5F5F5F5F5F5F5E2F5F5F5E2E2EFF5F5F5E2F5F5F5F5F5F5F5F5F5F5F5F5F5F5F5F5E2F5
310
F5F5F5F5F5F5F5F5F5F5F5F5F5F5F5F5F5F5F5F5F5F5F5F5F5F5F5F5F5F5F5F5F5F5F5F5F5F5F5F5F5F5F5F5F5F5F5F5F5F5F5F5F5F5F5F5F5F5F5F5F5F5F5F5F5F5F5F5F5F5F5F5F5F5F5F5F5F5F5F5F5F5F5F5F5F5F5F5F5F5F5F5F5F5F5F5F5F5F5F5F5F5F5F5F5F5F5F5F5F5F5F5F5F5F5F5F5F5F5F5F5F5F5F5F5F5F5
310
F5F5F5F5F5F5F5E2F5F5F5F5F5F5F5F5F5F5F5F5F5F5F5F5E2F5F5F5E2E2EFF5F5F5E2F5F5F5F5F5F5F5F5F5F5F5F5F5F5F5F5E2F5F5F5F5F5F5F5F5F5F5F5F5F5F5F5F5F5F5F5F5F5F5F5F5F5F5F5F5F5F5F5F5F5F5F5F5F5F5F5F5F5F5F5F5F5F5F5F5F5F5F5F5F5F5F5F5F5F5F5F5F5F5F5F5F5F5F5F5F5F5F5F5F5F5F5
310
F5F5F5F5F5F5F5F5F5F5F5F5F5F5F5F5F5F5F5F5F5F5F5F5F5F5F5F5F5F5F5F5F5F5F5F5F5F5F5F5F5F5F5F5F5F5F5F5F5F5F5F5F5F5F5F5F5F5F5F5E2F5F5F5F5F5F5F5F5F5F5F5F5F5F5F5F5E2F5F5F5E2E2EFF5F5F5E2F5F5F5F5F5F5F5F5F5F5F5F5F5F5F5F5E2F5F5F5F5F5F5F5F5F5F5F5F5F5F5F5F5F5F5F5F5F5F5
310
F5F5F5F5F5F5F5F5F5F5F5F5F5F5F5F5F5F5F5F5F5F5F5F5F5F5F5F5F5F5F5F5F5F5F5F5F5F5F5F5F5F5F5F5F5F5F5F5F5F5F5F5F5F5F5F5F5F5F5F5F5F5F5F5F5F5F5F5F5F5F5F5F5F5F5F5F5F5F5F5F5F5F5F5F5F5F5F5F5F5F5F5F5F5F5F5F5F5F5F5F5F5F5F5F5F5F5F5F5F5F5F5F5E2F5F5F5F5F5F5F5F5F5F5F5F5F5
310
F5F5F5E2F5F5F5E2E2EFF5F5F5E2F5F5F5F5F5F5F5F5F5F5F5F5F5F5F5F5E2F5F5F5F5F5F5F5F5F5F5F5F5F5F5F5F5F5F5F5F5F5F5F5F5F5F5F5F5F5F5F5F5F5F5F5F5F5F5F5F5F5F5F5F5F5F5F5F5F5F5F5F5F5F5F5F5F5F5F5F5F5F5F5F5F5F5F5F5F5F5F5F5F5F5F5F5F5F5F5F5F5F5F5F5F5F5F5F5F5F5F5F5F5F5F5F5
310
F5F5F5F5F5F5F5F5F5F5F5F5F5F5F5F5F5F5F5F5F5F5F5F5F5F5F5F5F5F5F5F5F5F5F5F5F5F5F5E2F5F5F5F5F5F5F5F5F5F5F5F5F5F5F5F5E2F5F5F5E2E2EFF5F5F5E2F5F5F5F5F5F5F5F5F5F5F5F5F5F5F5F5E2F5F5F5F5F5F5F5F5F5F5F5F5F5F5F5F5F5F5F5F5F5F5F5F5F5F5F5F5F5F5F5F5F5F5F5F5F5F5F5F5F5F5F5
310
F5F5F5F5F5F5F5F5F5F5F5F5F5F5F5F5F5F5F5F5F5F5F5F5F5F5F5F5F5F5F5F5F5F5F5F5F5F5F5F5F5F5F5F5F5F5F5F5F5F5F5F5F5F5F5F5F5F5F5F5F5F5F5F5F5F5F5F5F5F5F5F5F5F5F5F5F5F5F5F5F5F5F5F5F5F5F5F5F5F5F5F5E2F5F5F5F5F5F5F5F5F5F5F5F5F5F5F5F5E2F5F5F5E2E2EFF5F5F5E2F5F5F5F5F5F5F5
310
F5F5F5F5F5F5F5F5F5E2F5F5F5F5F5F5F5F5F5F5F5F5F5F5F5F5F5F5F5F5F5F5F5F5F5F5F5F5F5F5F5F5F5F5F5F5F5F5F5F5F5F5F5F5F5F5F5F5F5F5F5F5F5F5F5F5F5F5F5F5F5F5F5F5F5F5F5F5F5F5F5F5F5F5F5F5F5F5F5F5F5F5F5F5F5F5F5F5F5F5F5F5F5F5F5F5F5F5F5F5F5F5F5F5F5F5F5F5F5F5F5F5F5F5F5F5F5
310
F5F5F5F5F5F5F5F5F5F5F5F5F5F5F5F5F5F5E2F5F5F5F5F5F5F5F5F5F5F5F5F5F5F5F5E2F5F5F5E2E2EFF5F5F5E2F5F5F5F5F5F5F5F5F5F5F5F5F5F5F5F5E2F5F5F5F5F5F5F5F5F5F5F5F5F5F5F5F5F5F5F5F5F5F5F5F5F5F5F5F5F5F5F5F5F5F5F5F5F5F5F5F5F5F5F5F5F5F5F5F5F5F5F5F5F5F5F5F5F5F5F5F5F5F5F5F5
310
F5F5F5F5F5F5F5F5F5F5F5F5F5F5F5F5F5F5F5F5F5F5F5F5F5F5F5F5F5F5F5F5F5F5F5F5F5F5F5F5F5F5F5F5F5F5F5F5F5F5F5F5F5F5F5F5F5F5F5F5F5F5F5F5F5F5F5F5F5F5F5E2F5F5F5F5F5F5F5F5F5F5F5F5F5F5F5F5E2F5F5F5E2E2EFF5F5F5E2F5F5F5F5F5F5F5F5F5F5F5F5F5F5F5F5E2F5F5F5F5F5F5F5F5F5F5F5
310
F5F5F5F5F5F5F5F5F5F5F5F5F5F5F5F5F5F5F5F5F5F5F5F5F5F5F5F5F5F5F5F5F5F5F5F5F5F5F5F5F5F5F5F5F5F5F5F5F5F5F5F5F5F5F5F5F5F5F5F5F5F5F5F5F5F5F5F5F5F5F5F5F5F5F5F5F5F5F5F5F5F5F5F5F5F5F5F5F5F5F5F5F5F5F5F5F5F5F5F5F5F5F5F5F5F5F5F5F5F5F5F5F5F5F5F5F5F5F5F5F5F5F5F5E2F5F5
310
F5F5F5F5F5F5F5F5F5F5F5F5F5F5E2F5F5F5E2E2EFF5F5F5E2F5F5F5F5F5F5F5F5F5F5F5F5F5F5F5F5E2F5F5F5F5F5F5F5F5F5F5F5F5F5F5F5F5F5F5F5F5F5F5F5F5F5F5F5F5F5F5F5F5F5F5F5F5F5F5F5F5F5F5F5F5F5F5F5F5F5F5F5F5F5F5F5F5F5F5F5F5F5F5F5F5F5F5F5F5F5F5F5F5F5F5F5F5F5F5F5F5F5F5F5F5F5
310
F5F5F5F5F5F5F5F5F5F5F5F5F5F5F5F5F5F5F5F5F5F5F5F5F5F5F5F5F5F5F5F5F5F5F5F5F5F5F5F5F5F5F5F5F5F5F5F5F5F5E2F5F5F5F5F5F5F5F5F5F5F5F5F5F5F5F5E2F5F5F5E2E2EFF5F5F5E2F5F5F5F5F5F5F5F5F5F5F5F5F5F5F5F5E2F5F5F5F5F5F5F5F5F5F5F5F5F5F5F5F5F5F5F5F5F5F5F5F5F5F5F5F5F5F5F5F5
310
F5F5F5F5F5F5F5F5F5F5F5F5F5F5F5F5F5F5F5F5F5F5F5F5F5F5F5F5F5F5F5F5F5F5F5F5F5F5F5F5F5F5F5F5F5F5F5F5F5F5F5F5F5F5F5F5F5F5F5F5F5F5F5F5F5F5F5F5F5F5F5F5F5F5F5F5F5F5F5F5F5F5F5F5F5F5F5F5F5F5F5F5F5F5F5F5F5F5F5F5F5F5F5E2F5F5F5F5F5F5F5F5F5F5F5F5F5F5F5F5E2F5F5F5E2E2EF
310
F5F5F5E2F5F5F5F5F5F5F5F5F5F5F5F5F5F5F5F5E2F5F5F5F5F5F5F5F5F5F5F5F5F5F5F5F5F5F5F5F5F5F5F5F5F5F5F5F5F5F5F5F5F5F5F5F5F5F5F5F5F5F5F5F5F5F5F5F5F5F5F5F5F5F5F5F5F5F5F5F5F5F5F5F5F5F5F5F5F5F5F5F5F5F5F5F5F5F5F5F5F5F5F5F5F5F5F5F5F5F5F5F5F5F5F5F5F5F5F5F5F5F5F5F5F5F5
310
F5F5F5F5F5F5F5F5F5F5F5F5F5F5F5F5F5F5F5F5F5F5F5F5F5F5F5F5F5E2F5F5F5F5F5F5F5F5F5F5F5F5F5F5F5F5E2F5F5F5E2E2EFF5F5F5E2F5F5F5F5F5F5F5F5F5F5F5F5F5F5F5F5E2F5F5F5F5F5F5F5F5F5F5F5F5F5F5F5F5F5F5F5F5F5F5F5F5F5F5F5F5F5F5F5F5F5F5F5F5F5F5F5F5F5F5F5F5F5F5F5F5F5F5F5F5F5
310
F5F5F5F5F5F5F5F5F5F5F5F5F5F5F5F5F5F5F5F5F5F5F5F5F5F5F5F5F5F5F5F5F5F5F5F5F5F5F5F5F5F5F5F5F5F5F5F5F5F5F5F5F5F5F5F5F5F5F5F5F5F5F5F5F5F5F5F5F5F5F5F5F5F5F5F5F5F5F5F5F5F5E2F5F5F5F5F5F5F5F5F5F5F5F5F5F5F5F5E2F5F5F5E2E2EFF5F5F5E2F5F5F5F5F5F5F5F5F5F5F5F5F5F5F5F5E2
310
F5F5F5F5F5F5F5F5F5F5F5F5F5F5F5F5F5F5F5F5F5F5F5F5F5F5F5F5F5F5F5F5F5F5F5F5F5F5F5F5F5F5F5F5F5F5F5F5F5F5F5F5F5F5F5F5F5F5F5F5F5F5F5F5F5F5F5F5F5F5F5F5F5F5F5F5F5F5F5F5F5F5F5F5F5F5F5F5F5F5F5F5F5F5F5F5F5F5F5F5F5F5F5F5F5F5F5F5F5F5F5F5F5F5F5F5F5F5F5F5F5F5F5F5F5F5F5
310
F5F5F5F5F5F5F5F5E2F5F5F5F5F5F5F5F5F5F5F5F5F5F5F5F5E2F5F5F5E2E2EFF5F5F5E2F5F5F5F5F5F5F5F5F5F5F5F5F5F5F5F5E2F5F5F5F5F5F5F5F5F5F5F5F5F5F5F5F5F5F5F5F5F5F5F5F5F5F5F5F5F5F5F5F5F5F5F5F5F5F5F5F5F5F5F5F5F5F5F5F5F5F5F5F5F5F5F5F5F5F5F5F5F5F5F5F5F5F5F5F5F5F5F5F5F5F5
310
F5F5F5F5F5F5F5F5F5F5F5F5F5F5F5F5F5F5F5F5F5F5F5F5F5F5F5F5F5F5F5F5F5F5F5F5F5F5F5F5F5F5F5F5F5F5F5F5F5F5F5F5F5F5F5F5F5F5F5F5F5E2F5F5F5F5F5F5F5F5F5F5F5F5F5F5F5F5E2F5F5F5E2E2EFF5F5F5E2F5F5F5F5F5F5F5F5F5F5F5F5F5F5F5F5E2F5F5F5F5F5F5F5F5F5F5F5F5F5F5F5F5F5F5F5F5F5
310
F5F5F5F5F5F5F5F5F5F5F5F5F5F5F5F5F5F5F5F5F5F5F5F5F5F5F5F5F5F5F5F5F5F5F5F5F5F5F5F5F5F5F5F5F5F5F5F5F5F5F5F5F5F5F5F5F5F5F5F5F5F5F5F5F5F5F5F5F5F5F5F5F5F5F5F5F5F5F5F5F5F5F5F5F5F5F5F5F5F5F5F5F5F5F5F5F5F5F5F5F5F5F5F5F5F5F5F5F5F5F5F5F5F5E2F5F5F5F5F5F5F5F5F5F5F5F5
310
F5F5F5F5E2F5F5F5E2E2EFF5F5F5E2F5F5F5F5F5F5F5F5F5F5F5F5F5F5F5F5E2F5F5F5F5F5F5F5F5F5F5F5F5F5F5F5F5F5F5F5F5F5F5F5F5F5F5F5F5F5F5F5F5F5F5F5F5F5F5F5F5F5F5F5F5F5F5F5F5F5F5F5F5F5F5F5F5F5F5F5F5F5F5F5F5F5F5F5F5F5F5F5F5F5F5F5F5F5F5F5F5F5F5F5F5F5F5F5F5F5F5F5F5F5F5F5
310
F5F5F5F5F5F5F5F5F5F5F5F5F5F5F5F5F5F5F5F5F5F5F5F5F5F5F5F5F5F5F5F5F5F5F5F5F5F5F5F5E2F5F5F5F5F5F5F5F5F5F5F5F5F5F5F5F5E2F5F5F5E2E2EFF5F5F5F5F5F5F5F5F5F5F5F5F5F5F5F5F5F5F5F5E2F5F5F5F5F5F5F5F5F5F5F5F5F5F5F5F5F5F5F5F5F5F5F5F5F5F5F5F5F5F5F5F5F5F5F5F5F5F5F5F5F5F5
310
F5F5F5F5F5F5F5F5F5F5F5F5F5F5F5F5F5F5F5F5F5F5F5F5F5F5F5F5F5F5F5F5F5F5F5F5F5F5F5F5F5F5F5F5F5F5F5F5F5F5F5F5F5F5F5F5F5F5F5F5F5F5F5F5F5F5F5F5F5F5F5F5F5F5F5F5F5F5F5F5F5F5F5F5F5F5F5F5F5F5F5F5F5E2F5F5F5F5F5F5F5F5F5F5F5F5F5F5F5F5F5F5F5F5E2E2EFF5F5F5F5F5F5F5F5F5F5
310
F5F5F5F5F5F5F5F5F5F5E2F5F5F5F5F5F5F5F5F5F5F5F5F5F5F5F5F5F5F5F5F5F5F5F5F5F5F5F5F5F5F5F5F5F5F5F5F5F5F5F5F5F5F5F5F5F5F5F5F5F5F5F5F5F5F5F5F5F5F5F5F5F5F5F5F5F5F5F5F5F5F5F5F5F5F5F5F5F5F5F5F5F5F5F5F5F5F5F5F5F5F5F5F5F5F5F5F5F5F5F5F5F5F5F5F5F5F5F5F5F5F5F5F5F5F5F5
310
F5F5F5F5F5F5F5F5F5F5F5F5F5F5F5F5F5F5F5E2F5F5F5F5F5F5F5F5F5F5F5F5F5F5F5F5F5F5F5F5E2E2EFF5F5F5F5F5F5F5F5F5F5F5F5F5F5F5F5F5F5F5F5E2F5F5F5F5F5F5F5F5F5F5F5F5F5F5F5F5F5F5F5F5F5F5F5F5F5F5F5F5F5F5F5F5F5F5F5F5F5F5F5F5F5F5F5F5F5F5F5F5F5F5F5F5F5F5F5F5F5F5F5F5F5F5F5
310
F5F5F5F5F5F5F5F5F5F5F5F5F5F5F5F5F5F5F5F5F5F5F5F5F5F5F5F5F5F5F5F5F5F5F5F5F5F5F5F5F5F5F5F5F5F5F5F5F5F5F5F5F5F5F5F5F5F5F5F5F5F5F5F5F5F5F5F5F5F5F5F5E2F5F5F5F5F5F5F5F5F5F5F5F5F5F5F5F5F5F5F5F5E2E2EFF5F5F5F5F5F5F5F5F5F5F5F5F5F5F5F5F5F5F5F5E2F5F5F5F5F5F5F5F5F5F5
310
F5F5F5F5F5F5F5F5F5F5F5F5F5F5F5F5F5F5F5F5F5F5F5F5F5F5F5F5F5F5F5F5F5F5F5F5F5F5F5F5F5F5F5F5F5F5F5F5F5F5F5F5F5F5F5F5F5F5F5F5F5F5F5F5F5F5F5F5F5F5F5F5F5F5F5F5F5F5F5F5F5F5F5F5F5F5F5F5F5F5F5F5F5F5F5F5F5F5F5F5F5F5F5F5F5F5F5F5F5F5F5F5F5F5F5F5F5F5F5F5F5F5F5F5F5E2F5
310
F5F5F5F5F5F5F5F5F5F5F5F5F5F5F5F5F5F5F5E2E2EFF5F5F5F5F5F5F5F5F5F5F5F5F5F5F5F5F5F5F5F5E2F5F5F5F5F5F5F5F5F5F5F5F5F5F5F5F5F5F5F5F5F5F5F5F5F5F5F5F5F5F5F5F5F5F5F5F5F5F5F5F5F5F5F5F5F5F5F5F5F5F5F5F5F5F5F5F5F5F5F5F5F5F5F5F5F5F5F5F5F5F5F5F5F5F5F5F5F5F5F5F5F5F5F5F5
310
F5F5F5F5F5F5F5F5F5F5F5F5F5F5F5F5F5F5F5F5F5F5F5F5F5F5F5F5F5F5F5F5F5F5F5F5F5F5F5F5F5F5F5F5F5F5F5F5F5F5F5E2F5F5F5F5F5F5F5F5F5F5F5F5F5F5F5F5F5F5F5F5E2E2EFF5F5F5F5F5F5F5F5F5F5F5F5F5F5F5F5F5F5F5F5E2F5F5F5F5F5F5F5F5F5F5F5F5F5F5F5F5F5F5F5F5F5F5F5F5F5F5F5F5F5F5F5
310
F5F5F5F5F5F5F5F5F5F5F5F5F5F5F5F5F5F5F5F5F5F5F5F5F5F5F5F5F5F5F5F5F5F5F5F5F5F5F5F5F5F5F5F5F5F5F5F5F5F5F5F5F5F5F5F5F5F5F5F5F5F5F5F5F5F5F5F5F5F5F5F5F5F5F5F5F5F5F5F5F5F5F5F5F5F5F5F5F5F5F5F5F5F5F5F5F5F5F5F5F5F5F5F5E2F5F5F5F5F5F5F5F5F5F5F5F5F5F5F5F5F5F5F5F5E2E2
310
EFF5F5F5F5F5F5F5F5F5F5F5F5F5F5F5F5F5F5F5F5E2F5F5F5F5F5F5F5F5F5F5F5F5F5F5F5F5F5F5F5F5F5F5F5F5F5F5F5F5F5F5F5F5F5F5F5F5F5F5F5F5F5F5F5F5F5F5F5F5F5F5F5F5F5F5F5F5F5F5F5F5F5F5F5F5F5F5F5F5F5F5F5F5F5F5F5F5F5F5F5F5F5F5F5F5F5F5F5F5F5F5F5F5F5F5F5F5F5F5F5F5F5F5F5F5F5
310
F5F5F5F5F5F5F5F5F5F5F5F5F5F5F5F5F5F5F5F5F5F5F5F5F5F5F5F5F5F5E2F5F5F5F5F5F5F5F5F5F5F5F5F5F5F5F5F5F5F5F5E2E2EFF5F5F5F5F5F5F5F5F5F5F5F5F5F5F5F5F5F5F5F5E2F5F5F5F5F5F5F5F5F5F5F5F5F5F5F5F5F5F5F5F5F5F5F5F5F5F5F5F5F5F5F5F5F5F5F5F5F5F5F5F5F5F5F5F5F5F5F5F5F5F5F5F5
310
F5F5F5F5F5F5F5F5F5F5F5F5F5F5F5F5F5F5F5F5F5F5F5F5F5F5F5F5F5F5F5F5F5F5F5F5F5F5F5F5F5F5F5F5F5F5F5F5F5F5F5F5F5F5F5F5F5F5F5F5F5F5F5F5F5F5F5F5F5F5F5F5F5F5F5F5F5F5F5F5F5F5F5E2F5F5F5F5F5F5F5F5F5F5F5F5F5F5F5F5F5F5F5F5E2E2EFF5F5F5F5F5F5F5F5F5F5F5F5F5F5F5F5F5F5F5F5
310
E2F5F5F5F5F5F5F5F5F5F5F5F5F5F5F5F5F5F5F5F5F5F5F5F5F5F5F5F5F5F5F5F5F5F5F5F5F5F5F5F5F5F5F5F5F5F5F5F5F5F5F5F5F5F5F5F5F5F5F5F5F5F5F5F5F5F5F5F5F5F5F5F5F5F5F5F5F5F5F5F5F5F5F5F5F5F5F5F5F5F5F5F5F5F5F5F5F5F5F5F5F5F5F5F5F5F5F5F5F5F5F5F5F5F5F5F5F5F5F5F5F5F5F5F5F5F5
310
F5F5F5F5F5F5F5F5F5E2F5F5F5F5F5F5F5F5F5F5F5F5F5F5F5F5F5F5F5F5E2E2EFF5F5F5E2F5F5F5F5F5F5F5F5F5F5F5F5F5F5F5F5E2F5F5F5F5F5F5F5F5F5F5F5F5F5F5F5F5F5F5F5F5F5F5F5F5F5F5F5F5F5F5F5F5F5F5F5F5F5F5F5F5F5F5F5F5F5F5F5F5F5F5F5F5F5F5F5F5F5F5F5F5F5F5F5F5F5F5F5F5F5F5F5F5F5
310
F5F5F5F5F5F5F5F5F5F5F5F5F5F5F5F5F5F5F5F5F5F5F5F5F5F5F5F5F5F5F5F5F5F5F5F5F5F5F5F5F5F5F5F5F5F5F5F5F5F5F5F5F5F5F5F5F5F5F5F5F5F5E2F5F5F5F5F5F5F5F5F5F5F5F5F5F5F5F5E2F5F5F5E2E2EFF5F5F5E2F5F5F5F5F5F5F5F5F5F5F5F5F5F5F5F5E2F5F5F5F5F5F5F5F5F5F5F5F5F5F5F5F5F5F5F5F5
310
F5F5F5F5F5F5F5F5F5F5F5F5F5F5F5F5F5F5F5F5F5F5F5F5F5F5F5F5F5F5F5F5F5F5F5F5F5F5F5F5F5F5F5F5F5F5F5F5F5F5F5F5F5F5F5F5F5F5F5F5F5F5F5F5F5F5F5F5F5F5F5F5F5F5F5F5F5F5F5F5F5F5F5F5F5F5F5F5F5F5F5F5F5F5F5F5F5F5F5F5F5F5F5F5F5F5F5F5F5F5F5F5F5F5F5E2F5F5F5F5F5F5F5F5F5F5F5
310
F5F5F5F5F5E2F5F5F5E2E2EFF5F5F5E2F5F5F5F5F5F5F5F5F5F5F5F5F5F5F5F5E2F5F5F5F5F5F5F5F5F5F5F5F5F5F5F5F5F5F5F5F5F5F5F5F5F5F5F5F5F5F5F5F5F5F5F5F5F5F5F5F5F5F5F5F5F5F5F5F5F5F5F5F5F5F5F5F5F5F5F5F5F5F5F5F5F5F5F5F5F5F5F5F5F5F5F5F5F5F5F5F5F5F5F5F5F5F5F5F5F5F5F5F5F5F5
310
F5F5F5F5F5F5F5F5F5F5F5F5F5F5F5F5F5F5F5F5F5F5F5F5F5F5F5F5F5F5F5F5F5F5F5F5F5F5F5F5F5E2F5F5F5F5F5F5F5F5F5F5F5F5F5F5F5F5E2F5F5F5E2E2EFF5F5F5E2F5F5F5F5F5F5F5F5F5F5F5F5F5F5F5F5E2F5F5F5F5F5F5F5F5F5F5F5F5F5F5F5F5F5F5F5F5F5F5F5F5F5F5F5F5F5F5F5F5F5F5F5F5F5F5F5F5F5
310
F5F5F5F5F5F5F5F5F5F5F5F5F5F5F5F5F5F5F5F5F5F5F5F5F5F5F5F5F5F5F5F5F5F5F5F5F5F5F5F5F5F5F5F5F5F5F5F5F5F5F5F5F5F5F5F5F5F5F5F5F5F5F5F5F5F5F5F5F5F5F5F5F5F5F5F5F5F5F5F5F5F5F5F5F5F5F5F5F5F5F5F5F5F5E2F5F5F5F5F5F5F5F5F5F5F5F5F5F5F5F5E2F5F5F5E2E2EFF5F5F5E2F5F5F5F5F5
310
F5F5F5F5F5F5F5F5F5F5F5E2F5F5F5F5F5F5F5F5F5F5F5F5F5F5F5F5F5F5F5F5F5F5F5F5F5F5F5F5F5F5F5F5F5F5F5F5F5F5F5F5F5F5F5F5F5F5F5F5F5F5F5F5F5F5F5F5F5F5F5F5F5F5F5F5F5F5F5F5F5F5F5F5F5F5F5F5F5F5F5F5F5F5F5F5F5F5F5F5F5F5F5F5F5F5F5F5F5F5F5F5F5F5F5F5F5F5F5F5F5F5F5F5F5F5F5
310
F5F5F5F5F5F5F5F5F5F5F5F5F5F5F5F5F5F5F5F5E2F5F5F5F5F5F5F5F5F5F5F5F5F5F5F5F5E2F5F5F5E2E2EFF5F5F5E2F5F5F5F5F5F5F5F5F5F5F5F5F5F5F5F5E2F5F5F5F5F5F5F5F5F5F5F5F5F5F5F5F5F5F5F5F5F5F5F5F5F5F5F5F5F5F5F5F5F5F5F5F5F5F5F5F5F5F5F5F5F5F5F5F5F5F5F5F5F5F5F5F5F5F5F5F5F5F5
310
F5F5F5F5F5F5F5F5F5F5F5F5F5F5F5F5F5F5F5F5F5F5F5F5F5F5F5F5F5F5F5F5F5F5F5F5F5F5F5F5F5F5F5F5F5F5F5F5F5F5F5F5F5F5F5F5F5F5F5F5F5F5F5F5F5F5F5F5F5F5F5F5F5E2F5F5F5F5F5F5F5F5F5F5F5F5F5F5F5F5E2F5F5F5E2E2EFF5F5F5E2F5F5F5F5F5F5F5F5F5F5F5F5F5F5F5F5E2F5F5F5F5F5F5F5F5F5
310
F5F5F5F5F5F5F5F5F5F5F5F5F5F5F5F5F5F5F5F5F5F5F5F5F5F5F5F5F5F5F5F5F5F5F5F5F5F5F5F5F5F5F5F5F5F5F5F5F5F5F5F5F5F5F5F5F5F5F5F5F5F5F5F5F5F5F5F5F5F5F5F5F5F5F5F5F5F5F5F5F5F5F5F5F5F5F5F5F5F5F5F5F5F5F5F5F5F5F5F5F5F5F5F5F5F5F5F5F5F5F5F5F5F5F5F5F5F5F5F5F5F5F5F5F5F5E2
310
F5F5F5F5F5F5F5F5F5F5F5F5F5F5F5F5E2F5F5F5E2E2EFF5F5F5E2F5F5F5F5F5F5F5F5F5F5F5F5F5F5F5F5E2F5F5F5F5F5F5F5F5F5F5F5F5F5F5F5F5F5F5F5F5F5F5F5F5F5F5F5F5F5F5F5F5F5F5F5F5F5F5F5F5F5F5F5F5F5F5F5F5F5F5F5F5F5F5F5F5F5F5F5F5F5F5F5F5F5F5F5F5F5F5F5F5F5F5F5F5F5F5F5F5F5F5F5
310
F5F5F5F5F5F5F5F5F5F5F5F5F5F5F5F5F5F5F5F5F5F5F5F5F5F5F5F5F5F5F5F5F5F5F5F5F5F5F5F5F5F5F5F5F5F5F5F5F5F5F5F5E2F5F5F5F5F5F5F5F5F5F5F5F5F5F5F5F5E2F5F5F5E2E2EFF5F5F5E2F5F5F5F5F5F5F5F5F5F5F5F5F5F5F5F5E2F5F5F5F5F5F5F5F5F5F5F5F5F5F5F5F5F5F5F5F5F5F5F5F5F5F5F5F5F5F5
310
F5F5F5F5F5F5F5F5F5F5F5F5F5F5F5F5F5F5F5F5F5F5F5F5F5F5F5F5F5F5F5F5F5F5F5F5F5F5F5F5F5F5F5F5F5F5F5F5F5F5F5F5F5F5F5F5F5F5F5F5F5F5F5F5F5F5F5F5F5F5F5F5F5F5F5F5F5F5F5F5F5F5F5F5F5F5F5F5F5F5F5F5F5F5F5F5F5F5F5F5F5F5F5F5F5E2F5F5F5F5F5F5F5F5F5F5F5F5F5F5F5F5E2F5F5F5E2
310
E2EFF5F5F5E2F5F5F5F5F5F5F5F5F5F5F5F5F5F5F5F5E2F5F5F5F5F5F5F5F5F5F5F5F5F5F5F5F5F5F5F5F5F5F5F5F5F5F5F5F5F5F5F5F5F5F5F5F5F5F5F5F5F5F5F5F5F5F5F5F5F5F5F5F5F5F5F5F5F5F5F5F5F5F5F5F5F5F5F5F5F5F5F5F5F5F5F5F5F5F5F5F5F5F5F5F5F5F5F5F5F5F5F5F5F5F5F5F5F5F5F5F5F5F5F5F5
310
F5F5F5F5F5F5F5F5F5F5F5F5F5F5F5F5F5F5F5F5F5F5F5F5F5F5F5F5F5F5F5E2F5F5F5F5F5F5F5F5F5F5F5F5F5F5F5F5E2F5F5F5E2E2EFF5F5F5E2F5F5F5F5F5F5F5F5F5F5F5F5F5F5F5F5E2F5F5F5F5F5F5F5F5F5F5F5F5F5F5F5F5F5F5F5F5F5F5F5F5F5F5F5F5F5F5F5F5F5F5F5F5F5F5F5F5F5F5F5F5F5F5F5F5F5F5F5
310
F5F5F5F5F5F5F5F5F5F5F5F5F5F5F5F5F5F5F5F5F5F5F5F5F5F5F5F5F5F5F5F5F5F5F5F5F5F5F5F5F5F5F5F5F5F5F5F5F5F5F5F5F5F5F5F5F5F5F5F5F5F5F5F5F5F5F5F5F5F5F5F5F5F5F5F5F5F5F5F5F5F5F5F5E2F5F5F5F5F5F5F5F5F5F5F5F5F5F5F5F5E2F5F5F5E2E2EFF5F5F5E2F5F5F5F5F5F5F5F5F5F5F5F5F5F5F5
310
F5E2F5F5F5F5F5F5F5F5F5F5F5F5F5F5F5F5F5F5F5F5F5F5F5F5F5F5F5F5F5F5F5F5F5F5F5F5F5F5F5F5F5F5F5F5F5F5F5F5F5F5F5F5F5F5F5F5F5F5F5F5F5F5F5F5F5F5F5F5F5F5F5F5F5F5F5F5F5F5F5F5F5F5F5F5F5F5F5F5F5F5F5F5F5F5F5F5F5F5F5F5F5F5F5F5F5F5F5F5F5F5F5F5F5F5F5F5F5F5F5F5F5F5F5F5F5
310
F5F5F5F5F5F5F5F5F5F5E2F5F5F5F5F5F5F5F5F5F5F5F5F5F5F5F5E2F5F5F5E2E2EFF5F5F5E2F5F5F5F5F5F5F5F5F5F5F5F5F5F5F5F5E2F5F5F5F5F5F5F5F5F5F5F5F5F5F5F5F5F5F5F5F5F5F5F5F5F5F5F5F5F5F5F5F5F5F5F5F5F5F5F5F5F5F5F5F5F5F5F5F5F5F5F5F5F5F5F5F5F5F5F5F5F5F5F5F5F5F5F5F5F5F5F5F5
310
F5F5F5F5F5F5F5F5F5F5F5F5F5F5F5F5F5F5F5F5F5F5F5F5F5F5F5F5F5F5F5F5F5F5F5F5F5F5F5F5F5F5F5F5F5F5F5F5F5F5F5F5F5F5F5F5F5F5F5F5F5F5F5E2F5F5F5F5F5F5F5F5F5F5F5F5F5F5F5F5E2F5F5F5E2E2EFF5F5F5E2F5F5F5F5F5F5F5F5F5F5F5F5F5F5F5F5E2F5F5F5F5F5F5F5F5F5F5F5F5F5F5F5F5F5F5F5
310
F5F5F5F5F5F5F5F5F5F5F5F5F5F5F5F5F5F5F5F5F5F5F5F5F5F5F5F5F5F5F5F5F5F5F5F5F5F5F5F5F5F5F5F5F5F5F5F5F5F5F5F5F5F5F5F5F5F5F5F5F5F5F5F5F5F5F5F5F5F5F5F5F5F5F5F5F5F5F5F5F5F5F5F5F5F5F5F5F5F5F5F5F5F5F5F5F5F5F5F5F5F5F5F5F5F5F5F5F5F5F5F5F5F5F5F5E2F5F5F5F5F5F5F5F5F5F5
310
F5F5F5F5F5F5E2F5F5F5E2E2EFF5F5F5E2F5F5F5F5F5F5F5F5F5F5F5F5F5F5F5F5E2F5F5F5F5F5F5F5F5F5F5F5F5F5F5F5F5F5F5F5F5F5F5F5F5F5F5F5F5F5F5F5F5F5F5F5F5F5F5F5F5F5F5F5F5F5F5F5F5F5F5F5F5F5F5F5F5F5F5F5F5F5F5F5F5F5F5F5F5F5F5F5F5F5F5F5F5F5F5F5F5F5F5F5F5F5F5F5F5F5F5F5F5F5
310
F5F5F5F5F5F5F5F5F5F5F5F5F5F5F5F5F5F5F5F5F5F5F5F5F5F5F5F5F5F5F5F5F5F5F5F5F5F5F5F5F5F5E2F5F5F5F5F5F5F5F5F5F5F5F5F5F5F5F5E2F5F5F5E2E2EFF5F5F5E2F5F5F5F5F5F5F5F5F5F5F5F5F5F5F5F5E2F5F5F5F5F5F5F5F5F5F5F5F5F5F5F5F5F5F5F5F5F5F5F5F5F5F5F5F5F5F5F5F5F5F5F5F5F5F5F5F5
310
F5F5F5F5F5F5F5F5F5F5F5F5F5F5F5F5F5F5F5F5F5F5F5F5F5F5F5F5F5F5F5F5F5F5F5F5F5F5F5F5F5F5F5F5F5F5F5F5F5F5F5F5F5F5F5F5F5F5F5F5F5F5F5F5F5F5F5F5F5F5F5F5F5F5F5F5F5F5F5F5F5F5F5F5F5F5F5F5F5F5F5F5F5F5F5E2F5F5F5F5F5F5F5F5F5F5F5F5F5F5F5F5E2F5F5F5E2E2EFF5F5F5E2F5F5F5F5
310
F5F5F5F5F5F5F5F5F5F5F5F5E2F5F5F5F5F5F5F5F5F5F5F5F5F5F5F5F5F5F5F5F5F5F5F5F5F5F5F5F5F5F5F5F5F5F5F5F5F5F5F5F5F5F5F5F5F5F5F5F5F5F5F5F5F5F5F5F5F5F5F5F5F5F5F5F5F5F5F5F5F5F5F5F5F5F5F5F5F5F5F5F5F5F5F5F5F5F5F5F5F5F5F5F5F5F5F5F5F5F5F5F5F5F5F5F5F5F5F5F5F5F5F5F5F5F5
310
F5F5F5F5F5F5F5F5F5F5F5F5F5F5F5F5F5F5F5F5F5E2F5F5F5F5F5F5F5F5F5F5F5F5F5F5F5F5E2F5F5F5E2E2EFF5F5F5F5F5F5F5F5F5F5F5F5F5F5F5F5F5F5F5F5E2F5F5F5F5F5F5F5F5F5F5F5F5F5F5F5F5F5F5F5F5F5F5F5F5F5F5F5F5F5F5F5F5F5F5F5F5F5F5F5F5F5F5F5F5F5F5F5F5F5F5F5F5F5F5F5F5F5F5F5F5F5
310
F5F5F5F5F5F5F5F5F5F5F5F5F5F5F5F5F5F5F5F5F5F5F5F5F5F5F5F5F5F5F5F5F5F5F5F5F5F5F5F5F5F5F5F5F5F5F5F5F5F5F5F5F5F5F5F5F5F5F5F5F5F5F5F5F5F5F5F5F5F5F5F5F5F5E2F5F5F5F5F5F5F5F5F5F5F5F5F5F5F5F5F5F5F5F5E2E2EFF5F5F5F5F5F5F5F5F5F5F5F5F5F5F5F5F5F5F5F5E2F5F5F5F5F5F5F5F5
310
F5F5F5F5F5F5F5F5F5F5F5F5F5F5F5F5F5F5F5F5F5F5F5F5F5F5F5F5F5F5F5F5F5F5F5F5F5F5F5F5F5F5F5F5F5F5F5F5F5F5F5F5F5F5F5F5F5F5F5F5F5F5F5F5F5F5F5F5F5F5F5F5F5F5F5F5F5F5F5F5F5F5F5F5F5F5F5F5F5F5F5F5F5F5F5F5F5F5F5F5F5F5F5F5F5F5F5F5F5F5F5F5F5F5F5F5F5F5F5F5F5F5F5F5F5F5F5
310
E2F5F5F5F5F5F5F5F5F5F5F5F5F5F5F5F5F5F5F5F5E2E2EFF5F5F5F5F5F5F5F5F5F5F5F5F5F5F5F5F5F5F5F5E2F5F5F5F5F5F5F5F5F5F5F5F5F5F5F5F5F5F5F5F5F5F5F5F5F5F5F5F5F5F5F5F5F5F5F5F5F5F5F5F5F5F5F5F5F5F5F5F5F5F5F5F5F5F5F5F5F5F5F5F5F5F5F5F5F5F5F5F5F5F5F5F5F5F5F5F5F5F5F5F5F5F5
310
F5F5F5F5F5F5F5F5F5F5F5F5F5F5F5F5F5F5F5F5F5F5F5F5F5F5F5F5F5F5F5F5F5F5F5F5F5F5F5F5F5F5F5F5F5F5F5F5F5F5F5F5F5E2F5F5F5F5F5F5F5F5F5F5F5F5F5F5F5F5F5F5F5F5E2E2EFF5F5F5F5F5F5F5F5F5F5F5F5F5F5F5F5F5F5F5F5E2F5F5F5F5F5F5F5F5F5F5F5F5F5F5F5F5F5F5F5F5F5F5F5F5F5F5F5F5F5
310
F5F5F5F5F5F5F5F5F5F5F5F5F5F5F5F5F5F5F5F5F5F5F5F5F5F5F5F5F5F5F5F5F5F5F5F5F5F5F5F5F5F5F5F5F5F5F5F5F5F5F5F5F5F5F5F5F5F5F5F5F5F5F5F5F5F5F5F5F5F5F5F5F5F5F5F5F5F5F5F5F5F5F5F5F5F5F5F5F5F5F5F5F5F5F5F5F5F5F5F5F5F5F5F5F5F5E2F5F5F5F5F5F5F5F5F5F5F5F5F5F5F5F5F5F5F5F5
310
E2E2EFF5F5F5F5F5F5F5F5F5F5F5F5F5F5F5F5F5F5F5F5E2F5F5F5F5F5F5F5F5F5F5F5F5F5F5F5F5F5F5F5F5F5F5F5F5F5F5F5F5F5F5F5F5F5F5F5F5F5F5F5F5F5F5F5F5F5F5F5F5F5F5F5F5F5F5F5F5F5F5F5F5F5F5F5F5F5F5F5F5F5F5F5F5F5F5F5F5F5F5F5F5F5F5F5F5F5F5F5F5F5F5F5F5F5F5F5F5F5F5F5F5F5F5F5
310
F5F5F5F5F5F5F5F5F5F5F5F5F5F5F5F5F5F5F5F5F5F5F5F5F5F5F5F5F5F5F5F5E2F5F5F5F5F5F5F5F5F5F5F5F5F5F5F5F5F5F5F5F5E2E2EFF5F5F5F5F5F5F5F5F5F5F5F5F5F5F5F5F5F5F5F5E2F5F5F5F5F5F5F5F5F5F5F5F5F5F5F5F5F5F5F5F5F5F5F5F5F5F5F5F5F5F5F5F5F5F5F5F5F5F5F5F5F5F5F5F5F5F5F5F5F5F5
310
F5F5F5F5F5F5F5F5F5F5F5F5F5F5F5F5F5F5F5F5F5F5F5F5F5F5F5F5F5F5F5F5F5F5F5F5F5F5F5F5F5F5F5F5F5F5F5F5F5F5F5F5F5F5F5F5F5F5F5F5F5F5F5F5F5F5F5F5F5F5F5F5F5F5F5F5F5F5F5F5F5F5F5F5F5E2F5F5F5F5F5F5F5F5F5F5F5F5F5F5F5F5F5F5F5F5E2E2EFF5F5F5F5F5F5F5F5F5F5F5F5F5F5F5F5F5F5
310
F5F5E2F5F5F5F5F5F5F5F5F5F5F5F5F5F5F5F5F5F5F5F5F5F5F5F5F5F5F5F5F5F5F5F5F5F5F5F5F5F5F5F5F5F5F5F5F5F5F5F5F5F5F5F5F5F5F5F5F5F5F5F5F5F5F5F5F5F5F5F5F5F5F5F5F5F5F5F5F5F5F5F5F5F5F5F5F5F5F5F5F5F5F5F5F5F5F5F5F5F5F5F5F5F5F5F5F5F5F5F5F5F5F5F5F5F5F5F5F5F5F5F5F5F5F5F5
310
F5F5F5F5F5F5F5F5F5F5F5E2F5F5F5F5F5F5F5F5F5F5F5F5F5F5F5F5F5F5F5F5E2E2EFF5F5F5F5F5F5F5F5F5F5F5F5F5F5F5F5F5F5F5F5E2F5F5F5F5F5F5F5F5F5F5F5F5F5F5F5F5F5F5F5F5F5F5F5F5F5F5F5F5F5F5F5F5F5F5F5F5F5F5F5F5F5F5F5F5F5F5F5F5F5F5F5F5F5F5F5F5F5F5F5F5F5F5F5F5F5F5F5F5F5F5F5
310
F5F5F5F5F5F5F5F5F5F5F5F5F5F5F5F5F5F5F5F5F5F5F5F5F5F5F5F5F5F5F5F5F5F5F5F5F5F5F5F5F5F5F5F5F5F5F5F5F5F5F5F5F5F5F5F5F5F5F5F5F5F5F5F5E2F5F5F5F5F5F5F5F5F5F5F5F5F5F5F5F5F5F5F5F5E2E2EFF5F5F5F5F5F5F5F5F5F5F5F5F5F5F5F5F5F5F5F5E2F5F5F5F5F5F5F5F5F5F5F5F5F5F5F5F5F5F5
310
F5F5F5F5F5F5F5F5F5F5F5F5F5F5F5F5F5F5F5F5F5F5F5F5F5F5F5F5F5F5F5F5F5F5F5F5F5F5F5F5F5F5F5F5F5F5F5F5F5F5F5F5F5F5F5F5F5F5F5F5F5F5F5F5F5F5F5F5F5F5F5F5F5F5F5F5F5F5F5F5F5F5F5F5F5F5F5F5F5F5F5F5F5F5F5F5F5F5F5F5F5F5F5F5F5F5F5F5F5F5F5F5F5F5F5F5F5E2F5F5F5F5F5F5F5F5F5
310
F5F5F5F5F5F5F5F5F5F5F5E2E2EFF5F5F5E2F5F5F5F5F5F5F5F5F5F5F5F5F5F5F5F5E2F5F5F5F5F5F5F5F5F5F5F5F5F5F5F5F5F5F5F5F5F5F5F5F5F5F5F5F5F5F5F5F5F5F5F5F5F5F5F5F5F5F5F5F5F5F5F5F5F5F5F5F5F5F5F5F5F5F5F5F5F5F5F5F5F5F5F5F5F5F5F5F5F5F5F5F5F5F5F5F5F5F5F5F5F5F5F5F5F5F5F5F5
310
F5F5F5F5F5F5F5F5F5F5F5F5F5F5F5F5F5F5F5F5F5F5F5F5F5F5F5F5F5F5F5F5F5F5F5F5F5F5F5F5F5F5F5E2F5F5F5F5F5F5F5F5F5F5F5F5F5F5F5F5E2F5F5F5E2E2EFF5F5F5E2F5F5F5F5F5F5F5F5F5F5F5F5F5F5F5F5E2F5F5F5F5F5F5F5F5F5F5F5F5F5F5F5F5F5F5F5F5F5F5F5F5F5F5F5F5F5F5F5F5F5F5F5F5F5F5F5
310
F5F5F5F5F5F5F5F5F5F5F5F5F5F5F5F5F5F5F5F5F5F5F5F5F5F5F5F5F5F5F5F5F5F5F5F5F5F5F5F5F5F5F5F5F5F5F5F5F5F5F5F5F5F5F5F5F5F5F5F5F5F5F5F5F5F5F5F5F5F5F5F5F5F5F5F5F5F5F5F5F5F5F5F5F5F5F5F5F5F5F5F5F5F5F5F5E2F5F5F5F5F5F5F5F5F5F5F5F5F5F5F5F5E2F5F5F5E2E2EFF5F5F5E2F5F5F5
310
F5F5F5F5F5F5F5F5F5F5F5F5F5E2F5F5F5F5F5F5F5F5F5F5F5F5F5F5F5F5F5F5F5F5F5F5F5F5F5F5F5F5F5F5F5F5F5F5F5F5F5F5F5F5F5F5F5F5F5F5F5F5F5F5F5F5F5F5F5F5F5F5F5F5F5F5F5F5F5F5F5F5F5F5F5F5F5F5F5F5F5F5F5F5F5F5F5F5F5F5F5F5F5F5F5F5F5F5F5F5F5F5F5F5F5F5F5F5F5F5F5F5F5F5F5F5F5
310
F5F5F5F5F5F5F5F5F5F5F5F5F5F5F5F5F5F5F5F5F5F5E2F5F5F5F5F5F5F5F5F5F5F5F5F5F5F5F5E2F5F5F5E2E2EFF5F5F5E2F5F5F5F5F5F5F5F5F5F5F5F5F5F5F5F5E2F5F5F5F5F5F5F5F5F5F5F5F5F5F5F5F5F5F5F5F5F5F5F5F5F5F5F5F5F5F5F5F5F5F5F5F5F5F5F5F5F5F5F5F5F5F5F5F5F5F5F5F5F5F5F5F5F5F5F5F5
310
F5F5F5F5F5F5F5F5F5F5F5F5F5F5F5F5F5F5F5F5F5F5F5F5F5F5F5F5F5F5F5F5F5F5F5F5F5F5F5F5F5F5F5F5F5F5F5F5F5F5F5F5F5F5F5F5F5F5F5F5F5F5F5F5F5F5F5F5F5F5F5F5F5F5F5E2F5F5F5F5F5F5F5F5F5F5F5F5F5F5F5F5E2F5F5F5E2E2EFF5F5F5E2F5F5F5F5F5F5F5F5F5F5F5F5F5F5F5F5E2F5F5F5F5F5F5F5
310
F5F5F5F5F5F5F5F5F5F5F5F5F5F5F5F5F5F5F5F5F5F5F5F5F5F5F5F5F5F5F5F5F5F5F5F5F5F5F5F5F5F5F5F5F5F5F5F5F5F5F5F5F5F5F5F5F5F5F5F5F5F5F5F5F5F5F5F5F5F5F5F5F5F5F5F5F5F5F5F5F5F5F5F5F5F5F5F5F5F5F5F5F5F5F5F5F5F5F5F5F5F5F5F5F5F5F5F5F5F5F5F5F5F5F5F5F5F5F5F5F5F5F5F5F5F5F5
310
F5E2F5F5F5F5F5F5F5F5F5F5F5F5F5F5F5F5E2F5F5F5E2E2EFF5F5F5E2F5F5F5F5F5F5F5F5F5F5F5F5F5F5F5F5E2F5F5F5F5F5F5F5F5F5F5F5F5F5F5F5F5F5F5F5F5F5F5F5F5F5F5F5F5F5F5F5F5F5F5F5F5F5F5F5F5F5F5F5F5F5F5F5F5F5F5F5F5F5F5F5F5F5F5F5F5F5F5F5F5F5F5F5F5F5F5F5F5F5F5F5F5F5F5F5F5F5
310
F5F5F5F5F5F5F5F5F5F5F5F5F5F5F5F5F5F5F5F5F5F5F5F5F5F5F5F5F5F5F5F5F5F5F5F5F5F5F5F5F5F5F5F5F5F5F5F5F5F5F5F5F5F5E2F5F5F5F5F5F5F5F5F5F5F5F5F5F5F5F5E2F5F5F5E2E2EFF5F5F5E2F5F5F5F5F5F5F5F5F5F5F5F5F5F5F5F5E2F5F5F5F5F5F5F5F5F5F5F5F5F5F5F5F5F5F5F5F5F5F5F5F5F5F5F5F5
310
F5F5F5F5F5F5F5F5F5F5F5F5F5F5F5F5F5F5F5F5F5F5F5F5F5F5F5F5F5F5F5F5F5F5F5F5F5F5F5F5F5F5F5F5F5F5F5F5F5F5F5F5F5F5F5F5F5F5F5F5F5F5F5F5F5F5F5F5F5F5F5F5F5F5F5F5F5F5F5F5F5F5F5F5F5F5F5F5F5F5F5F5F5F5F5F5F5F5F5F5F5F5F5F5F5F5F5E2F5F5F5F5F5F5F5F5F5F5F5F5F5F5F5F5E2F5F5
310
F5E2E2EFF5F5F5E2F5F5F5F5F5F5F5F5F5F5F5F5F5F5F5F5E2F5F5F5F5F5F5F5F5F5F5F5F5F5F5F5F5F5F5F5F5F5F5F5F5F5F5F5F5F5F5F5F5F5F5F5F5F5F5F5F5F5F5F5F5F5F5F5F5F5F5F5F5F5F5F5F5F5F5F5F5F5F5F5F5F5F5F5F5F5F5F5F5F5F5F5F5F5F5F5F5F5F5F5F5F5F5F5F5F5F5F5F5F5F5F5F5F5F5F5F5F5F5
310
F5F5F5F5F5F5F5F5F5F5F5F5F5F5F5F5F5F5F5F5F5F5F5F5F5F5F5F5F5F5F5F5F5E2F5F5F5F5F5F5F5F5F5F5F5F5F5F5F5F5E2F5F5F5E2E2EFF5F5F5E2F5F5F5F5F5F5F5F5F5F5F5F5F5F5F5F5E2F5F5F5F5F5F5F5F5F5F5F5F5F5F5F5F5F5F5F5F5F5F5F5F5F5F5F5F5F5F5F5F5F5F5F5F5F5F5F5F5F5F5F5F5F5F5F5F5F5
310
F5F5F5F5F5F5F5F5F5F5F5F5F5F5F5F5F5F5F5F5F5F5F5F5F5F5F5F5F5F5F5F5F5F5F5F5F5F5F5F5F5F5F5F5F5F5F5F5F5F5F5F5F5F5F5F5F5F5F5F5F5F5F5F5F5F5F5F5F5F5F5F5F5F5F5F5F5F5F5F5F5F5F5F5F5F5E2F5F5F5F5F5F5F5F5F5F5F5F5F5F5F5F5E2F5F5F5E2E2EFF5F5F5E2F5F5F5F5F5F5F5F5F5F5F5F5F5
310
F5F5F5E2F5F5F5F5F5F5F5F5F5F5F5F5F5F5F5F5F5F5F5F5F5F5F5F5F5F5F5F5F5F5F5F5F5F5F5F5F5F5F5F5F5F5F5F5F5F5F5F5F5F5F5F5F5F5F5F5F5F5F5F5F5F5F5F5F5F5F5F5F5F5F5F5F5F5F5F5F5F5F5F5F5F5F5F5F5F5F5F5F5F5F5F5F5F5F5F5F5F5F5F5F5F5F5F5F5F5F5F5F5F5F5F5F5F5F5F5F5F5F5F5F5F5F5
310
F5F5F5F5F5F5F5F5F5F5F5F5E2F5F5F5F5F5F5F5F5F5F5F5F5F5F5F5F5E2F5F5F5E2E2EFF5F5F5E2F5F5F5F5F5F5F5F5F5F5F5F5F5F5F5F5E2F5F5F5F5F5F5F5F5F5F5F5F5F5F5F5F5F5F5F5F5F5F5F5F5F5F5F5F5F5F5F5F5F5F5F5F5F5F5F5F5F5F5F5F5F5F5F5F5F5F5F5F5F5F5F5F5F5F5F5F5F5F5F5F5F5F5F5F5F5F5
310
F5F5F5F5F5F5F5F5F5F5F5F5F5F5F5F5F5F5F5F5F5F5F5F5F5F5F5F5F5F5F5F5F5F5F5F5F5F5F5F5F5F5F5F5F5F5F5F5F5F5F5F5F5F5F5F5F5F5F5F5F5F5F5F5F5E2F5F5F5F5F5F5F5F5F5F5F5F5F5F5F5F5E2F5F5F5E2E2EFF5F5F5E2F5F5F5F5F5F5F5F5F5F5F5F5F5F5F5F5E2F5F5F5F5F5F5F5F5F5F5F5F5F5F5F5F5F5
310
F5F5F5F5F5F5F5F5F5F5F5F5F5F5F5F5F5F5F5F5F5F5F5F5F5F5F5F5F5F5F5F5F5F5F5F5F5F5F5F5F5F5F5F5F5F5F5F5F5F5F5F5F5F5F5F5F5F5F5F5F5F5F5F5F5F5F5F5F5F5F5F5F5F5F5F5F5F5F5F5F5F5F5F5F5F5F5F5F5F5F5F5F5F5F5F5F5F5F5F5F5F5F5F5F5F5F5F5F5F5F5F5F5F5F5F5F5F5E2F5F5F5F5F5F5F5F5
310
F5F5F5F5F5F5F5F5E2F5F5F5E2E2EFF5F5F5E2F5F5F5F5F5F5F5F5F5F5F5F5F5F5F5F5E2F5F5F5F5F5F5F5F5F5F5F5F5F5F5F5F5F5F5F5F5F5F5F5F5F5F5F5F5F5F5F5F5F5F5F5F5F5F5F5F5F5F5F5F5F5F5F5F5F5F5F5F5F5F5F5F5F5F5F5F5F5F5F5F5F5F5F5F5F5F5F5F5F5F5F5F5F5F5F5F5F5F5F5F5F5F5F5F5F5F5F5
310
F5F5F5F5F5F5F5F5F5F5F5F5F5F5F5F5F5F5F5F5F5F5F5F5F5F5F5F5F5F5F5F5F5F5F5F5F5F5F5F5F5F5F5F5E2F5F5F5F5F5F5F5F5F5F5F5F5F5F5F5F5E2F5F5F5E2E2EFF5F5F5E2F5F5F5F5F5F5F5F5F5F5F5F5F5F5F5F5E2F5F5F5F5F5F5F5F5F5F5F5F5F5F5F5F5F5F5F5F5F5F5F5F5F5F5F5F5F5F5F5F5F5F5F5F5F5F5
310
F5F5F5F5F5F5F5F5F5F5F5F5F5F5F5F5F5F5F5F5F5F5F5F5F5F5F5F5F5F5F5F5F5F5F5F5F5F5F5F5F5F5F5F5F5F5F5F5F5F5F5F5F5F5F5F5F5F5F5F5F5F5F5F5F5F5F5F5F5F5F5F5F5F5F5F5F5F5F5F5F5F5F5F5F5F5F5F5F5F5F5F5F5F5F5F5F5E2F5F5F5F5F5F5F5F5F5F5F5F5F5F5F5F5E2F5F5F5E2E2EFF5F5F5E2F5F5
310
F5F5F5F5F5F5F5F5F5F5F5F5F5F5E2F5F5F5F5F5F5F5F5F5F5F5F5F5F5F5F5F5F5F5F5F5F5F5F5F5F5F5F5F5F5F5F5F5F5F5F5F5F5F5F5F5F5F5F5F5F5F5F5F5F5F5F5F5F5F5F5F5F5F5F5F5F5F5F5F5F5F5F5F5F5F5F5F5F5F5F5F5F5F5F5F5F5F5F5F5F5F5F5F5F5F5F5F5F5F5F5F5F5F5F5F5F5F5F5F5F5F5F5F5F5F5F5
310
F5F5F5F5F5F5F5F5F5F5F5F5F5F5F5F5F5F5F5F5F5F5F5E2F5F5F5F5F5F5F5F5F5F5F5F5F5F5F5F5E2F5F5F5E2E2EFF5F5F5E2F5F5F5F5F5F5F5F5F5F5F5F5F5F5F5F5E2F5F5F5F5F5F5F5F5F5F5F5F5F5F5F5F5F5F5F5F5F5F5F5F5F5F5F5F5F5F5F5F5F5F5F5F5F5F5F5F5F5F5F5F5F5F5F5F5F5F5F5F5F5F5F5F5F5F5F5
310
F5F5F5F5F5F5F5F5F5F5F5F5F5F5F5F5F5F5F5F5F5F5F5F5F5F5F5F5F5F5F5F5F5F5F5F5F5F5F5F5F5F5F5F5F5F5F5F5F5F5F5F5F5F5F5F5F5F5F5F5F5F5F5F5F5F5F5F5F5F5F5F5F5F5F5F5E2F5F5F5F5F5F5F5F5F5F5F5F5F5F5F5F5E2F5F5F5E2E2EFF5F5F5E2F5F5F5F5F5F5F5F5F5F5F5F5F5F5F5F5E2F5F5F5F5F5F5
310
F5F5F5F5F5F5F5F5F5F5F5F5F5F5F5F5F5F5F5F5F5F5F5F5F5F5F5F5F5F5F5F5F5F5F5F5F5F5F5F5F5F5F5F5F5F5F5F5F5F5F5F5F5F5F5F5F5F5F5F5F5F5F5F5F5F5F5F5F5F5F5F5F5F5F5F5F5F5F5F5F5F5F5F5F5F5F5F5F5F5F5F5F5F5F5F5F5F5F5F5F5F5F5F5F5F5F5F5F5F5F5F5F5F5F5F5F5F5F5F5F5F5F5F5F5F5F5
310
F5F5E2F5F5F5F5F5F5F5F5F5F5F5F5F5F5F5F5E2F5F5F5E2E2EFF5F5F5F5F5F5F5F5F5F5F5F5F5F5F5F5F5F5F5F5E2F5F5F5F5F5F5F5F5F5F5F5F5F5F5F5F5F5F5F5F5F5F5F5F5F5F5F5F5F5F5F5F5F5F5F5F5F5F5F5F5F5F5F5F5F5F5F5F5F5F5F5F5F5F5F5F5F5F5F5F5F5F5F5F5F5F5F5F5F5F5F5F5F5F5F5F5F5F5F5F5
310
F5F5F5F5F5F5F5F5F5F5F5F5F5F5F5F5F5F5F5F5F5F5F5F5F5F5F5F5F5F5F5F5F5F5F5F5F5F5F5F5F5F5F5F5F5F5F5F5F5F5F5F5F5F5F5E2F5F5F5F5F5F5F5F5F5F5F5F5F5F5F5F5F5F5F5F5E2E2EFF5F5F5F5F5F5F5F5F5F5F5F5F5F5F5F5F5F5F5F5E2F5F5F5F5F5F5F5F5F5F5F5F5F5F5F5F5F5F5F5F5F5F5F5F5F5F5F5
310
F5F5F5F5F5F5F5F5F5F5F5F5F5F5F5F5F5F5F5F5F5F5F5F5F5F5F5F5F5F5F5F5F5F5F5F5F5F5F5F5F5F5F5F5F5F5F5F5F5F5F5F5F5F5F5F5F5F5F5F5F5F5F5F5F5F5F5F5F5F5F5F5F5F5F5F5F5F5F5F5F5F5F5F5F5F5F5F5F5F5F5F5F5F5F5F5F5F5F5F5F5F5F5F5F5F5F5F5E2F5F5F5F5F5F5F5F5F5F5F5F5F5F5F5F5F5F5
310
F5F5E2E2EFF5F5F5F5F5F5F5F5F5F5F5F5F5F5F5F5F5F5F5F5E2F5F5F5F5F5F5F5F5F5F5F5F5F5F5F5F5F5F5F5F5F5F5F5F5F5F5F5F5F5F5F5F5F5F5F5F5F5F5F5F5F5F5F5F5F5F5F5F5F5F5F5F5F5F5F5F5F5F5F5F5F5F5F5F5F5F5F5F5F5F5F5F5F5F5F5F5F5F5F5F5F5F5F5F5F5F5F5F5F5F5F5F5F5F5F5F5F5F5F5F5F5
310
F5F5F5F5F5F5F5F5F5F5F5F5F5F5F5F5F5F5F5F5F5F5F5F5F5F5F5F5F5F5F5F5F5F5E2F5F5F5F5F5F5F5F5F5F5F5F5F5F5F5F5F5F5F5F5E2E2EFF5F5F5F5F5F5F5F5F5F5F5F5F5F5F5F5F5F5F5F5E2F5F5F5F5F5F5F5F5F5F5F5F5F5F5F5F5F5F5F5F5F5F5F5F5F5F5F5F5F5F5F5F5F5F5F5F5F5F5F5F5F5F5F5F5F5F5F5F5
310
F5F5F5F5F5F5F5F5F5F5F5F5F5F5F5F5F5F5F5F5F5F5F5F5F5F5F5F5F5F5F5F5F5F5F5F5F5F5F5F5F5F5F5F5F5F5F5F5F5F5F5F5F5F5F5F5F5F5F5F5F5F5F5F5F5F5F5F5F5F5F5F5F5F5F5F5F5F5F5F5F5F5F5F5F5F5F5E2F5F5F5F5F5F5F5F5F5F5F5F5F5F5F5F5F5F5F5F5E2E2EFF5F5F5F5F5F5F5F5F5F5F5F5F5F5F5F5
310
F5F5F5F5E2E2E2E2E2E2E2E2E2E2E2E2E2E2E2E2E2E2E2E2E2E2E2E2E2E2E2E2E2E2E2E2E2E2E2E2E2E2E2E2E2E2E2E2E2E2E2E2E2E2E2E2E2E2E2E2E2E2E2E2E2E2E2E2E2E2E2E2E2E2E2E2E2E2E2E2E2E2E2E2E2E2E2E2E2E2E2E2E2E2E2E2E2E2E2E2E2E2E2E2E2E2E2E2E2E2E2E2E2E2E2E2E2E2E2E2E2E2E2E2E2E2E2
310
E2E2E2E2E2E2E2E2E2E2E2E2E2E2F5F5F5F5F5F5F5F5F5F5F5F5F5F5F5F5F5F5F5F5E2E2EFF5F5F5F5F5F5F5F5F5F5F5F5F5F5F5F5F5F5F5F5F5F5F5F5F5F5F5F5F5F5F5F5F5F5F5F5F5F5F5F5F5F5F5F5F5F5F5F5F5F5F5F5F5F5F5F5F5F5F5F5F5F5F5F5F5F5F5F5F5F5F5F5F5F5F5F5F5F5F5F5F5F5F5F5F5F5F5F5F5F5
310
F5F5F5F5F5F5F5F5F5F5F5F5F5F5F5F5F5F5F5F5F5F5F5F5F5F5F5F5F5F5F5F5F5F5F5F5F5F5F5F5F5F5F5F5F5F5F5F5F5F5F5F5F5F5F5F5F5F5F5F5F5F5F5F5F5F5F5F5F5F5F5F5F5F5F5F5F5F5F5F5F5F5F5F5F5F5F5E2E2EFF5F5F5F5F5F5F5F5F5F5F5F5F5F5F5F5F5F5F5F5F5F5F5F5F5F5F5F5F5F5F5F5F5F5F5F5F5
310
F5F5F5F5F5F5F5F5F5F5F5F5F5F5F5F5F5F5F5F5F5F5F5F5F5F5F5F5F5F5F5F5F5F5F5F5F5F5F5F5F5F5F5F5F5F5F5F5F5F5F5F5F5F5F5F5F5F5F5F5F5F5F5F5F5F5F5F5F5F5F5F5F5F5F5F5F5F5F5F5F5F5F5F5F5F5F5F5F5F5F5F5F5F5F5F5F5F5F5F5F5F5F5F5F5F5F5F5F5F5F5F5F5F5F5F5F5F5F5F5F5F5F5F5F5F5F5
310
F5F5F5F5F5F5F5F5F5F5F5F5F5E2E2EFF5F5F5F5F5F5F5F5F5F5F5F5F5F5F5F5F5F5F5F5F5F5F5F5F5F5F5F5F5F5F5F5F5F5F5F5F5F5F5F5F5F5F5F5F5F5F5F5F5F5F5F5F5F5F5F5F5F5F5F5F5F5F5F5F5F5F5F5F5F5F5F5F5F5F5F5F5F5F5F5F5F5F5F5F5F5F5F5F5F5F5F5F5F5F5F5F5F5F5F5F5F5F5F5F5F5F5F5F5F5F5
310
F5F5F5F5F5F5F5F5F5F5F5F5F5F5F5F5F5F5F5F5F5F5F5F5F5F5F5F5F5F5F5F5F5F5F5F5F5F5F5F5F5F5F5F5F5F5F5F5F5F5F5F5F5F5F5F5F5F5F5F5F5F5F5F5F5F5E2E2EFF5F5F5F5F5F5F5F5F5F5F5F5F5F5F5F5F5F5F5F5F5F5F5F5F5F5F5F5F5F5F5F5F5F5F5F5F5F5F5F5F5F5F5F5F5F5F5F5F5F5F5F5F5F5F5F5F5F5
310
F5F5F5F5F5F5F5F5F5F5F5F5F5F5F5F5F5F5F5F5F5F5F5F5F5F5F5F5F5F5F5F5F5F5F5F5F5F5F5F5F5F5F5F5F5F5F5F5F5F5F5F5F5F5F5F5F5F5F5F5F5F5F5F5F5F5F5F5F5F5F5F5F5F5F5F5F5F5F5F5F5F5F5F5F5F5F5F5F5F5F5F5F5F5F5F5F5F5F5F5F5F5F5F5F5F5F5F5F5F5F5F5F5F5F5F5F5F5F5E2E2EFF5F5F5E2F5
310
F5F5F5F5F5F5F5F5F5F5F5F5F5F5F5F5F5F5F5F5F5F5F5F5F5F5F5F5F5F5F5F5F5F5F5F5F5F5F5F5F5F5F5F5F5F5F5F5F5F5F5F5F5F5F5F5F5F5F5F5F5F5F5F5F5F5F5F5F5F5F5F5F5F5F5F5F5F5F5F5F5F5F5F5F5F5F5F5F5F5F5F5F5F5F5F5F5F5F5F5F5F5F5F5F5F5F5F5F5F5F5F5F5F5F5F5F5F5F5F5F5F5F5F5F5F5F5
310
F5F5F5F5F5F5F5F5F5F5F5F5F5F5F5F5F5F5F5F5F5F5F5F5F5F5F5F5F5F5F5F5F5F5F5F5F5F5F5F5F5E2F5F5F5E2E2EFF5F5F5E2F5F5F5F5F5F5F5F5F5F5F5F5F5F5F5F5F5F5F5F5F5F5F5F5F5F5F5F5F5F5F5F5F5F5F5F5F5F5F5F5F5F5F5F5F5F5F5F5F5F5F5F5F5F5F5F5F5F5F5F5F5F5F5F5F5F5F5F5F5F5F5F5F5F5F5
310
F5F5F5F5F5F5F5F5F5F5F5F5F5F5F5F5F5F5F5F5F5F5F5F5F5F5F5F5F5F5F5F5F5F5F5F5F5F5F5F5F5F5F5F5F5F5F5F5F5F5F5F5F5F5F5F5F5F5F5F5F5F5F5F5F5F5F5F5F5F5F5F5F5F5F5F5F5F5F5F5F5F5F5F5F5F5F5F5F5F5F5F5F5F5E2F5F5F5E2E2EFF5F5F5E2F5F5F5F5F5F5F5F5F5F5F5F5F5F5F5F5F5F5F5F5F5F5
310
F5F5F5F5F5F5F5F5F5F5F5F5F5F5F5F5F5F5F5F5F5F5F5F5F5F5F5F5F5F5F5F5F5F5F5F5F5F5F5F5F5F5F5F5F5F5F5F5F5F5F5F5F5F5F5F5F5F5F5F5F5F5F5F5F5F5F5F5F5F5F5F5F5F5F5F5F5F5F5F5F5F5F5F5F5F5F5F5F5F5F5F5F5F5F5F5F5F5F5F5F5F5F5F5F5F5F5F5F5F5F5F5F5F5F5F5F5F5F5F5F5F5F5F5F5F5F5
310
F5F5F5F5F5F5F5F5F5F5F5F5F5F5F5F5F5F5F5F5E2F5F5F5E2E2EFF5F5F5E2F5F5F5F5F5F5F5F5F5F5F5F5F5F5F5F5F5F5F5F5F5F5F5F5F5F5F5F5F5F5F5F5F5F5F5F5F5F5F5F5F5F5F5F5F5F5F5F5F5F5F5F5F5F5F5F5F5F5F5F5F5F5F5F5F5F5F5F5F5F5F5F5F5F5F5F5F5F5F5F5F5F5F5F5F5F5F5F5F5F5F5F5F5F5F5F5
310
F5F5F5F5F5F5F5F5F5F5F5F5F5F5F5F5F5F5F5F5F5F5F5F5F5F5F5F5F5F5F5F5F5F5F5F5F5F5F5F5F5F5F5F5F5F5F5F5F5F5F5F5F5F5F5F5F5F5F5F5F5F5F5F5F5F5F5F5F5F5F5F5F5E2F5F5F5E2E2EFF5F5F5E2F5F5F5F5F5F5F5F5F5F5F5F5F5F5F5F5F5F5F5F5F5F5F5F5F5F5F5F5F5F5F5F5F5F5F5F5F5F5F5F5F5F5F5
310
F5F5F5F5F5F5F5F5F5F5F5F5F5F5F5F5F5F5F5F5F5F5F5F5F5F5F5F5F5F5F5F5F5F5F5F5F5F5F5F5F5F5F5F5F5F5F5F5F5F5F5F5F5F5F5F5F5F5F5F5F5F5F5F5F5F5F5F5F5F5F5F5F5F5F5F5F5F5F5F5F5F5F5F5F5F5F5F5F5F5F5F5F5F5F5F5F5F5F5F5F5F5F5F5F5F5F5F5F5F5F5F5F5F5F5F5F5F5F5F5F5F5F5F5F5F5E2
310
F5F5F5E2E2EFF5F5F5E2F5F5F5F5F5F5F5F5F5F5F5F5F5F5F5F5F5F5F5F5F5F5F5F5F5F5F5F5F5F5F5F5F5F5F5F5F5F5F5F5F5F5F5F5F5F5F5F5F5F5F5F5F5F5F5F5F5F5F5F5F5F5F5F5F5F5F5F5F5F5F5F5F5F5F5F5F5F5F5F5F5F5F5F5F5F5F5F5F5F5F5F5F5F5F5F5F5F5F5F5F5F5F5F5F5F5F5F5F5F5F5F5F5F5F5F5F5
310
F5F5F5F5F5F5F5F5F5F5F5F5F5F5F5F5F5F5F5F5F5F5F5F5F5F5F5F5F5F5F5F5F5F5F5F5F5F5F5F5F5F5F5F5F5F5F5F5F5F5F5F5E2F5F5F5E2E2EFF5F5F5E2F5F5F5F5F5F5F5F5F5F5F5F5F5F5F5F5F5F5F5F5F5F5F5F5F5F5F5F5F5F5F5F5F5F5F5F5F5F5F5F5F5F5F5F5F5F5F5F5F5F5F5F5F5F5F5F5F5F5F5F5F5F5F5F5
310
F5F5F5F5F5F5F5F5F5F5F5F5F5F5F5F5F5F5F5F5F5F5F5F5F5F5F5F5F5F5F5F5F5F5F5F5F5F5F5F5F5F5F5F5F5F5F5F5F5F5F5F5F5F5F5F5F5F5F5F5F5F5F5F5F5F5F5F5F5F5F5F5F5F5F5F5F5F5F5F5F5F5F5F5F5F5F5F5F5F5F5F5F5F5F5F5F5F5F5F5F5F5F5F5F5E2F5F5F5E2E2EFF5F5F5E2F5F5F5F5F5F5F5F5F5F5F5
310
F5F5F5F5F5F5F5F5F5F5F5F5F5F5F5F5F5F5F5F5F5F5F5F5F5F5F5F5F5F5F5F5F5F5F5F5F5F5F5F5F5F5F5F5F5F5F5F5F5F5F5F5F5F5F5F5F5F5F5F5F5F5F5F5F5F5F5F5F5F5F5F5F5F5F5F5F5F5F5F5F5F5F5F5F5F5F5F5F5F5F5F5F5F5F5F5F5F5F5F5F5F5F5F5F5F5F5F5F5F5F5F5F5F5F5F5F5F5F5F5F5F5F5F5F5F5F5
310
F5F5F5F5F5F5F5F5F5F5F5F5F5F5F5F5F5F5F5F5F5F5F5F5F5F5F5F5F5F5F5E2F5F5F5E2E2EFF5F5F5E2E2E2E2E2E2E2E2F5F5F5F5F5F5F5F5F5E2E2E2E2E2E2E2E2E2E2E2E2E2E2E2E2F5F5F5F5F5F5F5F5E2E2E2E2E2E2E2E2E2E2E2E2E2E2E2E2F5F5F5F5F5F5F5F5F5E2E2E2E2E2E2E2E2E2E2E2E2E2E2E2F5F5F5F5F5
310
F5F5F5F5E2E2E2E2E2E2E2E2E2E2E2E2E2E2E2F5F5F5F5F5F5F5F5F5E2E2E2E2E2E2E2E2E2E2E2E2E2E2E2E2F5F5F5F5F5F5F5F5E2E2E2E2E2E2E2E2E2E2E2E2E2E2E2E2F5F5F5F5F5F5F5F5F5E2E2E2E2E2E2E2E2F5F5F5E2E2EFF5F5F5F5F5F5F5F5F5F5F5F5F5F5F5F5F5F5F5F5F5F5F5F5F5F5F5F5F5F5F5F5F5F5F5F5
310
F5F5F5F5F5F5F5F5F5F5F5F5F5F5F5F5F5F5F5F5F5F5F5F5F5F5F5F5F5F5F5F5F5F5F5F5F5F5F5F5F5F5F5F5F5F5F5F5F5F5F5F5F5F5F5F5F5F5F5F5F5F5F5F5F5F5F5F5F5F5F5F5F5F5F5F5F5F5F5F5F5F5F5F5F5F5F5F5F5F5F5F5F5F5F5F5F5F5F5F5F5F5F5F5F5F5F5F5F5F5F5F5F5F5F5F5F5F5F5F5F5F5F5F5F5F5F5
310
F5F5F5F5F5F5F5F5F5F5F5F5F5F5E2E2EFF5F5F5F5F5F5F5F5F5F5F5F5F5F5F5F5F5F5F5F5F5F5F5F5F5F5F5F5F5F5F5F5F5F5F5F5F5F5F5F5F5F5F5F5F5F5F5F5F5F5F5F5F5F5F5F5F5F5F5F5F5F5F5F5F5F5F5F5F5F5F5F5F5F5F5F5F5F5F5F5F5F5F5F5F5F5F5F5F5F5F5F5F5F5F5F5F5F5F5F5F5F5F5F5F5F5F5F5F5F5
310
F5F5F5F5F5F5F5F5F5F5F5F5F5F5F5F5F5F5F5F5F5F5F5F5F5F5F5F5F5F5F5F5F5F5F5F5F5F5F5F5F5F5F5F5F5F5F5F5F5F5F5F5F5F5F5F5F5F5F5F5F5F5F5F5F5F5F5E2EFEFF5F5F5F5F5F5F5F5F5F5F5F5F5F5F5F5F5F5F5F5F5F5F5F5F5F5F5F5F5F5F5F5F5F5F5F5F5F5F5F5F5F5F5F5F5F5F5F5F5F5F5F5F5F5F5F5F5
310
F5F5F5F5F5F5F5F5F5F5F5F5F5F5F5F5F5F5F5F5F5F5F5F5F5F5F5F5F5F5F5F5F5F5F5F5F5F5F5F5F5F5F5F5F5F5F5F5F5F5F5F5F5F5F5F5F5F5F5F5F5F5F5F5F5F5F5F5F5F5F5F5F5F5F5F5F5F5F5F5F5F5F5F5F5F5F5F5F5F5F5F5F5F5F5F5F5F5F5F5F5F5F5F5F5F5F5F5F5F5F5F5F5F5F5F5F5F5F5F5E2EFEFE2E2E2E2
310
E2E2E2E2E2E2E2E2E2E2E2E2E2E2E2E2E2E2E2E2E2E2E2E2E2E2E2E2E2E2E2E2E2E2E2E2E2E2E2E2E2E2E2E2E2E2E2E2E2E2E2E2E2E2E2E2E2E2E2E2E2E2E2E2E2E2E2E2E2E2E2E2E2E2E2E2E2E2E2E2E2E2E2E2E2E2E2E2E2E2E2E2E2E2E2E2E2E2E2E2E2E2E2E2E2E2E2E2E2E2E2E2E2E2E2E2E2E2E2E2E2E2E2E2E2E2E2
310
E2E2E2E2E2E2E2E2E2E2E2E2E2E2E2E2E2E2E2E2E2E2E2E2E2E2E2E2E2E2E2E2E2E2E2E2E2E2E2E2E2E2E2E2E2E2E2EFEF
  0
XRECORD
  5
12E9
102
{ACAD_REACTORS
330
12E8
102
}
330
12E8
100
AcDbXrecord
280
     1
270
     1
271
     1
  0
XRECORD
  5
12EA
102
{ACAD_REACTORS
330
12E8
102
}
330
12E8
100
AcDbXrecord
280
     1
270
     1
271
     1
  0
XRECORD
  5
12EB
102
{ACAD_REACTORS
330
12E8
102
}
330
12E8
100
AcDbXrecord
280
     1
270
     1
271
     1
  0
XRECORD
  5
12EC
102
{ACAD_REACTORS
330
12E8
102
}
330
12E8
100
AcDbXrecord
280
     1
270
     1
271
     1
  0
XRECORD
  5
12ED
102
{ACAD_REACTORS
330
12E8
102
}
330
12E8
100
AcDbXrecord
280
     1
270
     1
271
     1
  0
XRECORD
  5
12EE
102
{ACAD_REACTORS
330
12E8
102
}
330
12E8
100
AcDbXrecord
280
     1
270
     1
271
     1
  0
XRECORD
  5
12E1
102
{ACAD_REACTORS
330
12E0
102
}
330
12E0
100
AcDbXrecord
280
     1
270
     1
271
     1
  0
XRECORD
  5
12E2
102
{ACAD_REACTORS
330
12E0
102
}
330
12E0
100
AcDbXrecord
280
     1
270
     1
271
     1
  0
XRECORD
  5
12E3
102
{ACAD_REACTORS
330
12E0
102
}
330
12E0
100
AcDbXrecord
280
     1
270
     1
271
     1
  0
XRECORD
  5
12E4
102
{ACAD_REACTORS
330
12E0
102
}
330
12E0
100
AcDbXrecord
280
     1
270
     1
271
     1
  0
XRECORD
  5
12E5
102
{ACAD_REACTORS
330
12E0
102
}
330
12E0
100
AcDbXrecord
280
     1
270
     1
271
     1
  0
XRECORD
  5
12E6
102
{ACAD_REACTORS
330
12E0
102
}
330
12E0
100
AcDbXrecord
280
     1
270
     1
271
     1
  0
XRECORD
  5
12B7
102
{ACAD_REACTORS
330
12B6
102
}
330
12B6
100
AcDbXrecord
280
     1
270
     1
271
     1
  0
XRECORD
  5
12B8
102
{ACAD_REACTORS
330
12B6
102
}
330
12B6
100
AcDbXrecord
280
     1
270
     1
271
     1
  0
XRECORD
  5
12B9
102
{ACAD_REACTORS
330
12B6
102
}
330
12B6
100
AcDbXrecord
280
     1
270
     1
271
     1
  0
XRECORD
  5
12BA
102
{ACAD_REACTORS
330
12B6
102
}
330
12B6
100
AcDbXrecord
280
     1
270
     1
271
     1
  0
XRECORD
  5
12BB
102
{ACAD_REACTORS
330
12B6
102
}
330
12B6
100
AcDbXrecord
280
     1
270
     1
271
     1
  0
XRECORD
  5
12BC
102
{ACAD_REACTORS
330
12B6
102
}
330
12B6
100
AcDbXrecord
280
     1
270
     1
271
     1
  0
CELLSTYLEMAP
  5
2529
102
{ACAD_REACTORS
330
1445
102
}
330
1445
100
AcDbCellStyleMap
 90
        3
300
CELLSTYLE
  1
TABLEFORMAT_BEGIN
 90
        5
170
     1
 91
        0
 92
    32768
 62
   257
 93
        1
300
CONTENTFORMAT
  1
CONTENTFORMAT_BEGIN
 90
        0
 91
        0
 92
        4
 93
        0
300

 40
0.0
140
1.0
 94
        5
 62
     0
340
12CC
144
0.25
309
CONTENTFORMAT_END
171
     1
301
MARGIN
  1
CELLMARGIN_BEGIN
 40
0.06
 40
0.06
 40
0.06
 40
0.06
 40
0.18
 40
0.18
309
CELLMARGIN_END
 94
        6
 95
        1
302
GRIDFORMAT
  1
GRIDFORMAT_BEGIN
 90
        0
 91
        1
 62
     0
 92
       -2
340
0
 93
        0
 40
0.045
309
GRIDFORMAT_END
 95
        2
302
GRIDFORMAT
  1
GRIDFORMAT_BEGIN
 90
        0
 91
        1
 62
     0
 92
       -2
340
0
 93
        0
 40
0.045
309
GRIDFORMAT_END
 95
        4
302
GRIDFORMAT
  1
GRIDFORMAT_BEGIN
 90
        0
 91
        1
 62
     0
 92
       -2
340
0
 93
        0
 40
0.045
309
GRIDFORMAT_END
 95
        8
302
GRIDFORMAT
  1
GRIDFORMAT_BEGIN
 90
        0
 91
        1
 62
     0
 92
       -2
340
0
 93
        0
 40
0.045
309
GRIDFORMAT_END
 95
       16
302
GRIDFORMAT
  1
GRIDFORMAT_BEGIN
 90
        0
 91
        1
 62
     0
 92
       -2
340
0
 93
        0
 40
0.045
309
GRIDFORMAT_END
 95
       32
302
GRIDFORMAT
  1
GRIDFORMAT_BEGIN
 90
        0
 91
        1
 62
     0
 92
       -2
340
0
 93
        0
 40
0.045
309
GRIDFORMAT_END
309
TABLEFORMAT_END
  1
CELLSTYLE_BEGIN
 90
        1
 91
        1
300
_TITLE
309
CELLSTYLE_END
300
CELLSTYLE
  1
TABLEFORMAT_BEGIN
 90
        5
170
     1
 91
        0
 92
        0
 62
   257
 93
        1
300
CONTENTFORMAT
  1
CONTENTFORMAT_BEGIN
 90
        0
 91
        0
 92
        4
 93
        0
300

 40
0.0
140
1.0
 94
        5
 62
     0
340
12CC
144
0.18
309
CONTENTFORMAT_END
171
     1
301
MARGIN
  1
CELLMARGIN_BEGIN
 40
0.06
 40
0.06
 40
0.06
 40
0.06
 40
0.18
 40
0.18
309
CELLMARGIN_END
 94
        6
 95
        1
302
GRIDFORMAT
  1
GRIDFORMAT_BEGIN
 90
        0
 91
        1
 62
     0
 92
       -2
340
0
 93
        0
 40
0.045
309
GRIDFORMAT_END
 95
        2
302
GRIDFORMAT
  1
GRIDFORMAT_BEGIN
 90
        0
 91
        1
 62
     0
 92
       -2
340
0
 93
        0
 40
0.045
309
GRIDFORMAT_END
 95
        4
302
GRIDFORMAT
  1
GRIDFORMAT_BEGIN
 90
        0
 91
        1
 62
     0
 92
       -2
340
0
 93
        0
 40
0.045
309
GRIDFORMAT_END
 95
        8
302
GRIDFORMAT
  1
GRIDFORMAT_BEGIN
 90
        0
 91
        1
 62
     0
 92
       -2
340
0
 93
        0
 40
0.045
309
GRIDFORMAT_END
 95
       16
302
GRIDFORMAT
  1
GRIDFORMAT_BEGIN
 90
        0
 91
        1
 62
     0
 92
       -2
340
0
 93
        0
 40
0.045
309
GRIDFORMAT_END
 95
       32
302
GRIDFORMAT
  1
GRIDFORMAT_BEGIN
 90
        0
 91
        1
 62
     0
 92
       -2
340
0
 93
        0
 40
0.045
309
GRIDFORMAT_END
309
TABLEFORMAT_END
  1
CELLSTYLE_BEGIN
 90
        2
 91
        1
300
_HEADER
309
CELLSTYLE_END
300
CELLSTYLE
  1
TABLEFORMAT_BEGIN
 90
        5
170
     1
 91
        0
 92
        0
 62
   257
 93
        1
300
CONTENTFORMAT
  1
CONTENTFORMAT_BEGIN
 90
        0
 91
        0
 92
        4
 93
        0
300

 40
0.0
140
1.0
 94
        2
 62
     0
340
12CC
144
0.18
309
CONTENTFORMAT_END
171
     1
301
MARGIN
  1
CELLMARGIN_BEGIN
 40
0.06
 40
0.06
 40
0.06
 40
0.06
 40
0.18
 40
0.18
309
CELLMARGIN_END
 94
        6
 95
        1
302
GRIDFORMAT
  1
GRIDFORMAT_BEGIN
 90
        0
 91
        1
 62
     0
 92
       -2
340
0
 93
        0
 40
0.045
309
GRIDFORMAT_END
 95
        2
302
GRIDFORMAT
  1
GRIDFORMAT_BEGIN
 90
        0
 91
        1
 62
     0
 92
       -2
340
0
 93
        0
 40
0.045
309
GRIDFORMAT_END
 95
        4
302
GRIDFORMAT
  1
GRIDFORMAT_BEGIN
 90
        0
 91
        1
 62
     0
 92
       -2
340
0
 93
        0
 40
0.045
309
GRIDFORMAT_END
 95
        8
302
GRIDFORMAT
  1
GRIDFORMAT_BEGIN
 90
        0
 91
        1
 62
     0
 92
       -2
340
0
 93
        0
 40
0.045
309
GRIDFORMAT_END
 95
       16
302
GRIDFORMAT
  1
GRIDFORMAT_BEGIN
 90
        0
 91
        1
 62
     0
 92
       -2
340
0
 93
        0
 40
0.045
309
GRIDFORMAT_END
 95
       32
302
GRIDFORMAT
  1
GRIDFORMAT_BEGIN
 90
        0
 91
        1
 62
     0
 92
       -2
340
0
 93
        0
 40
0.045
309
GRIDFORMAT_END
309
TABLEFORMAT_END
  1
CELLSTYLE_BEGIN
 90
        3
 91
        2
300
_DATA
309
CELLSTYLE_END
  0
XRECORD
  5
252C
102
{ACAD_REACTORS
330
252B
102
}
330
252B
100
AcDbXrecord
280
     1
102
RTVSPropertyOp0
 70
     1
102
RTVSPropertyOp1
 70
     1
102
RTVSPropertyOp2
 70
     1
102
RTVSPropertyOp3
 70
     1
102
RTVSPropertyOp4
 70
     1
102
RTVSPropertyOp5
 70
     1
102
RTVSPropertyOp6
 70
     1
102
RTVSPropertyOp7
 70
     1
102
RTVSPropertyOp8
 70
     1
102
RTVSPropertyOp9
 70
     1
102
RTVSPropertyOp10
 70
     1
102
RTVSPropertyOp11
 70
     1
102
RTVSPropertyOp12
 70
     1
102
RTVSPropertyOp13
 70
     1
102
RTVSPropertyOp14
 70
     1
102
RTVSPropertyOp15
 70
     1
102
RTVSPropertyOp16
 70
     1
102
RTVSPropertyOp17
 70
     1
102
RTVSPropertyOp18
 70
     1
102
RTVSPropertyOp19
 70
     1
102
RTVSPropertyOp20
 70
     1
102
RTVSPropertyOp21
 70
     1
102
RTVSPropertyOp22
 70
     1
102
RTVSPropertyOp23
 70
     1
102
RTVSPropertyOp24
 70
     1
102
RTVSPropertyOp25
 70
     1
102
RTVSPropertyOp26
 70
     1
102
RTVSPropertyOp27
 70
     1
  0
XRECORD
  5
253C
102
{ACAD_REACTORS
330
253B
102
}
330
253B
100
AcDbXrecord
280
     1
102
RTVSPropertyOp0
 70
     1
102
RTVSPropertyOp1
 70
     1
102
RTVSPropertyOp2
 70
     1
102
RTVSPropertyOp3
 70
     1
102
RTVSPropertyOp4
 70
     1
102
RTVSPropertyOp5
 70
     1
102
RTVSPropertyOp6
 70
     1
102
RTVSPropertyOp7
 70
     1
102
RTVSPropertyOp8
 70
     1
102
RTVSPropertyOp9
 70
     1
102
RTVSPropertyOp10
 70
     1
102
RTVSPropertyOp11
 70
     1
102
RTVSPropertyOp12
 70
     1
102
RTVSPropertyOp13
 70
     1
102
RTVSPropertyOp14
 70
     1
102
RTVSPropertyOp15
 70
     1
102
RTVSPropertyOp16
 70
     1
102
RTVSPropertyOp17
 70
     1
102
RTVSPropertyOp18
 70
     1
102
RTVSPropertyOp19
 70
     1
102
RTVSPropertyOp20
 70
     1
102
RTVSPropertyOp21
 70
     1
102
RTVSPropertyOp22
 70
     1
102
RTVSPropertyOp23
 70
     1
102
RTVSPropertyOp24
 70
     1
102
RTVSPropertyOp25
 70
     1
102
RTVSPropertyOp26
 70
     1
102
RTVSPropertyOp27
 70
     1
  0
XRECORD
  5
2530
102
{ACAD_REACTORS
330
252F
102
}
330
252F
100
AcDbXrecord
280
     1
102
RTVSPropertyOp0
 70
     1
102
RTVSPropertyOp1
 70
     1
102
RTVSPropertyOp2
 70
     1
102
RTVSPropertyOp3
 70
     1
102
RTVSPropertyOp4
 70
     1
102
RTVSPropertyOp5
 70
     1
102
RTVSPropertyOp6
 70
     1
102
RTVSPropertyOp7
 70
     1
102
RTVSPropertyOp8
 70
     1
102
RTVSPropertyOp9
 70
     1
102
RTVSPropertyOp10
 70
     1
102
RTVSPropertyOp11
 70
     1
102
RTVSPropertyOp12
 70
     1
102
RTVSPropertyOp13
 70
     1
102
RTVSPropertyOp14
 70
     1
102
RTVSPropertyOp15
 70
     1
102
RTVSPropertyOp16
 70
     1
102
RTVSPropertyOp17
 70
     1
102
RTVSPropertyOp18
 70
     1
102
RTVSPropertyOp19
 70
     1
102
RTVSPropertyOp20
 70
     1
102
RTVSPropertyOp21
 70
     1
102
RTVSPropertyOp22
 70
     1
102
RTVSPropertyOp23
 70
     1
102
RTVSPropertyOp24
 70
     1
102
RTVSPropertyOp25
 70
     1
102
RTVSPropertyOp26
 70
     1
102
RTVSPropertyOp27
 70
     1
  0
XRECORD
  5
253A
102
{ACAD_REACTORS
330
2539
102
}
330
2539
100
AcDbXrecord
280
     1
102
RTVSPropertyOp0
 70
     1
102
RTVSPropertyOp1
 70
     1
102
RTVSPropertyOp2
 70
     1
102
RTVSPropertyOp3
 70
     1
102
RTVSPropertyOp4
 70
     1
102
RTVSPropertyOp5
 70
     1
102
RTVSPropertyOp6
 70
     1
102
RTVSPropertyOp7
 70
     1
102
RTVSPropertyOp8
 70
     1
102
RTVSPropertyOp9
 70
     1
102
RTVSPropertyOp10
 70
     1
102
RTVSPropertyOp11
 70
     1
102
RTVSPropertyOp12
 70
     1
102
RTVSPropertyOp13
 70
     1
102
RTVSPropertyOp14
 70
     1
102
RTVSPropertyOp15
 70
     1
102
RTVSPropertyOp16
 70
     1
102
RTVSPropertyOp17
 70
     1
102
RTVSPropertyOp18
 70
     1
102
RTVSPropertyOp19
 70
     1
102
RTVSPropertyOp20
 70
     1
102
RTVSPropertyOp21
 70
     1
102
RTVSPropertyOp22
 70
     1
102
RTVSPropertyOp23
 70
     1
102
RTVSPropertyOp24
 70
     1
102
RTVSPropertyOp25
 70
     1
102
RTVSPropertyOp26
 70
     1
102
RTVSPropertyOp27
 70
     1
  0
XRECORD
  5
2542
102
{ACAD_REACTORS
330
2541
102
}
330
2541
100
AcDbXrecord
280
     1
102
RTVSPropertyOp0
 70
     1
102
RTVSPropertyOp1
 70
     1
102
RTVSPropertyOp2
 70
     1
102
RTVSPropertyOp3
 70
     1
102
RTVSPropertyOp4
 70
     1
102
RTVSPropertyOp5
 70
     1
102
RTVSPropertyOp6
 70
     1
102
RTVSPropertyOp7
 70
     1
102
RTVSPropertyOp8
 70
     1
102
RTVSPropertyOp9
 70
     1
102
RTVSPropertyOp10
 70
     1
102
RTVSPropertyOp11
 70
     1
102
RTVSPropertyOp12
 70
     1
102
RTVSPropertyOp13
 70
     1
102
RTVSPropertyOp14
 70
     1
102
RTVSPropertyOp15
 70
     1
102
RTVSPropertyOp16
 70
     1
102
RTVSPropertyOp17
 70
     1
102
RTVSPropertyOp18
 70
     1
102
RTVSPropertyOp19
 70
     1
102
RTVSPropertyOp20
 70
     1
102
RTVSPropertyOp21
 70
     1
102
RTVSPropertyOp22
 70
     1
102
RTVSPropertyOp23
 70
     1
102
RTVSPropertyOp24
 70
     1
102
RTVSPropertyOp25
 70
     1
102
RTVSPropertyOp26
 70
     1
102
RTVSPropertyOp27
 70
     1
  0
XRECORD
  5
254A
102
{ACAD_REACTORS
330
2549
102
}
330
2549
100
AcDbXrecord
280
     1
102
RTVSPropertyOp0
 70
     1
102
RTVSPropertyOp1
 70
     1
102
RTVSPropertyOp2
 70
     1
102
RTVSPropertyOp3
 70
     1
102
RTVSPropertyOp4
 70
     1
102
RTVSPropertyOp5
 70
     1
102
RTVSPropertyOp6
 70
     1
102
RTVSPropertyOp7
 70
     1
102
RTVSPropertyOp8
 70
     1
102
RTVSPropertyOp9
 70
     1
102
RTVSPropertyOp10
 70
     1
102
RTVSPropertyOp11
 70
     1
102
RTVSPropertyOp12
 70
     1
102
RTVSPropertyOp13
 70
     1
102
RTVSPropertyOp14
 70
     1
102
RTVSPropertyOp15
 70
     1
102
RTVSPropertyOp16
 70
     1
102
RTVSPropertyOp17
 70
     1
102
RTVSPropertyOp18
 70
     1
102
RTVSPropertyOp19
 70
     1
102
RTVSPropertyOp20
 70
     1
102
RTVSPropertyOp21
 70
     1
102
RTVSPropertyOp22
 70
     1
102
RTVSPropertyOp23
 70
     1
102
RTVSPropertyOp24
 70
     1
102
RTVSPropertyOp25
 70
     1
102
RTVSPropertyOp26
 70
     1
102
RTVSPropertyOp27
 70
     1
  0
XRECORD
  5
253E
102
{ACAD_REACTORS
330
253D
102
}
330
253D
100
AcDbXrecord
280
     1
102
RTVSPropertyOp0
 70
     1
102
RTVSPropertyOp1
 70
     1
102
RTVSPropertyOp2
 70
     1
102
RTVSPropertyOp3
 70
     1
102
RTVSPropertyOp4
 70
     1
102
RTVSPropertyOp5
 70
     1
102
RTVSPropertyOp6
 70
     1
102
RTVSPropertyOp7
 70
     1
102
RTVSPropertyOp8
 70
     1
102
RTVSPropertyOp9
 70
     1
102
RTVSPropertyOp10
 70
     1
102
RTVSPropertyOp11
 70
     1
102
RTVSPropertyOp12
 70
     1
102
RTVSPropertyOp13
 70
     1
102
RTVSPropertyOp14
 70
     1
102
RTVSPropertyOp15
 70
     1
102
RTVSPropertyOp16
 70
     1
102
RTVSPropertyOp17
 70
     1
102
RTVSPropertyOp18
 70
     1
102
RTVSPropertyOp19
 70
     1
102
RTVSPropertyOp20
 70
     1
102
RTVSPropertyOp21
 70
     1
102
RTVSPropertyOp22
 70
     1
102
RTVSPropertyOp23
 70
     1
102
RTVSPropertyOp24
 70
     1
102
RTVSPropertyOp25
 70
     1
102
RTVSPropertyOp26
 70
     1
102
RTVSPropertyOp27
 70
     1
  0
XRECORD
  5
2540
102
{ACAD_REACTORS
330
253F
102
}
330
253F
100
AcDbXrecord
280
     1
102
RTVSPropertyOp0
 70
     1
102
RTVSPropertyOp1
 70
     1
102
RTVSPropertyOp2
 70
     1
102
RTVSPropertyOp3
 70
     1
102
RTVSPropertyOp4
 70
     1
102
RTVSPropertyOp5
 70
     1
102
RTVSPropertyOp6
 70
     1
102
RTVSPropertyOp7
 70
     1
102
RTVSPropertyOp8
 70
     1
102
RTVSPropertyOp9
 70
     1
102
RTVSPropertyOp10
 70
     1
102
RTVSPropertyOp11
 70
     1
102
RTVSPropertyOp12
 70
     1
102
RTVSPropertyOp13
 70
     1
102
RTVSPropertyOp14
 70
     1
102
RTVSPropertyOp15
 70
     1
102
RTVSPropertyOp16
 70
     1
102
RTVSPropertyOp17
 70
     1
102
RTVSPropertyOp18
 70
     1
102
RTVSPropertyOp19
 70
     1
102
RTVSPropertyOp20
 70
     1
102
RTVSPropertyOp21
 70
     1
102
RTVSPropertyOp22
 70
     1
102
RTVSPropertyOp23
 70
     1
102
RTVSPropertyOp24
 70
     1
102
RTVSPropertyOp25
 70
     1
102
RTVSPropertyOp26
 70
     1
102
RTVSPropertyOp27
 70
     1
  0
XRECORD
  5
2550
102
{ACAD_REACTORS
330
254F
102
}
330
254F
100
AcDbXrecord
280
     1
102
RTVSPropertyOp0
 70
     0
102
RTVSPropertyOp1
 70
     0
102
RTVSPropertyOp2
 70
     0
102
RTVSPropertyOp3
 70
     0
102
RTVSPropertyOp4
 70
     0
102
RTVSPropertyOp5
 70
     0
102
RTVSPropertyOp6
 70
     0
102
RTVSPropertyOp7
 70
     0
102
RTVSPropertyOp8
 70
     0
102
RTVSPropertyOp9
 70
     0
102
RTVSPropertyOp10
 70
     0
102
RTVSPropertyOp11
 70
     0
102
RTVSPropertyOp12
 70
     0
102
RTVSPropertyOp13
 70
     0
102
RTVSPropertyOp14
 70
     2
102
RTVSPropertyOp15
 70
     0
102
RTVSPropertyOp16
 70
     0
102
RTVSPropertyOp17
 70
     0
102
RTVSPropertyOp18
 70
     0
102
RTVSPropertyOp19
 70
     0
102
RTVSPropertyOp20
 70
     0
102
RTVSPropertyOp21
 70
     0
102
RTVSPropertyOp22
 70
     0
102
RTVSPropertyOp23
 70
     0
102
RTVSPropertyOp24
 70
     0
102
RTVSPropertyOp25
 70
     0
102
RTVSPropertyOp26
 70
     0
102
RTVSPropertyOp27
 70
     0
  0
XRECORD
  5
2548
102
{ACAD_REACTORS
330
2547
102
}
330
2547
100
AcDbXrecord
280
     1
102
RTVSPropertyOp0
 70
     1
102
RTVSPropertyOp1
 70
     1
102
RTVSPropertyOp2
 70
     1
102
RTVSPropertyOp3
 70
     1
102
RTVSPropertyOp4
 70
     1
102
RTVSPropertyOp5
 70
     1
102
RTVSPropertyOp6
 70
     1
102
RTVSPropertyOp7
 70
     1
102
RTVSPropertyOp8
 70
     1
102
RTVSPropertyOp9
 70
     1
102
RTVSPropertyOp10
 70
     1
102
RTVSPropertyOp11
 70
     1
102
RTVSPropertyOp12
 70
     1
102
RTVSPropertyOp13
 70
     1
102
RTVSPropertyOp14
 70
     1
102
RTVSPropertyOp15
 70
     1
102
RTVSPropertyOp16
 70
     1
102
RTVSPropertyOp17
 70
     1
102
RTVSPropertyOp18
 70
     1
102
RTVSPropertyOp19
 70
     1
102
RTVSPropertyOp20
 70
     1
102
RTVSPropertyOp21
 70
     1
102
RTVSPropertyOp22
 70
     1
102
RTVSPropertyOp23
 70
     1
102
RTVSPropertyOp24
 70
     1
102
RTVSPropertyOp25
 70
     1
102
RTVSPropertyOp26
 70
     1
102
RTVSPropertyOp27
 70
     1
  0
XRECORD
  5
2532
102
{ACAD_REACTORS
330
2531
102
}
330
2531
100
AcDbXrecord
280
     1
102
RTVSPropertyOp0
 70
     1
102
RTVSPropertyOp1
 70
     1
102
RTVSPropertyOp2
 70
     1
102
RTVSPropertyOp3
 70
     1
102
RTVSPropertyOp4
 70
     1
102
RTVSPropertyOp5
 70
     1
102
RTVSPropertyOp6
 70
     1
102
RTVSPropertyOp7
 70
     1
102
RTVSPropertyOp8
 70
     1
102
RTVSPropertyOp9
 70
     1
102
RTVSPropertyOp10
 70
     1
102
RTVSPropertyOp11
 70
     1
102
RTVSPropertyOp12
 70
     1
102
RTVSPropertyOp13
 70
     1
102
RTVSPropertyOp14
 70
     1
102
RTVSPropertyOp15
 70
     1
102
RTVSPropertyOp16
 70
     1
102
RTVSPropertyOp17
 70
     1
102
RTVSPropertyOp18
 70
     1
102
RTVSPropertyOp19
 70
     1
102
RTVSPropertyOp20
 70
     1
102
RTVSPropertyOp21
 70
     1
102
RTVSPropertyOp22
 70
     1
102
RTVSPropertyOp23
 70
     1
102
RTVSPropertyOp24
 70
     1
102
RTVSPropertyOp25
 70
     1
102
RTVSPropertyOp26
 70
     1
102
RTVSPropertyOp27
 70
     1
  0
XRECORD
  5
2534
102
{ACAD_REACTORS
330
2533
102
}
330
2533
100
AcDbXrecord
280
     1
102
RTVSPropertyOp0
 70
     1
102
RTVSPropertyOp1
 70
     1
102
RTVSPropertyOp2
 70
     1
102
RTVSPropertyOp3
 70
     1
102
RTVSPropertyOp4
 70
     1
102
RTVSPropertyOp5
 70
     1
102
RTVSPropertyOp6
 70
     1
102
RTVSPropertyOp7
 70
     1
102
RTVSPropertyOp8
 70
     1
102
RTVSPropertyOp9
 70
     1
102
RTVSPropertyOp10
 70
     1
102
RTVSPropertyOp11
 70
     1
102
RTVSPropertyOp12
 70
     1
102
RTVSPropertyOp13
 70
     1
102
RTVSPropertyOp14
 70
     1
102
RTVSPropertyOp15
 70
     1
102
RTVSPropertyOp16
 70
     1
102
RTVSPropertyOp17
 70
     1
102
RTVSPropertyOp18
 70
     1
102
RTVSPropertyOp19
 70
     1
102
RTVSPropertyOp20
 70
     1
102
RTVSPropertyOp21
 70
     1
102
RTVSPropertyOp22
 70
     1
102
RTVSPropertyOp23
 70
     1
102
RTVSPropertyOp24
 70
     1
102
RTVSPropertyOp25
 70
     1
102
RTVSPropertyOp26
 70
     1
102
RTVSPropertyOp27
 70
     1
  0
XRECORD
  5
2536
102
{ACAD_REACTORS
330
2535
102
}
330
2535
100
AcDbXrecord
280
     1
102
RTVSPropertyOp0
 70
     1
102
RTVSPropertyOp1
 70
     1
102
RTVSPropertyOp2
 70
     1
102
RTVSPropertyOp3
 70
     1
102
RTVSPropertyOp4
 70
     1
102
RTVSPropertyOp5
 70
     1
102
RTVSPropertyOp6
 70
     1
102
RTVSPropertyOp7
 70
     1
102
RTVSPropertyOp8
 70
     1
102
RTVSPropertyOp9
 70
     1
102
RTVSPropertyOp10
 70
     1
102
RTVSPropertyOp11
 70
     1
102
RTVSPropertyOp12
 70
     1
102
RTVSPropertyOp13
 70
     1
102
RTVSPropertyOp14
 70
     1
102
RTVSPropertyOp15
 70
     1
102
RTVSPropertyOp16
 70
     1
102
RTVSPropertyOp17
 70
     1
102
RTVSPropertyOp18
 70
     1
102
RTVSPropertyOp19
 70
     1
102
RTVSPropertyOp20
 70
     1
102
RTVSPropertyOp21
 70
     1
102
RTVSPropertyOp22
 70
     1
102
RTVSPropertyOp23
 70
     1
102
RTVSPropertyOp24
 70
     1
102
RTVSPropertyOp25
 70
     1
102
RTVSPropertyOp26
 70
     1
102
RTVSPropertyOp27
 70
     1
  0
XRECORD
  5
2538
102
{ACAD_REACTORS
330
2537
102
}
330
2537
100
AcDbXrecord
280
     1
102
RTVSPropertyOp0
 70
     1
102
RTVSPropertyOp1
 70
     1
102
RTVSPropertyOp2
 70
     1
102
RTVSPropertyOp3
 70
     1
102
RTVSPropertyOp4
 70
     1
102
RTVSPropertyOp5
 70
     1
102
RTVSPropertyOp6
 70
     1
102
RTVSPropertyOp7
 70
     1
102
RTVSPropertyOp8
 70
     1
102
RTVSPropertyOp9
 70
     1
102
RTVSPropertyOp10
 70
     1
102
RTVSPropertyOp11
 70
     1
102
RTVSPropertyOp12
 70
     1
102
RTVSPropertyOp13
 70
     1
102
RTVSPropertyOp14
 70
     1
102
RTVSPropertyOp15
 70
     1
102
RTVSPropertyOp16
 70
     1
102
RTVSPropertyOp17
 70
     1
102
RTVSPropertyOp18
 70
     1
102
RTVSPropertyOp19
 70
     1
102
RTVSPropertyOp20
 70
     1
102
RTVSPropertyOp21
 70
     1
102
RTVSPropertyOp22
 70
     1
102
RTVSPropertyOp23
 70
     1
102
RTVSPropertyOp24
 70
     1
102
RTVSPropertyOp25
 70
     1
102
RTVSPropertyOp26
 70
     1
102
RTVSPropertyOp27
 70
     1
  0
XRECORD
  5
254C
102
{ACAD_REACTORS
330
254B
102
}
330
254B
100
AcDbXrecord
280
     1
102
RTVSPropertyOp0
 70
     0
102
RTVSPropertyOp1
 70
     0
102
RTVSPropertyOp2
 70
     0
102
RTVSPropertyOp3
 70
     0
102
RTVSPropertyOp4
 70
     0
102
RTVSPropertyOp5
 70
     0
102
RTVSPropertyOp6
 70
     0
102
RTVSPropertyOp7
 70
     0
102
RTVSPropertyOp8
 70
     0
102
RTVSPropertyOp9
 70
     0
102
RTVSPropertyOp10
 70
     0
102
RTVSPropertyOp11
 70
     0
102
RTVSPropertyOp12
 70
     0
102
RTVSPropertyOp13
 70
     0
102
RTVSPropertyOp14
 70
     2
102
RTVSPropertyOp15
 70
     0
102
RTVSPropertyOp16
 70
     0
102
RTVSPropertyOp17
 70
     0
102
RTVSPropertyOp18
 70
     0
102
RTVSPropertyOp19
 70
     0
102
RTVSPropertyOp20
 70
     0
102
RTVSPropertyOp21
 70
     0
102
RTVSPropertyOp22
 70
     0
102
RTVSPropertyOp23
 70
     0
102
RTVSPropertyOp24
 70
     0
102
RTVSPropertyOp25
 70
     0
102
RTVSPropertyOp26
 70
     0
102
RTVSPropertyOp27
 70
     0
  0
XRECORD
  5
2546
102
{ACAD_REACTORS
330
2545
102
}
330
2545
100
AcDbXrecord
280
     1
102
RTVSPropertyOp0
 70
     1
102
RTVSPropertyOp1
 70
     1
102
RTVSPropertyOp2
 70
     1
102
RTVSPropertyOp3
 70
     1
102
RTVSPropertyOp4
 70
     1
102
RTVSPropertyOp5
 70
     1
102
RTVSPropertyOp6
 70
     1
102
RTVSPropertyOp7
 70
     1
102
RTVSPropertyOp8
 70
     1
102
RTVSPropertyOp9
 70
     1
102
RTVSPropertyOp10
 70
     1
102
RTVSPropertyOp11
 70
     1
102
RTVSPropertyOp12
 70
     1
102
RTVSPropertyOp13
 70
     1
102
RTVSPropertyOp14
 70
     1
102
RTVSPropertyOp15
 70
     1
102
RTVSPropertyOp16
 70
     1
102
RTVSPropertyOp17
 70
     1
102
RTVSPropertyOp18
 70
     1
102
RTVSPropertyOp19
 70
     1
102
RTVSPropertyOp20
 70
     1
102
RTVSPropertyOp21
 70
     1
102
RTVSPropertyOp22
 70
     1
102
RTVSPropertyOp23
 70
     1
102
RTVSPropertyOp24
 70
     1
102
RTVSPropertyOp25
 70
     1
102
RTVSPropertyOp26
 70
     1
102
RTVSPropertyOp27
 70
     1
  0
XRECORD
  5
254E
102
{ACAD_REACTORS
330
254D
102
}
330
254D
100
AcDbXrecord
280
     1
102
RTVSPropertyOp0
 70
     0
102
RTVSPropertyOp1
 70
     0
102
RTVSPropertyOp2
 70
     0
102
RTVSPropertyOp3
 70
     0
102
RTVSPropertyOp4
 70
     0
102
RTVSPropertyOp5
 70
     0
102
RTVSPropertyOp6
 70
     0
102
RTVSPropertyOp7
 70
     0
102
RTVSPropertyOp8
 70
     0
102
RTVSPropertyOp9
 70
     0
102
RTVSPropertyOp10
 70
     0
102
RTVSPropertyOp11
 70
     0
102
RTVSPropertyOp12
 70
     0
102
RTVSPropertyOp13
 70
     0
102
RTVSPropertyOp14
 70
     2
102
RTVSPropertyOp15
 70
     0
102
RTVSPropertyOp16
 70
     0
102
RTVSPropertyOp17
 70
     0
102
RTVSPropertyOp18
 70
     0
102
RTVSPropertyOp19
 70
     0
102
RTVSPropertyOp20
 70
     0
102
RTVSPropertyOp21
 70
     0
102
RTVSPropertyOp22
 70
     0
102
RTVSPropertyOp23
 70
     0
102
RTVSPropertyOp24
 70
     0
102
RTVSPropertyOp25
 70
     0
102
RTVSPropertyOp26
 70
     0
102
RTVSPropertyOp27
 70
     0
  0
XRECORD
  5
252E
102
{ACAD_REACTORS
330
252D
102
}
330
252D
100
AcDbXrecord
280
     1
102
RTVSPropertyOp0
 70
     1
102
RTVSPropertyOp1
 70
     1
102
RTVSPropertyOp2
 70
     1
102
RTVSPropertyOp3
 70
     1
102
RTVSPropertyOp4
 70
     1
102
RTVSPropertyOp5
 70
     1
102
RTVSPropertyOp6
 70
     1
102
RTVSPropertyOp7
 70
     1
102
RTVSPropertyOp8
 70
     1
102
RTVSPropertyOp9
 70
     1
102
RTVSPropertyOp10
 70
     1
102
RTVSPropertyOp11
 70
     1
102
RTVSPropertyOp12
 70
     1
102
RTVSPropertyOp13
 70
     1
102
RTVSPropertyOp14
 70
     1
102
RTVSPropertyOp15
 70
     1
102
RTVSPropertyOp16
 70
     1
102
RTVSPropertyOp17
 70
     1
102
RTVSPropertyOp18
 70
     1
102
RTVSPropertyOp19
 70
     1
102
RTVSPropertyOp20
 70
     1
102
RTVSPropertyOp21
 70
     1
102
RTVSPropertyOp22
 70
     1
102
RTVSPropertyOp23
 70
     1
102
RTVSPropertyOp24
 70
     1
102
RTVSPropertyOp25
 70
     1
102
RTVSPropertyOp26
 70
     1
102
RTVSPropertyOp27
 70
     1
  0
XRECORD
  5
2544
102
{ACAD_REACTORS
330
2543
102
}
330
2543
100
AcDbXrecord
280
     1
102
RTVSPropertyOp0
 70
     1
102
RTVSPropertyOp1
 70
     1
102
RTVSPropertyOp2
 70
     1
102
RTVSPropertyOp3
 70
     1
102
RTVSPropertyOp4
 70
     1
102
RTVSPropertyOp5
 70
     1
102
RTVSPropertyOp6
 70
     1
102
RTVSPropertyOp7
 70
     1
102
RTVSPropertyOp8
 70
     1
102
RTVSPropertyOp9
 70
     1
102
RTVSPropertyOp10
 70
     1
102
RTVSPropertyOp11
 70
     1
102
RTVSPropertyOp12
 70
     1
102
RTVSPropertyOp13
 70
     1
102
RTVSPropertyOp14
 70
     1
102
RTVSPropertyOp15
 70
     1
102
RTVSPropertyOp16
 70
     1
102
RTVSPropertyOp17
 70
     1
102
RTVSPropertyOp18
 70
     1
102
RTVSPropertyOp19
 70
     1
102
RTVSPropertyOp20
 70
     1
102
RTVSPropertyOp21
 70
     1
102
RTVSPropertyOp22
 70
     1
102
RTVSPropertyOp23
 70
     1
102
RTVSPropertyOp24
 70
     1
102
RTVSPropertyOp25
 70
     1
102
RTVSPropertyOp26
 70
     1
102
RTVSPropertyOp27
 70
     1
  0
ENDSEC
  0
EOF
