  0
SECTION
  2
HEADER
  9
$ACADVER
  1
AC1021
  9
$ACADMAINTVER
 70
    50
  9
$DWGCODEPAGE
  3
ANSI_1252
  9
$AUTHOR
  1
dworden
  9
$LASTSAVEDBY
  1
dworden
  9
$INSBASE
 10
0.0
 20
0.0
 30
0.0
  9
$EXTMIN
 10
-26.429807
 20
-0.500102
 30
-0.000146
  9
$EXTMAX
 10
0.5
 20
16.499799
 30
0.000004
  9
$LIMMIN
 10
-76.658268
 20
-55.693516
  9
$LIMMAX
 10
50.728461
 20
71.693213
  9
$ORTHOMODE
 70
     0
  9
$REGENMODE
 70
     1
  9
$FILLMODE
 70
     1
  9
$QTEXTMODE
 70
     0
  9
$MIRRTEXT
 70
     0
  9
$LTSCALE
 40
1.0
  9
$ATTMODE
 70
     1
  9
$TEXTSIZE
 40
0.03
  9
$TRACEWID
 40
0.05
  9
$TEXTSTYLE
  7
Standard
  9
$CLAYER
  8
Level 1
  9
$CELTYPE
  6
Continuous
  9
$CECOLOR
 62
     7
  9
$CELTSCALE
 40
1.0
  9
$DISPSILH
 70
     0
  9
$DIMSCALE
 40
1.0
  9
$DIMASZ
 40
0.045
  9
$DIMEXO
 40
0.018
  9
$DIMDLI
 40
0.0
  9
$DIMRND
 40
0.0
  9
$DIMDLE
 40
0.0
  9
$DIMEXE
 40
0.015
  9
$DIMTP
 40
0.002
  9
$DIMTM
 40
0.002
  9
$DIMTXT
 40
0.03
  9
$DIMCEN
 40
0.09
  9
$DIMTSZ
 40
0.0
  9
$DIMTOL
 70
     0
  9
$DIMLIM
 70
     0
  9
$DIMTIH
 70
     1
  9
$DIMTOH
 70
     1
  9
$DIMSE1
 70
     0
  9
$DIMSE2
 70
     0
  9
$DIMTAD
 70
     0
  9
$DIMZIN
 70
     7
  9
$DIMBLK
  1

  9
$DIMASO
 70
     1
  9
$DIMSHO
 70
     1
  9
$DIMPOST
  1
\X
  9
$DIMAPOST
  1

  9
$DIMALT
 70
     1
  9
$DIMALTD
 70
     2
  9
$DIMALTF
 40
25.4
  9
$DIMLFAC
 40
1.0
  9
$DIMTOFL
 70
     0
  9
$DIMTVP
 40
0.0
  9
$DIMTIX
 70
     0
  9
$DIMSOXD
 70
     0
  9
$DIMSAH
 70
     0
  9
$DIMBLK1
  1

  9
$DIMBLK2
  1

  9
$DIMSTYLE
  2
Standard
  9
$DIMCLRD
 70
     0
  9
$DIMCLRE
 70
     0
  9
$DIMCLRT
 70
     0
  9
$DIMTFAC
 40
1.0
  9
$DIMGAP
 40
0.009
  9
$DIMJUST
 70
     0
  9
$DIMSD1
 70
     0
  9
$DIMSD2
 70
     0
  9
$DIMTOLJ
 70
     0
  9
$DIMTZIN
 70
     7
  9
$DIMALTZ
 70
    15
  9
$DIMALTTZ
 70
    15
  9
$DIMUPT
 70
     1
  9
$DIMDEC
 70
     3
  9
$DIMTDEC
 70
     3
  9
$DIMALTU
 70
     2
  9
$DIMALTTD
 70
     2
  9
$DIMTXSTY
  7
Style-WORKING
  9
$DIMAUNIT
 70
     0
  9
$DIMADEC
 70
     0
  9
$DIMALTRND
 40
0.0
  9
$DIMAZIN
 70
     3
  9
$DIMDSEP
 70
    46
  9
$DIMATFIT
 70
     1
  9
$DIMFRAC
 70
     2
  9
$DIMLDRBLK
  1

  9
$DIMLUNIT
 70
     2
  9
$DIMLWD
 70
    -2
  9
$DIMLWE
 70
    -2
  9
$DIMTMOVE
 70
     0
  9
$DIMFXL
 40
1.0
  9
$DIMFXLON
 70
     0
  9
$DIMJOGANG
 40
0.785398
  9
$DIMTFILL
 70
     0
  9
$DIMTFILLCLR
 70
     0
  9
$DIMARCSYM
 70
     0
  9
$DIMLTYPE
  6

  9
$DIMLTEX1
  6

  9
$DIMLTEX2
  6

  9
$LUNITS
 70
     2
  9
$LUPREC
 70
     4
  9
$SKETCHINC
 40
0.1
  9
$FILLETRAD
 40
0.0
  9
$AUNITS
 70
     0
  9
$AUPREC
 70
     4
  9
$MENU
  1
.
  9
$ELEVATION
 40
0.0
  9
$PELEVATION
 40
0.0
  9
$THICKNESS
 40
0.0
  9
$LIMCHECK
 70
     0
  9
$CHAMFERA
 40
0.0
  9
$CHAMFERB
 40
0.0
  9
$CHAMFERC
 40
0.0
  9
$CHAMFERD
 40
0.0
  9
$SKPOLY
 70
     0
  9
$TDCREATE
 40
2454144.486357349
  9
$TDUCREATE
 40
2454144.778024017
  9
$TDUPDATE
 40
2454144.487020359
  9
$TDUUPDATE
 40
2454144.778687026
  9
$TDINDWG
 40
0.0042666435
  9
$TDUSRTIMER
 40
0.0042657407
  9
$USRTIMER
 70
     1
  9
$ANGBASE
 50
0.0
  9
$ANGDIR
 70
     0
  9
$PDMODE
 70
     0
  9
$PDSIZE
 40
0.0
  9
$PLINEWID
 40
0.0
  9
$SPLFRAME
 70
     0
  9
$SPLINETYPE
 70
     6
  9
$SPLINESEGS
 70
     8
  9
$HANDSEED
  5
273F
  9
$SURFTAB1
 70
     6
  9
$SURFTAB2
 70
     6
  9
$SURFTYPE
 70
     6
  9
$SURFU
 70
     6
  9
$SURFV
 70
     6
  9
$UCSBASE
  2

  9
$UCSNAME
  2

  9
$UCSORG
 10
0.0
 20
0.0
 30
0.0
  9
$UCSXDIR
 10
1.0
 20
0.0
 30
0.0
  9
$UCSYDIR
 10
0.0
 20
1.0
 30
0.0
  9
$UCSORTHOREF
  2

  9
$UCSORTHOVIEW
 70
     0
  9
$UCSORGTOP
 10
0.0
 20
0.0
 30
0.0
  9
$UCSORGBOTTOM
 10
0.0
 20
0.0
 30
0.0
  9
$UCSORGLEFT
 10
0.0
 20
0.0
 30
0.0
  9
$UCSORGRIGHT
 10
0.0
 20
0.0
 30
0.0
  9
$UCSORGFRONT
 10
0.0
 20
0.0
 30
0.0
  9
$UCSORGBACK
 10
0.0
 20
0.0
 30
0.0
  9
$PUCSBASE
  2

  9
$PUCSNAME
  2

  9
$PUCSORG
 10
0.0
 20
0.0
 30
0.0
  9
$PUCSXDIR
 10
1.0
 20
0.0
 30
0.0
  9
$PUCSYDIR
 10
0.0
 20
1.0
 30
0.0
  9
$PUCSORTHOREF
  2

  9
$PUCSORTHOVIEW
 70
     0
  9
$PUCSORGTOP
 10
0.0
 20
0.0
 30
0.0
  9
$PUCSORGBOTTOM
 10
0.0
 20
0.0
 30
0.0
  9
$PUCSORGLEFT
 10
0.0
 20
0.0
 30
0.0
  9
$PUCSORGRIGHT
 10
0.0
 20
0.0
 30
0.0
  9
$PUCSORGFRONT
 10
0.0
 20
0.0
 30
0.0
  9
$PUCSORGBACK
 10
0.0
 20
0.0
 30
0.0
  9
$USERI1
 70
     0
  9
$USERI2
 70
     0
  9
$USERI3
 70
     0
  9
$USERI4
 70
     0
  9
$USERI5
 70
     0
  9
$USERR1
 40
0.0
  9
$USERR2
 40
0.0
  9
$USERR3
 40
0.0
  9
$USERR4
 40
0.0
  9
$USERR5
 40
0.0
  9
$WORLDVIEW
 70
     1
  9
$SHADEDGE
 70
     3
  9
$SHADEDIF
 70
    70
  9
$TILEMODE
 70
     1
  9
$MAXACTVP
 70
    64
  9
$PINSBASE
 10
0.0
 20
0.0
 30
0.0
  9
$PLIMCHECK
 70
     0
  9
$PEXTMIN
 10
1.049744
 20
0.799667
 30
-0.001526
  9
$PEXTMAX
 10
9.450623
 20
7.200577
 30
0.0
  9
$PLIMMIN
 10
-0.25
 20
-0.25
  9
$PLIMMAX
 10
10.75
 20
8.25
  9
$UNITMODE
 70
     0
  9
$VISRETAIN
 70
     1
  9
$PLINEGEN
 70
     0
  9
$PSLTSCALE
 70
     0
  9
$TREEDEPTH
 70
  3020
  9
$CMLSTYLE
  2
Standard
  9
$CMLJUST
 70
     0
  9
$CMLSCALE
 40
1.0
  9
$PROXYGRAPHICS
 70
     1
  9
$MEASUREMENT
 70
     0
  9
$CELWEIGHT
370
     0
  9
$ENDCAPS
280
     0
  9
$JOINSTYLE
280
     0
  9
$LWDISPLAY
290
     1
  9
$INSUNITS
 70
     1
  9
$HYPERLINKBASE
  1

  9
$STYLESHEET
  1

  9
$XEDIT
290
     1
  9
$CEPSNTYPE
380
     0
  9
$PSTYLEMODE
290
     1
  9
$FINGERPRINTGUID
  2
{647C4634-3620-47D6-AB60-A29321BAC958}
  9
$VERSIONGUID
  2
{82C521FC-BF81-46B3-825E-420B6BD93A99}
  9
$EXTNAMES
290
     1
  9
$PSVPSCALE
 40
0.0
  9
$OLESTARTUP
290
     0
  9
$SORTENTS
280
   127
  9
$INDEXCTL
280
     0
  9
$HIDETEXT
280
     1
  9
$XCLIPFRAME
290
     0
  9
$HALOGAP
280
     0
  9
$OBSCOLOR
 70
   257
  9
$OBSLTYPE
280
     0
  9
$INTERSECTIONDISPLAY
280
     0
  9
$INTERSECTIONCOLOR
 70
   257
  9
$DIMASSOC
280
     1
  9
$PROJECTNAME
  1

  9
$CAMERADISPLAY
290
     0
  9
$LENSLENGTH
 40
50.0
  9
$CAMERAHEIGHT
 40
0.0
  9
$STEPSPERSEC
 40
2.0
  9
$STEPSIZE
 40
6.0
  9
$3DDWFPREC
 40
2.0
  9
$PSOLWIDTH
 40
0.25
  9
$PSOLHEIGHT
 40
4.0
  9
$LOFTANG1
 40
1.570796
  9
$LOFTANG2
 40
1.570796
  9
$LOFTMAG1
 40
0.0
  9
$LOFTMAG2
 40
0.0
  9
$LOFTPARAM
 70
     7
  9
$LOFTNORMALS
280
     1
  9
$LATITUDE
 40
37.795
  9
$LONGITUDE
 40
-122.394
  9
$NORTHDIRECTION
 40
0.0
  9
$TIMEZONE
 70
 -8000
  9
$LIGHTGLYPHDISPLAY
280
     1
  9
$TILEMODELIGHTSYNCH
280
     1
  9
$CMATERIAL
347
11C2
  9
$SOLIDHIST
280
     1
  9
$SHOWHIST
280
     1
  9
$DWFFRAME
280
     2
  9
$DGNFRAME
280
     0
  9
$REALWORLDSCALE
290
     1
  9
$INTERFERECOLOR
 62
     1
  9
$INTERFEREOBJVS
345
11D8
  9
$INTERFEREVPVS
346
11D9
  9
$CSHADOW
280
     0
  9
$SHADOWPLANELOCATION
 40
0.0
  0
ENDSEC
  0
SECTION
  2
CLASSES
  0
CLASS
  1
ACDBDICTIONARYWDFLT
  2
AcDbDictionaryWithDefault
  3
ObjectDBX Classes
 90
        0
 91
        1
280
     0
281
     0
  0
CLASS
  1
DICTIONARYVAR
  2
AcDbDictionaryVar
  3
ObjectDBX Classes
 90
        0
 91
        7
280
     0
281
     0
  0
CLASS
  1
TABLESTYLE
  2
AcDbTableStyle
  3
ObjectDBX Classes
 90
     4095
 91
        1
280
     0
281
     0
  0
CLASS
  1
MATERIAL
  2
AcDbMaterial
  3
ObjectDBX Classes
 90
     1153
 91
        3
280
     0
281
     0
  0
CLASS
  1
VISUALSTYLE
  2
AcDbVisualStyle
  3
ObjectDBX Classes
 90
     4095
 91
       19
280
     0
281
     0
  0
CLASS
  1
SCALE
  2
AcDbScale
  3
ObjectDBX Classes
 90
     1153
 91
       33
280
     0
281
     0
  0
CLASS
  1
MLEADERSTYLE
  2
AcDbMLeaderStyle
  3
ACDB_MLEADERSTYLE_CLASS
 90
     4095
 91
        1
280
     0
281
     0
  0
CLASS
  1
SORTENTSTABLE
  2
AcDbSortentsTable
  3
ObjectDBX Classes
 90
        0
 91
        2
280
     0
281
     0
  0
CLASS
  1
CELLSTYLEMAP
  2
AcDbCellStyleMap
  3
ObjectDBX Classes
 90
     1152
 91
        2
280
     0
281
     0
  0
ENDSEC
  0
SECTION
  2
TABLES
  0
TABLE
  2
VPORT
  5
11B6
330
0
100
AcDbSymbolTable
 70
     1
  0
VPORT
  5
102
330
11B6
100
AcDbSymbolTableRecord
100
AcDbViewportTableRecord
  2
*ACTIVE
 70
     0
 10
0.0
 20
0.0
 11
1.0
 21
1.0
 12
-12.184626
 22
2.91166
 13
0.0
 23
0.0
 14
0.001
 24
0.001
 15
0.001
 25
0.001
 16
0.0
 26
0.0
 36
1.0
 17
0.0
 27
0.0
 37
0.0
 40
1.27958
 41
2.025496
 42
50.0
 43
0.0
 44
0.0
 50
0.0
 51
0.0
 71
     0
 72
   100
 73
     1
 74
     0
 75
     0
 76
     0
 77
     0
 78
     1
281
     0
 65
     1
110
0.0
120
0.0
130
0.0
111
1.0
121
0.0
131
0.0
112
0.0
122
1.0
132
0.0
 79
     0
146
0.0
348
11B8
 60
     3
 61
  1000
292
     1
282
     1
141
0.0
142
0.0
 63
   250
421
  3355443
  0
ENDTAB
  0
TABLE
  2
LTYPE
  5
11B1
330
0
100
AcDbSymbolTable
 70
     2
  0
LTYPE
  5
11B2
330
11B1
100
AcDbSymbolTableRecord
100
AcDbLinetypeTableRecord
  2
ByBlock
 70
     0
  3

 72
    65
 73
     0
 40
0.0
  0
LTYPE
  5
11B3
330
11B1
100
AcDbSymbolTableRecord
100
AcDbLinetypeTableRecord
  2
ByLayer
 70
     0
  3

 72
    65
 73
     0
 40
0.0
  0
LTYPE
  5
11A0
330
11B1
100
AcDbSymbolTableRecord
100
AcDbLinetypeTableRecord
  2
Continuous
 70
     0
  3
Solid line
 72
    65
 73
     0
 40
0.0
  0
LTYPE
  5
1288
330
11B1
100
AcDbSymbolTableRecord
100
AcDbLinetypeTableRecord
  2
DGN Style 4
 70
     0
  3
Dgn Style 4
 72
    65
 73
     4
 40
0.035067
 49
0.017522
 74
     0
 49
-0.008761
 74
     0
 49
0.000022
 74
     0
 49
-0.008761
 74
     0
  0
ENDTAB
  0
TABLE
  2
LAYER
  5
11AB
102
{ACAD_XDICTIONARY
360
11AC
102
}
330
0
100
AcDbSymbolTable
 70
   191
  0
LAYER
  5
1193
330
11AB
100
AcDbSymbolTableRecord
100
AcDbLayerTableRecord
  2
0
 70
     0
 62
     7
  6
Continuous
370
    -3
390
1194
347
1197
  0
LAYER
  5
3C
330
11AB
100
AcDbSymbolTableRecord
100
AcDbLayerTableRecord
  2
Level 1
 70
     0
 62
     7
  6
Continuous
370
     0
390
1194
347
1197
  0
LAYER
  5
3D
330
11AB
100
AcDbSymbolTableRecord
100
AcDbLayerTableRecord
  2
Level 2
 70
     0
 62
     7
  6
Continuous
370
     0
390
1194
347
1197
  0
LAYER
  5
3E
330
11AB
100
AcDbSymbolTableRecord
100
AcDbLayerTableRecord
  2
Level 3
 70
     0
 62
     7
  6
Continuous
370
     0
390
1194
347
1197
  0
LAYER
  5
3F
330
11AB
100
AcDbSymbolTableRecord
100
AcDbLayerTableRecord
  2
Level 4
 70
     0
 62
     7
  6
Continuous
370
     0
390
1194
347
1197
  0
LAYER
  5
40
330
11AB
100
AcDbSymbolTableRecord
100
AcDbLayerTableRecord
  2
Level 5
 70
     0
 62
     7
  6
Continuous
370
     0
390
1194
347
1197
  0
LAYER
  5
41
330
11AB
100
AcDbSymbolTableRecord
100
AcDbLayerTableRecord
  2
Level 6
 70
     0
 62
     7
  6
Continuous
370
     0
390
1194
347
1197
  0
LAYER
  5
42
330
11AB
100
AcDbSymbolTableRecord
100
AcDbLayerTableRecord
  2
Level 7
 70
     0
 62
     7
  6
Continuous
370
     0
390
1194
347
1197
  0
LAYER
  5
43
330
11AB
100
AcDbSymbolTableRecord
100
AcDbLayerTableRecord
  2
Level 8
 70
     0
 62
     7
  6
Continuous
370
     0
390
1194
347
1197
  0
LAYER
  5
44
330
11AB
100
AcDbSymbolTableRecord
100
AcDbLayerTableRecord
  2
Level 9
 70
     0
 62
     7
  6
Continuous
370
     0
390
1194
347
1197
  0
LAYER
  5
45
330
11AB
100
AcDbSymbolTableRecord
100
AcDbLayerTableRecord
  2
Level 10
 70
     0
 62
     7
  6
Continuous
370
     0
390
1194
347
1197
  0
LAYER
  5
46
330
11AB
100
AcDbSymbolTableRecord
100
AcDbLayerTableRecord
  2
Level 11
 70
     0
 62
     7
  6
Continuous
370
     0
390
1194
347
1197
  0
LAYER
  5
47
330
11AB
100
AcDbSymbolTableRecord
100
AcDbLayerTableRecord
  2
Level 12
 70
     0
 62
     7
  6
Continuous
370
     0
390
1194
347
1197
  0
LAYER
  5
48
330
11AB
100
AcDbSymbolTableRecord
100
AcDbLayerTableRecord
  2
Level 13
 70
     0
 62
     7
  6
Continuous
370
     0
390
1194
347
1197
  0
LAYER
  5
49
330
11AB
100
AcDbSymbolTableRecord
100
AcDbLayerTableRecord
  2
Level 14
 70
     0
 62
     7
  6
Continuous
370
     0
390
1194
347
1197
  0
LAYER
  5
4A
330
11AB
100
AcDbSymbolTableRecord
100
AcDbLayerTableRecord
  2
Level 15
 70
     0
 62
     7
  6
Continuous
370
     0
390
1194
347
1197
  0
LAYER
  5
4B
330
11AB
100
AcDbSymbolTableRecord
100
AcDbLayerTableRecord
  2
Level 16
 70
     0
 62
     7
  6
Continuous
370
     0
390
1194
347
1197
  0
LAYER
  5
4C
330
11AB
100
AcDbSymbolTableRecord
100
AcDbLayerTableRecord
  2
Level 17
 70
     0
 62
     7
  6
Continuous
370
     0
390
1194
347
1197
  0
LAYER
  5
4D
330
11AB
100
AcDbSymbolTableRecord
100
AcDbLayerTableRecord
  2
Level 18
 70
     0
 62
     7
  6
Continuous
370
     0
390
1194
347
1197
  0
LAYER
  5
4E
330
11AB
100
AcDbSymbolTableRecord
100
AcDbLayerTableRecord
  2
Level 19
 70
     0
 62
     7
  6
Continuous
370
     0
390
1194
347
1197
  0
LAYER
  5
4F
330
11AB
100
AcDbSymbolTableRecord
100
AcDbLayerTableRecord
  2
Level 20
 70
     0
 62
     7
  6
Continuous
370
     0
390
1194
347
1197
  0
LAYER
  5
50
330
11AB
100
AcDbSymbolTableRecord
100
AcDbLayerTableRecord
  2
Level 21
 70
     0
 62
     7
  6
Continuous
370
     0
390
1194
347
1197
  0
LAYER
  5
51
330
11AB
100
AcDbSymbolTableRecord
100
AcDbLayerTableRecord
  2
Level 22
 70
     0
 62
     7
  6
Continuous
370
     0
390
1194
347
1197
  0
LAYER
  5
52
330
11AB
100
AcDbSymbolTableRecord
100
AcDbLayerTableRecord
  2
Level 23
 70
     0
 62
     7
  6
Continuous
370
     0
390
1194
347
1197
  0
LAYER
  5
53
330
11AB
100
AcDbSymbolTableRecord
100
AcDbLayerTableRecord
  2
Level 24
 70
     0
 62
     7
  6
Continuous
370
     0
390
1194
347
1197
  0
LAYER
  5
54
330
11AB
100
AcDbSymbolTableRecord
100
AcDbLayerTableRecord
  2
Level 25
 70
     0
 62
     7
  6
Continuous
370
     0
390
1194
347
1197
  0
LAYER
  5
55
330
11AB
100
AcDbSymbolTableRecord
100
AcDbLayerTableRecord
  2
Level 26
 70
     0
 62
     7
  6
Continuous
370
     0
390
1194
347
1197
  0
LAYER
  5
56
330
11AB
100
AcDbSymbolTableRecord
100
AcDbLayerTableRecord
  2
Level 27
 70
     0
 62
     7
  6
Continuous
370
     0
390
1194
347
1197
  0
LAYER
  5
57
330
11AB
100
AcDbSymbolTableRecord
100
AcDbLayerTableRecord
  2
Level 28
 70
     0
 62
     7
  6
Continuous
370
     0
390
1194
347
1197
  0
LAYER
  5
58
330
11AB
100
AcDbSymbolTableRecord
100
AcDbLayerTableRecord
  2
Level 29
 70
     0
 62
     7
  6
Continuous
370
     0
390
1194
347
1197
  0
LAYER
  5
59
330
11AB
100
AcDbSymbolTableRecord
100
AcDbLayerTableRecord
  2
Level 30
 70
     0
 62
     7
  6
Continuous
370
     0
390
1194
347
1197
  0
LAYER
  5
5A
330
11AB
100
AcDbSymbolTableRecord
100
AcDbLayerTableRecord
  2
Level 31
 70
     0
 62
     7
  6
Continuous
370
     0
390
1194
347
1197
  0
LAYER
  5
5B
330
11AB
100
AcDbSymbolTableRecord
100
AcDbLayerTableRecord
  2
Level 32
 70
     0
 62
     7
  6
Continuous
370
     0
390
1194
347
1197
  0
LAYER
  5
5C
330
11AB
100
AcDbSymbolTableRecord
100
AcDbLayerTableRecord
  2
Level 33
 70
     0
 62
     7
  6
Continuous
370
     0
390
1194
347
1197
  0
LAYER
  5
5D
330
11AB
100
AcDbSymbolTableRecord
100
AcDbLayerTableRecord
  2
Level 34
 70
     0
 62
     7
  6
Continuous
370
     0
390
1194
347
1197
  0
LAYER
  5
5E
330
11AB
100
AcDbSymbolTableRecord
100
AcDbLayerTableRecord
  2
Level 35
 70
     0
 62
     7
  6
Continuous
370
     0
390
1194
347
1197
  0
LAYER
  5
5F
330
11AB
100
AcDbSymbolTableRecord
100
AcDbLayerTableRecord
  2
Level 36
 70
     0
 62
     7
  6
Continuous
370
     0
390
1194
347
1197
  0
LAYER
  5
60
330
11AB
100
AcDbSymbolTableRecord
100
AcDbLayerTableRecord
  2
Level 37
 70
     0
 62
     7
  6
Continuous
370
     0
390
1194
347
1197
  0
LAYER
  5
61
330
11AB
100
AcDbSymbolTableRecord
100
AcDbLayerTableRecord
  2
Level 38
 70
     0
 62
     7
  6
Continuous
370
     0
390
1194
347
1197
  0
LAYER
  5
62
330
11AB
100
AcDbSymbolTableRecord
100
AcDbLayerTableRecord
  2
Level 39
 70
     0
 62
     7
  6
Continuous
370
     0
390
1194
347
1197
  0
LAYER
  5
63
330
11AB
100
AcDbSymbolTableRecord
100
AcDbLayerTableRecord
  2
Level 40
 70
     0
 62
     7
  6
Continuous
370
     0
390
1194
347
1197
  0
LAYER
  5
64
330
11AB
100
AcDbSymbolTableRecord
100
AcDbLayerTableRecord
  2
Level 41
 70
     0
 62
     7
  6
Continuous
370
     0
390
1194
347
1197
  0
LAYER
  5
65
330
11AB
100
AcDbSymbolTableRecord
100
AcDbLayerTableRecord
  2
Level 42
 70
     0
 62
     7
  6
Continuous
370
     0
390
1194
347
1197
  0
LAYER
  5
66
330
11AB
100
AcDbSymbolTableRecord
100
AcDbLayerTableRecord
  2
Level 43
 70
     0
 62
     7
  6
Continuous
370
     0
390
1194
347
1197
  0
LAYER
  5
67
330
11AB
100
AcDbSymbolTableRecord
100
AcDbLayerTableRecord
  2
Level 44
 70
     0
 62
     7
  6
Continuous
370
     0
390
1194
347
1197
  0
LAYER
  5
68
330
11AB
100
AcDbSymbolTableRecord
100
AcDbLayerTableRecord
  2
Level 45
 70
     0
 62
     7
  6
Continuous
370
     0
390
1194
347
1197
  0
LAYER
  5
69
330
11AB
100
AcDbSymbolTableRecord
100
AcDbLayerTableRecord
  2
Level 46
 70
     0
 62
     7
  6
Continuous
370
     0
390
1194
347
1197
  0
LAYER
  5
6A
330
11AB
100
AcDbSymbolTableRecord
100
AcDbLayerTableRecord
  2
Level 47
 70
     0
 62
     7
  6
Continuous
370
     0
390
1194
347
1197
  0
LAYER
  5
6B
330
11AB
100
AcDbSymbolTableRecord
100
AcDbLayerTableRecord
  2
Level 48
 70
     0
 62
     7
  6
Continuous
370
     0
390
1194
347
1197
  0
LAYER
  5
6C
330
11AB
100
AcDbSymbolTableRecord
100
AcDbLayerTableRecord
  2
Level 49
 70
     0
 62
     7
  6
Continuous
370
     0
390
1194
347
1197
  0
LAYER
  5
6D
330
11AB
100
AcDbSymbolTableRecord
100
AcDbLayerTableRecord
  2
Level 50
 70
     0
 62
     7
  6
Continuous
370
     0
390
1194
347
1197
  0
LAYER
  5
6E
330
11AB
100
AcDbSymbolTableRecord
100
AcDbLayerTableRecord
  2
Level 51
 70
     0
 62
     7
  6
Continuous
370
     0
390
1194
347
1197
  0
LAYER
  5
6F
330
11AB
100
AcDbSymbolTableRecord
100
AcDbLayerTableRecord
  2
Level 52
 70
     0
 62
     7
  6
Continuous
370
     0
390
1194
347
1197
  0
LAYER
  5
70
330
11AB
100
AcDbSymbolTableRecord
100
AcDbLayerTableRecord
  2
Level 53
 70
     0
 62
     7
  6
Continuous
370
     0
390
1194
347
1197
  0
LAYER
  5
71
330
11AB
100
AcDbSymbolTableRecord
100
AcDbLayerTableRecord
  2
Level 54
 70
     0
 62
     7
  6
Continuous
370
     0
390
1194
347
1197
  0
LAYER
  5
72
330
11AB
100
AcDbSymbolTableRecord
100
AcDbLayerTableRecord
  2
Level 55
 70
     0
 62
     7
  6
Continuous
370
     0
390
1194
347
1197
  0
LAYER
  5
73
330
11AB
100
AcDbSymbolTableRecord
100
AcDbLayerTableRecord
  2
Level 56
 70
     0
 62
     7
  6
Continuous
370
     0
390
1194
347
1197
  0
LAYER
  5
74
330
11AB
100
AcDbSymbolTableRecord
100
AcDbLayerTableRecord
  2
Level 57
 70
     0
 62
     7
  6
Continuous
370
     0
390
1194
347
1197
  0
LAYER
  5
75
330
11AB
100
AcDbSymbolTableRecord
100
AcDbLayerTableRecord
  2
Level 58
 70
     0
 62
     7
  6
Continuous
370
     0
390
1194
347
1197
  0
LAYER
  5
76
330
11AB
100
AcDbSymbolTableRecord
100
AcDbLayerTableRecord
  2
Level 59
 70
     0
 62
     7
  6
Continuous
370
     0
390
1194
347
1197
  0
LAYER
  5
77
330
11AB
100
AcDbSymbolTableRecord
100
AcDbLayerTableRecord
  2
Level 60
 70
     0
 62
     7
  6
Continuous
370
     0
390
1194
347
1197
  0
LAYER
  5
78
330
11AB
100
AcDbSymbolTableRecord
100
AcDbLayerTableRecord
  2
Level 61
 70
     0
 62
     7
  6
Continuous
370
     0
390
1194
347
1197
  0
LAYER
  5
79
330
11AB
100
AcDbSymbolTableRecord
100
AcDbLayerTableRecord
  2
Level 62
 70
     0
 62
     7
  6
Continuous
370
     0
390
1194
347
1197
  0
LAYER
  5
7A
330
11AB
100
AcDbSymbolTableRecord
100
AcDbLayerTableRecord
  2
Level 63
 70
     0
 62
     7
  6
Continuous
370
     0
390
1194
347
1197
  0
LAYER
  5
1200
330
11AB
100
AcDbSymbolTableRecord
100
AcDbLayerTableRecord
  2
umiborder|Level 1
 70
    16
 62
     7
  6
Continuous
370
     0
390
1194
347
1197
  0
LAYER
  5
1201
330
11AB
100
AcDbSymbolTableRecord
100
AcDbLayerTableRecord
  2
umiborder|Level 2
 70
    16
 62
     7
  6
Continuous
370
     0
390
1194
347
1197
  0
LAYER
  5
1202
330
11AB
100
AcDbSymbolTableRecord
100
AcDbLayerTableRecord
  2
umiborder|Level 3
 70
    16
 62
     7
  6
Continuous
370
     0
390
1194
347
1197
  0
LAYER
  5
1203
330
11AB
100
AcDbSymbolTableRecord
100
AcDbLayerTableRecord
  2
umiborder|Level 4
 70
    16
 62
     7
  6
Continuous
370
     0
390
1194
347
1197
  0
LAYER
  5
1204
330
11AB
100
AcDbSymbolTableRecord
100
AcDbLayerTableRecord
  2
umiborder|Level 5
 70
    16
 62
     7
  6
Continuous
370
     0
390
1194
347
1197
  0
LAYER
  5
1205
330
11AB
100
AcDbSymbolTableRecord
100
AcDbLayerTableRecord
  2
umiborder|Level 6
 70
    16
 62
     7
  6
Continuous
370
     0
390
1194
347
1197
  0
LAYER
  5
1206
330
11AB
100
AcDbSymbolTableRecord
100
AcDbLayerTableRecord
  2
umiborder|Level 7
 70
    16
 62
     7
  6
Continuous
370
     0
390
1194
347
1197
  0
LAYER
  5
1207
330
11AB
100
AcDbSymbolTableRecord
100
AcDbLayerTableRecord
  2
umiborder|Level 8
 70
    16
 62
     7
  6
Continuous
370
     0
390
1194
347
1197
  0
LAYER
  5
1208
330
11AB
100
AcDbSymbolTableRecord
100
AcDbLayerTableRecord
  2
umiborder|Level 9
 70
    16
 62
     7
  6
Continuous
370
     0
390
1194
347
1197
  0
LAYER
  5
1209
330
11AB
100
AcDbSymbolTableRecord
100
AcDbLayerTableRecord
  2
umiborder|Level 10
 70
    16
 62
     7
  6
Continuous
370
     0
390
1194
347
1197
  0
LAYER
  5
120A
330
11AB
100
AcDbSymbolTableRecord
100
AcDbLayerTableRecord
  2
umiborder|Level 11
 70
    16
 62
     7
  6
Continuous
370
     0
390
1194
347
1197
  0
LAYER
  5
120B
330
11AB
100
AcDbSymbolTableRecord
100
AcDbLayerTableRecord
  2
umiborder|Level 12
 70
    16
 62
     7
  6
Continuous
370
     0
390
1194
347
1197
  0
LAYER
  5
120C
330
11AB
100
AcDbSymbolTableRecord
100
AcDbLayerTableRecord
  2
umiborder|Level 13
 70
    16
 62
     7
  6
Continuous
370
     0
390
1194
347
1197
  0
LAYER
  5
120D
330
11AB
100
AcDbSymbolTableRecord
100
AcDbLayerTableRecord
  2
umiborder|Level 14
 70
    16
 62
     7
  6
Continuous
370
     0
390
1194
347
1197
  0
LAYER
  5
120E
330
11AB
100
AcDbSymbolTableRecord
100
AcDbLayerTableRecord
  2
umiborder|Level 15
 70
    16
 62
     7
  6
Continuous
370
     0
390
1194
347
1197
  0
LAYER
  5
120F
330
11AB
100
AcDbSymbolTableRecord
100
AcDbLayerTableRecord
  2
umiborder|Level 16
 70
    16
 62
     7
  6
Continuous
370
     0
390
1194
347
1197
  0
LAYER
  5
1210
330
11AB
100
AcDbSymbolTableRecord
100
AcDbLayerTableRecord
  2
umiborder|Level 17
 70
    16
 62
     7
  6
Continuous
370
     0
390
1194
347
1197
  0
LAYER
  5
1211
330
11AB
100
AcDbSymbolTableRecord
100
AcDbLayerTableRecord
  2
umiborder|Level 18
 70
    16
 62
     7
  6
Continuous
370
     0
390
1194
347
1197
  0
LAYER
  5
1212
330
11AB
100
AcDbSymbolTableRecord
100
AcDbLayerTableRecord
  2
umiborder|Level 19
 70
    16
 62
     7
  6
Continuous
370
     0
390
1194
347
1197
  0
LAYER
  5
1213
330
11AB
100
AcDbSymbolTableRecord
100
AcDbLayerTableRecord
  2
umiborder|Level 20
 70
    16
 62
     7
  6
Continuous
370
     0
390
1194
347
1197
  0
LAYER
  5
1214
330
11AB
100
AcDbSymbolTableRecord
100
AcDbLayerTableRecord
  2
umiborder|Level 21
 70
    16
 62
     7
  6
Continuous
370
     0
390
1194
347
1197
  0
LAYER
  5
1215
330
11AB
100
AcDbSymbolTableRecord
100
AcDbLayerTableRecord
  2
umiborder|Level 22
 70
    16
 62
     7
  6
Continuous
370
     0
390
1194
347
1197
  0
LAYER
  5
1216
330
11AB
100
AcDbSymbolTableRecord
100
AcDbLayerTableRecord
  2
umiborder|Level 23
 70
    16
 62
     7
  6
Continuous
370
     0
390
1194
347
1197
  0
LAYER
  5
1217
330
11AB
100
AcDbSymbolTableRecord
100
AcDbLayerTableRecord
  2
umiborder|Level 24
 70
    16
 62
     7
  6
Continuous
370
     0
390
1194
347
1197
  0
LAYER
  5
1218
330
11AB
100
AcDbSymbolTableRecord
100
AcDbLayerTableRecord
  2
umiborder|Level 25
 70
    16
 62
     7
  6
Continuous
370
     0
390
1194
347
1197
  0
LAYER
  5
1219
330
11AB
100
AcDbSymbolTableRecord
100
AcDbLayerTableRecord
  2
umiborder|Level 26
 70
    16
 62
     7
  6
Continuous
370
     0
390
1194
347
1197
  0
LAYER
  5
121A
330
11AB
100
AcDbSymbolTableRecord
100
AcDbLayerTableRecord
  2
umiborder|Level 27
 70
    16
 62
     7
  6
Continuous
370
     0
390
1194
347
1197
  0
LAYER
  5
121B
330
11AB
100
AcDbSymbolTableRecord
100
AcDbLayerTableRecord
  2
umiborder|Level 28
 70
    16
 62
     7
  6
Continuous
370
     0
390
1194
347
1197
  0
LAYER
  5
121C
330
11AB
100
AcDbSymbolTableRecord
100
AcDbLayerTableRecord
  2
umiborder|Level 29
 70
    16
 62
     7
  6
Continuous
370
     0
390
1194
347
1197
  0
LAYER
  5
121D
330
11AB
100
AcDbSymbolTableRecord
100
AcDbLayerTableRecord
  2
umiborder|Level 30
 70
    16
 62
     7
  6
Continuous
370
     0
390
1194
347
1197
  0
LAYER
  5
121E
330
11AB
100
AcDbSymbolTableRecord
100
AcDbLayerTableRecord
  2
umiborder|Level 31
 70
    16
 62
     7
  6
Continuous
370
     0
390
1194
347
1197
  0
LAYER
  5
121F
330
11AB
100
AcDbSymbolTableRecord
100
AcDbLayerTableRecord
  2
umiborder|Level 32
 70
    16
 62
     7
  6
Continuous
370
     0
390
1194
347
1197
  0
LAYER
  5
1220
330
11AB
100
AcDbSymbolTableRecord
100
AcDbLayerTableRecord
  2
umiborder|Level 33
 70
    16
 62
     7
  6
Continuous
370
     0
390
1194
347
1197
  0
LAYER
  5
1221
330
11AB
100
AcDbSymbolTableRecord
100
AcDbLayerTableRecord
  2
umiborder|Level 34
 70
    16
 62
     7
  6
Continuous
370
     0
390
1194
347
1197
  0
LAYER
  5
1222
330
11AB
100
AcDbSymbolTableRecord
100
AcDbLayerTableRecord
  2
umiborder|Level 35
 70
    16
 62
     7
  6
Continuous
370
     0
390
1194
347
1197
  0
LAYER
  5
1223
330
11AB
100
AcDbSymbolTableRecord
100
AcDbLayerTableRecord
  2
umiborder|Level 36
 70
    16
 62
     7
  6
Continuous
370
     0
390
1194
347
1197
  0
LAYER
  5
1224
330
11AB
100
AcDbSymbolTableRecord
100
AcDbLayerTableRecord
  2
umiborder|Level 37
 70
    16
 62
     7
  6
Continuous
370
     0
390
1194
347
1197
  0
LAYER
  5
1225
330
11AB
100
AcDbSymbolTableRecord
100
AcDbLayerTableRecord
  2
umiborder|Level 38
 70
    16
 62
     7
  6
Continuous
370
     0
390
1194
347
1197
  0
LAYER
  5
1226
330
11AB
100
AcDbSymbolTableRecord
100
AcDbLayerTableRecord
  2
umiborder|Level 39
 70
    16
 62
     7
  6
Continuous
370
     0
390
1194
347
1197
  0
LAYER
  5
1227
330
11AB
100
AcDbSymbolTableRecord
100
AcDbLayerTableRecord
  2
umiborder|Level 40
 70
    16
 62
     7
  6
Continuous
370
     0
390
1194
347
1197
  0
LAYER
  5
1228
330
11AB
100
AcDbSymbolTableRecord
100
AcDbLayerTableRecord
  2
umiborder|Level 41
 70
    16
 62
     7
  6
Continuous
370
     0
390
1194
347
1197
  0
LAYER
  5
1229
330
11AB
100
AcDbSymbolTableRecord
100
AcDbLayerTableRecord
  2
umiborder|Level 42
 70
    16
 62
     7
  6
Continuous
370
     0
390
1194
347
1197
  0
LAYER
  5
122A
330
11AB
100
AcDbSymbolTableRecord
100
AcDbLayerTableRecord
  2
umiborder|Level 43
 70
    16
 62
     7
  6
Continuous
370
     0
390
1194
347
1197
  0
LAYER
  5
122B
330
11AB
100
AcDbSymbolTableRecord
100
AcDbLayerTableRecord
  2
umiborder|Level 44
 70
    16
 62
     7
  6
Continuous
370
     0
390
1194
347
1197
  0
LAYER
  5
122C
330
11AB
100
AcDbSymbolTableRecord
100
AcDbLayerTableRecord
  2
umiborder|Level 45
 70
    16
 62
     7
  6
Continuous
370
     0
390
1194
347
1197
  0
LAYER
  5
122D
330
11AB
100
AcDbSymbolTableRecord
100
AcDbLayerTableRecord
  2
umiborder|Level 46
 70
    16
 62
     7
  6
Continuous
370
     0
390
1194
347
1197
  0
LAYER
  5
122E
330
11AB
100
AcDbSymbolTableRecord
100
AcDbLayerTableRecord
  2
umiborder|Level 47
 70
    16
 62
     7
  6
Continuous
370
     0
390
1194
347
1197
  0
LAYER
  5
122F
330
11AB
100
AcDbSymbolTableRecord
100
AcDbLayerTableRecord
  2
umiborder|Level 48
 70
    16
 62
     7
  6
Continuous
370
     0
390
1194
347
1197
  0
LAYER
  5
1230
330
11AB
100
AcDbSymbolTableRecord
100
AcDbLayerTableRecord
  2
umiborder|Level 49
 70
    16
 62
     7
  6
Continuous
370
     0
390
1194
347
1197
  0
LAYER
  5
1231
330
11AB
100
AcDbSymbolTableRecord
100
AcDbLayerTableRecord
  2
umiborder|Level 50
 70
    16
 62
     7
  6
Continuous
370
     0
390
1194
347
1197
  0
LAYER
  5
1232
330
11AB
100
AcDbSymbolTableRecord
100
AcDbLayerTableRecord
  2
umiborder|Level 51
 70
    16
 62
     7
  6
Continuous
370
     0
390
1194
347
1197
  0
LAYER
  5
1233
330
11AB
100
AcDbSymbolTableRecord
100
AcDbLayerTableRecord
  2
umiborder|Level 52
 70
    16
 62
     7
  6
Continuous
370
     0
390
1194
347
1197
  0
LAYER
  5
1234
330
11AB
100
AcDbSymbolTableRecord
100
AcDbLayerTableRecord
  2
umiborder|Level 53
 70
    16
 62
     7
  6
Continuous
370
     0
390
1194
347
1197
  0
LAYER
  5
1235
330
11AB
100
AcDbSymbolTableRecord
100
AcDbLayerTableRecord
  2
umiborder|Level 54
 70
    16
 62
     7
  6
Continuous
370
     0
390
1194
347
1197
  0
LAYER
  5
1236
330
11AB
100
AcDbSymbolTableRecord
100
AcDbLayerTableRecord
  2
umiborder|Level 55
 70
    16
 62
     7
  6
Continuous
370
     0
390
1194
347
1197
  0
LAYER
  5
1237
330
11AB
100
AcDbSymbolTableRecord
100
AcDbLayerTableRecord
  2
umiborder|Level 56
 70
    16
 62
     7
  6
Continuous
370
     0
390
1194
347
1197
  0
LAYER
  5
1238
330
11AB
100
AcDbSymbolTableRecord
100
AcDbLayerTableRecord
  2
umiborder|Level 57
 70
    16
 62
     7
  6
Continuous
370
     0
390
1194
347
1197
  0
LAYER
  5
1239
330
11AB
100
AcDbSymbolTableRecord
100
AcDbLayerTableRecord
  2
umiborder|Level 58
 70
    16
 62
     7
  6
Continuous
370
     0
390
1194
347
1197
  0
LAYER
  5
123A
330
11AB
100
AcDbSymbolTableRecord
100
AcDbLayerTableRecord
  2
umiborder|Level 59
 70
    16
 62
     7
  6
Continuous
370
     0
390
1194
347
1197
  0
LAYER
  5
123B
330
11AB
100
AcDbSymbolTableRecord
100
AcDbLayerTableRecord
  2
umiborder|Level 60
 70
    16
 62
     7
  6
Continuous
370
     0
390
1194
347
1197
  0
LAYER
  5
123C
330
11AB
100
AcDbSymbolTableRecord
100
AcDbLayerTableRecord
  2
umiborder|Level 61
 70
    16
 62
     7
  6
Continuous
370
     0
390
1194
347
1197
  0
LAYER
  5
123D
330
11AB
100
AcDbSymbolTableRecord
100
AcDbLayerTableRecord
  2
umiborder|Level 62
 70
    16
 62
     7
  6
Continuous
370
     0
390
1194
347
1197
  0
LAYER
  5
123E
330
11AB
100
AcDbSymbolTableRecord
100
AcDbLayerTableRecord
  2
umiborder|Level 63
 70
    16
 62
     7
  6
Continuous
370
     0
390
1194
347
1197
  0
LAYER
  5
1242
330
11AB
100
AcDbSymbolTableRecord
100
AcDbLayerTableRecord
  2
Style 1  PCB layouts|Level 1
 70
    16
 62
     7
  6
Continuous
370
     0
390
1194
347
1197
  0
LAYER
  5
1243
330
11AB
100
AcDbSymbolTableRecord
100
AcDbLayerTableRecord
  2
Style 1  PCB layouts|Level 2
 70
    16
 62
     7
  6
Continuous
370
     0
390
1194
347
1197
  0
LAYER
  5
1244
330
11AB
100
AcDbSymbolTableRecord
100
AcDbLayerTableRecord
  2
Style 1  PCB layouts|Level 3
 70
    16
 62
     7
  6
Continuous
370
     0
390
1194
347
1197
  0
LAYER
  5
1245
330
11AB
100
AcDbSymbolTableRecord
100
AcDbLayerTableRecord
  2
Style 1  PCB layouts|Level 4
 70
    16
 62
     7
  6
Continuous
370
     0
390
1194
347
1197
  0
LAYER
  5
1246
330
11AB
100
AcDbSymbolTableRecord
100
AcDbLayerTableRecord
  2
Style 1  PCB layouts|Level 5
 70
    16
 62
     7
  6
Continuous
370
     0
390
1194
347
1197
  0
LAYER
  5
1247
330
11AB
100
AcDbSymbolTableRecord
100
AcDbLayerTableRecord
  2
Style 1  PCB layouts|Level 6
 70
    16
 62
     7
  6
Continuous
370
     0
390
1194
347
1197
  0
LAYER
  5
1248
330
11AB
100
AcDbSymbolTableRecord
100
AcDbLayerTableRecord
  2
Style 1  PCB layouts|Level 7
 70
    16
 62
     7
  6
Continuous
370
     0
390
1194
347
1197
  0
LAYER
  5
1249
330
11AB
100
AcDbSymbolTableRecord
100
AcDbLayerTableRecord
  2
Style 1  PCB layouts|Level 8
 70
    16
 62
     7
  6
Continuous
370
     0
390
1194
347
1197
  0
LAYER
  5
124A
330
11AB
100
AcDbSymbolTableRecord
100
AcDbLayerTableRecord
  2
Style 1  PCB layouts|Level 9
 70
    16
 62
     7
  6
Continuous
370
     0
390
1194
347
1197
  0
LAYER
  5
124B
330
11AB
100
AcDbSymbolTableRecord
100
AcDbLayerTableRecord
  2
Style 1  PCB layouts|Level 10
 70
    16
 62
     7
  6
Continuous
370
     0
390
1194
347
1197
  0
LAYER
  5
124C
330
11AB
100
AcDbSymbolTableRecord
100
AcDbLayerTableRecord
  2
Style 1  PCB layouts|Level 11
 70
    16
 62
     7
  6
Continuous
370
     0
390
1194
347
1197
  0
LAYER
  5
124D
330
11AB
100
AcDbSymbolTableRecord
100
AcDbLayerTableRecord
  2
Style 1  PCB layouts|Level 12
 70
    16
 62
     7
  6
Continuous
370
     0
390
1194
347
1197
  0
LAYER
  5
124E
330
11AB
100
AcDbSymbolTableRecord
100
AcDbLayerTableRecord
  2
Style 1  PCB layouts|Level 13
 70
    16
 62
     7
  6
Continuous
370
     0
390
1194
347
1197
  0
LAYER
  5
124F
330
11AB
100
AcDbSymbolTableRecord
100
AcDbLayerTableRecord
  2
Style 1  PCB layouts|Level 14
 70
    16
 62
     7
  6
Continuous
370
     0
390
1194
347
1197
  0
LAYER
  5
1250
330
11AB
100
AcDbSymbolTableRecord
100
AcDbLayerTableRecord
  2
Style 1  PCB layouts|Level 15
 70
    16
 62
     7
  6
Continuous
370
     0
390
1194
347
1197
  0
LAYER
  5
1251
330
11AB
100
AcDbSymbolTableRecord
100
AcDbLayerTableRecord
  2
Style 1  PCB layouts|Level 16
 70
    16
 62
     7
  6
Continuous
370
     0
390
1194
347
1197
  0
LAYER
  5
1252
330
11AB
100
AcDbSymbolTableRecord
100
AcDbLayerTableRecord
  2
Style 1  PCB layouts|Level 17
 70
    16
 62
     7
  6
Continuous
370
     0
390
1194
347
1197
  0
LAYER
  5
1253
330
11AB
100
AcDbSymbolTableRecord
100
AcDbLayerTableRecord
  2
Style 1  PCB layouts|Level 18
 70
    16
 62
     7
  6
Continuous
370
     0
390
1194
347
1197
  0
LAYER
  5
1254
330
11AB
100
AcDbSymbolTableRecord
100
AcDbLayerTableRecord
  2
Style 1  PCB layouts|Level 19
 70
    16
 62
     7
  6
Continuous
370
     0
390
1194
347
1197
  0
LAYER
  5
1255
330
11AB
100
AcDbSymbolTableRecord
100
AcDbLayerTableRecord
  2
Style 1  PCB layouts|Level 20
 70
    16
 62
     7
  6
Continuous
370
     0
390
1194
347
1197
  0
LAYER
  5
1256
330
11AB
100
AcDbSymbolTableRecord
100
AcDbLayerTableRecord
  2
Style 1  PCB layouts|Level 21
 70
    16
 62
     7
  6
Continuous
370
     0
390
1194
347
1197
  0
LAYER
  5
1257
330
11AB
100
AcDbSymbolTableRecord
100
AcDbLayerTableRecord
  2
Style 1  PCB layouts|Level 22
 70
    16
 62
     7
  6
Continuous
370
     0
390
1194
347
1197
  0
LAYER
  5
1258
330
11AB
100
AcDbSymbolTableRecord
100
AcDbLayerTableRecord
  2
Style 1  PCB layouts|Level 23
 70
    16
 62
     7
  6
Continuous
370
     0
390
1194
347
1197
  0
LAYER
  5
1259
330
11AB
100
AcDbSymbolTableRecord
100
AcDbLayerTableRecord
  2
Style 1  PCB layouts|Level 24
 70
    16
 62
     7
  6
Continuous
370
     0
390
1194
347
1197
  0
LAYER
  5
125A
330
11AB
100
AcDbSymbolTableRecord
100
AcDbLayerTableRecord
  2
Style 1  PCB layouts|Level 25
 70
    16
 62
     7
  6
Continuous
370
     0
390
1194
347
1197
  0
LAYER
  5
125B
330
11AB
100
AcDbSymbolTableRecord
100
AcDbLayerTableRecord
  2
Style 1  PCB layouts|Level 26
 70
    16
 62
     7
  6
Continuous
370
     0
390
1194
347
1197
  0
LAYER
  5
125C
330
11AB
100
AcDbSymbolTableRecord
100
AcDbLayerTableRecord
  2
Style 1  PCB layouts|Level 27
 70
    16
 62
     7
  6
Continuous
370
     0
390
1194
347
1197
  0
LAYER
  5
125D
330
11AB
100
AcDbSymbolTableRecord
100
AcDbLayerTableRecord
  2
Style 1  PCB layouts|Level 28
 70
    16
 62
     7
  6
Continuous
370
     0
390
1194
347
1197
  0
LAYER
  5
125E
330
11AB
100
AcDbSymbolTableRecord
100
AcDbLayerTableRecord
  2
Style 1  PCB layouts|Level 29
 70
    16
 62
     7
  6
Continuous
370
     0
390
1194
347
1197
  0
LAYER
  5
125F
330
11AB
100
AcDbSymbolTableRecord
100
AcDbLayerTableRecord
  2
Style 1  PCB layouts|Level 30
 70
    16
 62
     7
  6
Continuous
370
     0
390
1194
347
1197
  0
LAYER
  5
1260
330
11AB
100
AcDbSymbolTableRecord
100
AcDbLayerTableRecord
  2
Style 1  PCB layouts|Level 31
 70
    16
 62
     7
  6
Continuous
370
     0
390
1194
347
1197
  0
LAYER
  5
1261
330
11AB
100
AcDbSymbolTableRecord
100
AcDbLayerTableRecord
  2
Style 1  PCB layouts|Level 32
 70
    16
 62
     7
  6
Continuous
370
     0
390
1194
347
1197
  0
LAYER
  5
1262
330
11AB
100
AcDbSymbolTableRecord
100
AcDbLayerTableRecord
  2
Style 1  PCB layouts|Level 33
 70
    16
 62
     7
  6
Continuous
370
     0
390
1194
347
1197
  0
LAYER
  5
1263
330
11AB
100
AcDbSymbolTableRecord
100
AcDbLayerTableRecord
  2
Style 1  PCB layouts|Level 34
 70
    16
 62
     7
  6
Continuous
370
     0
390
1194
347
1197
  0
LAYER
  5
1264
330
11AB
100
AcDbSymbolTableRecord
100
AcDbLayerTableRecord
  2
Style 1  PCB layouts|Level 35
 70
    16
 62
     7
  6
Continuous
370
     0
390
1194
347
1197
  0
LAYER
  5
1265
330
11AB
100
AcDbSymbolTableRecord
100
AcDbLayerTableRecord
  2
Style 1  PCB layouts|Level 36
 70
    16
 62
     7
  6
Continuous
370
     0
390
1194
347
1197
  0
LAYER
  5
1266
330
11AB
100
AcDbSymbolTableRecord
100
AcDbLayerTableRecord
  2
Style 1  PCB layouts|Level 37
 70
    16
 62
     7
  6
Continuous
370
     0
390
1194
347
1197
  0
LAYER
  5
1267
330
11AB
100
AcDbSymbolTableRecord
100
AcDbLayerTableRecord
  2
Style 1  PCB layouts|Level 38
 70
    16
 62
     7
  6
Continuous
370
     0
390
1194
347
1197
  0
LAYER
  5
1268
330
11AB
100
AcDbSymbolTableRecord
100
AcDbLayerTableRecord
  2
Style 1  PCB layouts|Level 39
 70
    16
 62
     7
  6
Continuous
370
     0
390
1194
347
1197
  0
LAYER
  5
1269
330
11AB
100
AcDbSymbolTableRecord
100
AcDbLayerTableRecord
  2
Style 1  PCB layouts|Level 40
 70
    16
 62
     7
  6
Continuous
370
     0
390
1194
347
1197
  0
LAYER
  5
126A
330
11AB
100
AcDbSymbolTableRecord
100
AcDbLayerTableRecord
  2
Style 1  PCB layouts|Level 41
 70
    16
 62
     7
  6
Continuous
370
     0
390
1194
347
1197
  0
LAYER
  5
126B
330
11AB
100
AcDbSymbolTableRecord
100
AcDbLayerTableRecord
  2
Style 1  PCB layouts|Level 42
 70
    16
 62
     7
  6
Continuous
370
     0
390
1194
347
1197
  0
LAYER
  5
126C
330
11AB
100
AcDbSymbolTableRecord
100
AcDbLayerTableRecord
  2
Style 1  PCB layouts|Level 43
 70
    16
 62
     7
  6
Continuous
370
     0
390
1194
347
1197
  0
LAYER
  5
126D
330
11AB
100
AcDbSymbolTableRecord
100
AcDbLayerTableRecord
  2
Style 1  PCB layouts|Level 44
 70
    16
 62
     7
  6
Continuous
370
     0
390
1194
347
1197
  0
LAYER
  5
126E
330
11AB
100
AcDbSymbolTableRecord
100
AcDbLayerTableRecord
  2
Style 1  PCB layouts|Level 45
 70
    16
 62
     7
  6
Continuous
370
     0
390
1194
347
1197
  0
LAYER
  5
126F
330
11AB
100
AcDbSymbolTableRecord
100
AcDbLayerTableRecord
  2
Style 1  PCB layouts|Level 46
 70
    16
 62
     7
  6
Continuous
370
     0
390
1194
347
1197
  0
LAYER
  5
1270
330
11AB
100
AcDbSymbolTableRecord
100
AcDbLayerTableRecord
  2
Style 1  PCB layouts|Level 47
 70
    16
 62
     7
  6
Continuous
370
     0
390
1194
347
1197
  0
LAYER
  5
1271
330
11AB
100
AcDbSymbolTableRecord
100
AcDbLayerTableRecord
  2
Style 1  PCB layouts|Level 48
 70
    16
 62
     7
  6
Continuous
370
     0
390
1194
347
1197
  0
LAYER
  5
1272
330
11AB
100
AcDbSymbolTableRecord
100
AcDbLayerTableRecord
  2
Style 1  PCB layouts|Level 49
 70
    16
 62
     7
  6
Continuous
370
     0
390
1194
347
1197
  0
LAYER
  5
1273
330
11AB
100
AcDbSymbolTableRecord
100
AcDbLayerTableRecord
  2
Style 1  PCB layouts|Level 50
 70
    16
 62
     7
  6
Continuous
370
     0
390
1194
347
1197
  0
LAYER
  5
1274
330
11AB
100
AcDbSymbolTableRecord
100
AcDbLayerTableRecord
  2
Style 1  PCB layouts|Level 51
 70
    16
 62
     7
  6
Continuous
370
     0
390
1194
347
1197
  0
LAYER
  5
1275
330
11AB
100
AcDbSymbolTableRecord
100
AcDbLayerTableRecord
  2
Style 1  PCB layouts|Level 52
 70
    16
 62
     7
  6
Continuous
370
     0
390
1194
347
1197
  0
LAYER
  5
1276
330
11AB
100
AcDbSymbolTableRecord
100
AcDbLayerTableRecord
  2
Style 1  PCB layouts|Level 53
 70
    16
 62
     7
  6
Continuous
370
     0
390
1194
347
1197
  0
LAYER
  5
1277
330
11AB
100
AcDbSymbolTableRecord
100
AcDbLayerTableRecord
  2
Style 1  PCB layouts|Level 54
 70
    16
 62
     7
  6
Continuous
370
     0
390
1194
347
1197
  0
LAYER
  5
1278
330
11AB
100
AcDbSymbolTableRecord
100
AcDbLayerTableRecord
  2
Style 1  PCB layouts|Level 55
 70
    16
 62
     7
  6
Continuous
370
     0
390
1194
347
1197
  0
LAYER
  5
1279
330
11AB
100
AcDbSymbolTableRecord
100
AcDbLayerTableRecord
  2
Style 1  PCB layouts|Level 56
 70
    16
 62
     7
  6
Continuous
370
     0
390
1194
347
1197
  0
LAYER
  5
127A
330
11AB
100
AcDbSymbolTableRecord
100
AcDbLayerTableRecord
  2
Style 1  PCB layouts|Level 57
 70
    16
 62
     7
  6
Continuous
370
     0
390
1194
347
1197
  0
LAYER
  5
127B
330
11AB
100
AcDbSymbolTableRecord
100
AcDbLayerTableRecord
  2
Style 1  PCB layouts|Level 58
 70
    16
 62
     7
  6
Continuous
370
     0
390
1194
347
1197
  0
LAYER
  5
127C
330
11AB
100
AcDbSymbolTableRecord
100
AcDbLayerTableRecord
  2
Style 1  PCB layouts|Level 59
 70
    16
 62
     7
  6
Continuous
370
     0
390
1194
347
1197
  0
LAYER
  5
127D
330
11AB
100
AcDbSymbolTableRecord
100
AcDbLayerTableRecord
  2
Style 1  PCB layouts|Level 60
 70
    16
 62
     7
  6
Continuous
370
     0
390
1194
347
1197
  0
LAYER
  5
127E
330
11AB
100
AcDbSymbolTableRecord
100
AcDbLayerTableRecord
  2
Style 1  PCB layouts|Level 61
 70
    16
 62
     7
  6
Continuous
370
     0
390
1194
347
1197
  0
LAYER
  5
127F
330
11AB
100
AcDbSymbolTableRecord
100
AcDbLayerTableRecord
  2
Style 1  PCB layouts|Level 62
 70
    16
 62
     7
  6
Continuous
370
     0
390
1194
347
1197
  0
LAYER
  5
1280
330
11AB
100
AcDbSymbolTableRecord
100
AcDbLayerTableRecord
  2
Style 1  PCB layouts|Level 63
 70
    16
 62
     7
  6
Continuous
370
     0
390
1194
347
1197
  0
LAYER
  5
1297
330
11AB
100
AcDbSymbolTableRecord
100
AcDbLayerTableRecord
  2
Defpoints
 70
     0
 62
     7
  6
Continuous
290
     0
370
    -3
390
1194
347
1197
  0
ENDTAB
  0
TABLE
  2
STYLE
  5
11AE
330
0
100
AcDbSymbolTable
 70
     3
  0
STYLE
  5
11AF
330
11AE
100
AcDbSymbolTableRecord
100
AcDbTextStyleTableRecord
  2
Standard
 70
     0
 40
0.0
 41
1.0
 50
0.0
 71
     0
 42
0.03
  3
txt.shx
  4

  0
STYLE
  5
1286
330
11AE
100
AcDbSymbolTableRecord
100
AcDbTextStyleTableRecord
  2
Style-WORKING
 70
     0
 40
0.0
 41
1.0
 50
0.0
 71
     0
 42
0.03
  3
WORKING.shx
  4

  0
STYLE
  5
1289
330
11AE
100
AcDbSymbolTableRecord
100
AcDbTextStyleTableRecord
  2
Style-ANSI_SYMBOLS
 70
     0
 40
0.0
 41
1.0
 50
0.0
 71
     0
 42
0.03
  3
ANSI_SYMBOLS.shx
  4

  0
ENDTAB
  0
TABLE
  2
VIEW
  5
11B4
330
0
100
AcDbSymbolTable
 70
     2
  0
VIEW
  5
110
102
{ACAD_XDICTIONARY
360
1282
102
}
330
11B4
100
AcDbSymbolTableRecord
100
AcDbViewTableRecord
  2
VIEW 5
 70
     0
 40
11.630165
 10
-7.758911
 20
5.32565
 41
18.974736
 11
0.0
 21
0.0
 31
1.0
 12
0.0
 22
0.0
 32
0.0
 42
50.0
 43
0.001969
 44
-0.001969
 50
0.0
 71
    16
281
     0
 72
     0
 73
     0
348
11B8
  0
VIEW
  5
112
102
{ACAD_XDICTIONARY
360
1284
102
}
330
11B4
100
AcDbSymbolTableRecord
100
AcDbViewTableRecord
  2
V2
 70
     0
 40
13.786559
 10
9.249309
 20
6.341453
 41
18.16465
 11
0.0
 21
0.0
 31
1.0
 12
0.0
 22
0.0
 32
0.0
 42
50.0
 43
0.001969
 44
-0.001969
 50
0.0
 71
    16
281
     0
 72
     0
 73
     0
348
11B8
  0
ENDTAB
  0
TABLE
  2
UCS
  5
11B5
330
0
100
AcDbSymbolTable
 70
     0
  0
ENDTAB
  0
TABLE
  2
APPID
  5
11BA
330
0
100
AcDbSymbolTable
 70
     3
  0
APPID
  5
11BB
330
11BA
100
AcDbSymbolTableRecord
100
AcDbRegAppTableRecord
  2
ACAD
 70
     0
  0
APPID
  5
11AA
330
11BA
100
AcDbSymbolTableRecord
100
AcDbRegAppTableRecord
  2
ACAD_PSEXT
 70
     0
  0
APPID
  5
1556
330
11BA
100
AcDbSymbolTableRecord
100
AcDbRegAppTableRecord
  2
ACAD_MLEADERVER
 70
     0
  0
ENDTAB
  0
TABLE
  2
DIMSTYLE
  5
11BC
330
0
100
AcDbSymbolTable
 70
     1
100
AcDbDimStyleTable
 71
     1
340
11BD
  0
DIMSTYLE
105
11BD
102
{ACAD_REACTORS
330
AAE
330
AAF
330
AB4
330
AB2
330
AB5
330
AB3
330
1176
330
AB0
330
AB1
102
}
330
11BC
100
AcDbSymbolTableRecord
100
AcDbDimStyleTableRecord
  2
Standard
 70
     0
 42
0.0625
 44
0.18
147
0.09
340
11AF
  0
ENDTAB
  0
TABLE
  2
BLOCK_RECORD
  5
1190
330
0
100
AcDbSymbolTable
 70
    27
  0
BLOCK_RECORD
  5
1191
102
{ACAD_XDICTIONARY
360
1376
102
}
330
1190
100
AcDbSymbolTableRecord
100
AcDbBlockTableRecord
  2
*Model_Space
340
11A2
 70
     0
280
     1
281
     0
  0
BLOCK_RECORD
  5
11A4
102
{ACAD_XDICTIONARY
360
16E7
102
}
330
1190
100
AcDbSymbolTableRecord
100
AcDbBlockTableRecord
  2
*Paper_Space
340
11A7
 70
     0
280
     1
281
     0
  0
BLOCK_RECORD
  5
11FD
330
1190
100
AcDbSymbolTableRecord
100
AcDbBlockTableRecord
  2
umiborder
340
0
102
{BLKREFS
331
6F0
102
}
 70
     0
280
     1
281
     0
  0
BLOCK_RECORD
  5
123F
330
1190
100
AcDbSymbolTableRecord
100
AcDbBlockTableRecord
  2
Style 1  PCB layouts
340
0
102
{BLKREFS
331
73A
102
}
 70
     0
280
     1
281
     0
  0
BLOCK_RECORD
  5
128B
330
1190
100
AcDbSymbolTableRecord
100
AcDbBlockTableRecord
  2
*D2
340
0
 70
     0
280
     1
281
     0
  0
BLOCK_RECORD
  5
129C
330
1190
100
AcDbSymbolTableRecord
100
AcDbBlockTableRecord
  2
*D3
340
0
 70
     0
280
     1
281
     0
  0
BLOCK_RECORD
  5
12A9
330
1190
100
AcDbSymbolTableRecord
100
AcDbBlockTableRecord
  2
*D4
340
0
 70
     0
280
     1
281
     0
  0
BLOCK_RECORD
  5
12B9
330
1190
100
AcDbSymbolTableRecord
100
AcDbBlockTableRecord
  2
*D5
340
0
 70
     0
280
     1
281
     0
  0
BLOCK_RECORD
  5
12C7
330
1190
100
AcDbSymbolTableRecord
100
AcDbBlockTableRecord
  2
*D6
340
0
 70
     0
280
     1
281
     0
  0
BLOCK_RECORD
  5
12D7
330
1190
100
AcDbSymbolTableRecord
100
AcDbBlockTableRecord
  2
*D7
340
0
 70
     0
280
     1
281
     0
  0
BLOCK_RECORD
  5
12E4
330
1190
100
AcDbSymbolTableRecord
100
AcDbBlockTableRecord
  2
*D8
340
0
 70
     0
280
     1
281
     0
  0
BLOCK_RECORD
  5
12F4
330
1190
100
AcDbSymbolTableRecord
100
AcDbBlockTableRecord
  2
*D9
340
0
 70
     0
280
     1
281
     0
  0
BLOCK_RECORD
  5
1302
330
1190
100
AcDbSymbolTableRecord
100
AcDbBlockTableRecord
  2
*D10
340
0
 70
     0
280
     1
281
     0
  0
BLOCK_RECORD
  5
1312
330
1190
100
AcDbSymbolTableRecord
100
AcDbBlockTableRecord
  2
*D11
340
0
 70
     0
280
     1
281
     0
  0
BLOCK_RECORD
  5
131F
330
1190
100
AcDbSymbolTableRecord
100
AcDbBlockTableRecord
  2
*D12
340
0
 70
     0
280
     1
281
     0
  0
BLOCK_RECORD
  5
132F
330
1190
100
AcDbSymbolTableRecord
100
AcDbBlockTableRecord
  2
*D13
340
0
 70
     0
280
     1
281
     0
  0
BLOCK_RECORD
  5
133C
330
1190
100
AcDbSymbolTableRecord
100
AcDbBlockTableRecord
  2
*D14
340
0
 70
     0
280
     1
281
     0
  0
BLOCK_RECORD
  5
134C
330
1190
100
AcDbSymbolTableRecord
100
AcDbBlockTableRecord
  2
*D15
340
0
 70
     0
280
     1
281
     0
  0
BLOCK_RECORD
  5
1359
330
1190
100
AcDbSymbolTableRecord
100
AcDbBlockTableRecord
  2
*D16
340
0
 70
     0
280
     1
281
     0
  0
BLOCK_RECORD
  5
1369
330
1190
100
AcDbSymbolTableRecord
100
AcDbBlockTableRecord
  2
*D17
340
0
 70
     0
280
     1
281
     0
  0
BLOCK_RECORD
  5
1493
330
1190
100
AcDbSymbolTableRecord
100
AcDbBlockTableRecord
  2
*D18
340
0
 70
     0
280
     1
281
     0
  0
BLOCK_RECORD
  5
1651
330
1190
100
AcDbSymbolTableRecord
100
AcDbBlockTableRecord
  2
*D19
340
0
 70
     0
280
     1
281
     0
  0
BLOCK_RECORD
  5
180B
330
1190
100
AcDbSymbolTableRecord
100
AcDbBlockTableRecord
  2
*D20
340
0
 70
     0
280
     1
281
     0
  0
BLOCK_RECORD
  5
19C4
330
1190
100
AcDbSymbolTableRecord
100
AcDbBlockTableRecord
  2
*D21
340
0
 70
     0
280
     1
281
     0
  0
BLOCK_RECORD
  5
1B7E
330
1190
100
AcDbSymbolTableRecord
100
AcDbBlockTableRecord
  2
*D22
340
0
 70
     0
280
     1
281
     0
  0
BLOCK_RECORD
  5
1B99
330
1190
100
AcDbSymbolTableRecord
100
AcDbBlockTableRecord
  2
*D23
340
0
 70
     0
280
     1
281
     0
  0
BLOCK_RECORD
  5
1D56
330
1190
100
AcDbSymbolTableRecord
100
AcDbBlockTableRecord
  2
*D24
340
0
 70
     0
280
     1
281
     0
  0
BLOCK_RECORD
  5
1D71
330
1190
100
AcDbSymbolTableRecord
100
AcDbBlockTableRecord
  2
*D25
340
0
 70
     0
280
     1
281
     0
  0
BLOCK_RECORD
  5
1F31
330
1190
100
AcDbSymbolTableRecord
100
AcDbBlockTableRecord
  2
*D26
340
0
 70
     0
280
     1
281
     0
  0
ENDTAB
  0
ENDSEC
  0
SECTION
  2
BLOCKS
  0
BLOCK
  5
1192
330
1191
100
AcDbEntity
  8
0
100
AcDbBlockBegin
  2
*Model_Space
 70
     0
 10
0.0
 20
0.0
 30
0.0
  3
*Model_Space
  1

  0
ENDBLK
  5
11A1
330
1191
100
AcDbEntity
  8
0
100
AcDbBlockEnd
  0
BLOCK
  5
11A5
330
11A4
100
AcDbEntity
 67
     1
  8
0
100
AcDbBlockBegin
  2
*Paper_Space
 70
     0
 10
0.0
 20
0.0
 30
0.0
  3
*Paper_Space
  1

  0
ENDBLK
  5
11A6
330
11A4
100
AcDbEntity
 67
     1
  8
0
100
AcDbBlockEnd
  0
BLOCK
  5
11FE
330
11FD
100
AcDbEntity
  8
0
100
AcDbBlockBegin
  2
umiborder
 70
     4
 71
     1
 10
0.0
 20
0.0
 30
0.0
  3
umiborder
  1
C:\D DRIVE\MSTRDWG\umiborder.dwg
  0
ENDBLK
  5
11FF
330
11FD
100
AcDbEntity
  8
0
100
AcDbBlockEnd
  0
BLOCK
  5
1240
330
123F
100
AcDbEntity
  8
0
100
AcDbBlockBegin
  2
Style 1  PCB layouts
 70
     4
 71
     1
 10
0.0
 20
0.0
 30
0.0
  3
Style 1  PCB layouts
  1
C:\D drive\mstrdwg\pdf catalog drawings\cad files\Style 1  PCB layouts.dwg
  0
ENDBLK
  5
1241
330
123F
100
AcDbEntity
  8
0
100
AcDbBlockEnd
  0
BLOCK
  5
1295
330
128B
100
AcDbEntity
  8
0
 62
     7
370
     0
100
AcDbBlockBegin
  2
*D2
 70
     1
 10
0.0
 20
0.0
 30
0.0
  3
*D2
  1

  0
TEXT
  5
128C
330
128B
100
AcDbEntity
  8
Level 55
  6
Continuous
 62
     7
370
     0
100
AcDbText
 10
-12.504184
 20
3.343983
 30
0.0
 40
0.03
  1
1.265
 41
0.916667
  7
Style-WORKING
 11
-12.504184
 21
3.358983
 31
0.0
100
AcDbText
 73
     2
  0
TEXT
  5
128E
330
128B
100
AcDbEntity
  8
Level 55
  6
Continuous
 62
     7
370
     0
100
AcDbText
 10
-12.504838
 20
3.283983
 30
0.0
 40
0.03
  1
32.13
 41
0.916667
  7
Style-WORKING
 11
-12.504838
 21
3.298983
 31
0.0
100
AcDbText
 73
     2
  0
LINE
  5
128F
330
128B
100
AcDbEntity
  8
Level 55
  6
Continuous
 62
     7
370
     0
100
AcDbLine
 10
-12.504838
 20
3.328983
 30
0.0
 11
-12.401999
 21
3.328983
 31
0.0
  0
LINE
  5
1290
330
128B
100
AcDbEntity
  8
Level 55
  6
Continuous
 62
     7
370
     0
100
AcDbLine
 10
-13.041413
 20
3.328983
 30
0.0
 11
-11.776413
 21
3.328983
 31
0.0
  0
SOLID
  5
1291
330
128B
100
AcDbEntity
  8
Level 55
  6
Continuous
 62
     7
370
     0
100
AcDbTrace
 10
-12.996413
 20
3.321483
 30
0.0
 11
-13.041413
 21
3.328983
 31
0.0
 12
-12.996413
 22
3.336483
 32
0.0
 13
-12.996413
 23
3.336483
 33
0.0
  0
SOLID
  5
1292
330
128B
100
AcDbEntity
  8
Level 55
  6
Continuous
 62
     7
370
     0
100
AcDbTrace
 10
11.821413
 20
3.336483
 30
0.0
 11
11.776413
 21
3.328983
 31
0.0
 12
11.821413
 22
3.321483
 32
0.0
 13
11.821413
 23
3.321483
 33
0.0
210
0.0
220
0.0
230
-1.0
  0
LINE
  5
1293
330
128B
100
AcDbEntity
  8
Level 55
  6
Continuous
 62
     7
370
     0
100
AcDbLine
 10
-13.041413
 20
3.130633
 30
0.0
 11
-13.041413
 21
3.343983
 31
0.0
  0
LINE
  5
1294
330
128B
100
AcDbEntity
  8
Level 55
  6
Continuous
 62
     7
370
     0
100
AcDbLine
 10
-11.776413
 20
3.130633
 30
0.0
 11
-11.776413
 21
3.343983
 31
0.0
  0
POINT
  5
1298
330
128B
100
AcDbEntity
  8
Defpoints
  6
Continuous
 62
     7
370
     0
100
AcDbPoint
 10
-11.776413
 20
3.328983
 30
0.0
  0
POINT
  5
1299
330
128B
100
AcDbEntity
  8
Defpoints
  6
Continuous
 62
     7
370
     0
100
AcDbPoint
 10
-13.041413
 20
3.112633
 30
0.0
  0
POINT
  5
129A
330
128B
100
AcDbEntity
  8
Defpoints
  6
Continuous
 62
     7
370
     0
100
AcDbPoint
 10
-11.776413
 20
3.112633
 30
0.0
  0
POINT
  5
129B
330
128B
100
AcDbEntity
  8
Defpoints
  6
Continuous
 62
     7
370
     0
100
AcDbPoint
 10
-12.453419
 20
3.328983
 30
0.0
  0
ENDBLK
  5
1296
330
128B
100
AcDbEntity
  8
0
 62
     7
370
     0
100
AcDbBlockEnd
  0
BLOCK
  5
129D
330
129C
100
AcDbEntity
  8
0
 62
     7
370
     0
100
AcDbBlockBegin
  2
*D3
 70
     1
 10
0.0
 20
0.0
 30
0.0
  3
*D3
  1

  0
LINE
  5
26C5
330
129C
100
AcDbEntity
  8
Level 55
  6
Continuous
 62
     0
370
    -2
100
AcDbLine
 10
-13.041413
 20
3.130633
 30
0.0
 11
-13.041413
 21
3.343983
 31
0.0
  0
LINE
  5
26C6
330
129C
100
AcDbEntity
  8
Level 55
  6
Continuous
 62
     0
370
    -2
100
AcDbLine
 10
-11.776413
 20
3.130633
 30
0.0
 11
-11.776413
 21
3.343983
 31
0.0
  0
LINE
  5
26C7
330
129C
100
AcDbEntity
  8
Level 55
  6
Continuous
 62
     0
370
    -2
100
AcDbLine
 10
-12.996413
 20
3.328983
 30
0.0
 11
-12.545901
 21
3.328983
 31
0.0
  0
LINE
  5
26C8
330
129C
100
AcDbEntity
  8
Level 55
  6
Continuous
 62
     0
370
    -2
100
AcDbLine
 10
-11.821413
 20
3.328983
 30
0.0
 11
-12.360937
 21
3.328983
 31
0.0
  0
SOLID
  5
26C9
330
129C
100
AcDbEntity
  8
Level 55
  6
Continuous
 62
     0
370
     0
100
AcDbTrace
 10
-12.996413
 20
3.336483
 30
0.0
 11
-12.996413
 21
3.321483
 31
0.0
 12
-13.041413
 22
3.328983
 32
0.0
 13
-13.041413
 23
3.328983
 33
0.0
  0
SOLID
  5
26CA
330
129C
100
AcDbEntity
  8
Level 55
  6
Continuous
 62
     0
370
     0
100
AcDbTrace
 10
-11.821413
 20
3.336483
 30
0.0
 11
-11.821413
 21
3.321483
 31
0.0
 12
-11.776413
 22
3.328983
 32
0.0
 13
-11.776413
 23
3.328983
 33
0.0
  0
MTEXT
  5
26CB
330
129C
100
AcDbEntity
  8
Level 55
  6
Continuous
 62
     0
370
     0
100
AcDbMText
 10
-12.453419
 20
3.328983
 30
0.0
 40
0.03
 41
0.0
 46
0.0
 71
     5
 72
     1
  1
\H1x;\W0.916667;1.265\P [32.13]\H1x;\W0.916667;
  7
Style-WORKING
 73
     1
 44
1.0
  0
POINT
  5
26CC
330
129C
100
AcDbEntity
  8
Defpoints
  6
Continuous
 62
     0
370
     0
100
AcDbPoint
 10
-13.041413
 20
3.112633
 30
0.0
  0
POINT
  5
26CD
330
129C
100
AcDbEntity
  8
Defpoints
  6
Continuous
 62
     0
370
     0
100
AcDbPoint
 10
-11.776413
 20
3.112633
 30
0.0
  0
POINT
  5
26CE
330
129C
100
AcDbEntity
  8
Defpoints
  6
Continuous
 62
     0
370
     0
100
AcDbPoint
 10
-11.776413
 20
3.328983
 30
0.0
  0
ENDBLK
  5
129E
330
129C
100
AcDbEntity
  8
0
 62
     7
370
     0
100
AcDbBlockEnd
  0
BLOCK
  5
12B3
330
12A9
100
AcDbEntity
  8
0
 62
     7
370
     0
100
AcDbBlockBegin
  2
*D4
 70
     1
 10
0.0
 20
0.0
 30
0.0
  3
*D4
  1

  0
TEXT
  5
12AA
330
12A9
100
AcDbEntity
  8
Level 55
  6
Continuous
 62
     7
370
     0
100
AcDbText
 10
-11.602119
 20
3.281785
 30
0.0
 40
0.03
  1
.075 TYP
 41
0.916667
  7
Style-WORKING
 11
-11.602119
 21
3.296785
 31
0.0
100
AcDbText
 73
     2
  0
TEXT
  5
12AB
330
12A9
100
AcDbEntity
  8
Level 55
  6
Continuous
 62
     7
370
     0
100
AcDbText
 10
-11.539216
 20
3.221785
 30
0.0
 40
0.03
  1
1.93
 41
0.916667
  7
Style-WORKING
 11
-11.539216
 21
3.236785
 31
0.0
100
AcDbText
 73
     2
  0
LINE
  5
12AC
330
12A9
100
AcDbEntity
  8
Level 55
  6
Continuous
 62
     7
370
     0
100
AcDbLine
 10
-11.602119
 20
3.266785
 30
0.0
 11
-11.402284
 21
3.266785
 31
0.0
  0
LINE
  5
12AD
330
12A9
100
AcDbEntity
  8
Level 55
  6
Continuous
 62
     7
370
     0
100
AcDbLine
 10
-11.502201
 20
3.212785
 30
0.0
 11
-11.502201
 21
3.090859
 31
0.0
  0
LINE
  5
12AE
330
12A9
100
AcDbEntity
  8
Level 55
  6
Continuous
 62
     7
370
     0
100
AcDbLine
 10
-11.502201
 20
2.946108
 30
0.0
 11
-11.502201
 21
3.014858
 31
0.0
  0
SOLID
  5
12AF
330
12A9
100
AcDbEntity
  8
Level 55
  6
Continuous
 62
     7
370
     0
100
AcDbTrace
 10
-11.494701
 20
3.135859
 30
0.0
 11
-11.502201
 21
3.090859
 31
0.0
 12
-11.509701
 22
3.135859
 32
0.0
 13
-11.509701
 23
3.135859
 33
0.0
  0
SOLID
  5
12B0
330
12A9
100
AcDbEntity
  8
Level 55
  6
Continuous
 62
     7
370
     0
100
AcDbTrace
 10
11.509701
 20
2.969858
 30
0.0
 11
11.502201
 21
3.014858
 31
0.0
 12
11.494701
 22
2.969858
 32
0.0
 13
11.494701
 23
2.969858
 33
0.0
210
0.0
220
0.0
230
-1.0
  0
LINE
  5
12B1
330
12A9
100
AcDbEntity
  8
Level 55
  6
Continuous
 62
     7
370
     0
100
AcDbLine
 10
-11.940663
 20
3.090859
 30
0.0
 11
-11.487201
 21
3.090859
 31
0.0
  0
LINE
  5
12B2
330
12A9
100
AcDbEntity
  8
Level 55
  6
Continuous
 62
     7
370
     0
100
AcDbLine
 10
-11.965663
 20
3.014858
 30
0.0
 11
-11.487201
 21
3.014858
 31
0.0
  0
POINT
  5
12B5
330
12A9
100
AcDbEntity
  8
Defpoints
  6
Continuous
 62
     7
370
     0
100
AcDbPoint
 10
-11.502201
 20
3.014858
 30
0.0
  0
POINT
  5
12B6
330
12A9
100
AcDbEntity
  8
Defpoints
  6
Continuous
 62
     7
370
     0
100
AcDbPoint
 10
-11.958663
 20
3.090859
 30
0.0
  0
POINT
  5
12B7
330
12A9
100
AcDbEntity
  8
Defpoints
  6
Continuous
 62
     7
370
     0
100
AcDbPoint
 10
-11.983663
 20
3.014858
 30
0.0
  0
POINT
  5
12B8
330
12A9
100
AcDbEntity
  8
Defpoints
  6
Continuous
 62
     7
370
     0
100
AcDbPoint
 10
-11.502201
 20
3.266785
 30
0.0
  0
ENDBLK
  5
12B4
330
12A9
100
AcDbEntity
  8
0
 62
     7
370
     0
100
AcDbBlockEnd
  0
BLOCK
  5
12BA
330
12B9
100
AcDbEntity
  8
0
 62
     7
370
     0
100
AcDbBlockBegin
  2
*D5
 70
     1
 10
0.0
 20
0.0
 30
0.0
  3
*D5
  1

  0
LINE
  5
144A
330
12B9
100
AcDbEntity
  8
Level 55
  6
Continuous
 62
     0
370
    -2
100
AcDbLine
 10
-11.940663
 20
3.090859
 30
0.0
 11
-11.641052
 21
3.090859
 31
0.0
  0
LINE
  5
144B
330
12B9
100
AcDbEntity
  8
Level 55
  6
Continuous
 62
     0
370
    -2
100
AcDbLine
 10
-11.965663
 20
3.014858
 30
0.0
 11
-11.641052
 21
3.014858
 31
0.0
  0
LINE
  5
144C
330
12B9
100
AcDbEntity
  8
Level 55
  6
Continuous
 62
     0
370
    -2
100
AcDbLine
 10
-11.656052
 20
2.969858
 30
0.0
 11
-11.656052
 21
2.924858
 31
0.0
  0
LINE
  5
144D
330
12B9
100
AcDbEntity
  8
Level 55
  6
Continuous
 62
     0
370
    -2
100
AcDbLine
 10
-11.656052
 20
3.135859
 30
0.0
 11
-11.656052
 21
3.266785
 31
0.0
  0
LINE
  5
144E
330
12B9
100
AcDbEntity
  8
Level 55
  6
Continuous
 62
     0
370
    -2
100
AcDbLine
 10
-11.656052
 20
3.266785
 30
0.0
 11
-11.611052
 21
3.266785
 31
0.0
  0
SOLID
  5
144F
330
12B9
100
AcDbEntity
  8
Level 55
  6
Continuous
 62
     0
370
     0
100
AcDbTrace
 10
-11.663552
 20
2.969858
 30
0.0
 11
-11.648552
 21
2.969858
 31
0.0
 12
-11.656052
 22
3.014858
 32
0.0
 13
-11.656052
 23
3.014858
 33
0.0
  0
SOLID
  5
1450
330
12B9
100
AcDbEntity
  8
Level 55
  6
Continuous
 62
     0
370
     0
100
AcDbTrace
 10
-11.663552
 20
3.135859
 30
0.0
 11
-11.648552
 21
3.135859
 31
0.0
 12
-11.656052
 22
3.090859
 32
0.0
 13
-11.656052
 23
3.090859
 33
0.0
  0
MTEXT
  5
1451
330
12B9
100
AcDbEntity
  8
Level 55
  6
Continuous
 62
     0
370
     0
100
AcDbMText
 10
-11.502201
 20
3.266785
 30
0.0
 40
0.03
 41
0.0
 46
0.0
 71
     5
 72
     1
  1
\H1x;\W0.916667;.075 TYP\P\H1x;\W0.916667;
  7
Style-WORKING
 73
     1
 44
1.0
  0
POINT
  5
1452
330
12B9
100
AcDbEntity
  8
Defpoints
  6
Continuous
 62
     0
370
     0
100
AcDbPoint
 10
-11.958663
 20
3.090859
 30
0.0
  0
POINT
  5
1453
330
12B9
100
AcDbEntity
  8
Defpoints
  6
Continuous
 62
     0
370
     0
100
AcDbPoint
 10
-11.983663
 20
3.014858
 30
0.0
  0
POINT
  5
1454
330
12B9
100
AcDbEntity
  8
Defpoints
  6
Continuous
 62
     0
370
     0
100
AcDbPoint
 10
-11.656052
 20
3.014858
 30
0.0
  0
ENDBLK
  5
12BB
330
12B9
100
AcDbEntity
  8
0
 62
     7
370
     0
100
AcDbBlockEnd
  0
BLOCK
  5
12D1
330
12C7
100
AcDbEntity
  8
0
 62
     7
370
     0
100
AcDbBlockBegin
  2
*D6
 70
     1
 10
0.0
 20
0.0
 30
0.0
  3
*D6
  1

  0
TEXT
  5
12C8
330
12C7
100
AcDbEntity
  8
Level 55
  6
Continuous
 62
     7
370
     0
100
AcDbText
 10
-11.90786
 20
3.233319
 30
0.0
 40
0.03
  1
.183
 41
0.916667
  7
Style-WORKING
 11
-11.90786
 21
3.248319
 31
0.0
100
AcDbText
 73
     2
  0
TEXT
  5
12C9
330
12C7
100
AcDbEntity
  8
Level 55
  6
Continuous
 62
     7
370
     0
100
AcDbText
 10
-11.91381
 20
3.173319
 30
0.0
 40
0.03
  1
4.63
 41
0.916667
  7
Style-WORKING
 11
-11.91381
 21
3.188319
 31
0.0
100
AcDbText
 73
     2
  0
LINE
  5
12CA
330
12C7
100
AcDbEntity
  8
Level 55
  6
Continuous
 62
     7
370
     0
100
AcDbLine
 10
-11.91381
 20
3.218319
 30
0.0
 11
-11.82657
 21
3.218319
 31
0.0
  0
LINE
  5
12CB
330
12C7
100
AcDbEntity
  8
Level 55
  6
Continuous
 62
     7
370
     0
100
AcDbLine
 10
-11.707663
 20
3.218319
 30
0.0
 11
-11.776413
 21
3.218319
 31
0.0
  0
LINE
  5
12CC
330
12C7
100
AcDbEntity
  8
Level 55
  6
Continuous
 62
     7
370
     0
100
AcDbLine
 10
-12.027413
 20
3.218319
 30
0.0
 11
-11.958663
 21
3.218319
 31
0.0
  0
SOLID
  5
12CD
330
12C7
100
AcDbEntity
  8
Level 55
  6
Continuous
 62
     7
370
     0
100
AcDbTrace
 10
-11.731413
 20
3.210819
 30
0.0
 11
-11.776413
 21
3.218319
 31
0.0
 12
-11.731413
 22
3.225819
 32
0.0
 13
-11.731413
 23
3.225819
 33
0.0
  0
SOLID
  5
12CE
330
12C7
100
AcDbEntity
  8
Level 55
  6
Continuous
 62
     7
370
     0
100
AcDbTrace
 10
12.003663
 20
3.225819
 30
0.0
 11
11.958663
 21
3.218319
 31
0.0
 12
12.003663
 22
3.210819
 32
0.0
 13
12.003663
 23
3.210819
 33
0.0
210
0.0
220
0.0
230
-1.0
  0
LINE
  5
12CF
330
12C7
100
AcDbEntity
  8
Level 55
  6
Continuous
 62
     7
370
     0
100
AcDbLine
 10
-11.776413
 20
3.130633
 30
0.0
 11
-11.776413
 21
3.233319
 31
0.0
  0
LINE
  5
12D0
330
12C7
100
AcDbEntity
  8
Level 55
  6
Continuous
 62
     7
370
     0
100
AcDbLine
 10
-11.958663
 20
3.108859
 30
0.0
 11
-11.958663
 21
3.233319
 31
0.0
  0
POINT
  5
12D3
330
12C7
100
AcDbEntity
  8
Defpoints
  6
Continuous
 62
     7
370
     0
100
AcDbPoint
 10
-11.958663
 20
3.218319
 30
0.0
  0
POINT
  5
12D4
330
12C7
100
AcDbEntity
  8
Defpoints
  6
Continuous
 62
     7
370
     0
100
AcDbPoint
 10
-11.776413
 20
3.112633
 30
0.0
  0
POINT
  5
12D5
330
12C7
100
AcDbEntity
  8
Defpoints
  6
Continuous
 62
     7
370
     0
100
AcDbPoint
 10
-11.958663
 20
3.090859
 30
0.0
  0
POINT
  5
12D6
330
12C7
100
AcDbEntity
  8
Defpoints
  6
Continuous
 62
     7
370
     0
100
AcDbPoint
 10
-11.87019
 20
3.218319
 30
0.0
  0
ENDBLK
  5
12D2
330
12C7
100
AcDbEntity
  8
0
 62
     7
370
     0
100
AcDbBlockEnd
  0
BLOCK
  5
12D8
330
12D7
100
AcDbEntity
  8
0
 62
     7
370
     0
100
AcDbBlockBegin
  2
*D7
 70
     1
 10
0.0
 20
0.0
 30
0.0
  3
*D7
  1

  0
LINE
  5
26CF
330
12D7
100
AcDbEntity
  8
Level 55
  6
Continuous
 62
     0
370
    -2
100
AcDbLine
 10
-11.776413
 20
3.130633
 30
0.0
 11
-11.776413
 21
3.233319
 31
0.0
  0
LINE
  5
26D0
330
12D7
100
AcDbEntity
  8
Level 55
  6
Continuous
 62
     0
370
    -2
100
AcDbLine
 10
-11.958663
 20
3.108859
 30
0.0
 11
-11.958663
 21
3.233319
 31
0.0
  0
LINE
  5
26D1
330
12D7
100
AcDbEntity
  8
Level 55
  6
Continuous
 62
     0
370
    -2
100
AcDbLine
 10
-11.731413
 20
3.218319
 30
0.0
 11
-11.686413
 21
3.218319
 31
0.0
  0
LINE
  5
26D2
330
12D7
100
AcDbEntity
  8
Level 55
  6
Continuous
 62
     0
370
    -2
100
AcDbLine
 10
-12.003663
 20
3.218319
 30
0.0
 11
-12.048663
 21
3.218319
 31
0.0
  0
SOLID
  5
26D3
330
12D7
100
AcDbEntity
  8
Level 55
  6
Continuous
 62
     0
370
     0
100
AcDbTrace
 10
-11.731413
 20
3.225819
 30
0.0
 11
-11.731413
 21
3.210819
 31
0.0
 12
-11.776413
 22
3.218319
 32
0.0
 13
-11.776413
 23
3.218319
 33
0.0
  0
SOLID
  5
26D4
330
12D7
100
AcDbEntity
  8
Level 55
  6
Continuous
 62
     0
370
     0
100
AcDbTrace
 10
-12.003663
 20
3.225819
 30
0.0
 11
-12.003663
 21
3.210819
 31
0.0
 12
-11.958663
 22
3.218319
 32
0.0
 13
-11.958663
 23
3.218319
 33
0.0
  0
MTEXT
  5
26D5
330
12D7
100
AcDbEntity
  8
Level 55
  6
Continuous
 62
     0
370
     0
100
AcDbMText
 10
-11.87019
 20
3.218319
 30
0.0
 40
0.03
 41
0.0
 46
0.0
 71
     5
 72
     1
  1
\H1x;\W0.916667;.183\P\H1x;\W0.916667;
  7
Style-WORKING
 73
     1
 44
1.0
  0
POINT
  5
26D6
330
12D7
100
AcDbEntity
  8
Defpoints
  6
Continuous
 62
     0
370
     0
100
AcDbPoint
 10
-11.776413
 20
3.112633
 30
0.0
  0
POINT
  5
26D7
330
12D7
100
AcDbEntity
  8
Defpoints
  6
Continuous
 62
     0
370
     0
100
AcDbPoint
 10
-11.958663
 20
3.090859
 30
0.0
  0
POINT
  5
26D8
330
12D7
100
AcDbEntity
  8
Defpoints
  6
Continuous
 62
     0
370
     0
100
AcDbPoint
 10
-11.958663
 20
3.218319
 30
0.0
  0
ENDBLK
  5
12D9
330
12D7
100
AcDbEntity
  8
0
 62
     7
370
     0
100
AcDbBlockEnd
  0
BLOCK
  5
12EE
330
12E4
100
AcDbEntity
  8
0
 62
     7
370
     0
100
AcDbBlockBegin
  2
*D8
 70
     1
 10
0.0
 20
0.0
 30
0.0
  3
*D8
  1

  0
TEXT
  5
12E5
330
12E4
100
AcDbEntity
  8
Level 55
  6
Continuous
 62
     7
370
     0
100
AcDbText
 10
-11.656301
 20
2.873355
 30
0.0
 40
0.03
  1
.038
 41
0.916667
  7
Style-WORKING
 11
-11.656301
 21
2.888355
 31
0.0
100
AcDbText
 73
     2
  0
TEXT
  5
12E6
330
12E4
100
AcDbEntity
  8
Level 55
  6
Continuous
 62
     7
370
     0
100
AcDbText
 10
-11.642115
 20
2.813355
 30
0.0
 40
0.03
  1
.97
 41
0.916667
  7
Style-WORKING
 11
-11.642115
 21
2.828355
 31
0.0
100
AcDbText
 73
     2
  0
LINE
  5
12E7
330
12E4
100
AcDbEntity
  8
Level 55
  6
Continuous
 62
     7
370
     0
100
AcDbLine
 10
-11.656301
 20
2.858355
 30
0.0
 11
-11.569269
 21
2.858355
 31
0.0
  0
LINE
  5
12E8
330
12E4
100
AcDbEntity
  8
Level 55
  6
Continuous
 62
     7
370
     0
100
AcDbLine
 10
-11.612785
 20
2.912355
 30
0.0
 11
-11.612785
 21
3.052858
 31
0.0
  0
LINE
  5
12E9
330
12E4
100
AcDbEntity
  8
Level 55
  6
Continuous
 62
     7
370
     0
100
AcDbLine
 10
-11.612785
 20
3.159609
 30
0.0
 11
-11.612785
 21
3.090859
 31
0.0
  0
SOLID
  5
12EA
330
12E4
100
AcDbEntity
  8
Level 55
  6
Continuous
 62
     7
370
     0
100
AcDbTrace
 10
11.620285
 20
3.007858
 30
0.0
 11
11.612785
 21
3.052858
 31
0.0
 12
11.605285
 22
3.007858
 32
0.0
 13
11.605285
 23
3.007858
 33
0.0
210
0.0
220
0.0
230
-1.0
  0
SOLID
  5
12EB
330
12E4
100
AcDbEntity
  8
Level 55
  6
Continuous
 62
     7
370
     0
100
AcDbTrace
 10
-11.605285
 20
3.135859
 30
0.0
 11
-11.612785
 21
3.090859
 31
0.0
 12
-11.620285
 22
3.135859
 32
0.0
 13
-11.620285
 23
3.135859
 33
0.0
  0
LINE
  5
12EC
330
12E4
100
AcDbEntity
  8
Level 55
  6
Continuous
 62
     7
370
     0
100
AcDbLine
 10
-11.699873
 20
3.052858
 30
0.0
 11
-11.597785
 21
3.052858
 31
0.0
  0
LINE
  5
12ED
330
12E4
100
AcDbEntity
  8
Level 55
  6
Continuous
 62
     7
370
     0
100
AcDbLine
 10
-11.940663
 20
3.090859
 30
0.0
 11
-11.597785
 21
3.090859
 31
0.0
  0
POINT
  5
12F0
330
12E4
100
AcDbEntity
  8
Defpoints
  6
Continuous
 62
     7
370
     0
100
AcDbPoint
 10
-11.612785
 20
3.090859
 30
0.0
  0
POINT
  5
12F1
330
12E4
100
AcDbEntity
  8
Defpoints
  6
Continuous
 62
     7
370
     0
100
AcDbPoint
 10
-11.717873
 20
3.052858
 30
0.0
  0
POINT
  5
12F2
330
12E4
100
AcDbEntity
  8
Defpoints
  6
Continuous
 62
     7
370
     0
100
AcDbPoint
 10
-11.958663
 20
3.090859
 30
0.0
  0
POINT
  5
12F3
330
12E4
100
AcDbEntity
  8
Defpoints
  6
Continuous
 62
     7
370
     0
100
AcDbPoint
 10
-11.612785
 20
2.858355
 30
0.0
  0
ENDBLK
  5
12EF
330
12E4
100
AcDbEntity
  8
0
 62
     7
370
     0
100
AcDbBlockEnd
  0
BLOCK
  5
12F5
330
12F4
100
AcDbEntity
  8
0
 62
     7
370
     0
100
AcDbBlockBegin
  2
*D9
 70
     1
 10
0.0
 20
0.0
 30
0.0
  3
*D9
  1

  0
LINE
  5
1B40
330
12F4
100
AcDbEntity
  8
Level 55
  6
Continuous
 62
     0
370
    -2
100
AcDbLine
 10
-11.699873
 20
3.052858
 30
0.0
 11
-11.482346
 21
3.052858
 31
0.0
  0
LINE
  5
1B41
330
12F4
100
AcDbEntity
  8
Level 55
  6
Continuous
 62
     0
370
    -2
100
AcDbLine
 10
-11.940663
 20
3.090859
 30
0.0
 11
-11.482346
 21
3.090859
 31
0.0
  0
LINE
  5
1B42
330
12F4
100
AcDbEntity
  8
Level 55
  6
Continuous
 62
     0
370
    -2
100
AcDbLine
 10
-11.497346
 20
3.135859
 30
0.0
 11
-11.497346
 21
3.180859
 31
0.0
  0
LINE
  5
1B43
330
12F4
100
AcDbEntity
  8
Level 55
  6
Continuous
 62
     0
370
    -2
100
AcDbLine
 10
-11.497346
 20
3.007858
 30
0.0
 11
-11.497346
 21
2.858355
 31
0.0
  0
LINE
  5
1B44
330
12F4
100
AcDbEntity
  8
Level 55
  6
Continuous
 62
     0
370
    -2
100
AcDbLine
 10
-11.497346
 20
2.858355
 30
0.0
 11
-11.542346
 21
2.858355
 31
0.0
  0
SOLID
  5
1B45
330
12F4
100
AcDbEntity
  8
Level 55
  6
Continuous
 62
     0
370
     0
100
AcDbTrace
 10
-11.504846
 20
3.135859
 30
0.0
 11
-11.489846
 21
3.135859
 31
0.0
 12
-11.497346
 22
3.090859
 32
0.0
 13
-11.497346
 23
3.090859
 33
0.0
  0
SOLID
  5
1B46
330
12F4
100
AcDbEntity
  8
Level 55
  6
Continuous
 62
     0
370
     0
100
AcDbTrace
 10
-11.504846
 20
3.007858
 30
0.0
 11
-11.489846
 21
3.007858
 31
0.0
 12
-11.497346
 22
3.052858
 32
0.0
 13
-11.497346
 23
3.052858
 33
0.0
  0
MTEXT
  5
1B47
330
12F4
100
AcDbEntity
  8
Level 55
  6
Continuous
 62
     0
370
     0
100
AcDbMText
 10
-11.612785
 20
2.858355
 30
0.0
 40
0.03
 41
0.0
 46
0.0
 71
     5
 72
     1
  1
\H1x;\W0.916667;.038\P [.97]\H1x;\W0.916667;
  7
Style-WORKING
 73
     1
 44
1.0
  0
POINT
  5
1B48
330
12F4
100
AcDbEntity
  8
Defpoints
  6
Continuous
 62
     0
370
     0
100
AcDbPoint
 10
-11.717873
 20
3.052858
 30
0.0
  0
POINT
  5
1B49
330
12F4
100
AcDbEntity
  8
Defpoints
  6
Continuous
 62
     0
370
     0
100
AcDbPoint
 10
-11.958663
 20
3.090859
 30
0.0
  0
POINT
  5
1B4A
330
12F4
100
AcDbEntity
  8
Defpoints
  6
Continuous
 62
     0
370
     0
100
AcDbPoint
 10
-11.497346
 20
3.090859
 30
0.0
  0
ENDBLK
  5
12F6
330
12F4
100
AcDbEntity
  8
0
 62
     7
370
     0
100
AcDbBlockEnd
  0
BLOCK
  5
130C
330
1302
100
AcDbEntity
  8
0
 62
     7
370
     0
100
AcDbBlockBegin
  2
*D10
 70
     1
 10
0.0
 20
0.0
 30
0.0
  3
*D10
  1

  0
TEXT
  5
1303
330
1302
100
AcDbEntity
  8
Level 55
  6
Continuous
 62
     7
370
     0
100
AcDbText
 10
-11.848071
 20
2.852144
 30
0.0
 40
0.03
  1
.025
 41
0.916667
  7
Style-WORKING
 11
-11.848071
 21
2.867144
 31
0.0
100
AcDbText
 73
     2
  0
TEXT
  5
1304
330
1302
100
AcDbEntity
  8
Level 55
  6
Continuous
 62
     7
370
     0
100
AcDbText
 10
-11.833777
 20
2.792144
 30
0.0
 40
0.03
  1
.63
 41
0.916667
  7
Style-WORKING
 11
-11.833777
 21
2.807144
 31
0.0
100
AcDbText
 73
     2
  0
LINE
  5
1305
330
1302
100
AcDbEntity
  8
Level 55
  6
Continuous
 62
     7
370
     0
100
AcDbLine
 10
-11.848071
 20
2.837144
 30
0.0
 11
-11.761039
 21
2.837144
 31
0.0
  0
LINE
  5
1306
330
1302
100
AcDbEntity
  8
Level 55
  6
Continuous
 62
     7
370
     0
100
AcDbLine
 10
-11.857071
 20
2.837144
 30
0.0
 11
-11.959413
 21
2.837144
 31
0.0
  0
LINE
  5
1307
330
1302
100
AcDbEntity
  8
Level 55
  6
Continuous
 62
     7
370
     0
100
AcDbLine
 10
-12.053163
 20
2.837144
 30
0.0
 11
-11.984413
 21
2.837144
 31
0.0
  0
SOLID
  5
1308
330
1302
100
AcDbEntity
  8
Level 55
  6
Continuous
 62
     7
370
     0
100
AcDbTrace
 10
-11.914413
 20
2.829644
 30
0.0
 11
-11.959413
 21
2.837144
 31
0.0
 12
-11.914413
 22
2.844644
 32
0.0
 13
-11.914413
 23
2.844644
 33
0.0
  0
SOLID
  5
1309
330
1302
100
AcDbEntity
  8
Level 55
  6
Continuous
 62
     7
370
     0
100
AcDbTrace
 10
12.029413
 20
2.844644
 30
0.0
 11
11.984413
 21
2.837144
 31
0.0
 12
12.029413
 22
2.829644
 32
0.0
 13
12.029413
 23
2.829644
 33
0.0
210
0.0
220
0.0
230
-1.0
  0
LINE
  5
130A
330
1302
100
AcDbEntity
  8
Level 55
  6
Continuous
 62
     7
370
     0
100
AcDbLine
 10
-11.959413
 20
3.072858
 30
0.0
 11
-11.959413
 21
2.822144
 31
0.0
  0
LINE
  5
130B
330
1302
100
AcDbEntity
  8
Level 55
  6
Continuous
 62
     7
370
     0
100
AcDbLine
 10
-11.984413
 20
2.997858
 30
0.0
 11
-11.984413
 21
2.822144
 31
0.0
  0
POINT
  5
130E
330
1302
100
AcDbEntity
  8
Defpoints
  6
Continuous
 62
     7
370
     0
100
AcDbPoint
 10
-11.984413
 20
2.837144
 30
0.0
  0
POINT
  5
130F
330
1302
100
AcDbEntity
  8
Defpoints
  6
Continuous
 62
     7
370
     0
100
AcDbPoint
 10
-11.959413
 20
3.090858
 30
0.0
  0
POINT
  5
1310
330
1302
100
AcDbEntity
  8
Defpoints
  6
Continuous
 62
     7
370
     0
100
AcDbPoint
 10
-11.984413
 20
3.015858
 30
0.0
  0
POINT
  5
1311
330
1302
100
AcDbEntity
  8
Defpoints
  6
Continuous
 62
     7
370
     0
100
AcDbPoint
 10
-11.804555
 20
2.837144
 30
0.0
  0
ENDBLK
  5
130D
330
1302
100
AcDbEntity
  8
0
 62
     7
370
     0
100
AcDbBlockEnd
  0
BLOCK
  5
1313
330
1312
100
AcDbEntity
  8
0
 62
     7
370
     0
100
AcDbBlockBegin
  2
*D11
 70
     1
 10
0.0
 20
0.0
 30
0.0
  3
*D11
  1

  0
LINE
  5
26D9
330
1312
100
AcDbEntity
  8
Level 55
  6
Continuous
 62
     0
370
    -2
100
AcDbLine
 10
-11.959413
 20
3.072858
 30
0.0
 11
-11.959413
 21
2.822144
 31
0.0
  0
LINE
  5
26DA
330
1312
100
AcDbEntity
  8
Level 55
  6
Continuous
 62
     0
370
    -2
100
AcDbLine
 10
-11.984413
 20
2.997858
 30
0.0
 11
-11.984413
 21
2.822144
 31
0.0
  0
LINE
  5
26DB
330
1312
100
AcDbEntity
  8
Level 55
  6
Continuous
 62
     0
370
    -2
100
AcDbLine
 10
-12.029413
 20
2.837144
 30
0.0
 11
-12.074413
 21
2.837144
 31
0.0
  0
LINE
  5
26DC
330
1312
100
AcDbEntity
  8
Level 55
  6
Continuous
 62
     0
370
    -2
100
AcDbLine
 10
-11.914413
 20
2.837144
 30
0.0
 11
-11.869413
 21
2.837144
 31
0.0
  0
SOLID
  5
26DD
330
1312
100
AcDbEntity
  8
Level 55
  6
Continuous
 62
     0
370
     0
100
AcDbTrace
 10
-12.029413
 20
2.844644
 30
0.0
 11
-12.029413
 21
2.829644
 31
0.0
 12
-11.984413
 22
2.837144
 32
0.0
 13
-11.984413
 23
2.837144
 33
0.0
  0
SOLID
  5
26DE
330
1312
100
AcDbEntity
  8
Level 55
  6
Continuous
 62
     0
370
     0
100
AcDbTrace
 10
-11.914413
 20
2.844644
 30
0.0
 11
-11.914413
 21
2.829644
 31
0.0
 12
-11.959413
 22
2.837144
 32
0.0
 13
-11.959413
 23
2.837144
 33
0.0
  0
MTEXT
  5
26DF
330
1312
100
AcDbEntity
  8
Level 55
  6
Continuous
 62
     0
370
     0
100
AcDbMText
 10
-11.798429
 20
2.837144
 30
0.0
 40
0.03
 41
0.0
 46
0.0
 71
     5
 72
     1
  1
\H1x;\W0.916667;.025\P [.64]\H1x;\W0.916667;
  7
Style-WORKING
 73
     1
 44
1.0
  0
POINT
  5
26E0
330
1312
100
AcDbEntity
  8
Defpoints
  6
Continuous
 62
     0
370
     0
100
AcDbPoint
 10
-11.959413
 20
3.090858
 30
0.0
  0
POINT
  5
26E1
330
1312
100
AcDbEntity
  8
Defpoints
  6
Continuous
 62
     0
370
     0
100
AcDbPoint
 10
-11.984413
 20
3.015858
 30
0.0
  0
POINT
  5
26E2
330
1312
100
AcDbEntity
  8
Defpoints
  6
Continuous
 62
     0
370
     0
100
AcDbPoint
 10
-11.984413
 20
2.837144
 30
0.0
  0
ENDBLK
  5
1314
330
1312
100
AcDbEntity
  8
0
 62
     7
370
     0
100
AcDbBlockEnd
  0
BLOCK
  5
1329
330
131F
100
AcDbEntity
  8
0
 62
     7
370
     0
100
AcDbBlockBegin
  2
*D12
 70
     1
 10
0.0
 20
0.0
 30
0.0
  3
*D12
  1

  0
TEXT
  5
1320
330
131F
100
AcDbEntity
  8
Level 55
  6
Continuous
 62
     7
370
     0
100
AcDbText
 10
-12.253326
 20
2.77427
 30
0.0
 40
0.03
  1
.050
 41
0.916667
  7
Style-WORKING
 11
-12.253326
 21
2.78927
 31
0.0
100
AcDbText
 73
     2
  0
TEXT
  5
1321
330
131F
100
AcDbEntity
  8
Level 55
  6
Continuous
 62
     7
370
     0
100
AcDbText
 10
-12.247697
 20
2.71427
 30
0.0
 40
0.03
  1
1.27
 41
0.916667
  7
Style-WORKING
 11
-12.247697
 21
2.72927
 31
0.0
100
AcDbText
 73
     2
  0
LINE
  5
1322
330
131F
100
AcDbEntity
  8
Level 55
  6
Continuous
 62
     7
370
     0
100
AcDbLine
 10
-12.253326
 20
2.75927
 30
0.0
 11
-12.166513
 21
2.75927
 31
0.0
  0
LINE
  5
1323
330
131F
100
AcDbEntity
  8
Level 55
  6
Continuous
 62
     7
370
     0
100
AcDbLine
 10
-11.890663
 20
2.75927
 30
0.0
 11
-11.959413
 21
2.75927
 31
0.0
  0
LINE
  5
1324
330
131F
100
AcDbEntity
  8
Level 55
  6
Continuous
 62
     7
370
     0
100
AcDbLine
 10
-12.157513
 20
2.75927
 30
0.0
 11
-12.009413
 21
2.75927
 31
0.0
  0
SOLID
  5
1325
330
131F
100
AcDbEntity
  8
Level 55
  6
Continuous
 62
     7
370
     0
100
AcDbTrace
 10
-11.914413
 20
2.75177
 30
0.0
 11
-11.959413
 21
2.75927
 31
0.0
 12
-11.914413
 22
2.76677
 32
0.0
 13
-11.914413
 23
2.76677
 33
0.0
  0
SOLID
  5
1326
330
131F
100
AcDbEntity
  8
Level 55
  6
Continuous
 62
     7
370
     0
100
AcDbTrace
 10
12.054413
 20
2.76677
 30
0.0
 11
12.009413
 21
2.75927
 31
0.0
 12
12.054413
 22
2.75177
 32
0.0
 13
12.054413
 23
2.75177
 33
0.0
210
0.0
220
0.0
230
-1.0
  0
LINE
  5
1327
330
131F
100
AcDbEntity
  8
Level 55
  6
Continuous
 62
     7
370
     0
100
AcDbLine
 10
-11.959413
 20
3.072858
 30
0.0
 11
-11.959413
 21
2.74427
 31
0.0
  0
LINE
  5
1328
330
131F
100
AcDbEntity
  8
Level 55
  6
Continuous
 62
     7
370
     0
100
AcDbLine
 10
-12.009413
 20
3.147858
 30
0.0
 11
-12.009413
 21
2.74427
 31
0.0
  0
POINT
  5
132B
330
131F
100
AcDbEntity
  8
Defpoints
  6
Continuous
 62
     7
370
     0
100
AcDbPoint
 10
-12.009413
 20
2.75927
 30
0.0
  0
POINT
  5
132C
330
131F
100
AcDbEntity
  8
Defpoints
  6
Continuous
 62
     7
370
     0
100
AcDbPoint
 10
-11.959413
 20
3.090858
 30
0.0
  0
POINT
  5
132D
330
131F
100
AcDbEntity
  8
Defpoints
  6
Continuous
 62
     7
370
     0
100
AcDbPoint
 10
-12.009413
 20
3.165858
 30
0.0
  0
POINT
  5
132E
330
131F
100
AcDbEntity
  8
Defpoints
  6
Continuous
 62
     7
370
     0
100
AcDbPoint
 10
-12.20992
 20
2.75927
 30
0.0
  0
ENDBLK
  5
132A
330
131F
100
AcDbEntity
  8
0
 62
     7
370
     0
100
AcDbBlockEnd
  0
BLOCK
  5
1330
330
132F
100
AcDbEntity
  8
0
 62
     7
370
     0
100
AcDbBlockBegin
  2
*D13
 70
     1
 10
0.0
 20
0.0
 30
0.0
  3
*D13
  1

  0
LINE
  5
26E3
330
132F
100
AcDbEntity
  8
Level 55
  6
Continuous
 62
     0
370
    -2
100
AcDbLine
 10
-11.959413
 20
3.072858
 30
0.0
 11
-11.959413
 21
2.74427
 31
0.0
  0
LINE
  5
26E4
330
132F
100
AcDbEntity
  8
Level 55
  6
Continuous
 62
     0
370
    -2
100
AcDbLine
 10
-12.009413
 20
3.147858
 30
0.0
 11
-12.009413
 21
2.74427
 31
0.0
  0
LINE
  5
26E5
330
132F
100
AcDbEntity
  8
Level 55
  6
Continuous
 62
     0
370
    -2
100
AcDbLine
 10
-11.914413
 20
2.75927
 30
0.0
 11
-11.869413
 21
2.75927
 31
0.0
  0
LINE
  5
26E6
330
132F
100
AcDbEntity
  8
Level 55
  6
Continuous
 62
     0
370
    -2
100
AcDbLine
 10
-12.054413
 20
2.75927
 30
0.0
 11
-12.131079
 21
2.75927
 31
0.0
  0
SOLID
  5
26E7
330
132F
100
AcDbEntity
  8
Level 55
  6
Continuous
 62
     0
370
     0
100
AcDbTrace
 10
-11.914413
 20
2.76677
 30
0.0
 11
-11.914413
 21
2.75177
 31
0.0
 12
-11.959413
 22
2.75927
 32
0.0
 13
-11.959413
 23
2.75927
 33
0.0
  0
SOLID
  5
26E8
330
132F
100
AcDbEntity
  8
Level 55
  6
Continuous
 62
     0
370
     0
100
AcDbTrace
 10
-12.054413
 20
2.76677
 30
0.0
 11
-12.054413
 21
2.75177
 31
0.0
 12
-12.009413
 22
2.75927
 32
0.0
 13
-12.009413
 23
2.75927
 33
0.0
  0
MTEXT
  5
26E9
330
132F
100
AcDbEntity
  8
Level 55
  6
Continuous
 62
     0
370
     0
100
AcDbMText
 10
-12.20992
 20
2.75927
 30
0.0
 40
0.03
 41
0.0
 46
0.0
 71
     5
 72
     1
  1
\H1x;\W0.916667;.050\P [1.27]\H1x;\W0.916667;
  7
Style-WORKING
 73
     1
 44
1.0
  0
POINT
  5
26EA
330
132F
100
AcDbEntity
  8
Defpoints
  6
Continuous
 62
     0
370
     0
100
AcDbPoint
 10
-11.959413
 20
3.090858
 30
0.0
  0
POINT
  5
26EB
330
132F
100
AcDbEntity
  8
Defpoints
  6
Continuous
 62
     0
370
     0
100
AcDbPoint
 10
-12.009413
 20
3.165858
 30
0.0
  0
POINT
  5
26EC
330
132F
100
AcDbEntity
  8
Defpoints
  6
Continuous
 62
     0
370
     0
100
AcDbPoint
 10
-12.009413
 20
2.75927
 30
0.0
  0
ENDBLK
  5
1331
330
132F
100
AcDbEntity
  8
0
 62
     7
370
     0
100
AcDbBlockEnd
  0
BLOCK
  5
1346
330
133C
100
AcDbEntity
  8
0
 62
     7
370
     0
100
AcDbBlockBegin
  2
*D14
 70
     1
 10
0.0
 20
0.0
 30
0.0
  3
*D14
  1

  0
TEXT
  5
133D
330
133C
100
AcDbEntity
  8
Level 55
  6
Continuous
 62
     7
370
     0
100
AcDbText
 10
-11.844183
 20
2.688198
 30
0.0
 40
0.03
  1
.075
 41
0.916667
  7
Style-WORKING
 11
-11.844183
 21
2.703198
 31
0.0
100
AcDbText
 73
     2
  0
TEXT
  5
133E
330
133C
100
AcDbEntity
  8
Level 55
  6
Continuous
 62
     7
370
     0
100
AcDbText
 10
-11.823833
 20
2.628198
 30
0.0
 40
0.03
  1
1.9
 41
0.916667
  7
Style-WORKING
 11
-11.823833
 21
2.643198
 31
0.0
100
AcDbText
 73
     2
  0
LINE
  5
133F
330
133C
100
AcDbEntity
  8
Level 55
  6
Continuous
 62
     7
370
     0
100
AcDbLine
 10
-11.844183
 20
2.673198
 30
0.0
 11
-11.756943
 21
2.673198
 31
0.0
  0
LINE
  5
1340
330
133C
100
AcDbEntity
  8
Level 55
  6
Continuous
 62
     7
370
     0
100
AcDbLine
 10
-11.853183
 20
2.673198
 30
0.0
 11
-11.959413
 21
2.673198
 31
0.0
  0
LINE
  5
1341
330
133C
100
AcDbEntity
  8
Level 55
  6
Continuous
 62
     7
370
     0
100
AcDbLine
 10
-12.103163
 20
2.673198
 30
0.0
 11
-12.034413
 21
2.673198
 31
0.0
  0
SOLID
  5
1342
330
133C
100
AcDbEntity
  8
Level 55
  6
Continuous
 62
     7
370
     0
100
AcDbTrace
 10
-11.914413
 20
2.665698
 30
0.0
 11
-11.959413
 21
2.673198
 31
0.0
 12
-11.914413
 22
2.680698
 32
0.0
 13
-11.914413
 23
2.680698
 33
0.0
  0
SOLID
  5
1343
330
133C
100
AcDbEntity
  8
Level 55
  6
Continuous
 62
     7
370
     0
100
AcDbTrace
 10
12.079413
 20
2.680698
 30
0.0
 11
12.034413
 21
2.673198
 31
0.0
 12
12.079413
 22
2.665698
 32
0.0
 13
12.079413
 23
2.665698
 33
0.0
210
0.0
220
0.0
230
-1.0
  0
LINE
  5
1344
330
133C
100
AcDbEntity
  8
Level 55
  6
Continuous
 62
     7
370
     0
100
AcDbLine
 10
-11.959413
 20
3.072858
 30
0.0
 11
-11.959413
 21
2.658198
 31
0.0
  0
LINE
  5
1345
330
133C
100
AcDbEntity
  8
Level 55
  6
Continuous
 62
     7
370
     0
100
AcDbLine
 10
-12.034413
 20
2.922858
 30
0.0
 11
-12.034413
 21
2.658198
 31
0.0
  0
POINT
  5
1348
330
133C
100
AcDbEntity
  8
Defpoints
  6
Continuous
 62
     7
370
     0
100
AcDbPoint
 10
-12.034413
 20
2.673198
 30
0.0
  0
POINT
  5
1349
330
133C
100
AcDbEntity
  8
Defpoints
  6
Continuous
 62
     7
370
     0
100
AcDbPoint
 10
-11.959413
 20
3.090858
 30
0.0
  0
POINT
  5
134A
330
133C
100
AcDbEntity
  8
Defpoints
  6
Continuous
 62
     7
370
     0
100
AcDbPoint
 10
-12.034413
 20
2.940858
 30
0.0
  0
POINT
  5
134B
330
133C
100
AcDbEntity
  8
Defpoints
  6
Continuous
 62
     7
370
     0
100
AcDbPoint
 10
-11.800563
 20
2.673198
 30
0.0
  0
ENDBLK
  5
1347
330
133C
100
AcDbEntity
  8
0
 62
     7
370
     0
100
AcDbBlockEnd
  0
BLOCK
  5
134D
330
134C
100
AcDbEntity
  8
0
 62
     7
370
     0
100
AcDbBlockBegin
  2
*D15
 70
     1
 10
0.0
 20
0.0
 30
0.0
  3
*D15
  1

  0
LINE
  5
26ED
330
134C
100
AcDbEntity
  8
Level 55
  6
Continuous
 62
     0
370
    -2
100
AcDbLine
 10
-11.959413
 20
3.072858
 30
0.0
 11
-11.959413
 21
2.658198
 31
0.0
  0
LINE
  5
26EE
330
134C
100
AcDbEntity
  8
Level 55
  6
Continuous
 62
     0
370
    -2
100
AcDbLine
 10
-12.034413
 20
2.922858
 30
0.0
 11
-12.034413
 21
2.658198
 31
0.0
  0
LINE
  5
26EF
330
134C
100
AcDbEntity
  8
Level 55
  6
Continuous
 62
     0
370
    -2
100
AcDbLine
 10
-12.079413
 20
2.673198
 30
0.0
 11
-12.124413
 21
2.673198
 31
0.0
  0
LINE
  5
26F0
330
134C
100
AcDbEntity
  8
Level 55
  6
Continuous
 62
     0
370
    -2
100
AcDbLine
 10
-11.914413
 20
2.673198
 30
0.0
 11
-11.869413
 21
2.673198
 31
0.0
  0
SOLID
  5
26F1
330
134C
100
AcDbEntity
  8
Level 55
  6
Continuous
 62
     0
370
     0
100
AcDbTrace
 10
-12.079413
 20
2.680698
 30
0.0
 11
-12.079413
 21
2.665698
 31
0.0
 12
-12.034413
 22
2.673198
 32
0.0
 13
-12.034413
 23
2.673198
 33
0.0
  0
SOLID
  5
26F2
330
134C
100
AcDbEntity
  8
Level 55
  6
Continuous
 62
     0
370
     0
100
AcDbTrace
 10
-11.914413
 20
2.680698
 30
0.0
 11
-11.914413
 21
2.665698
 31
0.0
 12
-11.959413
 22
2.673198
 32
0.0
 13
-11.959413
 23
2.673198
 33
0.0
  0
MTEXT
  5
26F3
330
134C
100
AcDbEntity
  8
Level 55
  6
Continuous
 62
     0
370
     0
100
AcDbMText
 10
-11.797338
 20
2.673198
 30
0.0
 40
0.03
 41
0.0
 46
0.0
 71
     5
 72
     1
  1
\H1x;\W0.916667;.075\P [1.91]\H1x;\W0.916667;
  7
Style-WORKING
 73
     1
 44
1.0
  0
POINT
  5
26F4
330
134C
100
AcDbEntity
  8
Defpoints
  6
Continuous
 62
     0
370
     0
100
AcDbPoint
 10
-11.959413
 20
3.090858
 30
0.0
  0
POINT
  5
26F5
330
134C
100
AcDbEntity
  8
Defpoints
  6
Continuous
 62
     0
370
     0
100
AcDbPoint
 10
-12.034413
 20
2.940858
 30
0.0
  0
POINT
  5
26F6
330
134C
100
AcDbEntity
  8
Defpoints
  6
Continuous
 62
     0
370
     0
100
AcDbPoint
 10
-12.034413
 20
2.673198
 30
0.0
  0
ENDBLK
  5
134E
330
134C
100
AcDbEntity
  8
0
 62
     7
370
     0
100
AcDbBlockEnd
  0
BLOCK
  5
1363
330
1359
100
AcDbEntity
  8
0
 62
     7
370
     0
100
AcDbBlockBegin
  2
*D16
 70
     1
 10
0.0
 20
0.0
 30
0.0
  3
*D16
  1

  0
TEXT
  5
135A
330
1359
100
AcDbEntity
  8
Level 55
  6
Continuous
 62
     7
370
     0
100
AcDbText
 10
-12.374261
 20
2.593929
 30
0.0
 40
0.03
  1
.100 TYP
 41
0.916667
  7
Style-WORKING
 11
-12.374261
 21
2.608929
 31
0.0
100
AcDbText
 73
     2
  0
TEXT
  5
135B
330
1359
100
AcDbEntity
  8
Level 55
  6
Continuous
 62
     7
370
     0
100
AcDbText
 10
-12.324902
 20
2.533929
 30
0.0
 40
0.03
  1
2.54
 41
0.916667
  7
Style-WORKING
 11
-12.324902
 21
2.548929
 31
0.0
100
AcDbText
 73
     2
  0
LINE
  5
135C
330
1359
100
AcDbEntity
  8
Level 55
  6
Continuous
 62
     7
370
     0
100
AcDbLine
 10
-12.374261
 20
2.578929
 30
0.0
 11
-12.186991
 21
2.578929
 31
0.0
  0
LINE
  5
135D
330
1359
100
AcDbEntity
  8
Level 55
  6
Continuous
 62
     7
370
     0
100
AcDbLine
 10
-11.890663
 20
2.578929
 30
0.0
 11
-11.959413
 21
2.578929
 31
0.0
  0
LINE
  5
135E
330
1359
100
AcDbEntity
  8
Level 55
  6
Continuous
 62
     7
370
     0
100
AcDbLine
 10
-12.177991
 20
2.578929
 30
0.0
 11
-12.059413
 21
2.578929
 31
0.0
  0
SOLID
  5
135F
330
1359
100
AcDbEntity
  8
Level 55
  6
Continuous
 62
     7
370
     0
100
AcDbTrace
 10
-11.914413
 20
2.571429
 30
0.0
 11
-11.959413
 21
2.578929
 31
0.0
 12
-11.914413
 22
2.586429
 32
0.0
 13
-11.914413
 23
2.586429
 33
0.0
  0
SOLID
  5
1360
330
1359
100
AcDbEntity
  8
Level 55
  6
Continuous
 62
     7
370
     0
100
AcDbTrace
 10
12.104413
 20
2.586429
 30
0.0
 11
12.059413
 21
2.578929
 31
0.0
 12
12.104413
 22
2.571429
 32
0.0
 13
12.104413
 23
2.571429
 33
0.0
210
0.0
220
0.0
230
-1.0
  0
LINE
  5
1361
330
1359
100
AcDbEntity
  8
Level 55
  6
Continuous
 62
     7
370
     0
100
AcDbLine
 10
-11.959413
 20
3.072858
 30
0.0
 11
-11.959413
 21
2.563929
 31
0.0
  0
LINE
  5
1362
330
1359
100
AcDbEntity
  8
Level 55
  6
Continuous
 62
     7
370
     0
100
AcDbLine
 10
-12.059413
 20
3.072858
 30
0.0
 11
-12.059413
 21
2.563929
 31
0.0
  0
POINT
  5
1365
330
1359
100
AcDbEntity
  8
Defpoints
  6
Continuous
 62
     7
370
     0
100
AcDbPoint
 10
-12.059413
 20
2.578929
 30
0.0
  0
POINT
  5
1366
330
1359
100
AcDbEntity
  8
Defpoints
  6
Continuous
 62
     7
370
     0
100
AcDbPoint
 10
-11.959413
 20
3.090858
 30
0.0
  0
POINT
  5
1367
330
1359
100
AcDbEntity
  8
Defpoints
  6
Continuous
 62
     7
370
     0
100
AcDbPoint
 10
-12.059413
 20
3.090858
 30
0.0
  0
POINT
  5
1368
330
1359
100
AcDbEntity
  8
Defpoints
  6
Continuous
 62
     7
370
     0
100
AcDbPoint
 10
-12.280626
 20
2.578929
 30
0.0
  0
ENDBLK
  5
1364
330
1359
100
AcDbEntity
  8
0
 62
     7
370
     0
100
AcDbBlockEnd
  0
BLOCK
  5
136A
330
1369
100
AcDbEntity
  8
0
 62
     7
370
     0
100
AcDbBlockBegin
  2
*D17
 70
     1
 10
0.0
 20
0.0
 30
0.0
  3
*D17
  1

  0
LINE
  5
26F7
330
1369
100
AcDbEntity
  8
Level 55
  6
Continuous
 62
     0
370
    -2
100
AcDbLine
 10
-11.959413
 20
3.072858
 30
0.0
 11
-11.959413
 21
2.563929
 31
0.0
  0
LINE
  5
26F8
330
1369
100
AcDbEntity
  8
Level 55
  6
Continuous
 62
     0
370
    -2
100
AcDbLine
 10
-12.059413
 20
3.072858
 30
0.0
 11
-12.059413
 21
2.563929
 31
0.0
  0
LINE
  5
26F9
330
1369
100
AcDbEntity
  8
Level 55
  6
Continuous
 62
     0
370
    -2
100
AcDbLine
 10
-11.914413
 20
2.578929
 30
0.0
 11
-11.869413
 21
2.578929
 31
0.0
  0
LINE
  5
26FA
330
1369
100
AcDbEntity
  8
Level 55
  6
Continuous
 62
     0
370
    -2
100
AcDbLine
 10
-12.104413
 20
2.578929
 30
0.0
 11
-12.149414
 21
2.578929
 31
0.0
  0
SOLID
  5
26FB
330
1369
100
AcDbEntity
  8
Level 55
  6
Continuous
 62
     0
370
     0
100
AcDbTrace
 10
-11.914413
 20
2.586429
 30
0.0
 11
-11.914413
 21
2.571429
 31
0.0
 12
-11.959413
 22
2.578929
 32
0.0
 13
-11.959413
 23
2.578929
 33
0.0
  0
SOLID
  5
26FC
330
1369
100
AcDbEntity
  8
Level 55
  6
Continuous
 62
     0
370
     0
100
AcDbTrace
 10
-12.104413
 20
2.586429
 30
0.0
 11
-12.104413
 21
2.571429
 31
0.0
 12
-12.059413
 22
2.578929
 32
0.0
 13
-12.059413
 23
2.578929
 33
0.0
  0
MTEXT
  5
26FD
330
1369
100
AcDbEntity
  8
Level 55
  6
Continuous
 62
     0
370
     0
100
AcDbMText
 10
-12.291003
 20
2.578929
 30
0.0
 40
0.03
 41
0.0
 46
0.0
 71
     5
 72
     1
  1
\H1x;\W0.916667;.100\P [2.54] TYP\H1x;\W0.916667;
  7
Style-WORKING
 73
     1
 44
1.0
  0
POINT
  5
26FE
330
1369
100
AcDbEntity
  8
Defpoints
  6
Continuous
 62
     0
370
     0
100
AcDbPoint
 10
-11.959413
 20
3.090858
 30
0.0
  0
POINT
  5
26FF
330
1369
100
AcDbEntity
  8
Defpoints
  6
Continuous
 62
     0
370
     0
100
AcDbPoint
 10
-12.059413
 20
3.090858
 30
0.0
  0
POINT
  5
2700
330
1369
100
AcDbEntity
  8
Defpoints
  6
Continuous
 62
     0
370
     0
100
AcDbPoint
 10
-12.059413
 20
2.578929
 30
0.0
  0
ENDBLK
  5
136B
330
1369
100
AcDbEntity
  8
0
 62
     7
370
     0
100
AcDbBlockEnd
  0
BLOCK
  5
149D
330
1493
100
AcDbEntity
  8
0
 62
     7
370
     0
100
AcDbBlockBegin
  2
*D18
 70
     1
 10
0.0
 20
0.0
 30
0.0
  3
*D18
  1

  0
LINE
  5
1646
330
1493
100
AcDbEntity
  8
Level 55
  6
Continuous
 62
     0
370
    -2
100
AcDbLine
 10
-11.940663
 20
3.090859
 30
0.0
 11
-11.700447
 21
3.090859
 31
0.0
  0
LINE
  5
1647
330
1493
100
AcDbEntity
  8
Level 55
  6
Continuous
 62
     0
370
    -2
100
AcDbLine
 10
-11.965663
 20
3.014858
 30
0.0
 11
-11.700447
 21
3.014858
 31
0.0
  0
LINE
  5
1648
330
1493
100
AcDbEntity
  8
Level 55
  6
Continuous
 62
     0
370
    -2
100
AcDbLine
 10
-11.715447
 20
2.969858
 30
0.0
 11
-11.715447
 21
2.924858
 31
0.0
  0
LINE
  5
1649
330
1493
100
AcDbEntity
  8
Level 55
  6
Continuous
 62
     0
370
    -2
100
AcDbLine
 10
-11.715447
 20
3.135859
 30
0.0
 11
-11.715447
 21
3.313095
 31
0.0
  0
LINE
  5
164A
330
1493
100
AcDbEntity
  8
Level 55
  6
Continuous
 62
     0
370
    -2
100
AcDbLine
 10
-11.715447
 20
3.313095
 30
0.0
 11
-11.670447
 21
3.313095
 31
0.0
  0
SOLID
  5
164B
330
1493
100
AcDbEntity
  8
Level 55
  6
Continuous
 62
     0
370
     0
100
AcDbTrace
 10
-11.722947
 20
2.969858
 30
0.0
 11
-11.707947
 21
2.969858
 31
0.0
 12
-11.715447
 22
3.014858
 32
0.0
 13
-11.715447
 23
3.014858
 33
0.0
  0
SOLID
  5
164C
330
1493
100
AcDbEntity
  8
Level 55
  6
Continuous
 62
     0
370
     0
100
AcDbTrace
 10
-11.722947
 20
3.135859
 30
0.0
 11
-11.707947
 21
3.135859
 31
0.0
 12
-11.715447
 22
3.090859
 32
0.0
 13
-11.715447
 23
3.090859
 33
0.0
  0
MTEXT
  5
164D
330
1493
100
AcDbEntity
  8
Level 55
  6
Continuous
 62
     0
370
     0
100
AcDbMText
 10
-11.561596
 20
3.313095
 30
0.0
 40
0.03
 41
0.0
 46
0.0
 71
     5
 72
     1
  1
\H1x;\W0.916667;.075 TYP\P\H1x;\W0.916667;
  7
Style-WORKING
 73
     1
 44
1.0
  0
POINT
  5
164E
330
1493
100
AcDbEntity
  8
Defpoints
  6
Continuous
 62
     0
370
     0
100
AcDbPoint
 10
-11.958663
 20
3.090859
 30
0.0
  0
POINT
  5
164F
330
1493
100
AcDbEntity
  8
Defpoints
  6
Continuous
 62
     0
370
     0
100
AcDbPoint
 10
-11.983663
 20
3.014858
 30
0.0
  0
POINT
  5
1650
330
1493
100
AcDbEntity
  8
Defpoints
  6
Continuous
 62
     0
370
     0
100
AcDbPoint
 10
-11.715447
 20
3.014858
 30
0.0
  0
ENDBLK
  5
149E
330
1493
100
AcDbEntity
  8
0
 62
     7
370
     0
100
AcDbBlockEnd
  0
BLOCK
  5
165B
330
1651
100
AcDbEntity
  8
0
 62
     7
370
     0
100
AcDbBlockBegin
  2
*D19
 70
     1
 10
0.0
 20
0.0
 30
0.0
  3
*D19
  1

  0
LINE
  5
1800
330
1651
100
AcDbEntity
  8
Level 55
  6
Continuous
 62
     0
370
    -2
100
AcDbLine
 10
-11.940663
 20
3.090859
 30
0.0
 11
-11.732478
 21
3.090859
 31
0.0
  0
LINE
  5
1801
330
1651
100
AcDbEntity
  8
Level 55
  6
Continuous
 62
     0
370
    -2
100
AcDbLine
 10
-11.965663
 20
3.014858
 30
0.0
 11
-11.732478
 21
3.014858
 31
0.0
  0
LINE
  5
1802
330
1651
100
AcDbEntity
  8
Level 55
  6
Continuous
 62
     0
370
    -2
100
AcDbLine
 10
-11.747478
 20
2.969858
 30
0.0
 11
-11.747478
 21
2.924858
 31
0.0
  0
LINE
  5
1803
330
1651
100
AcDbEntity
  8
Level 55
  6
Continuous
 62
     0
370
    -2
100
AcDbLine
 10
-11.747478
 20
3.135859
 30
0.0
 11
-11.747478
 21
3.313095
 31
0.0
  0
LINE
  5
1804
330
1651
100
AcDbEntity
  8
Level 55
  6
Continuous
 62
     0
370
    -2
100
AcDbLine
 10
-11.747478
 20
3.313095
 30
0.0
 11
-11.702478
 21
3.313095
 31
0.0
  0
SOLID
  5
1805
330
1651
100
AcDbEntity
  8
Level 55
  6
Continuous
 62
     0
370
     0
100
AcDbTrace
 10
-11.754978
 20
2.969858
 30
0.0
 11
-11.739978
 21
2.969858
 31
0.0
 12
-11.747478
 22
3.014858
 32
0.0
 13
-11.747478
 23
3.014858
 33
0.0
  0
SOLID
  5
1806
330
1651
100
AcDbEntity
  8
Level 55
  6
Continuous
 62
     0
370
     0
100
AcDbTrace
 10
-11.754978
 20
3.135859
 30
0.0
 11
-11.739978
 21
3.135859
 31
0.0
 12
-11.747478
 22
3.090859
 32
0.0
 13
-11.747478
 23
3.090859
 33
0.0
  0
MTEXT
  5
1807
330
1651
100
AcDbEntity
  8
Level 55
  6
Continuous
 62
     0
370
     0
100
AcDbMText
 10
-11.593627
 20
3.313095
 30
0.0
 40
0.03
 41
0.0
 46
0.0
 71
     5
 72
     1
  1
\H1x;\W0.916667;.075 TYP\P\H1x;\W0.916667;
  7
Style-WORKING
 73
     1
 44
1.0
  0
POINT
  5
1808
330
1651
100
AcDbEntity
  8
Defpoints
  6
Continuous
 62
     0
370
     0
100
AcDbPoint
 10
-11.958663
 20
3.090859
 30
0.0
  0
POINT
  5
1809
330
1651
100
AcDbEntity
  8
Defpoints
  6
Continuous
 62
     0
370
     0
100
AcDbPoint
 10
-11.983663
 20
3.014858
 30
0.0
  0
POINT
  5
180A
330
1651
100
AcDbEntity
  8
Defpoints
  6
Continuous
 62
     0
370
     0
100
AcDbPoint
 10
-11.747478
 20
3.014858
 30
0.0
  0
ENDBLK
  5
165C
330
1651
100
AcDbEntity
  8
0
 62
     7
370
     0
100
AcDbBlockEnd
  0
BLOCK
  5
1815
330
180B
100
AcDbEntity
  8
0
 62
     7
370
     0
100
AcDbBlockBegin
  2
*D20
 70
     1
 10
0.0
 20
0.0
 30
0.0
  3
*D20
  1

  0
LINE
  5
19B9
330
180B
100
AcDbEntity
  8
Level 55
  6
Continuous
 62
     0
370
    -2
100
AcDbLine
 10
-11.940663
 20
3.090859
 30
0.0
 11
-11.694346
 21
3.090859
 31
0.0
  0
LINE
  5
19BA
330
180B
100
AcDbEntity
  8
Level 55
  6
Continuous
 62
     0
370
    -2
100
AcDbLine
 10
-11.965663
 20
3.014858
 30
0.0
 11
-11.694346
 21
3.014858
 31
0.0
  0
LINE
  5
19BB
330
180B
100
AcDbEntity
  8
Level 55
  6
Continuous
 62
     0
370
    -2
100
AcDbLine
 10
-11.709346
 20
2.969858
 30
0.0
 11
-11.709346
 21
2.924858
 31
0.0
  0
LINE
  5
19BC
330
180B
100
AcDbEntity
  8
Level 55
  6
Continuous
 62
     0
370
    -2
100
AcDbLine
 10
-11.709346
 20
3.135859
 30
0.0
 11
-11.709346
 21
3.313095
 31
0.0
  0
LINE
  5
19BD
330
180B
100
AcDbEntity
  8
Level 55
  6
Continuous
 62
     0
370
    -2
100
AcDbLine
 10
-11.709346
 20
3.313095
 30
0.0
 11
-11.664346
 21
3.313095
 31
0.0
  0
SOLID
  5
19BE
330
180B
100
AcDbEntity
  8
Level 55
  6
Continuous
 62
     0
370
     0
100
AcDbTrace
 10
-11.716846
 20
2.969858
 30
0.0
 11
-11.701846
 21
2.969858
 31
0.0
 12
-11.709346
 22
3.014858
 32
0.0
 13
-11.709346
 23
3.014858
 33
0.0
  0
SOLID
  5
19BF
330
180B
100
AcDbEntity
  8
Level 55
  6
Continuous
 62
     0
370
     0
100
AcDbTrace
 10
-11.716846
 20
3.135859
 30
0.0
 11
-11.701846
 21
3.135859
 31
0.0
 12
-11.709346
 22
3.090859
 32
0.0
 13
-11.709346
 23
3.090859
 33
0.0
  0
MTEXT
  5
19C0
330
180B
100
AcDbEntity
  8
Level 55
  6
Continuous
 62
     0
370
     0
100
AcDbMText
 10
-11.555495
 20
3.313095
 30
0.0
 40
0.03
 41
0.0
 46
0.0
 71
     5
 72
     1
  1
\H1x;\W0.916667;.075 TYP\P\H1x;\W0.916667;
  7
Style-WORKING
 73
     1
 44
1.0
  0
POINT
  5
19C1
330
180B
100
AcDbEntity
  8
Defpoints
  6
Continuous
 62
     0
370
     0
100
AcDbPoint
 10
-11.958663
 20
3.090859
 30
0.0
  0
POINT
  5
19C2
330
180B
100
AcDbEntity
  8
Defpoints
  6
Continuous
 62
     0
370
     0
100
AcDbPoint
 10
-11.983663
 20
3.014858
 30
0.0
  0
POINT
  5
19C3
330
180B
100
AcDbEntity
  8
Defpoints
  6
Continuous
 62
     0
370
     0
100
AcDbPoint
 10
-11.709346
 20
3.014858
 30
0.0
  0
ENDBLK
  5
1816
330
180B
100
AcDbEntity
  8
0
 62
     7
370
     0
100
AcDbBlockEnd
  0
BLOCK
  5
19CE
330
19C4
100
AcDbEntity
  8
0
 62
     7
370
     0
100
AcDbBlockBegin
  2
*D21
 70
     1
 10
0.0
 20
0.0
 30
0.0
  3
*D21
  1

  0
LINE
  5
1B73
330
19C4
100
AcDbEntity
  8
Level 55
  6
Continuous
 62
     0
370
    -2
100
AcDbLine
 10
-11.940663
 20
3.090859
 30
0.0
 11
-11.477757
 21
3.090859
 31
0.0
  0
LINE
  5
1B74
330
19C4
100
AcDbEntity
  8
Level 55
  6
Continuous
 62
     0
370
    -2
100
AcDbLine
 10
-11.965663
 20
3.014858
 30
0.0
 11
-11.477757
 21
3.014858
 31
0.0
  0
LINE
  5
1B75
330
19C4
100
AcDbEntity
  8
Level 55
  6
Continuous
 62
     0
370
    -2
100
AcDbLine
 10
-11.492757
 20
2.969858
 30
0.0
 11
-11.492757
 21
2.924858
 31
0.0
  0
LINE
  5
1B76
330
19C4
100
AcDbEntity
  8
Level 55
  6
Continuous
 62
     0
370
    -2
100
AcDbLine
 10
-11.492757
 20
3.135859
 30
0.0
 11
-11.492757
 21
3.313095
 31
0.0
  0
LINE
  5
1B77
330
19C4
100
AcDbEntity
  8
Level 55
  6
Continuous
 62
     0
370
    -2
100
AcDbLine
 10
-11.492757
 20
3.313095
 30
0.0
 11
-11.447757
 21
3.313095
 31
0.0
  0
SOLID
  5
1B78
330
19C4
100
AcDbEntity
  8
Level 55
  6
Continuous
 62
     0
370
     0
100
AcDbTrace
 10
-11.500257
 20
2.969858
 30
0.0
 11
-11.485257
 21
2.969858
 31
0.0
 12
-11.492757
 22
3.014858
 32
0.0
 13
-11.492757
 23
3.014858
 33
0.0
  0
SOLID
  5
1B79
330
19C4
100
AcDbEntity
  8
Level 55
  6
Continuous
 62
     0
370
     0
100
AcDbTrace
 10
-11.500257
 20
3.135859
 30
0.0
 11
-11.485257
 21
3.135859
 31
0.0
 12
-11.492757
 22
3.090859
 32
0.0
 13
-11.492757
 23
3.090859
 33
0.0
  0
MTEXT
  5
1B7A
330
19C4
100
AcDbEntity
  8
Level 55
  6
Continuous
 62
     0
370
     0
100
AcDbMText
 10
-11.338906
 20
3.313095
 30
0.0
 40
0.03
 41
0.0
 46
0.0
 71
     5
 72
     1
  1
\H1x;\W0.916667;.075 TYP\P\H1x;\W0.916667;
  7
Style-WORKING
 73
     1
 44
1.0
  0
POINT
  5
1B7B
330
19C4
100
AcDbEntity
  8
Defpoints
  6
Continuous
 62
     0
370
     0
100
AcDbPoint
 10
-11.958663
 20
3.090859
 30
0.0
  0
POINT
  5
1B7C
330
19C4
100
AcDbEntity
  8
Defpoints
  6
Continuous
 62
     0
370
     0
100
AcDbPoint
 10
-11.983663
 20
3.014858
 30
0.0
  0
POINT
  5
1B7D
330
19C4
100
AcDbEntity
  8
Defpoints
  6
Continuous
 62
     0
370
     0
100
AcDbPoint
 10
-11.492757
 20
3.014858
 30
0.0
  0
ENDBLK
  5
19CF
330
19C4
100
AcDbEntity
  8
0
 62
     7
370
     0
100
AcDbBlockEnd
  0
BLOCK
  5
1B88
330
1B7E
100
AcDbEntity
  8
0
 62
     7
370
     0
100
AcDbBlockBegin
  2
*D22
 70
     1
 10
0.0
 20
0.0
 30
0.0
  3
*D22
  1

  0
LINE
  5
1D40
330
1B7E
100
AcDbEntity
  8
Level 55
  6
Continuous
 62
     0
370
    -2
100
AcDbLine
 10
-11.940663
 20
3.090859
 30
0.0
 11
-11.526566
 21
3.090859
 31
0.0
  0
LINE
  5
1D41
330
1B7E
100
AcDbEntity
  8
Level 55
  6
Continuous
 62
     0
370
    -2
100
AcDbLine
 10
-11.965663
 20
3.014858
 30
0.0
 11
-11.526566
 21
3.014858
 31
0.0
  0
LINE
  5
1D42
330
1B7E
100
AcDbEntity
  8
Level 55
  6
Continuous
 62
     0
370
    -2
100
AcDbLine
 10
-11.541566
 20
2.969858
 30
0.0
 11
-11.541566
 21
2.924858
 31
0.0
  0
LINE
  5
1D43
330
1B7E
100
AcDbEntity
  8
Level 55
  6
Continuous
 62
     0
370
    -2
100
AcDbLine
 10
-11.541566
 20
3.135859
 30
0.0
 11
-11.541566
 21
3.313095
 31
0.0
  0
LINE
  5
1D44
330
1B7E
100
AcDbEntity
  8
Level 55
  6
Continuous
 62
     0
370
    -2
100
AcDbLine
 10
-11.541566
 20
3.313095
 30
0.0
 11
-11.496566
 21
3.313095
 31
0.0
  0
SOLID
  5
1D45
330
1B7E
100
AcDbEntity
  8
Level 55
  6
Continuous
 62
     0
370
     0
100
AcDbTrace
 10
-11.549066
 20
2.969858
 30
0.0
 11
-11.534066
 21
2.969858
 31
0.0
 12
-11.541566
 22
3.014858
 32
0.0
 13
-11.541566
 23
3.014858
 33
0.0
  0
SOLID
  5
1D46
330
1B7E
100
AcDbEntity
  8
Level 55
  6
Continuous
 62
     0
370
     0
100
AcDbTrace
 10
-11.549066
 20
3.135859
 30
0.0
 11
-11.534066
 21
3.135859
 31
0.0
 12
-11.541566
 22
3.090859
 32
0.0
 13
-11.541566
 23
3.090859
 33
0.0
  0
MTEXT
  5
1D47
330
1B7E
100
AcDbEntity
  8
Level 55
  6
Continuous
 62
     0
370
     0
100
AcDbMText
 10
-11.387715
 20
3.313095
 30
0.0
 40
0.03
 41
0.0
 46
0.0
 71
     5
 72
     1
  1
\H1x;\W0.916667;.075 TYP\P\H1x;\W0.916667;
  7
Style-WORKING
 73
     1
 44
1.0
  0
POINT
  5
1D48
330
1B7E
100
AcDbEntity
  8
Defpoints
  6
Continuous
 62
     0
370
     0
100
AcDbPoint
 10
-11.958663
 20
3.090859
 30
0.0
  0
POINT
  5
1D49
330
1B7E
100
AcDbEntity
  8
Defpoints
  6
Continuous
 62
     0
370
     0
100
AcDbPoint
 10
-11.983663
 20
3.014858
 30
0.0
  0
POINT
  5
1D4A
330
1B7E
100
AcDbEntity
  8
Defpoints
  6
Continuous
 62
     0
370
     0
100
AcDbPoint
 10
-11.541566
 20
3.014858
 30
0.0
  0
ENDBLK
  5
1B89
330
1B7E
100
AcDbEntity
  8
0
 62
     7
370
     0
100
AcDbBlockEnd
  0
BLOCK
  5
1BA3
330
1B99
100
AcDbEntity
  8
0
 62
     7
370
     0
100
AcDbBlockBegin
  2
*D23
 70
     1
 10
0.0
 20
0.0
 30
0.0
  3
*D23
  1

  0
LINE
  5
1D4B
330
1B99
100
AcDbEntity
  8
Level 55
  6
Continuous
 62
     0
370
    -2
100
AcDbLine
 10
-11.699873
 20
3.052858
 30
0.0
 11
-11.440309
 21
3.052858
 31
0.0
  0
LINE
  5
1D4C
330
1B99
100
AcDbEntity
  8
Level 55
  6
Continuous
 62
     0
370
    -2
100
AcDbLine
 10
-11.940663
 20
3.090859
 30
0.0
 11
-11.440309
 21
3.090859
 31
0.0
  0
LINE
  5
1D4D
330
1B99
100
AcDbEntity
  8
Level 55
  6
Continuous
 62
     0
370
    -2
100
AcDbLine
 10
-11.455309
 20
3.135859
 30
0.0
 11
-11.455309
 21
3.180859
 31
0.0
  0
LINE
  5
1D4E
330
1B99
100
AcDbEntity
  8
Level 55
  6
Continuous
 62
     0
370
    -2
100
AcDbLine
 10
-11.455309
 20
3.007858
 30
0.0
 11
-11.455309
 21
2.858355
 31
0.0
  0
LINE
  5
1D4F
330
1B99
100
AcDbEntity
  8
Level 55
  6
Continuous
 62
     0
370
    -2
100
AcDbLine
 10
-11.455309
 20
2.858355
 30
0.0
 11
-11.500309
 21
2.858355
 31
0.0
  0
SOLID
  5
1D50
330
1B99
100
AcDbEntity
  8
Level 55
  6
Continuous
 62
     0
370
     0
100
AcDbTrace
 10
-11.462809
 20
3.135859
 30
0.0
 11
-11.447809
 21
3.135859
 31
0.0
 12
-11.455309
 22
3.090859
 32
0.0
 13
-11.455309
 23
3.090859
 33
0.0
  0
SOLID
  5
1D51
330
1B99
100
AcDbEntity
  8
Level 55
  6
Continuous
 62
     0
370
     0
100
AcDbTrace
 10
-11.462809
 20
3.007858
 30
0.0
 11
-11.447809
 21
3.007858
 31
0.0
 12
-11.455309
 22
3.052858
 32
0.0
 13
-11.455309
 23
3.052858
 33
0.0
  0
MTEXT
  5
1D52
330
1B99
100
AcDbEntity
  8
Level 55
  6
Continuous
 62
     0
370
     0
100
AcDbMText
 10
-11.570748
 20
2.858355
 30
0.0
 40
0.03
 41
0.0
 46
0.0
 71
     5
 72
     1
  1
\H1x;\W0.916667;.038\P [.97]\H1x;\W0.916667;
  7
Style-WORKING
 73
     1
 44
1.0
  0
POINT
  5
1D53
330
1B99
100
AcDbEntity
  8
Defpoints
  6
Continuous
 62
     0
370
     0
100
AcDbPoint
 10
-11.717873
 20
3.052858
 30
0.0
  0
POINT
  5
1D54
330
1B99
100
AcDbEntity
  8
Defpoints
  6
Continuous
 62
     0
370
     0
100
AcDbPoint
 10
-11.958663
 20
3.090859
 30
0.0
  0
POINT
  5
1D55
330
1B99
100
AcDbEntity
  8
Defpoints
  6
Continuous
 62
     0
370
     0
100
AcDbPoint
 10
-11.455309
 20
3.090859
 30
0.0
  0
ENDBLK
  5
1BA4
330
1B99
100
AcDbEntity
  8
0
 62
     7
370
     0
100
AcDbBlockEnd
  0
BLOCK
  5
1D60
330
1D56
100
AcDbEntity
  8
0
 62
     7
370
     0
100
AcDbBlockBegin
  2
*D24
 70
     1
 10
0.0
 20
0.0
 30
0.0
  3
*D24
  1

  0
LINE
  5
1F1B
330
1D56
100
AcDbEntity
  8
Level 55
  6
Continuous
 62
     0
370
    -2
100
AcDbLine
 10
-11.940663
 20
3.090859
 30
0.0
 11
-11.366412
 21
3.090859
 31
0.0
  0
LINE
  5
1F1C
330
1D56
100
AcDbEntity
  8
Level 55
  6
Continuous
 62
     0
370
    -2
100
AcDbLine
 10
-11.965663
 20
3.014858
 30
0.0
 11
-11.366412
 21
3.014858
 31
0.0
  0
LINE
  5
1F1D
330
1D56
100
AcDbEntity
  8
Level 55
  6
Continuous
 62
     0
370
    -2
100
AcDbLine
 10
-11.381412
 20
2.969858
 30
0.0
 11
-11.381412
 21
2.924858
 31
0.0
  0
LINE
  5
1F1E
330
1D56
100
AcDbEntity
  8
Level 55
  6
Continuous
 62
     0
370
    -2
100
AcDbLine
 10
-11.381412
 20
3.135859
 30
0.0
 11
-11.381412
 21
3.313095
 31
0.0
  0
LINE
  5
1F1F
330
1D56
100
AcDbEntity
  8
Level 55
  6
Continuous
 62
     0
370
    -2
100
AcDbLine
 10
-11.381412
 20
3.313095
 30
0.0
 11
-11.336412
 21
3.313095
 31
0.0
  0
SOLID
  5
1F20
330
1D56
100
AcDbEntity
  8
Level 55
  6
Continuous
 62
     0
370
     0
100
AcDbTrace
 10
-11.388912
 20
2.969858
 30
0.0
 11
-11.373912
 21
2.969858
 31
0.0
 12
-11.381412
 22
3.014858
 32
0.0
 13
-11.381412
 23
3.014858
 33
0.0
  0
SOLID
  5
1F21
330
1D56
100
AcDbEntity
  8
Level 55
  6
Continuous
 62
     0
370
     0
100
AcDbTrace
 10
-11.388912
 20
3.135859
 30
0.0
 11
-11.373912
 21
3.135859
 31
0.0
 12
-11.381412
 22
3.090859
 32
0.0
 13
-11.381412
 23
3.090859
 33
0.0
  0
MTEXT
  5
1F22
330
1D56
100
AcDbEntity
  8
Level 55
  6
Continuous
 62
     0
370
     0
100
AcDbMText
 10
-11.227561
 20
3.313095
 30
0.0
 40
0.03
 41
0.0
 46
0.0
 71
     5
 72
     1
  1
\H1x;\W0.916667;.075 TYP\P\H1x;\W0.916667;
  7
Style-WORKING
 73
     1
 44
1.0
  0
POINT
  5
1F23
330
1D56
100
AcDbEntity
  8
Defpoints
  6
Continuous
 62
     0
370
     0
100
AcDbPoint
 10
-11.958663
 20
3.090859
 30
0.0
  0
POINT
  5
1F24
330
1D56
100
AcDbEntity
  8
Defpoints
  6
Continuous
 62
     0
370
     0
100
AcDbPoint
 10
-11.983663
 20
3.014858
 30
0.0
  0
POINT
  5
1F25
330
1D56
100
AcDbEntity
  8
Defpoints
  6
Continuous
 62
     0
370
     0
100
AcDbPoint
 10
-11.381412
 20
3.014858
 30
0.0
  0
ENDBLK
  5
1D61
330
1D56
100
AcDbEntity
  8
0
 62
     7
370
     0
100
AcDbBlockEnd
  0
BLOCK
  5
1D7B
330
1D71
100
AcDbEntity
  8
0
 62
     7
370
     0
100
AcDbBlockBegin
  2
*D25
 70
     1
 10
0.0
 20
0.0
 30
0.0
  3
*D25
  1

  0
LINE
  5
2701
330
1D71
100
AcDbEntity
  8
Level 55
  6
Continuous
 62
     0
370
    -2
100
AcDbLine
 10
-11.699873
 20
3.052858
 30
0.0
 11
-11.3915
 21
3.052858
 31
0.0
  0
LINE
  5
2702
330
1D71
100
AcDbEntity
  8
Level 55
  6
Continuous
 62
     0
370
    -2
100
AcDbLine
 10
-11.940663
 20
3.090859
 30
0.0
 11
-11.3915
 21
3.090859
 31
0.0
  0
LINE
  5
2703
330
1D71
100
AcDbEntity
  8
Level 55
  6
Continuous
 62
     0
370
    -2
100
AcDbLine
 10
-11.4065
 20
3.135859
 30
0.0
 11
-11.4065
 21
3.180859
 31
0.0
  0
LINE
  5
2704
330
1D71
100
AcDbEntity
  8
Level 55
  6
Continuous
 62
     0
370
    -2
100
AcDbLine
 10
-11.4065
 20
3.007858
 30
0.0
 11
-11.4065
 21
2.751391
 31
0.0
  0
LINE
  5
2705
330
1D71
100
AcDbEntity
  8
Level 55
  6
Continuous
 62
     0
370
    -2
100
AcDbLine
 10
-11.4065
 20
2.751391
 30
0.0
 11
-11.4515
 21
2.751391
 31
0.0
  0
SOLID
  5
2706
330
1D71
100
AcDbEntity
  8
Level 55
  6
Continuous
 62
     0
370
     0
100
AcDbTrace
 10
-11.414
 20
3.135859
 30
0.0
 11
-11.399
 21
3.135859
 31
0.0
 12
-11.4065
 22
3.090859
 32
0.0
 13
-11.4065
 23
3.090859
 33
0.0
  0
SOLID
  5
2707
330
1D71
100
AcDbEntity
  8
Level 55
  6
Continuous
 62
     0
370
     0
100
AcDbTrace
 10
-11.414
 20
3.007858
 30
0.0
 11
-11.399
 21
3.007858
 31
0.0
 12
-11.4065
 22
3.052858
 32
0.0
 13
-11.4065
 23
3.052858
 33
0.0
  0
MTEXT
  5
2708
330
1D71
100
AcDbEntity
  8
Level 55
  6
Continuous
 62
     0
370
     0
100
AcDbMText
 10
-11.521939
 20
2.751391
 30
0.0
 40
0.03
 41
0.0
 46
0.0
 71
     5
 72
     1
  1
\H1x;\W0.916667;.038\P [.97]\H1x;\W0.916667;
  7
Style-WORKING
 73
     1
 44
1.0
  0
POINT
  5
2709
330
1D71
100
AcDbEntity
  8
Defpoints
  6
Continuous
 62
     0
370
     0
100
AcDbPoint
 10
-11.717873
 20
3.052858
 30
0.0
  0
POINT
  5
270A
330
1D71
100
AcDbEntity
  8
Defpoints
  6
Continuous
 62
     0
370
     0
100
AcDbPoint
 10
-11.958663
 20
3.090859
 30
0.0
  0
POINT
  5
270B
330
1D71
100
AcDbEntity
  8
Defpoints
  6
Continuous
 62
     0
370
     0
100
AcDbPoint
 10
-11.4065
 20
3.090859
 30
0.0
  0
ENDBLK
  5
1D7C
330
1D71
100
AcDbEntity
  8
0
 62
     7
370
     0
100
AcDbBlockEnd
  0
BLOCK
  5
1F3B
330
1F31
100
AcDbEntity
  8
0
 62
     7
370
     0
100
AcDbBlockBegin
  2
*D26
 70
     1
 10
0.0
 20
0.0
 30
0.0
  3
*D26
  1

  0
LINE
  5
270C
330
1F31
100
AcDbEntity
  8
Level 55
  6
Continuous
 62
     0
370
    -2
100
AcDbLine
 10
-11.940663
 20
3.090859
 30
0.0
 11
-11.177278
 21
3.090859
 31
0.0
  0
LINE
  5
270D
330
1F31
100
AcDbEntity
  8
Level 55
  6
Continuous
 62
     0
370
    -2
100
AcDbLine
 10
-11.965663
 20
3.014858
 30
0.0
 11
-11.177278
 21
3.014858
 31
0.0
  0
LINE
  5
270E
330
1F31
100
AcDbEntity
  8
Level 55
  6
Continuous
 62
     0
370
    -2
100
AcDbLine
 10
-11.192278
 20
2.969858
 30
0.0
 11
-11.192278
 21
2.924858
 31
0.0
  0
LINE
  5
270F
330
1F31
100
AcDbEntity
  8
Level 55
  6
Continuous
 62
     0
370
    -2
100
AcDbLine
 10
-11.192278
 20
3.135859
 30
0.0
 11
-11.192278
 21
3.313095
 31
0.0
  0
LINE
  5
2710
330
1F31
100
AcDbEntity
  8
Level 55
  6
Continuous
 62
     0
370
    -2
100
AcDbLine
 10
-11.192278
 20
3.313095
 30
0.0
 11
-11.147278
 21
3.313095
 31
0.0
  0
SOLID
  5
2711
330
1F31
100
AcDbEntity
  8
Level 55
  6
Continuous
 62
     0
370
     0
100
AcDbTrace
 10
-11.199778
 20
2.969858
 30
0.0
 11
-11.184778
 21
2.969858
 31
0.0
 12
-11.192278
 22
3.014858
 32
0.0
 13
-11.192278
 23
3.014858
 33
0.0
  0
SOLID
  5
2712
330
1F31
100
AcDbEntity
  8
Level 55
  6
Continuous
 62
     0
370
     0
100
AcDbTrace
 10
-11.199778
 20
3.135859
 30
0.0
 11
-11.184778
 21
3.135859
 31
0.0
 12
-11.192278
 22
3.090859
 32
0.0
 13
-11.192278
 23
3.090859
 33
0.0
  0
MTEXT
  5
2713
330
1F31
100
AcDbEntity
  8
Level 55
  6
Continuous
 62
     0
370
     0
100
AcDbMText
 10
-11.038427
 20
3.313095
 30
0.0
 40
0.03
 41
0.0
 46
0.0
 71
     5
 72
     1
  1
\H1x;\W0.916667;.075 TYP\P\H1x;\W0.916667;
  7
Style-WORKING
 73
     1
 44
1.0
  0
POINT
  5
2714
330
1F31
100
AcDbEntity
  8
Defpoints
  6
Continuous
 62
     0
370
     0
100
AcDbPoint
 10
-11.958663
 20
3.090859
 30
0.0
  0
POINT
  5
2715
330
1F31
100
AcDbEntity
  8
Defpoints
  6
Continuous
 62
     0
370
     0
100
AcDbPoint
 10
-11.983663
 20
3.014858
 30
0.0
  0
POINT
  5
2716
330
1F31
100
AcDbEntity
  8
Defpoints
  6
Continuous
 62
     0
370
     0
100
AcDbPoint
 10
-11.192278
 20
3.014858
 30
0.0
  0
ENDBLK
  5
1F3C
330
1F31
100
AcDbEntity
  8
0
 62
     7
370
     0
100
AcDbBlockEnd
  0
ENDSEC
  0
SECTION
  2
ENTITIES
  0
LINE
  5
A69
330
1191
100
AcDbEntity
  8
Level 1
  6
DGN Style 4
 62
     7
370
     0
100
AcDbLine
 10
-13.041413
 20
3.112633
 30
0.0
 11
-13.041413
 21
2.991677
 31
0.0
  0
CIRCLE
  5
A6A
330
1191
100
AcDbEntity
  8
Level 1
  6
Continuous
 62
     7
370
     0
100
AcDbCircle
 10
13.041414
 20
3.052858
 30
0.0
 40
0.04649999256
210
0.0
220
0.0
230
-1.0
  0
LINE
  5
A6B
330
1191
100
AcDbEntity
  8
Level 1
  6
DGN Style 4
 62
     7
370
     0
100
AcDbLine
 10
-12.982875
 20
3.052858
 30
0.0
 11
-13.099642
 21
3.052858
 31
0.0
  0
CIRCLE
  5
A6C
330
1191
100
AcDbEntity
  8
Level 1
  6
Continuous
 62
     7
370
     0
100
AcDbCircle
 10
11.776413
 20
3.052858
 30
0.0
 40
0.04649999256
210
0.0
220
0.0
230
-1.0
  0
LINE
  5
A6D
330
1191
100
AcDbEntity
  8
Level 55
  6
DGN Style 4
 62
     7
370
     0
100
AcDbLine
 10
-11.717873
 20
3.052858
 30
0.0
 11
-11.834642
 21
3.052858
 31
0.0
  0
CIRCLE
  5
A6E
330
1191
100
AcDbEntity
  8
Level 1
  6
Continuous
 62
     7
370
     0
100
AcDbCircle
 10
12.708665
 20
3.165857
 30
0.0
 40
0.0099999952
210
0.0
220
0.0
230
-1.0
  0
CIRCLE
  5
A6F
330
1191
100
AcDbEntity
  8
Level 1
  6
Continuous
 62
     7
370
     0
100
AcDbCircle
 10
12.608663
 20
3.165859
 30
0.0
 40
0.0099999952
210
0.0
220
0.0
230
-1.0
  0
CIRCLE
  5
A70
330
1191
100
AcDbEntity
  8
Level 1
  6
Continuous
 62
     7
370
     0
100
AcDbCircle
 10
12.508663
 20
3.165859
 30
0.0
 40
0.0099999952
210
0.0
220
0.0
230
-1.0
  0
CIRCLE
  5
A71
330
1191
100
AcDbEntity
  8
Level 1
  6
Continuous
 62
     7
370
     0
100
AcDbCircle
 10
12.408663
 20
3.165859
 30
0.0
 40
0.0099999952
210
0.0
220
0.0
230
-1.0
  0
CIRCLE
  5
A72
330
1191
100
AcDbEntity
  8
Level 1
  6
Continuous
 62
     7
370
     0
100
AcDbCircle
 10
12.308663
 20
3.165859
 30
0.0
 40
0.0099999952
210
0.0
220
0.0
230
-1.0
  0
CIRCLE
  5
A73
330
1191
100
AcDbEntity
  8
Level 1
  6
Continuous
 62
     7
370
     0
100
AcDbCircle
 10
12.208663
 20
3.165859
 30
0.0
 40
0.0099999952
210
0.0
220
0.0
230
-1.0
  0
CIRCLE
  5
A74
330
1191
100
AcDbEntity
  8
Level 1
  6
Continuous
 62
     7
370
     0
100
AcDbCircle
 10
12.108663
 20
3.165859
 30
0.0
 40
0.0099999952
210
0.0
220
0.0
230
-1.0
  0
CIRCLE
  5
A75
330
1191
100
AcDbEntity
  8
Level 1
  6
Continuous
 62
     7
370
     0
100
AcDbCircle
 10
12.008663
 20
3.165859
 30
0.0
 40
0.0099999952
210
0.0
220
0.0
230
-1.0
  0
CIRCLE
  5
A76
330
1191
100
AcDbEntity
  8
Level 1
  6
Continuous
 62
     7
370
     0
100
AcDbCircle
 10
11.958663
 20
3.090859
 30
0.0
 40
0.0099999952
210
0.0
220
0.0
230
-1.0
  0
CIRCLE
  5
A77
330
1191
100
AcDbEntity
  8
Level 1
  6
Continuous
 62
     7
370
     0
100
AcDbCircle
 10
12.058663
 20
3.090859
 30
0.0
 40
0.0099999952
210
0.0
220
0.0
230
-1.0
  0
CIRCLE
  5
A78
330
1191
100
AcDbEntity
  8
Level 1
  6
Continuous
 62
     7
370
     0
100
AcDbCircle
 10
12.158663
 20
3.090859
 30
0.0
 40
0.0099999952
210
0.0
220
0.0
230
-1.0
  0
CIRCLE
  5
A79
330
1191
100
AcDbEntity
  8
Level 1
  6
Continuous
 62
     7
370
     0
100
AcDbCircle
 10
12.258663
 20
3.090859
 30
0.0
 40
0.0099999952
210
0.0
220
0.0
230
-1.0
  0
CIRCLE
  5
A7A
330
1191
100
AcDbEntity
  8
Level 1
  6
Continuous
 62
     7
370
     0
100
AcDbCircle
 10
12.358663
 20
3.090859
 30
0.0
 40
0.0099999952
210
0.0
220
0.0
230
-1.0
  0
CIRCLE
  5
A7B
330
1191
100
AcDbEntity
  8
Level 1
  6
Continuous
 62
     7
370
     0
100
AcDbCircle
 10
12.458663
 20
3.090859
 30
0.0
 40
0.0099999952
210
0.0
220
0.0
230
-1.0
  0
CIRCLE
  5
A7C
330
1191
100
AcDbEntity
  8
Level 1
  6
Continuous
 62
     7
370
     0
100
AcDbCircle
 10
12.558663
 20
3.090859
 30
0.0
 40
0.0099999952
210
0.0
220
0.0
230
-1.0
  0
CIRCLE
  5
A7D
330
1191
100
AcDbEntity
  8
Level 1
  6
Continuous
 62
     7
370
     0
100
AcDbCircle
 10
12.658663
 20
3.090859
 30
0.0
 40
0.0099999952
210
0.0
220
0.0
230
-1.0
  0
CIRCLE
  5
A7E
330
1191
100
AcDbEntity
  8
Level 1
  6
Continuous
 62
     7
370
     0
100
AcDbCircle
 10
12.683663
 20
3.014858
 30
0.0
 40
0.0099999952
210
0.0
220
0.0
230
-1.0
  0
CIRCLE
  5
A7F
330
1191
100
AcDbEntity
  8
Level 1
  6
Continuous
 62
     7
370
     0
100
AcDbCircle
 10
12.583663
 20
3.014858
 30
0.0
 40
0.0099999952
210
0.0
220
0.0
230
-1.0
  0
CIRCLE
  5
A80
330
1191
100
AcDbEntity
  8
Level 1
  6
Continuous
 62
     7
370
     0
100
AcDbCircle
 10
12.483663
 20
3.014858
 30
0.0
 40
0.0099999952
210
0.0
220
0.0
230
-1.0
  0
CIRCLE
  5
A81
330
1191
100
AcDbEntity
  8
Level 1
  6
Continuous
 62
     7
370
     0
100
AcDbCircle
 10
12.383663
 20
3.014858
 30
0.0
 40
0.0099999952
210
0.0
220
0.0
230
-1.0
  0
CIRCLE
  5
A82
330
1191
100
AcDbEntity
  8
Level 1
  6
Continuous
 62
     7
370
     0
100
AcDbCircle
 10
12.283663
 20
3.014858
 30
0.0
 40
0.0099999952
210
0.0
220
0.0
230
-1.0
  0
CIRCLE
  5
A83
330
1191
100
AcDbEntity
  8
Level 1
  6
Continuous
 62
     7
370
     0
100
AcDbCircle
 10
12.183663
 20
3.014858
 30
0.0
 40
0.0099999952
210
0.0
220
0.0
230
-1.0
  0
CIRCLE
  5
A84
330
1191
100
AcDbEntity
  8
Level 1
  6
Continuous
 62
     7
370
     0
100
AcDbCircle
 10
12.083663
 20
3.014858
 30
0.0
 40
0.0099999952
210
0.0
220
0.0
230
-1.0
  0
CIRCLE
  5
A85
330
1191
100
AcDbEntity
  8
Level 1
  6
Continuous
 62
     7
370
     0
100
AcDbCircle
 10
11.983663
 20
3.014858
 30
0.0
 40
0.0099999952
210
0.0
220
0.0
230
-1.0
  0
CIRCLE
  5
A86
330
1191
100
AcDbEntity
  8
Level 1
  6
Continuous
 62
     7
370
     0
100
AcDbCircle
 10
12.033665
 20
2.939858
 30
0.0
 40
0.0099999952
210
0.0
220
0.0
230
-1.0
  0
CIRCLE
  5
A87
330
1191
100
AcDbEntity
  8
Level 1
  6
Continuous
 62
     7
370
     0
100
AcDbCircle
 10
12.133663
 20
2.939858
 30
0.0
 40
0.0099999952
210
0.0
220
0.0
230
-1.0
  0
CIRCLE
  5
A88
330
1191
100
AcDbEntity
  8
Level 1
  6
Continuous
 62
     7
370
     0
100
AcDbCircle
 10
12.233663
 20
2.939858
 30
0.0
 40
0.0099999952
210
0.0
220
0.0
230
-1.0
  0
CIRCLE
  5
A89
330
1191
100
AcDbEntity
  8
Level 1
  6
Continuous
 62
     7
370
     0
100
AcDbCircle
 10
12.333663
 20
2.939858
 30
0.0
 40
0.0099999952
210
0.0
220
0.0
230
-1.0
  0
CIRCLE
  5
A8A
330
1191
100
AcDbEntity
  8
Level 1
  6
Continuous
 62
     7
370
     0
100
AcDbCircle
 10
12.433663
 20
2.939858
 30
0.0
 40
0.0099999952
210
0.0
220
0.0
230
-1.0
  0
CIRCLE
  5
A8B
330
1191
100
AcDbEntity
  8
Level 1
  6
Continuous
 62
     7
370
     0
100
AcDbCircle
 10
12.533663
 20
2.939858
 30
0.0
 40
0.0099999952
210
0.0
220
0.0
230
-1.0
  0
CIRCLE
  5
A8C
330
1191
100
AcDbEntity
  8
Level 1
  6
Continuous
 62
     7
370
     0
100
AcDbCircle
 10
12.633663
 20
2.939858
 30
0.0
 40
0.0099999952
210
0.0
220
0.0
230
-1.0
  0
LINE
  5
AAD
330
1191
100
AcDbEntity
  8
Level 55
  6
DGN Style 4
 62
     7
370
     0
100
AcDbLine
 10
-13.041413
 20
3.112633
 30
0.0
 11
-13.041413
 21
2.991677
 31
0.0
  0
LINE
  5
AB6
330
1191
100
AcDbEntity
  8
Level 55
  6
DGN Style 4
 62
     7
370
     0
100
AcDbLine
 10
-11.776413
 20
3.112633
 30
0.0
 11
-11.776413
 21
2.991677
 31
0.0
  0
CIRCLE
  5
AB7
330
1191
100
AcDbEntity
  8
Level 1
  6
Continuous
 62
     7
370
     0
100
AcDbCircle
 10
12.808665
 20
3.165857
 30
0.0
 40
0.0099999952
210
0.0
220
0.0
230
-1.0
  0
CIRCLE
  5
AB8
330
1191
100
AcDbEntity
  8
Level 1
  6
Continuous
 62
     7
370
     0
100
AcDbCircle
 10
12.758663
 20
3.090859
 30
0.0
 40
0.0099999952
210
0.0
220
0.0
230
-1.0
  0
CIRCLE
  5
AB9
330
1191
100
AcDbEntity
  8
Level 1
  6
Continuous
 62
     7
370
     0
100
AcDbCircle
 10
12.783663
 20
3.014858
 30
0.0
 40
0.0099999952
210
0.0
220
0.0
230
-1.0
  0
CIRCLE
  5
ABA
330
1191
100
AcDbEntity
  8
Level 1
  6
Continuous
 62
     7
370
     0
100
AcDbCircle
 10
12.733663
 20
2.939858
 30
0.0
 40
0.0099999952
210
0.0
220
0.0
230
-1.0
  0
CIRCLE
  5
ABB
330
1191
100
AcDbEntity
  8
Level 1
  6
Continuous
 62
     7
370
     0
100
AcDbCircle
 10
12.858663
 20
3.090859
 30
0.0
 40
0.0099999952
210
0.0
220
0.0
230
-1.0
  0
CIRCLE
  5
ABC
330
1191
100
AcDbEntity
  8
Level 1
  6
Continuous
 62
     7
370
     0
100
AcDbCircle
 10
12.833663
 20
2.939858
 30
0.0
 40
0.0099999952
210
0.0
220
0.0
230
-1.0
  0
TEXT
  5
ABD
330
1191
100
AcDbEntity
  8
Level 1
  6
Continuous
 62
     7
370
     0
100
AcDbText
 10
-12.599886
 20
2.971272
 30
0.0
 40
0.0275
  1
32
 41
0.818182
  7
Style-ANSI_SYMBOLS
 72
     1
 11
-12.581315
 21
2.985022
 31
0.0
100
AcDbText
 73
     2
  0
TEXT
  5
ABE
330
1191
100
AcDbEntity
  8
Level 1
  6
Continuous
 62
     7
370
     0
100
AcDbText
 10
-12.653722
 20
2.897549
 30
0.0
 40
0.0275
  1
33
 41
0.818182
  7
Style-ANSI_SYMBOLS
 72
     1
 11
-12.635151
 21
2.911299
 31
0.0
100
AcDbText
 73
     2
  0
TEXT
  5
AC0
330
1191
100
AcDbEntity
  8
Level 1
  6
Continuous
 62
     7
370
     0
100
AcDbText
 10
-12.704724
 20
2.972689
 30
0.0
 40
0.0275
  1
34
 41
0.818182
  7
Style-ANSI_SYMBOLS
 72
     1
 11
-12.686153
 21
2.986439
 31
0.0
100
AcDbText
 73
     2
  0
TEXT
  5
AC1
330
1191
100
AcDbEntity
  8
Level 1
  6
Continuous
 62
     7
370
     0
100
AcDbText
 10
-12.751476
 20
2.896131
 30
0.0
 40
0.0275
  1
35
 41
0.818182
  7
Style-ANSI_SYMBOLS
 72
     1
 11
-12.732905
 21
2.909881
 31
0.0
100
AcDbText
 73
     2
  0
TEXT
  5
AC2
330
1191
100
AcDbEntity
  8
Level 1
  6
Continuous
 62
     7
370
     0
100
AcDbText
 10
-12.802478
 20
2.971272
 30
0.0
 40
0.0275
  1
36
 41
0.818182
  7
Style-ANSI_SYMBOLS
 72
     1
 11
-12.783907
 21
2.985022
 31
0.0
100
AcDbText
 73
     2
  0
TEXT
  5
AC3
330
1191
100
AcDbEntity
  8
Level 1
  6
Continuous
 62
     7
370
     0
100
AcDbText
 10
-12.852063
 20
2.896131
 30
0.0
 40
0.0275
  1
37
 41
0.818182
  7
Style-ANSI_SYMBOLS
 72
     1
 11
-12.833492
 21
2.909881
 31
0.0
100
AcDbText
 73
     2
  0
TEXT
  5
A8E
330
1191
100
AcDbEntity
  8
Level 1
  6
Continuous
 62
     7
370
     0
100
AcDbText
 10
-11.959678
 20
3.047416
 30
0.0
 40
0.0275
  1
1
 41
0.818182
  7
Style-ANSI_SYMBOLS
 72
     1
 11
-11.956107
 21
3.061166
 31
0.0
100
AcDbText
 73
     2
  0
TEXT
  5
A8F
330
1191
100
AcDbEntity
  8
Level 1
  6
Continuous
 62
     7
370
     0
100
AcDbText
 10
-12.010629
 20
3.121227
 30
0.0
 40
0.0275
  1
2
 41
0.818182
  7
Style-ANSI_SYMBOLS
 72
     1
 11
-12.003308
 21
3.134977
 31
0.0
100
AcDbText
 73
     2
  0
TEXT
  5
A90
330
1191
100
AcDbEntity
  8
Level 1
  6
Continuous
 62
     7
370
     0
100
AcDbText
 10
-12.063427
 20
3.047416
 30
0.0
 40
0.0275
  1
3
 41
0.818182
  7
Style-ANSI_SYMBOLS
 72
     1
 11
-12.056106
 21
3.061166
 31
0.0
100
AcDbText
 73
     2
  0
TEXT
  5
A91
330
1191
100
AcDbEntity
  8
Level 1
  6
Continuous
 62
     7
370
     0
100
AcDbText
 10
-12.110629
 20
3.121227
 30
0.0
 40
0.0275
  1
4
 41
0.818182
  7
Style-ANSI_SYMBOLS
 72
     1
 11
-12.103308
 21
3.134977
 31
0.0
100
AcDbText
 73
     2
  0
TEXT
  5
A92
330
1191
100
AcDbEntity
  8
Level 1
  6
Continuous
 62
     7
370
     0
100
AcDbText
 10
-12.163427
 20
3.047416
 30
0.0
 40
0.0275
  1
5
 41
0.818182
  7
Style-ANSI_SYMBOLS
 72
     1
 11
-12.156106
 21
3.061166
 31
0.0
100
AcDbText
 73
     2
  0
TEXT
  5
A93
330
1191
100
AcDbEntity
  8
Level 1
  6
Continuous
 62
     7
370
     0
100
AcDbText
 10
-12.210629
 20
3.121227
 30
0.0
 40
0.0275
  1
6
 41
0.818182
  7
Style-ANSI_SYMBOLS
 72
     1
 11
-12.203308
 21
3.134977
 31
0.0
100
AcDbText
 73
     2
  0
TEXT
  5
A94
330
1191
100
AcDbEntity
  8
Level 1
  6
Continuous
 62
     7
370
     0
100
AcDbText
 10
-12.263427
 20
3.047416
 30
0.0
 40
0.0275
  1
7
 41
0.818182
  7
Style-ANSI_SYMBOLS
 72
     1
 11
-12.256106
 21
3.061166
 31
0.0
100
AcDbText
 73
     2
  0
TEXT
  5
A95
330
1191
100
AcDbEntity
  8
Level 1
  6
Continuous
 62
     7
370
     0
100
AcDbText
 10
-12.310629
 20
3.121227
 30
0.0
 40
0.0275
  1
8
 41
0.818182
  7
Style-ANSI_SYMBOLS
 72
     1
 11
-12.303308
 21
3.134977
 31
0.0
100
AcDbText
 73
     2
  0
TEXT
  5
A96
330
1191
100
AcDbEntity
  8
Level 1
  6
Continuous
 62
     7
370
     0
100
AcDbText
 10
-12.363427
 20
3.047416
 30
0.0
 40
0.0275
  1
9
 41
0.818182
  7
Style-ANSI_SYMBOLS
 72
     1
 11
-12.356106
 21
3.061166
 31
0.0
100
AcDbText
 73
     2
  0
TEXT
  5
A97
330
1191
100
AcDbEntity
  8
Level 1
  6
Continuous
 62
     7
370
     0
100
AcDbText
 10
-12.42188
 20
3.121227
 30
0.0
 40
0.0275
  1
10
 41
0.818182
  7
Style-ANSI_SYMBOLS
 72
     1
 11
-12.403309
 21
3.134977
 31
0.0
100
AcDbText
 73
     2
  0
TEXT
  5
A98
330
1191
100
AcDbEntity
  8
Level 1
  6
Continuous
 62
     7
370
     0
100
AcDbText
 10
-12.470927
 20
3.047416
 30
0.0
 40
0.0275
  1
11
 41
0.818182
  7
Style-ANSI_SYMBOLS
 72
     1
 11
-12.456106
 21
3.061166
 31
0.0
100
AcDbText
 73
     2
  0
TEXT
  5
A99
330
1191
100
AcDbEntity
  8
Level 1
  6
Continuous
 62
     7
370
     0
100
AcDbText
 10
-12.52188
 20
3.121227
 30
0.0
 40
0.0275
  1
12
 41
0.818182
  7
Style-ANSI_SYMBOLS
 72
     1
 11
-12.503309
 21
3.134977
 31
0.0
100
AcDbText
 73
     2
  0
TEXT
  5
A9A
330
1191
100
AcDbEntity
  8
Level 1
  6
Continuous
 62
     7
370
     0
100
AcDbText
 10
-12.574679
 20
3.047416
 30
0.0
 40
0.0275
  1
13
 41
0.818182
  7
Style-ANSI_SYMBOLS
 72
     1
 11
-12.556108
 21
3.061166
 31
0.0
100
AcDbText
 73
     2
  0
TEXT
  5
A9B
330
1191
100
AcDbEntity
  8
Level 1
  6
Continuous
 62
     7
370
     0
100
AcDbText
 10
-12.62188
 20
3.121227
 30
0.0
 40
0.0275
  1
14
 41
0.818182
  7
Style-ANSI_SYMBOLS
 72
     1
 11
-12.603309
 21
3.134977
 31
0.0
100
AcDbText
 73
     2
  0
TEXT
  5
A9C
330
1191
100
AcDbEntity
  8
Level 1
  6
Continuous
 62
     7
370
     0
100
AcDbText
 10
-12.674679
 20
3.047416
 30
0.0
 40
0.0275
  1
15
 41
0.818182
  7
Style-ANSI_SYMBOLS
 72
     1
 11
-12.656108
 21
3.061166
 31
0.0
100
AcDbText
 73
     2
  0
TEXT
  5
A9D
330
1191
100
AcDbEntity
  8
Level 1
  6
Continuous
 62
     7
370
     0
100
AcDbText
 10
-12.72188
 20
3.121227
 30
0.0
 40
0.0275
  1
16
 41
0.818182
  7
Style-ANSI_SYMBOLS
 72
     1
 11
-12.703309
 21
3.134977
 31
0.0
100
AcDbText
 73
     2
  0
TEXT
  5
A9E
330
1191
100
AcDbEntity
  8
Level 1
  6
Continuous
 62
     7
370
     0
100
AcDbText
 10
-12.774143
 20
3.046412
 30
0.0
 40
0.0275
  1
17
 41
0.818182
  7
Style-ANSI_SYMBOLS
 72
     1
 11
-12.755572
 21
3.060162
 31
0.0
100
AcDbText
 73
     2
  0
TEXT
  5
A9F
330
1191
100
AcDbEntity
  8
Level 1
  6
Continuous
 62
     7
370
     0
100
AcDbText
 10
-12.823729
 20
3.122971
 30
0.0
 40
0.0275
  1
18
 41
0.818182
  7
Style-ANSI_SYMBOLS
 72
     1
 11
-12.805158
 21
3.136721
 31
0.0
100
AcDbText
 73
     2
  0
TEXT
  5
AA0
330
1191
100
AcDbEntity
  8
Level 1
  6
Continuous
 62
     7
370
     0
100
AcDbText
 10
-12.873314
 20
3.049248
 30
0.0
 40
0.0275
  1
19
 41
0.818182
  7
Style-ANSI_SYMBOLS
 72
     1
 11
-12.854743
 21
3.062998
 31
0.0
100
AcDbText
 73
     2
  0
TEXT
  5
AA1
330
1191
100
AcDbEntity
  8
Level 1
  6
Continuous
 62
     7
370
     0
100
AcDbText
 10
-12.005842
 20
2.972103
 30
0.0
 40
0.0275
  1
20
 41
0.818182
  7
Style-ANSI_SYMBOLS
 72
     1
 11
-11.987271
 21
2.985853
 31
0.0
100
AcDbText
 73
     2
  0
TEXT
  5
AA2
330
1191
100
AcDbEntity
  8
Level 1
  6
Continuous
 62
     7
370
     0
100
AcDbText
 10
-12.051131
 20
2.896831
 30
0.0
 40
0.0275
  1
21
 41
0.818182
  7
Style-ANSI_SYMBOLS
 72
     1
 11
-12.03631
 21
2.910581
 31
0.0
100
AcDbText
 73
     2
  0
TEXT
  5
AA3
330
1191
100
AcDbEntity
  8
Level 1
  6
Continuous
 62
     7
370
     0
100
AcDbText
 10
-12.105842
 20
2.972103
 30
0.0
 40
0.0275
  1
22
 41
0.818182
  7
Style-ANSI_SYMBOLS
 72
     1
 11
-12.087271
 21
2.985853
 31
0.0
100
AcDbText
 73
     2
  0
TEXT
  5
AA4
330
1191
100
AcDbEntity
  8
Level 1
  6
Continuous
 62
     7
370
     0
100
AcDbText
 10
-12.154883
 20
2.896831
 30
0.0
 40
0.0275
  1
23
 41
0.818182
  7
Style-ANSI_SYMBOLS
 72
     1
 11
-12.136312
 21
2.910581
 31
0.0
100
AcDbText
 73
     2
  0
TEXT
  5
AA5
330
1191
100
AcDbEntity
  8
Level 1
  6
Continuous
 62
     7
370
     0
100
AcDbText
 10
-12.205842
 20
2.972103
 30
0.0
 40
0.0275
  1
24
 41
0.818182
  7
Style-ANSI_SYMBOLS
 72
     1
 11
-12.187271
 21
2.985853
 31
0.0
100
AcDbText
 73
     2
  0
TEXT
  5
AA6
330
1191
100
AcDbEntity
  8
Level 1
  6
Continuous
 62
     7
370
     0
100
AcDbText
 10
-12.254883
 20
2.896831
 30
0.0
 40
0.0275
  1
25
 41
0.818182
  7
Style-ANSI_SYMBOLS
 72
     1
 11
-12.236312
 21
2.910581
 31
0.0
100
AcDbText
 73
     2
  0
TEXT
  5
AA7
330
1191
100
AcDbEntity
  8
Level 1
  6
Continuous
 62
     7
370
     0
100
AcDbText
 10
-12.305842
 20
2.972103
 30
0.0
 40
0.0275
  1
26
 41
0.818182
  7
Style-ANSI_SYMBOLS
 72
     1
 11
-12.287271
 21
2.985853
 31
0.0
100
AcDbText
 73
     2
  0
TEXT
  5
AA8
330
1191
100
AcDbEntity
  8
Level 1
  6
Continuous
 62
     7
370
     0
100
AcDbText
 10
-12.354883
 20
2.896831
 30
0.0
 40
0.0275
  1
27
 41
0.818182
  7
Style-ANSI_SYMBOLS
 72
     1
 11
-12.336312
 21
2.910581
 31
0.0
100
AcDbText
 73
     2
  0
TEXT
  5
AA9
330
1191
100
AcDbEntity
  8
Level 1
  6
Continuous
 62
     7
370
     0
100
AcDbText
 10
-12.405842
 20
2.972103
 30
0.0
 40
0.0275
  1
28
 41
0.818182
  7
Style-ANSI_SYMBOLS
 72
     1
 11
-12.387271
 21
2.985853
 31
0.0
100
AcDbText
 73
     2
  0
TEXT
  5
AAA
330
1191
100
AcDbEntity
  8
Level 1
  6
Continuous
 62
     7
370
     0
100
AcDbText
 10
-12.454883
 20
2.896831
 30
0.0
 40
0.0275
  1
29
 41
0.818182
  7
Style-ANSI_SYMBOLS
 72
     1
 11
-12.436312
 21
2.910581
 31
0.0
100
AcDbText
 73
     2
  0
TEXT
  5
AAB
330
1191
100
AcDbEntity
  8
Level 1
  6
Continuous
 62
     7
370
     0
100
AcDbText
 10
-12.505842
 20
2.972103
 30
0.0
 40
0.0275
  1
30
 41
0.818182
  7
Style-ANSI_SYMBOLS
 72
     1
 11
-12.487271
 21
2.985853
 31
0.0
100
AcDbText
 73
     2
  0
TEXT
  5
AAC
330
1191
100
AcDbEntity
  8
Level 1
  6
Continuous
 62
     7
370
     0
100
AcDbText
 10
-12.551131
 20
2.896831
 30
0.0
 40
0.0275
  1
31
 41
0.818182
  7
Style-ANSI_SYMBOLS
 72
     1
 11
-12.53631
 21
2.910581
 31
0.0
100
AcDbText
 73
     2
  0
DIMENSION
  5
AAE
330
1191
100
AcDbEntity
  8
Level 55
  6
Continuous
 62
     7
370
     0
100
AcDbDimension
  2
*D3
 10
-11.776413
 20
3.328983
 30
0.0
 11
-12.453419
 21
3.328983
 31
0.0
 70
   160
  1
\H1x;\W0.916667;<>\H1x;\W0.916667;
 71
     5
 42
1.265
 73
     0
 74
     0
 75
     0
  3
Standard
100
AcDbAlignedDimension
 13
-13.041413
 23
3.112633
 33
0.0
 14
-11.776413
 24
3.112633
 34
0.0
100
AcDbRotatedDimension
1001
ACAD
1000
DSTYLE
1002
{
1070
    78
1070
     7
1070
   288
1070
     1
1070
   284
1070
     7
1070
   140
1040
0.03
1070
   340
1005
1286
1070
    47
1040
0.002
1070
   283
1070
     0
1070
    48
1040
0.002
1070
   272
1070
     3
1070
     3
1000
\X
1070
   147
1040
0.009
1070
   276
1070
     2
1070
    42
1040
0.018
1070
    44
1040
0.015
1070
    43
1040
0.0
1070
   271
1070
     3
1070
   289
1070
     1
1070
    41
1040
0.045
1070
   285
1070
    15
1070
   286
1070
    15
1070
   170
1070
     1
1002
}
  0
DIMENSION
  5
AB1
330
1191
100
AcDbEntity
  8
Level 55
  6
Continuous
 62
     7
370
     0
100
AcDbDimension
  2
*D26
 10
-11.192278
 20
3.014858
 30
0.0
 11
-11.038427
 21
3.313095
 31
0.0
 70
   160
  1
\H1x;\W0.916667;.075 TYP\X\H1x;\W0.916667;
 71
     5
 42
0.076001
 73
     0
 74
     0
 75
     0
  3
Standard
100
AcDbAlignedDimension
 13
-11.958663
 23
3.090859
 33
0.0
 14
-11.983663
 24
3.014858
 34
0.0
 50
270.0
100
AcDbRotatedDimension
1001
ACAD
1000
DSTYLE
1002
{
1070
    78
1070
     7
1070
   288
1070
     0
1070
   284
1070
     7
1070
   140
1040
0.03
1070
   340
1005
1286
1070
    47
1040
0.0
1070
   283
1070
     0
1070
    48
1040
0.0
1070
   272
1070
     3
1070
     3
1000
\X
1070
   147
1040
0.009
1070
   276
1070
     2
1070
    42
1040
0.018
1070
    44
1040
0.015
1070
    43
1040
0.0
1070
   271
1070
     3
1070
   289
1070
     1
1070
    41
1040
0.045
1070
   285
1070
    15
1070
   286
1070
    15
1070
   170
1070
     1
1002
}
  0
DIMENSION
  5
AAF
330
1191
100
AcDbEntity
  8
Level 55
  6
Continuous
 62
     7
370
     0
100
AcDbDimension
  2
*D7
 10
-11.958663
 20
3.218319
 30
0.0
 11
-11.87019
 21
3.218319
 31
0.0
 70
   160
  1
\H1x;\W0.916667;.183\X\H1x;\W0.916667;
 71
     5
 42
0.18225
 73
     0
 74
     0
 75
     0
  3
Standard
100
AcDbAlignedDimension
 13
-11.776413
 23
3.112633
 33
0.0
 14
-11.958663
 24
3.090859
 34
0.0
 50
180.0
100
AcDbRotatedDimension
1001
ACAD
1000
DSTYLE
1002
{
1070
    78
1070
     7
1070
   288
1070
     1
1070
   284
1070
     7
1070
   140
1040
0.03
1070
   340
1005
1286
1070
    47
1040
0.002
1070
   283
1070
     0
1070
    48
1040
0.002
1070
   272
1070
     3
1070
     3
1000
\X
1070
   147
1040
0.009
1070
   276
1070
     2
1070
    42
1040
0.018
1070
    44
1040
0.015
1070
    43
1040
0.0
1070
   271
1070
     3
1070
   289
1070
     1
1070
    41
1040
0.045
1070
   285
1070
    15
1070
   286
1070
    15
1070
   170
1070
     1
1002
}
  0
DIMENSION
  5
AB0
330
1191
100
AcDbEntity
  8
Level 55
  6
Continuous
 62
     7
370
     0
100
AcDbDimension
  2
*D25
 10
-11.4065
 20
3.090859
 30
0.0
 11
-11.521939
 21
2.751391
 31
0.0
 70
   160
  1
\H1x;\W0.916667;<>\H1x;\W0.916667;
 71
     5
 42
0.038001
 73
     0
 74
     0
 75
     0
  3
Standard
100
AcDbAlignedDimension
 13
-11.717873
 23
3.052858
 33
0.0
 14
-11.958663
 24
3.090859
 34
0.0
 50
90.0
100
AcDbRotatedDimension
1001
ACAD
1000
DSTYLE
1002
{
1070
    78
1070
     7
1070
   288
1070
     0
1070
   284
1070
     7
1070
   140
1040
0.03
1070
   340
1005
1286
1070
    47
1040
0.0
1070
   283
1070
     0
1070
    48
1040
0.0
1070
   272
1070
     3
1070
     3
1000
\X
1070
   147
1040
0.009
1070
   276
1070
     2
1070
    42
1040
0.018
1070
    44
1040
0.015
1070
    43
1040
0.0
1070
   271
1070
     3
1070
   289
1070
     1
1070
    41
1040
0.045
1070
   285
1070
    15
1070
   286
1070
    15
1070
   170
1070
     1
1002
}
  0
DIMENSION
  5
AB4
330
1191
100
AcDbEntity
  8
Level 55
  6
Continuous
 62
     7
370
     0
100
AcDbDimension
  2
*D11
 10
-11.984413
 20
2.837144
 30
0.0
 11
-11.798429
 21
2.837144
 31
0.0
 70
   160
  1
\H1x;\W0.916667;<>\H1x;\W0.916667;
 71
     5
 42
0.025
 73
     0
 74
     0
 75
     0
  3
Standard
100
AcDbAlignedDimension
 13
-11.959413
 23
3.090858
 33
0.0
 14
-11.984413
 24
3.015858
 34
0.0
 50
180.0
100
AcDbRotatedDimension
1001
ACAD
1000
DSTYLE
1002
{
1070
    78
1070
     7
1070
   288
1070
     1
1070
   284
1070
     7
1070
   140
1040
0.03
1070
   340
1005
1286
1070
    47
1040
0.002
1070
   283
1070
     0
1070
    48
1040
0.002
1070
   272
1070
     3
1070
     3
1000
\X
1070
   147
1040
0.009
1070
   276
1070
     2
1070
    42
1040
0.018
1070
    44
1040
0.015
1070
    43
1040
0.0
1070
   271
1070
     3
1070
   289
1070
     1
1070
    41
1040
0.045
1070
   285
1070
    15
1070
   286
1070
    15
1070
   170
1070
     1
1002
}
  0
DIMENSION
  5
AB2
330
1191
100
AcDbEntity
  8
Level 55
  6
Continuous
 62
     7
370
     0
100
AcDbDimension
  2
*D13
 10
-12.009413
 20
2.75927
 30
0.0
 11
-12.20992
 21
2.75927
 31
0.0
 70
   160
  1
\H1x;\W0.916667;<>\H1x;\W0.916667;
 71
     5
 42
0.05
 73
     0
 74
     0
 75
     0
  3
Standard
100
AcDbAlignedDimension
 13
-11.959413
 23
3.090858
 33
0.0
 14
-12.009413
 24
3.165858
 34
0.0
 50
180.0
100
AcDbRotatedDimension
1001
ACAD
1000
DSTYLE
1002
{
1070
    78
1070
     7
1070
   288
1070
     1
1070
   284
1070
     7
1070
   140
1040
0.03
1070
   340
1005
1286
1070
    47
1040
0.002
1070
   283
1070
     0
1070
    48
1040
0.002
1070
   272
1070
     3
1070
     3
1000
\X
1070
   147
1040
0.009
1070
   276
1070
     2
1070
    42
1040
0.018
1070
    44
1040
0.015
1070
    43
1040
0.0
1070
   271
1070
     3
1070
   289
1070
     1
1070
    41
1040
0.045
1070
   285
1070
    15
1070
   286
1070
    15
1070
   170
1070
     1
1002
}
  0
DIMENSION
  5
AB5
330
1191
100
AcDbEntity
  8
Level 55
  6
Continuous
 62
     7
370
     0
100
AcDbDimension
  2
*D15
 10
-12.034413
 20
2.673198
 30
0.0
 11
-11.797338
 21
2.673198
 31
0.0
 70
   160
  1
\H1x;\W0.916667;<>\H1x;\W0.916667;
 71
     5
 42
0.075
 73
     0
 74
     0
 75
     0
  3
Standard
100
AcDbAlignedDimension
 13
-11.959413
 23
3.090858
 33
0.0
 14
-12.034413
 24
2.940858
 34
0.0
 50
180.0
100
AcDbRotatedDimension
1001
ACAD
1000
DSTYLE
1002
{
1070
    78
1070
     7
1070
   288
1070
     1
1070
   284
1070
     7
1070
   140
1040
0.03
1070
   340
1005
1286
1070
    47
1040
0.002
1070
   283
1070
     0
1070
    48
1040
0.002
1070
   272
1070
     3
1070
     3
1000
\X
1070
   147
1040
0.009
1070
   276
1070
     2
1070
    42
1040
0.018
1070
    44
1040
0.015
1070
    43
1040
0.0
1070
   271
1070
     3
1070
   289
1070
     1
1070
    41
1040
0.045
1070
   285
1070
    15
1070
   286
1070
    15
1070
   170
1070
     1
1002
}
  0
DIMENSION
  5
AB3
330
1191
100
AcDbEntity
  8
Level 55
  6
Continuous
 62
     7
370
     0
100
AcDbDimension
  2
*D17
 10
-12.059413
 20
2.578929
 30
0.0
 11
-12.291003
 21
2.578929
 31
0.0
 70
   160
  1
\H1x;\W0.916667;<> TYP\H1x;\W0.916667;
 71
     5
 42
0.1
 73
     0
 74
     0
 75
     0
  3
Standard
100
AcDbAlignedDimension
 13
-11.959413
 23
3.090858
 33
0.0
 14
-12.059413
 24
3.090858
 34
0.0
 50
180.0
100
AcDbRotatedDimension
1001
ACAD
1000
DSTYLE
1002
{
1070
    78
1070
     7
1070
   288
1070
     1
1070
   284
1070
     7
1070
   140
1040
0.03
1070
   340
1005
1286
1070
    47
1040
0.002
1070
   283
1070
     0
1070
    48
1040
0.002
1070
   272
1070
     3
1070
     3
1000
\X
1070
   147
1040
0.009
1070
   276
1070
     2
1070
    42
1040
0.018
1070
    44
1040
0.015
1070
    43
1040
0.0
1070
   271
1070
     3
1070
   289
1070
     1
1070
    41
1040
0.045
1070
   285
1070
    15
1070
   286
1070
    15
1070
   170
1070
     1
1002
}
  0
TEXT
  5
A8D
330
1191
100
AcDbEntity
  8
Level 1
  6
Continuous
 62
     7
370
     0
100
AcDbText
 10
-12.560112
 20
2.454336
 30
0.0
 40
0.03
  1
SIZE 37
 41
0.916667
  7
Style-WORKING
 72
     1
 11
-12.478158
 21
2.469336
 31
0.0
100
AcDbText
 73
     2
  0
LEADER
  5
1176
330
1191
100
AcDbEntity
  8
Level 55
  6
Continuous
 62
     7
370
     0
100
AcDbLeader
  3
Standard
 76
     3
 10
-13.076374
 20
3.082767
 30
0.0
 10
-13.154984
 20
3.14601
 30
0.0
 10
-13.170398
 20
3.14601
 30
0.0
1001
ACAD
1000
DSTYLE
1002
{
1070
   140
1040
0.03
1070
   340
1005
1286
1070
   147
1040
0.015
1070
    41
1040
0.045
1002
}
  0
TEXT
  5
1177
330
1191
100
AcDbEntity
  8
Level 1
  6
Continuous
 62
     7
370
     0
100
AcDbText
 10
-13.438206
 20
3.129467
 30
0.0
 40
0.03
  1
%%c.096 [2.44]
 41
0.916667
 72
     1
 11
-13.307581
 21
3.144467
 31
0.0
100
AcDbText
 73
     2
  0
INSERT
  5
6F0
330
1191
100
AcDbEntity
  8
0
  6
Continuous
 62
     7
370
     0
100
AcDbBlockReference
  2
umiborder
 10
0.0
 20
0.0
 30
0.0
  0
INSERT
  5
73A
330
1191
100
AcDbEntity
  8
0
  6
Continuous
 62
     7
370
     0
100
AcDbBlockReference
  2
Style 1  PCB layouts
 10
0.0
 20
0.0
 30
0.0
  0
MTEXT
  5
13D3
330
1191
100
AcDbEntity
  8
Level 1
  6
Continuous
 62
     7
370
     0
100
AcDbMText
 10
-11.929188
 20
3.186406
 30
0.0
 40
0.03
 41
0.0
 46
0.0
 71
     1
 72
     1
  1
\H1x;\W0.916667;[4.65]
 73
     1
 44
1.0
  0
MTEXT
  5
2035
330
1191
100
AcDbEntity
  8
Level 1
  6
Continuous
 62
     7
370
     0
100
AcDbMText
 10
-11.148247
 20
3.283566
 30
0.0
 40
0.03
 41
0.0
 46
0.0
 71
     1
 72
     1
  1
\H1x;\W0.916667;[1.91]
 73
     1
 44
1.0
  0
VIEWPORT
  5
13B4
330
11A4
100
AcDbEntity
 67
     1
  8
0
  6
Continuous
 62
     7
370
     0
100
AcDbViewport
 10
5.250184
 20
4.000122
 30
0.0
 40
8.400879
 41
6.40091
 68
     0
 69
     2
 12
5.250184
 22
4.000122
 13
0.0
 23
0.0
 14
0.0
 24
0.0
 15
3.937008
 25
3.937008
 16
0.0
 26
0.0
 36
1.0
 17
0.0
 27
0.0
 37
0.0
 42
50.0
 43
0.0
 44
0.0
 45
6.40091
 50
0.0
 51
0.0
 72
   100
 90
    32768
  1

281
     0
 71
     1
 74
     1
110
0.0
120
0.0
130
0.0
111
1.0
121
0.0
131
0.0
112
0.0
122
1.0
132
0.0
 79
     0
146
0.0
170
     0
 61
    10
348
11B8
292
     1
282
     1
141
0.0
142
0.0
 63
   250
421
  3355443
  0
VIEWPORT
  5
155E
330
11A4
100
AcDbEntity
 67
     1
  8
0
 62
     7
370
     0
100
AcDbViewport
 10
5.250184
 20
4.000122
 30
0.0
 40
8.400879
 41
6.40091
 68
    -1
 69
     1
 12
5.250184
 22
4.000122
 13
0.0
 23
0.0
 14
0.0
 24
0.0
 15
0.0
 25
0.0
 16
0.0
 26
0.0
 36
1.0
 17
0.0
 27
0.0
 37
0.0
 42
50.0
 43
0.0
 44
0.0
 45
6.40091
 50
0.0
 51
0.0
 72
   100
 90
    32768
  1

281
     0
 71
     1
 74
     1
110
0.0
120
0.0
130
0.0
111
1.0
121
0.0
131
0.0
112
0.0
122
1.0
132
0.0
 79
     0
146
0.0
170
     0
 61
     5
292
     1
282
     1
141
0.0
142
0.0
 63
   250
421
  3355443
  0
ENDSEC
  0
SECTION
  2
OBJECTS
  0
DICTIONARY
  5
1196
330
0
100
AcDbDictionary
281
     1
  3
ACAD_COLOR
350
11D2
  3
ACAD_GROUP
350
11BF
  3
ACAD_LAYOUT
350
11A3
  3
ACAD_MATERIAL
350
1198
  3
ACAD_MLEADERSTYLE
350
11D5
  3
ACAD_MLINESTYLE
350
11C0
  3
ACAD_PLOTSETTINGS
350
11C1
  3
ACAD_PLOTSTYLENAME
350
1195
  3
ACAD_SCALELIST
350
11D3
  3
ACAD_TABLESTYLE
350
11D4
  3
ACAD_VISUALSTYLE
350
11B9
  3
AcadDim
350
1287
  3
ACDB_RECOMPOSE_DATA
350
2718
  3
AcDbVariableDictionary
350
1379
  3
MicroStation
350
1492
  0
DICTIONARY
  5
11AC
330
11AB
100
AcDbDictionary
280
     1
281
     1
  3
ACAD_LAYERFILTERS
360
1281
  3
ACAD_LAYERSTATES
360
11AD
  0
DICTIONARY
  5
1282
330
110
100
AcDbDictionary
280
     1
281
     1
  3
ADSK_XREC_VTRVIEWINFO
360
1283
  0
DICTIONARY
  5
1284
330
112
100
AcDbDictionary
280
     1
281
     1
  3
ADSK_XREC_VTRVIEWINFO
360
1285
  0
DICTIONARY
  5
1376
330
1191
100
AcDbDictionary
280
     1
281
     1
  3
ACAD_SORTENTS
360
1377
  0
DICTIONARY
  5
16E7
330
11A4
100
AcDbDictionary
280
     1
281
     1
  3
ACAD_SORTENTS
360
16E8
  0
DICTIONARY
  5
11D2
102
{ACAD_REACTORS
330
1196
102
}
330
1196
100
AcDbDictionary
281
     1
  0
DICTIONARY
  5
11BF
102
{ACAD_REACTORS
330
1196
102
}
330
1196
100
AcDbDictionary
281
     1
  0
DICTIONARY
  5
11A3
102
{ACAD_REACTORS
330
1196
102
}
330
1196
100
AcDbDictionary
281
     1
  3
Layout1
350
11A7
  3
Model
350
11A2
  0
DICTIONARY
  5
1198
102
{ACAD_REACTORS
330
1196
102
}
330
1196
100
AcDbDictionary
281
     1
  3
ByBlock
350
11CA
  3
ByLayer
350
11C2
  3
Global
350
1197
  0
DICTIONARY
  5
11D5
102
{ACAD_REACTORS
330
1196
102
}
330
1196
100
AcDbDictionary
281
     1
  3
Standard
350
139E
  0
DICTIONARY
  5
11C0
102
{ACAD_REACTORS
330
1196
102
}
330
1196
100
AcDbDictionary
281
     1
  3
Standard
350
11D6
  0
DICTIONARY
  5
11C1
102
{ACAD_REACTORS
330
1196
102
}
330
1196
100
AcDbDictionary
281
     1
  0
ACDBDICTIONARYWDFLT
  5
1195
102
{ACAD_REACTORS
330
1196
102
}
330
1196
100
AcDbDictionary
281
     1
  3
Normal
350
1194
100
AcDbDictionaryWithDefault
340
1194
  0
DICTIONARY
  5
11D3
102
{ACAD_REACTORS
330
1196
102
}
330
1196
100
AcDbDictionary
281
     1
  3
A0
350
11DA
  3
A1
350
11DB
  3
A2
350
11DC
  3
A3
350
11DD
  3
A4
350
11DE
  3
A5
350
11DF
  3
A6
350
11E0
  3
A7
350
11E1
  3
A8
350
11E2
  3
A9
350
11E3
  3
B0
350
11E4
  3
B1
350
11E5
  3
B2
350
11E6
  3
B3
350
11E7
  3
B4
350
11E8
  3
B5
350
11E9
  3
B6
350
11EA
  3
B7
350
11EB
  3
B8
350
11EC
  3
B9
350
11ED
  3
C0
350
11EE
  3
C1
350
11EF
  3
C2
350
11F0
  3
C3
350
11F1
  3
C4
350
11F2
  3
C5
350
11F3
  3
C6
350
11F4
  3
C7
350
11F5
  3
C8
350
11F6
  3
C9
350
11F7
  3
D0
350
11F8
  3
D1
350
11F9
  3
D2
350
11FA
  0
DICTIONARY
  5
11D4
102
{ACAD_REACTORS
330
1196
102
}
330
1196
100
AcDbDictionary
281
     1
  3
Standard
350
11D7
  0
DICTIONARY
  5
11B9
102
{ACAD_REACTORS
330
1196
102
}
330
1196
100
AcDbDictionary
281
     1
  3
2dWireframe
350
11B8
  3
3D Hidden
350
1393
  3
3dWireframe
350
11D9
  3
Basic
350
1392
  3
Brighten
350
1396
  3
ColorChange
350
139A
  3
Conceptual
350
1394
  3
Dim
350
1395
  3
EdgeColorOff
350
139D
  3
Facepattern
350
1399
  3
Flat
350
138E
  3
FlatWithEdges
350
138F
  3
Gouraud
350
1390
  3
GouraudWithEdges
350
1391
  3
JitterOff
350
139B
  3
Linepattern
350
1398
  3
OverhangOff
350
139C
  3
Realistic
350
11D8
  3
Thicken
350
1397
  0
XRECORD
  5
1287
102
{ACAD_REACTORS
330
1196
102
}
330
1196
100
AcDbXrecord
280
     1
 90
   990106
  3
 
 60
     0
 61
     0
 62
     1
 63
     1
 64
     0
 65
     0
 66
     0
 67
     3
 68
     1
 69
     1
 70
     0
 71
     0
 72
     0
 40
0.0
170
     0
  0
XRECORD
  5
2718
102
{ACAD_REACTORS
330
1196
102
}
330
1196
100
AcDbXrecord
280
     1
 90
        1
330
11D7
  0
DICTIONARY
  5
1379
102
{ACAD_REACTORS
330
1196
102
}
330
1196
100
AcDbDictionary
281
     1
  3
CANNOSCALE
350
137D
  3
CMLEADERSTYLE
350
137B
  3
CTABLESTYLE
350
137A
  3
LAYEREVAL
350
137F
  3
LAYERNOTIFY
350
1380
  3
LIGHTINGUNITS
350
137E
  3
MSLTSCALE
350
137C
  0
DICTIONARY
  5
1492
102
{ACAD_REACTORS
330
1196
102
}
330
1196
100
AcDbDictionary
281
     1
  0
DICTIONARY
  5
1281
102
{ACAD_REACTORS
330
11AC
102
}
330
11AC
100
AcDbDictionary
281
     1
  0
DICTIONARY
  5
11AD
102
{ACAD_REACTORS
330
11AC
102
}
330
11AC
100
AcDbDictionary
281
     1
  0
XRECORD
  5
1283
102
{ACAD_REACTORS
330
1282
102
}
330
1282
100
AcDbXrecord
280
     1
290
     0
292
     0
330
11A2
294
     0
  0
XRECORD
  5
1285
102
{ACAD_REACTORS
330
1284
102
}
330
1284
100
AcDbXrecord
280
     1
290
     0
292
     0
330
11A2
294
     0
  0
SORTENTSTABLE
  5
1377
102
{ACAD_REACTORS
330
1376
102
}
330
1376
100
AcDbSortentsTable
330
1191
331
6F0
  5
6F0
331
A9A
  5
AA7
331
A6B
  5
A6B
331
A8C
  5
A8C
331
AAA
  5
AB7
331
A89
  5
A89
331
AAD
  5
A8D
331
A8F
  5
A9C
331
AA0
  5
AAD
331
A6E
  5
A6E
331
A71
  5
A71
331
AA3
  5
AB0
331
AB3
  5
AC2
331
ABA
  5
A92
331
AB0
  5
ABD
331
ABD
  5
A95
331
AA6
  5
AB3
331
A74
  5
A74
331
A77
  5
A77
331
AC0
  5
A97
331
AB6
  5
A8E
331
AC3
  5
A9A
331
A7D
  5
A7D
331
A80
  5
A80
331
A91
  5
A9E
331
1177
  5
1177
331
A94
  5
AA1
331
A86
  5
A86
331
2035
  5
2035
331
A83
  5
A83
331
A97
  5
AA4
331
73A
  5
73A
331
A7A
  5
A7A
331
A9D
  5
AAA
331
A98
  5
AA5
331
AA8
  5
AB5
331
A8A
  5
A8A
331
AAB
  5
AB8
331
A8D
  5
AC3
331
A9E
  5
AAB
331
A6C
  5
A6C
331
A6F
  5
A6F
331
AA1
  5
AAE
331
AB1
  5
ABB
331
AB8
  5
A90
331
AAE
  5
ABA
331
ABB
  5
A93
331
AA4
  5
AB1
331
A72
  5
A72
331
A75
  5
A75
331
AA7
  5
AB4
331
AB7
  5
A8F
331
ABE
  5
A96
331
AB4
  5
ABE
331
AC1
  5
A98
331
A7E
  5
A7E
331
A7B
  5
A7B
331
A92
  5
A9F
331
A84
  5
A84
331
A81
  5
A81
331
A95
  5
AA2
331
A87
  5
A87
331
A78
  5
A78
331
A9B
  5
AA8
331
A69
  5
A69
331
A88
  5
A88
331
AA9
  5
AB6
331
A6A
  5
A6A
331
A99
  5
AA6
331
A9C
  5
AA9
331
A6D
  5
A6D
331
A9F
  5
AAC
331
AAF
  5
ABC
331
A8E
  5
A9B
331
AB9
  5
A91
331
AA2
  5
AAF
331
A70
  5
A70
331
AAC
  5
AB9
331
A73
  5
A73
331
AA5
  5
AB2
331
AB5
  5
AC1
331
ABC
  5
A94
331
A79
  5
A79
331
A76
  5
A76
331
AB2
  5
AC0
331
A7C
  5
A7C
331
1176
  5
1176
331
13D3
  5
13D3
331
A90
  5
A9D
331
A82
  5
A82
331
A7F
  5
A7F
331
A93
  5
AA0
331
A96
  5
AA3
331
A85
  5
A85
331
AC2
  5
A99
331
A8B
  5
A8B
  0
SORTENTSTABLE
  5
16E8
102
{ACAD_REACTORS
330
16E7
102
}
330
16E7
100
AcDbSortentsTable
330
11A4
331
155E
  5
155E
331
13B4
  5
13B4
  0
LAYOUT
  5
11A7
102
{ACAD_XDICTIONARY
360
11A8
102
}
102
{ACAD_REACTORS
330
11A3
102
}
330
11A3
100
AcDbPlotSettings
  1

  2
none_device
  4
Letter_(8.50_x_11.00_Inches)
  6

 40
6.35
 41
6.35
 42
6.350006
 43
6.350006
 44
215.899994
 45
279.399994
 46
0.0
 47
0.0
 48
0.0
 49
0.0
140
0.0
141
0.0
142
1.0
143
1.0
 70
   688
 72
     0
 73
     1
 74
     5
  7

 75
    16
147
1.0
 76
     0
 77
     2
 78
   300
148
0.0
149
0.0
100
AcDbLayout
  1
Layout1
 70
     1
 71
     1
 10
-0.25
 20
-0.25
 11
10.75
 21
8.25
 12
0.0
 22
0.0
 32
0.0
 14
1.049744
 24
0.799667
 34
-0.001526
 15
9.450623
 25
7.200577
 35
0.0
146
0.0
 13
0.0
 23
0.0
 33
0.0
 16
1.0
 26
0.0
 36
0.0
 17
0.0
 27
1.0
 37
0.0
 76
     0
330
11A4
1001
ACAD_PSEXT
1000
None
1000
None
1000
Not applicable
1000
The layout will not be plotted unless a new plotter configuration name is selected.
1070
     0
  0
LAYOUT
  5
11A2
102
{ACAD_REACTORS
330
11A3
102
}
330
11A3
100
AcDbPlotSettings
  1

  2
none_device
  4
ANSI_A_(8.50_x_11.00_Inches)
  6

 40
6.35
 41
19.049999
 42
6.350006
 43
19.049988
 44
215.899994
 45
279.399994
 46
0.0
 47
0.0
 48
0.0
 49
0.0
140
0.0
141
0.0
142
1.0
143
2.584895
 70
 11952
 72
     0
 73
     1
 74
     0
  7

 75
     0
147
0.386863
 76
     0
 77
     2
 78
   300
148
0.0
149
0.0
100
AcDbLayout
  1
Model
 70
     1
 71
     0
 10
0.0
 20
0.0
 11
12.0
 21
9.0
 12
0.0
 22
0.0
 32
0.0
 14
0.0
 24
0.0
 34
0.0
 15
0.0
 25
0.0
 35
0.0
146
0.0
 13
0.0
 23
0.0
 33
0.0
 16
1.0
 26
0.0
 36
0.0
 17
0.0
 27
1.0
 37
0.0
 76
     0
330
1191
  0
MATERIAL
  5
11CA
102
{ACAD_XDICTIONARY
360
11CB
102
}
102
{ACAD_REACTORS
330
1198
102
}
330
1198
100
AcDbMaterial
  1
ByBlock
 72
     0
 43
0.020833
 43
0.0
 43
0.0
 43
0.0
 43
0.0
 43
0.020833
 43
0.0
 43
0.0
 43
0.0
 43
0.0
 43
1.0
 43
0.0
 43
0.0
 43
0.0
 43
0.0
 43
1.0
 77
     0
 47
0.020833
 47
0.0
 47
0.0
 47
0.0
 47
0.0
 47
0.020833
 47
0.0
 47
0.0
 47
0.0
 47
0.0
 47
1.0
 47
0.0
 47
0.0
 47
0.0
 47
0.0
 47
1.0
171
     0
 49
0.020833
 49
0.0
 49
0.0
 49
0.0
 49
0.0
 49
0.020833
 49
0.0
 49
0.0
 49
0.0
 49
0.0
 49
1.0
 49
0.0
 49
0.0
 49
0.0
 49
0.0
 49
1.0
175
     0
142
0.020833
142
0.0
142
0.0
142
0.0
142
0.0
142
0.020833
142
0.0
142
0.0
142
0.0
142
0.0
142
1.0
142
0.0
142
0.0
142
0.0
142
0.0
142
1.0
179
     0
144
0.020833
144
0.0
144
0.0
144
0.0
144
0.0
144
0.020833
144
0.0
144
0.0
144
0.0
144
0.0
144
1.0
144
0.0
144
0.0
144
0.0
144
0.0
144
1.0
147
0.020833
147
0.0
147
0.0
147
0.0
147
0.0
147
0.020833
147
0.0
147
0.0
147
0.0
147
0.0
147
1.0
147
0.0
147
0.0
147
0.0
147
0.0
147
1.0
  0
MATERIAL
  5
11C2
102
{ACAD_XDICTIONARY
360
11C3
102
}
102
{ACAD_REACTORS
330
1198
102
}
330
1198
100
AcDbMaterial
  1
ByLayer
 72
     0
 43
0.020833
 43
0.0
 43
0.0
 43
0.0
 43
0.0
 43
0.020833
 43
0.0
 43
0.0
 43
0.0
 43
0.0
 43
1.0
 43
0.0
 43
0.0
 43
0.0
 43
0.0
 43
1.0
 77
     0
 47
0.020833
 47
0.0
 47
0.0
 47
0.0
 47
0.0
 47
0.020833
 47
0.0
 47
0.0
 47
0.0
 47
0.0
 47
1.0
 47
0.0
 47
0.0
 47
0.0
 47
0.0
 47
1.0
171
     0
 49
0.020833
 49
0.0
 49
0.0
 49
0.0
 49
0.0
 49
0.020833
 49
0.0
 49
0.0
 49
0.0
 49
0.0
 49
1.0
 49
0.0
 49
0.0
 49
0.0
 49
0.0
 49
1.0
175
     0
142
0.020833
142
0.0
142
0.0
142
0.0
142
0.0
142
0.020833
142
0.0
142
0.0
142
0.0
142
0.0
142
1.0
142
0.0
142
0.0
142
0.0
142
0.0
142
1.0
179
     0
144
0.020833
144
0.0
144
0.0
144
0.0
144
0.0
144
0.020833
144
0.0
144
0.0
144
0.0
144
0.0
144
1.0
144
0.0
144
0.0
144
0.0
144
0.0
144
1.0
147
0.020833
147
0.0
147
0.0
147
0.0
147
0.0
147
0.020833
147
0.0
147
0.0
147
0.0
147
0.0
147
1.0
147
0.0
147
0.0
147
0.0
147
0.0
147
1.0
  0
MATERIAL
  5
1197
102
{ACAD_XDICTIONARY
360
1199
102
}
102
{ACAD_REACTORS
330
1198
102
}
330
1198
100
AcDbMaterial
  1
Global
 72
     0
 43
0.020833
 43
0.0
 43
0.0
 43
0.0
 43
0.0
 43
0.020833
 43
0.0
 43
0.0
 43
0.0
 43
0.0
 43
1.0
 43
0.0
 43
0.0
 43
0.0
 43
0.0
 43
1.0
 77
     0
 47
0.020833
 47
0.0
 47
0.0
 47
0.0
 47
0.0
 47
0.020833
 47
0.0
 47
0.0
 47
0.0
 47
0.0
 47
1.0
 47
0.0
 47
0.0
 47
0.0
 47
0.0
 47
1.0
171
     0
 49
0.020833
 49
0.0
 49
0.0
 49
0.0
 49
0.0
 49
0.020833
 49
0.0
 49
0.0
 49
0.0
 49
0.0
 49
1.0
 49
0.0
 49
0.0
 49
0.0
 49
0.0
 49
1.0
175
     0
142
0.020833
142
0.0
142
0.0
142
0.0
142
0.0
142
0.020833
142
0.0
142
0.0
142
0.0
142
0.0
142
1.0
142
0.0
142
0.0
142
0.0
142
0.0
142
1.0
179
     0
144
0.020833
144
0.0
144
0.0
144
0.0
144
0.0
144
0.020833
144
0.0
144
0.0
144
0.0
144
0.0
144
1.0
144
0.0
144
0.0
144
0.0
144
0.0
144
1.0
147
0.020833
147
0.0
147
0.0
147
0.0
147
0.0
147
0.020833
147
0.0
147
0.0
147
0.0
147
0.0
147
1.0
147
0.0
147
0.0
147
0.0
147
0.0
147
1.0
  0
MLEADERSTYLE
  5
139E
102
{ACAD_REACTORS
330
11D5
102
}
330
11D5
100
AcDbMLeaderStyle
170
     2
171
     1
172
     0
 90
        2
 40
0.0
 41
0.0
173
     1
 91
-1056964608
340
11B2
 92
       -2
290
     1
 42
0.09
291
     1
 43
0.36
  3
Standard
 44
0.18
300

342
11AF
174
     1
178
     6
175
     1
176
     0
 93
-1056964608
 45
0.18
292
     0
297
     0
 46
0.18
 94
-1056964608
 47
1.0
 49
1.0
140
1.0
293
     1
141
0.0
294
     1
177
     0
142
1.0
295
     0
296
     0
143
0.125
1001
ACAD_MLEADERVER
1070
     2
  0
MLINESTYLE
  5
11D6
102
{ACAD_REACTORS
330
11C0
102
}
330
11C0
100
AcDbMlineStyle
  2
STANDARD
 70
     0
  3

 62
   256
 51
90.0
 52
90.0
 71
     2
 49
0.5
 62
   256
  6
BYLAYER
 49
-0.5
 62
   256
  6
BYLAYER
  0
ACDBPLACEHOLDER
  5
1194
102
{ACAD_REACTORS
330
1195
102
}
330
1195
  0
SCALE
  5
11DA
102
{ACAD_REACTORS
330
11D3
102
}
330
11D3
100
AcDbScale
 70
     0
300
1:1
140
1.0
141
1.0
290
     1
  0
SCALE
  5
11DB
102
{ACAD_REACTORS
330
11D3
102
}
330
11D3
100
AcDbScale
 70
     0
300
1:2
140
1.0
141
2.0
290
     0
  0
SCALE
  5
11DC
102
{ACAD_REACTORS
330
11D3
102
}
330
11D3
100
AcDbScale
 70
     0
300
1:4
140
1.0
141
4.0
290
     0
  0
SCALE
  5
11DD
102
{ACAD_REACTORS
330
11D3
102
}
330
11D3
100
AcDbScale
 70
     0
300
1:5
140
1.0
141
5.0
290
     0
  0
SCALE
  5
11DE
102
{ACAD_REACTORS
330
11D3
102
}
330
11D3
100
AcDbScale
 70
     0
300
1:8
140
1.0
141
8.0
290
     0
  0
SCALE
  5
11DF
102
{ACAD_REACTORS
330
11D3
102
}
330
11D3
100
AcDbScale
 70
     0
300
1:10
140
1.0
141
10.0
290
     0
  0
SCALE
  5
11E0
102
{ACAD_REACTORS
330
11D3
102
}
330
11D3
100
AcDbScale
 70
     0
300
1:16
140
1.0
141
16.0
290
     0
  0
SCALE
  5
11E1
102
{ACAD_REACTORS
330
11D3
102
}
330
11D3
100
AcDbScale
 70
     0
300
1:20
140
1.0
141
20.0
290
     0
  0
SCALE
  5
11E2
102
{ACAD_REACTORS
330
11D3
102
}
330
11D3
100
AcDbScale
 70
     0
300
1:30
140
1.0
141
30.0
290
     0
  0
SCALE
  5
11E3
102
{ACAD_REACTORS
330
11D3
102
}
330
11D3
100
AcDbScale
 70
     0
300
1:40
140
1.0
141
40.0
290
     0
  0
SCALE
  5
11E4
102
{ACAD_REACTORS
330
11D3
102
}
330
11D3
100
AcDbScale
 70
     0
300
1:50
140
1.0
141
50.0
290
     0
  0
SCALE
  5
11E5
102
{ACAD_REACTORS
330
11D3
102
}
330
11D3
100
AcDbScale
 70
     0
300
1:100
140
1.0
141
100.0
290
     0
  0
SCALE
  5
11E6
102
{ACAD_REACTORS
330
11D3
102
}
330
11D3
100
AcDbScale
 70
     0
300
2:1
140
2.0
141
1.0
290
     0
  0
SCALE
  5
11E7
102
{ACAD_REACTORS
330
11D3
102
}
330
11D3
100
AcDbScale
 70
     0
300
4:1
140
4.0
141
1.0
290
     0
  0
SCALE
  5
11E8
102
{ACAD_REACTORS
330
11D3
102
}
330
11D3
100
AcDbScale
 70
     0
300
8:1
140
8.0
141
1.0
290
     0
  0
SCALE
  5
11E9
102
{ACAD_REACTORS
330
11D3
102
}
330
11D3
100
AcDbScale
 70
     0
300
10:1
140
10.0
141
1.0
290
     0
  0
SCALE
  5
11EA
102
{ACAD_REACTORS
330
11D3
102
}
330
11D3
100
AcDbScale
 70
     0
300
100:1
140
100.0
141
1.0
290
     0
  0
SCALE
  5
11EB
102
{ACAD_REACTORS
330
11D3
102
}
330
11D3
100
AcDbScale
 70
     0
300
1/128" = 1'-0"
140
0.007813
141
12.0
290
     0
  0
SCALE
  5
11EC
102
{ACAD_REACTORS
330
11D3
102
}
330
11D3
100
AcDbScale
 70
     0
300
1/64" = 1'-0"
140
0.015625
141
12.0
290
     0
  0
SCALE
  5
11ED
102
{ACAD_REACTORS
330
11D3
102
}
330
11D3
100
AcDbScale
 70
     0
300
1/32" = 1'-0"
140
0.03125
141
12.0
290
     0
  0
SCALE
  5
11EE
102
{ACAD_REACTORS
330
11D3
102
}
330
11D3
100
AcDbScale
 70
     0
300
1/16" = 1'-0"
140
0.0625
141
12.0
290
     0
  0
SCALE
  5
11EF
102
{ACAD_REACTORS
330
11D3
102
}
330
11D3
100
AcDbScale
 70
     0
300
3/32" = 1'-0"
140
0.09375
141
12.0
290
     0
  0
SCALE
  5
11F0
102
{ACAD_REACTORS
330
11D3
102
}
330
11D3
100
AcDbScale
 70
     0
300
1/8" = 1'-0"
140
0.125
141
12.0
290
     0
  0
SCALE
  5
11F1
102
{ACAD_REACTORS
330
11D3
102
}
330
11D3
100
AcDbScale
 70
     0
300
3/16" = 1'-0"
140
0.1875
141
12.0
290
     0
  0
SCALE
  5
11F2
102
{ACAD_REACTORS
330
11D3
102
}
330
11D3
100
AcDbScale
 70
     0
300
1/4" = 1'-0"
140
0.25
141
12.0
290
     0
  0
SCALE
  5
11F3
102
{ACAD_REACTORS
330
11D3
102
}
330
11D3
100
AcDbScale
 70
     0
300
3/8" = 1'-0"
140
0.375
141
12.0
290
     0
  0
SCALE
  5
11F4
102
{ACAD_REACTORS
330
11D3
102
}
330
11D3
100
AcDbScale
 70
     0
300
1/2" = 1'-0"
140
0.5
141
12.0
290
     0
  0
SCALE
  5
11F5
102
{ACAD_REACTORS
330
11D3
102
}
330
11D3
100
AcDbScale
 70
     0
300
3/4" = 1'-0"
140
0.75
141
12.0
290
     0
  0
SCALE
  5
11F6
102
{ACAD_REACTORS
330
11D3
102
}
330
11D3
100
AcDbScale
 70
     0
300
1" = 1'-0"
140
1.0
141
12.0
290
     0
  0
SCALE
  5
11F7
102
{ACAD_REACTORS
330
11D3
102
}
330
11D3
100
AcDbScale
 70
     0
300
1-1/2" = 1'-0"
140
1.5
141
12.0
290
     0
  0
SCALE
  5
11F8
102
{ACAD_REACTORS
330
11D3
102
}
330
11D3
100
AcDbScale
 70
     0
300
3" = 1'-0"
140
3.0
141
12.0
290
     0
  0
SCALE
  5
11F9
102
{ACAD_REACTORS
330
11D3
102
}
330
11D3
100
AcDbScale
 70
     0
300
6" = 1'-0"
140
6.0
141
12.0
290
     0
  0
SCALE
  5
11FA
102
{ACAD_REACTORS
330
11D3
102
}
330
11D3
100
AcDbScale
 70
     0
300
1'-0" = 1'-0"
140
12.0
141
12.0
290
     0
  0
TABLESTYLE
  5
11D7
102
{ACAD_XDICTIONARY
360
1381
102
}
102
{ACAD_REACTORS
330
11D4
102
}
330
11D4
100
AcDbTableStyle
  3
Standard
 70
     0
 71
     0
 40
0.06
 41
0.06
280
     0
281
     0
  7
Standard
140
0.18
170
     2
 62
     0
 63
     7
283
     0
 90
        4
 91
        0
  1

274
    -2
284
     1
 64
     0
275
    -2
285
     1
 65
     0
276
    -2
286
     1
 66
     0
277
    -2
287
     1
 67
     0
278
    -2
288
     1
 68
     0
279
    -2
289
     1
 69
     0
  7
Standard
140
0.25
170
     5
 62
     0
 63
     7
283
     0
 90
        4
 91
        0
  1

274
    -2
284
     1
 64
     0
275
    -2
285
     1
 65
     0
276
    -2
286
     1
 66
     0
277
    -2
287
     1
 67
     0
278
    -2
288
     1
 68
     0
279
    -2
289
     1
 69
     0
  7
Standard
140
0.18
170
     5
 62
     0
 63
     7
283
     0
 90
        4
 91
        0
  1

274
    -2
284
     1
 64
     0
275
    -2
285
     1
 65
     0
276
    -2
286
     1
 66
     0
277
    -2
287
     1
 67
     0
278
    -2
288
     1
 68
     0
279
    -2
289
     1
 69
     0
  0
VISUALSTYLE
  5
11B8
102
{ACAD_XDICTIONARY
360
2719
102
}
102
{ACAD_REACTORS
330
11B9
102
}
330
11B9
100
AcDbVisualStyle
  2

 70
     4
 71
     0
 72
     2
 73
     0
 90
        0
 40
-0.6
 41
-30.0
 62
     5
 63
     7
421
 16777215
 74
     1
 91
        4
 64
     7
 65
   257
 75
     1
175
     1
 42
1.0
 92
        0
 66
   257
 43
1.0
 76
     1
 77
     6
 78
     2
 67
     7
 79
     5
170
     0
171
     0
290
     0
174
     0
 93
        1
 44
0.0
173
     0
291
     0
 45
0.0
1001
ACAD
1000
AcDbSavedByObjectVersion
1070
     0
  0
VISUALSTYLE
  5
1393
102
{ACAD_XDICTIONARY
360
2729
102
}
102
{ACAD_REACTORS
330
11B9
102
}
330
11B9
100
AcDbVisualStyle
  2

 70
     6
 71
     1
 72
     2
 73
     2
 90
        0
 40
-0.6
 41
-30.0
 62
     5
 63
     7
421
 16777215
 74
     2
 91
        2
 64
     7
 65
   257
 75
     2
175
     1
 42
179.0
 92
        0
 66
   257
 43
1.0
 76
     1
 77
     6
 78
     2
 67
     7
 79
     3
170
     0
171
     0
290
     0
174
     0
 93
        1
 44
0.0
173
     0
291
     0
 45
0.0
1001
ACAD
1000
AcDbSavedByObjectVersion
1070
     0
  0
VISUALSTYLE
  5
11D9
102
{ACAD_XDICTIONARY
360
271D
102
}
102
{ACAD_REACTORS
330
11B9
102
}
330
11B9
100
AcDbVisualStyle
  2

 70
     5
 71
     0
 72
     2
 73
     0
 90
        0
 40
-0.6
 41
-30.0
 62
     5
 63
     7
421
 16777215
 74
     1
 91
        4
 64
     7
 65
   257
 75
     1
175
     1
 42
1.0
 92
        0
 66
   257
 43
1.0
 76
     1
 77
     6
 78
     2
 67
     7
 79
     5
170
     0
171
     0
290
     0
174
     0
 93
        1
 44
0.0
173
     0
291
     0
 45
0.0
1001
ACAD
1000
AcDbSavedByObjectVersion
1070
     0
  0
VISUALSTYLE
  5
1392
102
{ACAD_XDICTIONARY
360
2727
102
}
102
{ACAD_REACTORS
330
11B9
102
}
330
11B9
100
AcDbVisualStyle
  2

 70
     7
 71
     1
 72
     0
 73
     1
 90
        0
 40
-0.6
 41
-30.0
 62
     5
 63
     7
421
 16777215
 74
     0
 91
        4
 64
     7
 65
   257
 75
     1
175
     1
 42
1.0
 92
        8
 66
     7
 43
1.0
 76
     1
 77
     6
 78
     2
 67
     7
 79
     5
170
     0
171
     0
290
     0
174
     0
 93
        1
 44
0.0
173
     0
291
     1
 45
0.0
1001
ACAD
1000
AcDbSavedByObjectVersion
1070
     0
  0
VISUALSTYLE
  5
1396
102
{ACAD_XDICTIONARY
360
272F
102
}
102
{ACAD_REACTORS
330
11B9
102
}
330
11B9
100
AcDbVisualStyle
  2

 70
    12
 71
     2
 72
     2
 73
     0
 90
        0
 40
-0.6
 41
-30.0
 62
     5
 63
     7
421
 16777215
 74
     1
 91
        4
 64
     7
 65
   257
 75
     1
175
     1
 42
1.0
 92
        8
 66
     7
 43
1.0
 76
     1
 77
     6
 78
     2
 67
     7
 79
     5
170
     0
171
     0
290
     0
174
     0
 93
        1
 44
50.0
173
     0
291
     1
 45
0.0
1001
ACAD
1000
AcDbSavedByObjectVersion
1070
     0
  0
VISUALSTYLE
  5
139A
102
{ACAD_XDICTIONARY
360
2737
102
}
102
{ACAD_REACTORS
330
11B9
102
}
330
11B9
100
AcDbVisualStyle
  2

 70
    16
 71
     2
 72
     2
 73
     3
 90
        0
 40
-0.6
 41
-30.0
 62
     5
 63
     8
421
  8421504
 74
     1
 91
        4
 64
     7
 65
   257
 75
     1
175
     1
 42
1.0
 92
        8
 66
     8
424
  8421504
 43
1.0
 76
     1
 77
     6
 78
     2
 67
     7
 79
     5
170
     0
171
     0
290
     0
174
     0
 93
        1
 44
0.0
173
     0
291
     1
 45
0.0
1001
ACAD
1000
AcDbSavedByObjectVersion
1070
     0
  0
VISUALSTYLE
  5
1394
102
{ACAD_XDICTIONARY
360
272B
102
}
102
{ACAD_REACTORS
330
11B9
102
}
330
11B9
100
AcDbVisualStyle
  2

 70
     9
 71
     3
 72
     2
 73
     0
 90
        0
 40
-0.6
 41
-30.0
 62
     5
 63
     7
421
 16777215
 74
     2
 91
        2
 64
     7
 65
   257
 75
     1
175
     1
 42
179.0
 92
        8
 66
     7
 43
1.0
 76
     1
 77
     6
 78
     2
 67
     7
 79
     3
170
     0
171
     0
290
     0
174
     0
 93
        1
 44
0.0
173
     0
291
     0
 45
0.0
1001
ACAD
1000
AcDbSavedByObjectVersion
1070
     0
  0
VISUALSTYLE
  5
1395
102
{ACAD_XDICTIONARY
360
272D
102
}
102
{ACAD_REACTORS
330
11B9
102
}
330
11B9
100
AcDbVisualStyle
  2

 70
    11
 71
     2
 72
     2
 73
     0
 90
        0
 40
-0.6
 41
-30.0
 62
     5
 63
     7
421
 16777215
 74
     1
 91
        4
 64
     7
 65
   257
 75
     1
175
     1
 42
1.0
 92
        8
 66
     7
 43
1.0
 76
     1
 77
     6
 78
     2
 67
     7
 79
     5
170
     0
171
     0
290
     0
174
     0
 93
        1
 44
-50.0
173
     0
291
     1
 45
0.0
1001
ACAD
1000
AcDbSavedByObjectVersion
1070
     0
  0
VISUALSTYLE
  5
139D
102
{ACAD_XDICTIONARY
360
273D
102
}
102
{ACAD_REACTORS
330
11B9
102
}
330
11B9
100
AcDbVisualStyle
  2

 70
    22
 71
     2
 72
     2
 73
     0
 90
        0
 40
-0.6
 41
-30.0
 62
     5
 63
     7
421
 16777215
 74
     1
 91
        4
 64
     7
 65
   257
 75
     1
175
     1
 42
1.0
 92
        8
 66
     7
 43
1.0
 76
     1
 77
     6
 78
     2
 67
     7
 79
     5
170
     0
171
     0
290
     0
174
     0
 93
        1
 44
0.0
173
     0
291
     1
 45
0.0
1001
ACAD
1000
AcDbSavedByObjectVersion
1070
     0
  0
VISUALSTYLE
  5
1399
102
{ACAD_XDICTIONARY
360
2735
102
}
102
{ACAD_REACTORS
330
11B9
102
}
330
11B9
100
AcDbVisualStyle
  2

 70
    15
 71
     2
 72
     2
 73
     0
 90
        0
 40
-0.6
 41
-30.0
 62
     5
 63
     7
421
 16777215
 74
     1
 91
        4
 64
     7
 65
   257
 75
     1
175
     1
 42
1.0
 92
        8
 66
     7
 43
1.0
 76
     1
 77
     6
 78
     2
 67
     7
 79
     5
170
     0
171
     0
290
     0
174
     0
 93
        1
 44
0.0
173
     0
291
     1
 45
0.0
1001
ACAD
1000
AcDbSavedByObjectVersion
1070
     0
  0
VISUALSTYLE
  5
138E
102
{ACAD_XDICTIONARY
360
271F
102
}
102
{ACAD_REACTORS
330
11B9
102
}
330
11B9
100
AcDbVisualStyle
  2

 70
     0
 71
     2
 72
     1
 73
     1
 90
        2
 40
-0.6
 41
30.0
 62
     5
 63
     7
421
 16777215
 74
     0
 91
        4
 64
     7
 65
   257
 75
     1
175
     1
 42
1.0
 92
        8
 66
     7
 43
1.0
 76
     1
 77
     6
 78
     2
 67
     7
 79
     5
170
     0
171
     0
290
     0
174
     0
 93
       13
 44
0.0
173
     0
291
     1
 45
0.0
1001
ACAD
1000
AcDbSavedByObjectVersion
1070
     0
  0
VISUALSTYLE
  5
138F
102
{ACAD_XDICTIONARY
360
2721
102
}
102
{ACAD_REACTORS
330
11B9
102
}
330
11B9
100
AcDbVisualStyle
  2

 70
     1
 71
     2
 72
     1
 73
     1
 90
        2
 40
-0.6
 41
30.0
 62
     5
 63
     7
421
 16777215
 74
     1
 91
        4
 64
     7
 65
   257
 75
     1
175
     1
 42
1.0
 92
        0
 66
   257
 43
1.0
 76
     1
 77
     6
 78
     2
 67
     7
 79
     5
170
     0
171
     0
290
     0
174
     0
 93
       13
 44
0.0
173
     0
291
     1
 45
0.0
1001
ACAD
1000
AcDbSavedByObjectVersion
1070
     0
  0
VISUALSTYLE
  5
1390
102
{ACAD_XDICTIONARY
360
2723
102
}
102
{ACAD_REACTORS
330
11B9
102
}
330
11B9
100
AcDbVisualStyle
  2

 70
     2
 71
     2
 72
     2
 73
     1
 90
        2
 40
-0.6
 41
30.0
 62
     5
 63
     7
421
 16777215
 74
     0
 91
        4
 64
     7
 65
   257
 75
     1
175
     1
 42
1.0
 92
        0
 66
     7
 43
1.0
 76
     1
 77
     6
 78
     2
 67
     7
 79
     5
170
     0
171
     0
290
     0
174
     0
 93
       13
 44
0.0
173
     0
291
     1
 45
0.0
1001
ACAD
1000
AcDbSavedByObjectVersion
1070
     0
  0
VISUALSTYLE
  5
1391
102
{ACAD_XDICTIONARY
360
2725
102
}
102
{ACAD_REACTORS
330
11B9
102
}
330
11B9
100
AcDbVisualStyle
  2

 70
     3
 71
     2
 72
     2
 73
     1
 90
        2
 40
-0.6
 41
30.0
 62
     5
 63
     7
421
 16777215
 74
     1
 91
        4
 64
     7
 65
   257
 75
     1
175
     1
 42
1.0
 92
        0
 66
   257
 43
1.0
 76
     1
 77
     6
 78
     2
 67
     7
 79
     5
170
     0
171
     0
290
     0
174
     0
 93
       13
 44
0.0
173
     0
291
     1
 45
0.0
1001
ACAD
1000
AcDbSavedByObjectVersion
1070
     0
  0
VISUALSTYLE
  5
139B
102
{ACAD_XDICTIONARY
360
2739
102
}
102
{ACAD_REACTORS
330
11B9
102
}
330
11B9
100
AcDbVisualStyle
  2

 70
    20
 71
     2
 72
     2
 73
     0
 90
        0
 40
-0.6
 41
-30.0
 62
     5
 63
     7
421
 16777215
 74
     1
 91
        4
 64
     7
 65
   257
 75
     1
175
     1
 42
1.0
 92
       10
 66
     7
 43
1.0
 76
     1
 77
     6
 78
     2
 67
     7
 79
     5
170
     0
171
     0
290
     0
174
     0
 93
        1
 44
0.0
173
     0
291
     1
 45
0.0
1001
ACAD
1000
AcDbSavedByObjectVersion
1070
     0
  0
VISUALSTYLE
  5
1398
102
{ACAD_XDICTIONARY
360
2733
102
}
102
{ACAD_REACTORS
330
11B9
102
}
330
11B9
100
AcDbVisualStyle
  2

 70
    14
 71
     2
 72
     2
 73
     0
 90
        0
 40
-0.6
 41
-30.0
 62
     5
 63
     7
421
 16777215
 74
     1
 91
        4
 64
     7
 65
   257
 75
     7
175
     7
 42
1.0
 92
        8
 66
     7
 43
1.0
 76
     1
 77
     6
 78
     2
 67
     7
 79
     5
170
     0
171
     0
290
     0
174
     0
 93
        1
 44
0.0
173
     0
291
     1
 45
0.0
1001
ACAD
1000
AcDbSavedByObjectVersion
1070
     0
  0
VISUALSTYLE
  5
139C
102
{ACAD_XDICTIONARY
360
273B
102
}
102
{ACAD_REACTORS
330
11B9
102
}
330
11B9
100
AcDbVisualStyle
  2

 70
    21
 71
     2
 72
     2
 73
     0
 90
        0
 40
-0.6
 41
-30.0
 62
     5
 63
     7
421
 16777215
 74
     1
 91
        4
 64
     7
 65
   257
 75
     1
175
     1
 42
1.0
 92
        9
 66
     7
 43
1.0
 76
     1
 77
     6
 78
     2
 67
     7
 79
     5
170
     0
171
     0
290
     0
174
     0
 93
        1
 44
0.0
173
     0
291
     1
 45
0.0
1001
ACAD
1000
AcDbSavedByObjectVersion
1070
     0
  0
VISUALSTYLE
  5
11D8
102
{ACAD_XDICTIONARY
360
271B
102
}
102
{ACAD_REACTORS
330
11B9
102
}
330
11B9
100
AcDbVisualStyle
  2

 70
     8
 71
     2
 72
     2
 73
     0
 90
        0
 40
-0.6
 41
-30.0
 62
     5
 63
     7
421
 16777215
 74
     1
 91
        0
 64
     7
 65
   257
 75
     1
175
     1
 42
1.0
 92
        8
 66
     8
424
  7895160
 43
1.0
 76
     1
 77
     6
 78
     2
 67
     7
 79
     5
170
     0
171
     0
290
     0
174
     0
 93
       13
 44
0.0
173
     0
291
     0
 45
0.0
1001
ACAD
1000
AcDbSavedByObjectVersion
1070
     0
  0
VISUALSTYLE
  5
1397
102
{ACAD_XDICTIONARY
360
2731
102
}
102
{ACAD_REACTORS
330
11B9
102
}
330
11B9
100
AcDbVisualStyle
  2

 70
    13
 71
     2
 72
     2
 73
     0
 90
        0
 40
-0.6
 41
-30.0
 62
     5
 63
     7
421
 16777215
 74
     1
 91
        4
 64
     7
 65
   257
 75
     1
175
     1
 42
1.0
 92
       12
 66
     7
 43
1.0
 76
     1
 77
     6
 78
     2
 67
     7
 79
     5
170
     0
171
     0
290
     0
174
     0
 93
        1
 44
0.0
173
     0
291
     1
 45
0.0
1001
ACAD
1000
AcDbSavedByObjectVersion
1070
     0
  0
DICTIONARYVAR
  5
137D
102
{ACAD_REACTORS
330
1379
102
}
330
1379
100
DictionaryVariables
280
     0
  1
1:1
  0
DICTIONARYVAR
  5
137B
102
{ACAD_REACTORS
330
1379
102
}
330
1379
100
DictionaryVariables
280
     0
  1
STANDARD
  0
DICTIONARYVAR
  5
137A
102
{ACAD_REACTORS
330
1379
102
}
330
1379
100
DictionaryVariables
280
     0
  1
STANDARD
  0
DICTIONARYVAR
  5
137F
102
{ACAD_REACTORS
330
1379
102
}
330
1379
100
DictionaryVariables
280
     0
  1
1
  0
DICTIONARYVAR
  5
1380
102
{ACAD_REACTORS
330
1379
102
}
330
1379
100
DictionaryVariables
280
     0
  1
15
  0
DICTIONARYVAR
  5
137E
102
{ACAD_REACTORS
330
1379
102
}
330
1379
100
DictionaryVariables
280
     0
  1
0
  0
DICTIONARYVAR
  5
137C
102
{ACAD_REACTORS
330
1379
102
}
330
1379
100
DictionaryVariables
280
     0
  1
0
  0
DICTIONARY
  5
11A8
330
11A7
100
AcDbDictionary
280
     1
281
     1
  3
ADSK_XREC_LAYOUTTHUMBNAIL
360
11A9
  0
DICTIONARY
  5
11CB
330
11CA
100
AcDbDictionary
280
     1
281
     1
  3
BUMPTILE
360
11CC
  3
DIFFUSETILE
360
11CD
  3
OPACITYTILE
360
11CE
  3
REFLECTIONTILE
360
11CF
  3
REFRACTIONTILE
360
11D0
  3
SPECULARTILE
360
11D1
  0
DICTIONARY
  5
11C3
330
11C2
100
AcDbDictionary
280
     1
281
     1
  3
BUMPTILE
360
11C4
  3
DIFFUSETILE
360
11C5
  3
OPACITYTILE
360
11C6
  3
REFLECTIONTILE
360
11C7
  3
REFRACTIONTILE
360
11C8
  3
SPECULARTILE
360
11C9
  0
DICTIONARY
  5
1199
330
1197
100
AcDbDictionary
280
     1
281
     1
  3
BUMPTILE
360
119A
  3
DIFFUSETILE
360
119B
  3
OPACITYTILE
360
119C
  3
REFLECTIONTILE
360
119D
  3
REFRACTIONTILE
360
119E
  3
SPECULARTILE
360
119F
  0
DICTIONARY
  5
1381
330
11D7
100
AcDbDictionary
280
     1
281
     1
  3
ACAD_ROUNDTRIP_2008_TABLESTYLE_CELLSTYLEMAP
360
2717
  0
DICTIONARY
  5
2719
330
11B8
100
AcDbDictionary
280
     1
281
     1
  3
ACAD_XREC_ROUNDTRIP
360
271A
  0
DICTIONARY
  5
2729
330
1393
100
AcDbDictionary
280
     1
281
     1
  3
ACAD_XREC_ROUNDTRIP
360
272A
  0
DICTIONARY
  5
271D
330
11D9
100
AcDbDictionary
280
     1
281
     1
  3
ACAD_XREC_ROUNDTRIP
360
271E
  0
DICTIONARY
  5
2727
330
1392
100
AcDbDictionary
280
     1
281
     1
  3
ACAD_XREC_ROUNDTRIP
360
2728
  0
DICTIONARY
  5
272F
330
1396
100
AcDbDictionary
280
     1
281
     1
  3
ACAD_XREC_ROUNDTRIP
360
2730
  0
DICTIONARY
  5
2737
330
139A
100
AcDbDictionary
280
     1
281
     1
  3
ACAD_XREC_ROUNDTRIP
360
2738
  0
DICTIONARY
  5
272B
330
1394
100
AcDbDictionary
280
     1
281
     1
  3
ACAD_XREC_ROUNDTRIP
360
272C
  0
DICTIONARY
  5
272D
330
1395
100
AcDbDictionary
280
     1
281
     1
  3
ACAD_XREC_ROUNDTRIP
360
272E
  0
DICTIONARY
  5
273D
330
139D
100
AcDbDictionary
280
     1
281
     1
  3
ACAD_XREC_ROUNDTRIP
360
273E
  0
DICTIONARY
  5
2735
330
1399
100
AcDbDictionary
280
     1
281
     1
  3
ACAD_XREC_ROUNDTRIP
360
2736
  0
DICTIONARY
  5
271F
330
138E
100
AcDbDictionary
280
     1
281
     1
  3
ACAD_XREC_ROUNDTRIP
360
2720
  0
DICTIONARY
  5
2721
330
138F
100
AcDbDictionary
280
     1
281
     1
  3
ACAD_XREC_ROUNDTRIP
360
2722
  0
DICTIONARY
  5
2723
330
1390
100
AcDbDictionary
280
     1
281
     1
  3
ACAD_XREC_ROUNDTRIP
360
2724
  0
DICTIONARY
  5
2725
330
1391
100
AcDbDictionary
280
     1
281
     1
  3
ACAD_XREC_ROUNDTRIP
360
2726
  0
DICTIONARY
  5
2739
330
139B
100
AcDbDictionary
280
     1
281
     1
  3
ACAD_XREC_ROUNDTRIP
360
273A
  0
DICTIONARY
  5
2733
330
1398
100
AcDbDictionary
280
     1
281
     1
  3
ACAD_XREC_ROUNDTRIP
360
2734
  0
DICTIONARY
  5
273B
330
139C
100
AcDbDictionary
280
     1
281
     1
  3
ACAD_XREC_ROUNDTRIP
360
273C
  0
DICTIONARY
  5
271B
330
11D8
100
AcDbDictionary
280
     1
281
     1
  3
ACAD_XREC_ROUNDTRIP
360
271C
  0
DICTIONARY
  5
2731
330
1397
100
AcDbDictionary
280
     1
281
     1
  3
ACAD_XREC_ROUNDTRIP
360
2732
  0
XRECORD
  5
11A9
102
{ACAD_REACTORS
330
11A8
102
}
330
11A8
100
AcDbXrecord
280
     1
310
28000000B40000008B0000000100080000000000BC61000000000000000000000001000000000000FFFFFF0000000000FFFFFF000000000000000000000000000000000000000000000000000000000000000000330000006600000099000000CC000000FF00000000330000333300006633000099330000CC330000FF3300
310
0000660000336600006666000099660000CC660000FF66000000990000339900006699000099990000CC990000FF99000000CC000033CC000066CC000099CC0000CCCC0000FFCC000000FF000033FF000066FF000099FF0000CCFF0000FFFF000000003300330033006600330099003300CC003300FF003300003333003333
310
33006633330099333300CC333300FF33330000663300336633006666330099663300CC663300FF66330000993300339933006699330099993300CC993300FF99330000CC330033CC330066CC330099CC3300CCCC3300FFCC330000FF330033FF330066FF330099FF3300CCFF3300FFFF330000006600330066006600660099
310
006600CC006600FF00660000336600333366006633660099336600CC336600FF33660000666600336666006666660099666600CC666600FF66660000996600339966006699660099996600CC996600FF99660000CC660033CC660066CC660099CC6600CCCC6600FFCC660000FF660033FF660066FF660099FF6600CCFF6600
310
FFFF660000009900330099006600990099009900CC009900FF00990000339900333399006633990099339900CC339900FF33990000669900336699006666990099669900CC669900FF66990000999900339999006699990099999900CC999900FF99990000CC990033CC990066CC990099CC9900CCCC9900FFCC990000FF99
310
0033FF990066FF990099FF9900CCFF9900FFFF99000000CC003300CC006600CC009900CC00CC00CC00FF00CC000033CC003333CC006633CC009933CC00CC33CC00FF33CC000066CC003366CC006666CC009966CC00CC66CC00FF66CC000099CC003399CC006699CC009999CC00CC99CC00FF99CC0000CCCC0033CCCC0066CC
310
CC0099CCCC00CCCCCC00FFCCCC0000FFCC0033FFCC0066FFCC0099FFCC00CCFFCC00FFFFCC000000FF003300FF006600FF009900FF00CC00FF00FF00FF000033FF003333FF006633FF009933FF00CC33FF00FF33FF000066FF003366FF006666FF009966FF00CC66FF00FF66FF000099FF003399FF006699FF009999FF00CC
310
99FF00FF99FF0000CCFF0033CCFF0066CCFF0099CCFF00CCCCFF00FFCCFF0000FFFF0033FFFF0066FFFF0099FFFF00CCFFFF00FFFFFF00000000000D0D0D001A1A1A00282828003535350043434300505050005D5D5D006B6B6B00787878008686860093939300A1A1A100AEAEAE00BBBBBB00C9C9C900D6D6D600E4E4E400
310
F1F1F100FFFFFF0000000000000000000000000000000000000000000000000000000000000000000000000000000000E2E2E2E2E2E2E2E2E2E2E2E2E2E2E2E2E2E2E2E2E2E2E2E2E2E2E2E2E2E2E2E2E2E2E2E2E2E2E2E2E2E2E2E2E2E2E2E2E2E2E2E2E2E2E2E2E2E2E2E2E2E2E2E2E2E2E2E2E2E2E2E2E2E2E2E2E2E2E2
310
E2E2E2E2E2E2E2E2E2E2E2E2E2E2E2E2E2E2E2E2E2E2E2E2E2E2E2E2E2E2E2E2E2E2E2E2E2E2E2E2E2E2E2E2E2E2E2E2E2E2E2E2E2E2E2E2E2E2E2E2E2E2E2E2E2E2E2E2E2E2E2E2E2E2E2E2E2E2E2E2E2E2E2E2E2E2E2E2E2E2E2E2E2E2E2E2E2E2E2E2EFF5F5F5F5F5F5F5F5F5F5F5F5F5F5F5F5F5F5F5F5F5F5F5F5F5F5
310
F5F5F5F5F5F5F5F5F5F5F5F5F5F5F5F5F5F5F5F5F5F5F5F5F5F5F5F5F5F5F5F5F5F5F5F5F5F5F5F5F5F5F5F5F5F5F5F5F5F5F5F5F5F5F5F5F5F5F5F5F5F5F5F5F5F5F5F5F5F5F5F5F5F5F5F5F5F5F5F5F5F5F5F5F5F5F5F5F5F5F5F5F5F5F5F5F5F5F5F5F5F5F5F5F5F5F5F5F5F5F5F5F5F5F5F5F5F5F5F5F5F5F5F5F5F5F5
310
F5F5F5F5F5F5F5F5F5F5F5F5F5F5F5F5F5F5F5F5F5F5F5F5E2E2EFF5F5F5F5F5F5F5F5F5F5F5F5F5F5F5F5F5F5F5F5F5F5F5F5F5F5F5F5F5F5F5F5F5F5F5F5F5F5F5F5F5F5F5F5F5F5F5F5F5F5F5F5F5F5F5F5F5F5F5F5F5F5F5F5F5F5F5F5F5F5F5F5F5F5F5F5F5F5F5F5F5F5F5F5F5F5F5F5F5F5F5F5F5F5F5F5F5F5F5F5
310
F5F5F5F5F5F5F5F5F5F5F5F5F5F5F5F5F5F5F5F5F5F5F5F5F5F5F5F5F5F5F5F5F5F5F5F5F5F5F5F5F5F5F5F5F5F5F5F5F5F5F5F5F5F5F5F5F5F5F5F5F5F5F5F5F5F5F5F5F5F5F5F5F5F5F5F5F5E2E2EFF5F5F5F5F5F5F5F5F5F5F5F5F5F5F5F5F5F5F5F5F5F5F5F5F5F5F5F5F5F5F5F5F5F5F5F5F5F5F5F5F5F5F5F5F5F5F5
310
F5F5F5F5F5F5F5F5F5F5F5F5F5F5F5F5F5F5F5F5F5F5F5F5F5F5F5F5F5F5F5F5F5F5F5F5F5F5F5F5F5F5F5F5F5F5F5F5F5F5F5F5F5F5F5F5F5F5F5F5F5F5F5F5F5F5F5F5F5F5F5F5F5F5F5F5F5F5F5F5F5F5F5F5F5F5F5F5F5F5F5F5F5F5F5F5F5F5F5F5F5F5F5F5F5F5F5F5F5F5F5F5F5F5F5F5F5F5F5F5F5F5F5F5F5F5F5
310
F5F5F5E2E2EFF5F5F5E2E2E2E2E2E2E2E2F5F5F5F5F5F5F5F5F5E2E2E2E2E2E2E2E2E2E2E2E2E2E2E2E2F5F5F5F5F5F5F5F5E2E2E2E2E2E2E2E2E2E2E2E2E2E2E2E2F5F5F5F5F5F5F5F5F5E2E2E2E2E2E2E2E2E2E2E2E2E2E2E2F5F5F5F5F5F5F5F5F5E2E2E2E2E2E2E2E2E2E2E2E2E2E2E2F5F5F5F5F5F5F5F5F5E2E2E2E2
310
E2E2E2E2E2E2E2E2E2E2E2E2F5F5F5F5F5F5F5F5E2E2E2E2E2E2E2E2E2E2E2E2E2E2E2E2F5F5F5F5F5F5F5F5F5E2E2E2E2E2E2E2E2F5F5F5E2E2EFF5F5F5E2F5F5F5F5F5F5F5F5F5F5F5F5F5F5F5F5F5F5F5F5F5F5F5F5F5F5F5F5F5F5F5F5F5F5F5F5F5F5F5F5F5F5F5F5F5F5F5F5F5F5F5F5F5F5F5F5F5F5F5F5F5F5F5F5
310
F5F5F5F5F5F5F5F5F5F5F5F5F5F5F5F5F5F5F5F5F5F5F5F5F5F5F5F5F5F5F5F5F5F5F5F5F5F5F5F5F5F5F5F5F5F5F5F5F5F5F5F5F5F5F5F5F5F5F5F5F5F5F5F5F5F5F5F5F5F5F5F5F5F5F5F5F5F5F5F5F5F5F5F5F5F5F5F5F5F5F5F5F5F5F5F5F5F5F5F5F5F5F5F5F5E2F5F5F5E2E2EFF5F5F5E2F5F5F5F5F5F5F5F5F5F5F5
310
F5F5F5F5F5F5F5F5F5F5F5F5F5F5F5F5F5F5F5F5F5F5F5F5F5F5F5F5F5F5F5F5F5F5F5F5F5F5F5F5F5F5F5F5F5F5F5F5F5F5F5F5F5F5F5F5F5F5F5F5F5F5F5F5F5F5F5F5F5F5F5F5F5F5F5F5F5F5F5F5F5F5F5F5F5F5F5F5F5F5F5F5F5F5F5F5F5F5F5F5F5F5F5F5F5F5F5F5F5F5F5F5F5F5F5F5F5F5F5F5F5F5F5F5F5F5F5
310
F5F5F5F5F5F5F5F5F5F5F5F5F5F5F5F5F5F5F5F5F5F5F5F5F5F5F5F5F5F5F5E2F5F5F5E2E2EFF5F5F5E2F5F5F5F5F5F5F5F5F5F5F5F5F5F5F5F5F5F5F5F5F5F5F5F5F5F5F5F5F5F5F5F5F5F5F5F5F5F5F5F5F5F5F5F5F5F5F5F5F5F5F5F5F5F5F5F5F5F5F5F5F5F5F5F5F5F5F5F5F5F5F5F5F5F5F5F5F5F5F5F5F5F5F5F5F5
310
F5F5F5F5F5F5F5F5F5F5F5F5F5F5F5F5F5F5F5F5F5F5F5F5F5F5F5F5F5F5F5F5F5F5F5F5F5F5F5F5F5F5F5F5F5F5F5F5F5F5F5F5F5F5F5F5F5F5F5F5F5F5F5F5F5F5F5F5F5F5F5F5F5F5F5F5F5F5F5F5F5F5F5F5E2F5F5F5E2E2EFF5F5F5E2F5F5F5F5F5F5F5F5F5F5F5F5F5F5F5F5F5F5F5F5F5F5F5F5F5F5F5F5F5F5F5F5
310
F5F5F5F5F5F5F5F5F5F5F5F5F5F5F5F5F5F5F5F5F5F5F5F5F5F5F5F5F5F5F5F5F5F5F5F5F5F5F5F5F5F5F5F5F5F5F5F5F5F5F5F5F5F5F5F5F5F5F5F5F5F5F5F5F5F5F5F5F5F5F5F5F5F5F5F5F5F5F5F5F5F5F5F5F5F5F5F5F5F5F5F5F5F5F5F5F5F5F5F5F5F5F5F5F5F5F5F5F5F5F5F5F5F5F5F5F5F5F5F5F5F5F5F5F5F5F5
310
F5F5F5F5F5F5F5F5F5F5E2F5F5F5E2E2EFF5F5F5E2F5F5F5F5F5F5F5F5F5F5F5F5F5F5F5F5F5F5F5F5F5F5F5F5F5F5F5F5F5F5F5F5F5F5F5F5F5F5F5F5F5F5F5F5F5F5F5F5F5F5F5F5F5F5F5F5F5F5F5F5F5F5F5F5F5F5F5F5F5F5F5F5F5F5F5F5F5F5F5F5F5F5F5F5F5F5F5F5F5F5F5F5F5F5F5F5F5F5F5F5F5F5F5F5F5F5
310
F5F5F5F5F5F5F5F5F5F5F5F5F5F5F5F5F5F5F5F5F5F5F5F5F5F5F5F5F5F5F5F5F5F5F5F5F5F5F5F5F5F5F5F5F5F5F5F5F5F5F5F5F5F5F5F5F5F5F5F5F5F5F5E2F5F5F5E2E2EFF5F5F5E2F5F5F5F5F5F5F5F5F5F5F5F5F5F5F5F5F5F5F5F5F5F5F5F5F5F5F5F5F5F5F5F5F5F5F5F5F5F5F5F5F5F5F5F5F5F5F5F5F5F5F5F5F5
310
F5F5F5F5F5F5F5F5F5F5F5F5F5F5F5F5F5F5F5F5F5F5F5F5F5F5F5F5F5F5F5F5F5F5F5F5F5F5F5F5F5F5F5F5F5F5F5F5F5F5F5F5F5F5F5F5F5F5F5F5F5F5F5F5F5F5F5F5F5F5F5F5F5F5F5F5F5F5F5F5F5F5F5F5F5F5F5F5F5F5F5F5F5F5F5F5F5F5F5F5F5F5F5F5F5F5F5F5F5F5F5F5F5F5F5F5E2F5F5F5E2E2EFF5F5F5E2
310
F5F5F5F5F5F5F5F5F5F5F5F5F5F5F5F5F5F5F5F5F5F5F5F5F5F5F5F5F5F5F5F5F5F5F5F5F5F5F5F5F5F5F5F5F5F5F5F5F5F5F5F5F5F5F5F5F5F5F5F5F5F5F5F5F5F5F5F5F5F5F5F5F5F5F5F5F5F5F5F5F5F5F5F5F5F5F5F5F5F5F5F5F5F5F5F5F5F5F5F5F5F5F5F5F5F5F5F5F5F5F5F5F5F5F5F5F5F5F5F5F5F5F5F5F5F5F5
310
F5F5F5F5F5F5F5F5F5F5F5F5F5F5F5F5F5F5F5F5F5F5F5F5F5F5F5F5F5F5F5F5F5F5F5F5F5F5F5F5F5F5E2F5F5F5E2E2EFF5F5F5E2F5F5F5F5F5F5F5F5F5F5F5F5F5F5F5F5F5F5F5F5F5F5F5F5F5F5F5F5F5F5F5F5F5F5F5F5F5F5F5F5F5F5F5F5F5F5F5F5F5F5F5F5F5F5F5F5F5F5F5F5F5F5F5F5F5F5F5F5F5F5F5F5F5F5
310
F5F5F5F5F5F5F5F5F5F5F5F5F5F5F5F5F5F5F5F5F5F5F5F5F5F5F5F5F5F5F5F5F5F5F5F5F5F5F5F5F5F5F5F5F5F5F5F5F5F5F5F5F5F5F5F5F5F5F5F5F5F5F5F5F5F5F5F5F5F5F5F5F5F5F5F5F5F5F5F5F5F5F5F5F5F5F5F5F5F5F5F5F5F5F5E2F5F5F5E2E2EFF5F5F5F5F5F5F5F5F5F5F5F5F5F5F5F5F5F5F5F5F5F5F5F5F5
310
F5F5F5F5F5F5F5F5F5F5F5F5F5F5F5F5F5F5F5F5F5F5F5F5F5F5F5F5F5F5F5F5F5F5F5F5F5F5F5F5F5F5F5F5F5F5F5F5F5F5F5F5F5F5F5F5F5F5F5F5F5F5F5F5F5F5F5F5F5F5F5F5F5F5F5F5F5F5F5F5F5F5F5F5F5F5F5F5F5F5F5F5F5F5F5F5F5F5F5F5F5F5F5F5F5F5F5F5F5F5F5F5F5F5F5F5F5F5F5F5F5F5F5F5F5F5F5
310
F5F5F5F5F5F5F5F5F5F5F5F5F5F5F5F5F5F5F5F5F5F5F5F5F5E2E2EFF5F5F5F5F5F5F5F5F5F5F5F5F5F5F5F5F5F5F5F5F5F5F5F5F5F5F5F5F5F5F5F5F5F5F5F5F5F5F5F5F5F5F5F5F5F5F5F5F5F5F5F5F5F5F5F5F5F5F5F5F5F5F5F5F5F5F5F5F5F5F5F5F5F5F5F5F5F5F5F5F5F5F5F5F5F5F5F5F5F5F5F5F5F5F5F5F5F5F5
310
F5F5F5F5F5F5F5F5F5F5F5F5F5F5F5F5F5F5F5F5F5F5F5F5F5F5F5F5F5F5F5F5F5F5F5F5F5F5F5F5F5F5F5F5F5F5F5F5F5F5F5F5F5F5F5F5F5F5F5F5F5F5F5F5F5F5F5F5F5F5F5F5F5F5F5F5F5F5E2E2EFF5F5F5F5F5F5F5F5F5F5F5F5F5F5F5F5F5F5F5F5F5F5F5F5F5F5F5F5F5F5F5F5F5F5F5F5F5F5F5F5F5F5F5F5F5F5
310
F5F5F5F5F5F5F5F5F5F5F5F5F5F5F5F5F5F5F5F5F5F5F5F5F5F5F5F5F5F5F5F5F5F5F5F5F5F5F5F5F5F5F5F5F5F5F5F5F5F5F5F5F5F5F5F5F5F5F5F5F5F5F5F5F5F5F5F5F5F5F5F5F5F5F5F5F5F5F5F5F5F5F5F5F5F5F5F5F5F5F5F5F5F5F5F5F5F5F5F5F5F5F5F5F5F5F5F5F5F5F5F5F5F5F5F5F5F5F5F5F5F5F5F5F5F5F5
310
F5F5F5F5E2E2EFF5F5F5F5F5F5F5F5F5F5F5F5F5F5F5F5F5F5F5F5F5F5F5F5F5F5F5F5F5F5F5F5F5F5F5F5F5F5F5F5F5F5F5F5F5F5F5F5F5F5F5F5F5F5F5F5F5F5F5F5F5F5F5F5F5F5F5F5F5F5F5F5F5F5F5F5F5F5F5F5F5F5F5F5F5F5F5F5F5F5F5F5F5F5F5F5F5F5F5F5F5F5F5F5F5F5F5F5F5F5F5F5F5F5F5F5F5F5F5F5
310
F5F5F5F5F5F5F5F5F5F5F5F5F5F5F5F5F5F5F5F5F5F5F5F5F5F5F5F5F5F5F5F5F5F5F5F5F5F5F5F5F5F5F5F5F5F5F5F5F5F5F5F5F5F5F5F5F5E2E2EFF5F5F5F5F5F5F5F5F5F5F5F5F5F5F5F5F5F5F5F5E2E2E2E2E2E2E2E2E2E2E2E2E2E2E2E2E2E2E2E2E2E2E2E2E2E2E2E2E2E2E2E2E2E2E2E2E2E2E2E2E2E2E2E2E2E2E2
310
E2E2E2E2E2E2E2E2E2E2E2E2E2E2E2E2E2E2E2E2E2E2E2E2E2E2E2E2E2E2E2E2E2E2E2E2E2E2E2E2E2E2E2E2E2E2E2E2E2E2E2E2E2E2E2E2E2E2E2E2E2E2E2E2E2E2E2E2E2E2E2E2E2E2E2E2E2E2E2E2E2E2E2E2E2E2E2E2E2E2F5F5F5F5F5F5F5F5F5F5F5F5F5F5F5F5F5F5F5F5E2E2EFF5F5F5F5F5F5F5F5F5F5F5F5F5F5
310
F5F5F5F5F5F5E2F5F5F5F5F5F5F5F5F5F5F5F5F5F5F5F5F5F5F5F5F5F5F5F5F5F5F5F5F5F5F5F5F5F5F5F5F5F5F5F5F5F5F5F5F5F5F5F5F5F5F5F5F5F5F5F5F5F5F5F5F5F5F5F5F5F5F5F5F5F5F5F5F5F5F5F5F5F5F5F5F5F5F5F5F5F5F5F5F5F5F5F5F5F5F5F5F5F5F5F5F5F5F5F5F5F5F5F5F5F5F5F5F5F5F5F5F5F5F5F5
310
F5F5F5F5F5F5F5F5F5F5F5F5F5F5F5E2F5F5F5F5F5F5F5F5F5F5F5F5F5F5F5F5F5F5F5F5E2E2EFF5F5F5F5F5F5F5F5F5F5F5F5F5F5F5F5F5F5F5F5E2F5F5F5F5F5F5F5F5F5F5F5F5F5F5F5F5F5F5F5F5F5F5F5F5F5F5F5F5F5F5F5F5F5F5F5F5F5F5F5F5F5F5F5F5F5F5F5F5F5F5F5F5F5F5F5F5F5F5F5F5F5F5F5F5F5F5F5
310
F5F5F5F5F5F5F5F5F5F5F5F5F5F5F5F5F5F5F5F5F5F5F5F5F5F5F5F5F5F5F5F5F5F5F5F5F5F5F5F5F5F5F5F5F5F5F5F5F5F5F5F5F5F5F5F5F5F5F5F5F5F5F5F5F5F5F5F5E2F5F5F5F5F5F5F5F5F5F5F5F5F5F5F5F5F5F5F5F5E2E2EFF5F5F5F5F5F5F5F5F5F5F5F5F5F5F5F5F5F5F5F5E2F5F5F5F5F5F5F5F5F5F5F5F5F5F5
310
F5F5F5F5F5F5F5F5F5F5F5F5F5F5F5F5F5F5F5F5F5F5F5F5F5F5F5F5F5F5F5F5F5F5F5F5F5F5F5F5F5F5F5F5F5F5F5F5F5F5F5F5F5F5F5F5F5F5F5F5F5F5F5F5F5F5F5F5F5F5F5F5F5F5F5F5F5F5F5F5F5F5F5F5F5F5F5F5F5F5F5F5F5F5F5F5F5F5F5F5F5F5F5F5F5F5F5F5F5F5F5F5F5F5F5F5F5F5F5F5F5E2F5F5F5F5F5
310
F5F5F5F5F5F5F5F5F5F5F5F5F5F5F5E2E2EFF5F5F5F5F5F5F5F5F5F5F5F5F5F5F5F5F5F5F5F5E2F5F5F5F5F5F5F5F5F5F5F5F5F5F5F5F5F5F5F5F5F5F5F5F5F5F5F5F5F5F5F5F5F5F5F5F5F5F5F5F5F5F5F5F5F5F5F5F5F5F5F5F5F5F5F5F5F5F5F5F5F5F5F5F5F5F5F5F5F5F5F5F5F5F5F5F5F5F5F5F5F5F5F5F5F5F5F5F5
310
F5F5F5F5F5F5F5F5F5F5F5F5F5F5F5F5F5F5F5F5F5F5F5F5F5F5F5F5F5F5F5F5F5F5F5F5F5F5F5F5F5F5F5F5F5F5F5E2F5F5F5F5F5F5F5F5F5F5F5F5F5F5F5F5F5F5F5F5E2E2EFF5F5F5E2F5F5F5F5F5F5F5F5F5F5F5F5F5F5F5F5E2F5F5F5F5F5F5F5F5F5F5F5F5F5F5F5F5F5F5F5F5F5F5F5F5F5F5F5F5F5F5F5F5F5F5F5
310
F5F5F5F5F5F5F5F5F5F5F5F5F5F5F5F5F5F5F5F5F5F5F5F5F5F5F5F5F5F5F5F5F5F5F5F5F5F5F5F5F5F5F5F5F5F5F5F5F5F5F5F5F5F5F5F5F5F5F5F5F5F5F5F5F5F5F5F5F5F5F5F5F5F5F5F5F5F5F5F5F5F5F5F5F5F5F5F5F5F5F5F5F5F5F5F5F5F5F5F5E2F5F5F5F5F5F5F5F5F5F5F5F5F5F5F5F5E2F5F5F5E2E2EFF5F5F5
310
E2F5F5F5F5F5F5F5F5F5F5F5F5F5F5F5F5E2F5F5F5F5F5F5F5F5F5F5F5F5F5F5F5F5F5F5F5F5F5F5F5F5F5F5F5F5F5F5F5F5F5F5F5F5F5F5F5F5F5F5F5F5F5F5F5F5F5F5F5F5F5F5F5F5F5F5F5F5F5F5F5F5F5F5F5F5F5F5F5F5F5F5F5F5F5F5F5F5F5F5F5F5F5F5F5F5F5F5F5F5F5F5F5F5F5F5F5F5F5F5F5F5F5F5F5F5F5
310
F5F5F5F5F5F5F5F5F5F5F5F5F5F5F5F5F5F5F5F5F5F5F5F5F5F5E2F5F5F5F5F5F5F5F5F5F5F5F5F5F5F5F5E2F5F5F5E2E2EFF5F5F5E2F5F5F5F5F5F5F5F5F5F5F5F5F5F5F5F5E2F5F5F5F5F5F5F5F5F5F5F5F5F5F5F5F5F5F5F5F5F5F5F5F5F5F5F5F5F5F5F5F5F5F5F5F5F5F5F5F5F5F5F5F5F5F5F5F5F5F5F5F5F5F5F5F5
310
F5F5F5F5F5F5F5F5F5F5F5F5F5F5F5F5F5F5F5F5F5F5F5F5F5F5F5F5F5F5F5F5F5F5F5F5F5F5F5F5F5F5F5F5F5F5F5F5F5F5F5F5F5F5F5F5F5F5F5F5F5F5F5F5F5F5F5F5F5F5F5F5F5F5F5F5F5F5F5E2F5F5F5F5F5F5F5F5F5F5F5F5F5F5F5F5E2F5F5F5E2E2EFF5F5F5E2F5F5F5F5F5F5F5F5F5F5F5F5F5F5F5F5E2F5F5F5
310
F5F5F5F5F5F5F5F5F5F5F5F5F5F5F5F5F5F5F5F5F5F5F5F5F5F5F5F5F5F5F5F5F5F5F5F5F5F5F5F5F5F5F5F5F5F5F5F5F5F5F5F5F5F5F5F5F5F5F5F5F5F5F5F5F5F5F5F5F5F5F5F5F5F5F5F5F5F5F5F5F5F5F5F5F5F5F5F5F5F5F5F5F5F5F5F5F5F5F5F5F5F5F5F5F5F5F5F5F5F5F5F5F5F5F5F5F5F5F5F5F5F5F5F5F5F5F5
310
F5F5F5F5F5E2F5F5F5F5F5F5F5F5F5F5F5F5F5F5F5F5E2F5F5F5E2E2EFF5F5F5E2F5F5F5F5F5F5F5F5F5F5F5F5F5F5F5F5E2F5F5F5F5F5F5F5F5F5F5F5F5F5F5F5F5F5F5F5F5F5F5F5F5F5F5F5F5F5F5F5F5F5F5F5F5F5F5F5F5F5F5F5F5F5F5F5F5F5F5F5F5F5F5F5F5F5F5F5F5F5F5F5F5F5F5F5F5F5F5F5F5F5F5F5F5F5
310
F5F5F5F5F5F5F5F5F5F5F5F5F5F5F5F5F5F5F5F5F5F5F5F5F5F5F5F5F5F5F5F5F5F5F5F5F5F5F5F5F5F5F5F5F5F5F5F5F5F5F5F5F5F5F5F5F5F5E2F5F5F5F5F5F5F5F5F5F5F5F5F5F5F5F5E2F5F5F5E2E2EFF5F5F5E2F5F5F5F5F5F5F5F5F5F5F5F5F5F5F5F5E2F5F5F5F5F5F5F5F5F5F5F5F5F5F5F5F5F5F5F5F5F5F5F5F5
310
F5F5F5F5F5F5F5F5F5F5F5F5F5F5F5F5F5F5F5F5F5F5F5F5F5F5F5F5F5F5F5F5F5F5F5F5F5F5F5F5F5F5F5F5F5F5F5F5F5F5F5F5F5F5F5F5F5F5F5F5F5F5F5F5F5F5F5F5F5F5F5F5F5F5F5F5F5F5F5F5F5F5F5F5F5F5F5F5F5F5F5F5F5F5F5F5F5F5F5F5F5F5F5F5F5F5F5F5F5F5F5E2F5F5F5F5F5F5F5F5F5F5F5F5F5F5F5
310
F5E2F5F5F5E2E2EFF5F5F5E2F5F5F5F5F5F5F5F5F5F5F5F5F5F5F5F5E2F5F5F5F5F5F5F5F5F5F5F5F5F5F5F5F5F5F5F5F5F5F5F5F5F5F5F5F5F5F5F5F5F5F5F5F5F5F5F5F5F5F5F5F5F5F5F5F5F5F5F5F5F5F5F5F5F5F5F5F5F5F5F5F5F5F5F5F5F5F5F5F5F5F5F5F5F5F5F5F5F5F5F5F5F5F5F5F5F5F5F5F5F5F5F5F5F5F5
310
F5F5F5F5F5F5F5F5F5F5F5F5F5F5F5F5F5F5F5F5F5F5F5F5F5F5F5F5F5F5F5F5F5F5F5F5F5E2F5F5F5F5F5F5F5F5F5F5F5F5F5F5F5F5E2F5F5F5E2E2EFF5F5F5E2F5F5F5F5F5F5F5F5F5F5F5F5F5F5F5F5E2F5F5F5F5F5F5F5F5F5F5F5F5F5F5F5F5F5F5F5F5F5F5F5F5F5F5F5F5F5F5F5F5F5F5F5F5F5F5F5F5F5F5F5F5F5
310
F5F5F5F5F5F5F5F5F5F5F5F5F5F5F5F5F5F5F5F5F5F5F5F5F5F5F5F5F5F5F5F5F5F5F5F5F5F5F5F5F5F5F5F5F5F5F5F5F5F5F5F5F5F5F5F5F5F5F5F5F5F5F5F5F5F5F5F5F5F5F5F5F5F5F5F5F5F5F5F5F5F5F5F5F5F5F5F5F5F5E2F5F5F5F5F5F5F5F5F5F5F5F5F5F5F5F5E2F5F5F5E2E2EFF5F5F5E2F5F5F5F5F5F5F5F5F5
310
F5F5F5F5F5F5F5E2F5F5F5F5F5F5F5F5F5F5F5F5F5F5F5F5F5F5F5F5F5F5F5F5F5F5F5F5F5F5F5F5F5F5F5F5F5F5F5F5F5F5F5F5F5F5F5F5F5F5F5F5F5F5F5F5F5F5F5F5F5F5F5F5F5F5F5F5F5F5F5F5F5F5F5F5F5F5F5F5F5F5F5F5F5F5F5F5F5F5F5F5F5F5F5F5F5F5F5F5F5F5F5F5F5F5F5F5F5F5F5F5F5F5F5F5F5F5F5
310
F5F5F5F5F5F5F5F5F5F5F5F5F5F5F5F5E2F5F5F5F5F5F5F5F5F5F5F5F5F5F5F5F5E2F5F5F5E2E2EFF5F5F5E2F5F5F5F5F5F5F5F5F5F5F5F5F5F5F5F5E2F5F5F5F5F5F5F5F5F5F5F5F5F5F5F5F5F5F5F5F5F5F5F5F5F5F5F5F5F5F5F5F5F5F5F5F5F5F5F5F5F5F5F5F5F5F5F5F5F5F5F5F5F5F5F5F5F5F5F5F5F5F5F5F5F5F5
310
F5F5F5F5F5F5F5F5F5F5F5F5F5F5F5F5F5F5F5F5F5F5F5F5F5F5F5F5F5F5F5F5F5F5F5F5F5F5F5F5F5F5F5F5F5F5F5F5F5F5F5F5F5F5F5F5F5F5F5F5F5F5F5F5F5F5F5F5F5E2F5F5F5F5F5F5F5F5F5F5F5F5F5F5F5F5E2F5F5F5E2E2EFF5F5F5E2F5F5F5F5F5F5F5F5F5F5F5F5F5F5F5F5E2F5F5F5F5F5F5F5F5F5F5F5F5F5
310
F5F5F5F5F5F5F5F5F5F5F5F5F5F5F5F5F5F5F5F5F5F5F5F5F5F5F5F5F5F5F5F5F5F5F5F5F5F5F5F5F5F5F5F5F5F5F5F5F5F5F5F5F5F5F5F5F5F5F5F5F5F5F5F5F5F5F5F5F5F5F5F5F5F5F5F5F5F5F5F5F5F5F5F5F5F5F5F5F5F5F5F5F5F5F5F5F5F5F5F5F5F5F5F5F5F5F5F5F5F5F5F5F5F5F5F5F5F5F5F5F5F5E2F5F5F5F5
310
F5F5F5F5F5F5F5F5F5F5F5F5E2F5F5F5E2E2EFF5F5F5E2F5F5F5F5F5F5F5F5F5F5F5F5F5F5F5F5E2F5F5F5F5F5F5F5F5F5F5F5F5F5F5F5F5F5F5F5F5F5F5F5F5F5F5F5F5F5F5F5F5F5F5F5F5F5F5F5F5F5F5F5F5F5F5F5F5F5F5F5F5F5F5F5F5F5F5F5F5F5F5F5F5F5F5F5F5F5F5F5F5F5F5F5F5F5F5F5F5F5F5F5F5F5F5F5
310
F5F5F5F5F5F5F5F5F5F5F5F5F5F5F5F5F5F5F5F5F5F5F5F5F5F5F5F5F5F5F5F5F5F5F5F5F5F5F5F5F5F5F5F5F5F5F5F5E2F5F5F5F5F5F5F5F5F5F5F5F5F5F5F5F5E2F5F5F5E2E2EFF5F5F5E2F5F5F5F5F5F5F5F5F5F5F5F5F5F5F5F5E2F5F5F5F5F5F5F5F5F5F5F5F5F5F5F5F5F5F5F5F5F5F5F5F5F5F5F5F5F5F5F5F5F5F5
310
F5F5F5F5F5F5F5F5F5F5F5F5F5F5F5F5F5F5F5F5F5F5F5F5F5F5F5F5F5F5F5F5F5F5F5F5F5F5F5F5F5F5F5F5F5F5F5F5F5F5F5F5F5F5F5F5F5F5F5F5F5F5F5F5F5F5F5F5F5F5F5F5F5F5F5F5F5F5F5F5F5F5F5F5F5F5F5F5F5F5F5F5F5F5F5F5F5F5F5F5F5E2F5F5F5F5F5F5F5F5F5F5F5F5F5F5F5F5E2F5F5F5E2E2EFF5F5
310
F5E2F5F5F5F5F5F5F5F5F5F5F5F5F5F5F5F5E2F5F5F5F5F5F5F5F5F5F5F5F5F5F5F5F5F5F5F5F5F5F5F5F5F5F5F5F5F5F5F5F5F5F5F5F5F5F5F5F5F5F5F5F5F5F5F5F5F5F5F5F5F5F5F5F5F5F5F5F5F5F5F5F5F5F5F5F5F5F5F5F5F5F5F5F5F5F5F5F5F5F5F5F5F5F5F5F5F5F5F5F5F5F5F5F5F5F5F5F5F5F5F5F5F5F5F5F5
310
F5F5F5F5F5F5F5F5F5F5F5F5F5F5F5F5F5F5F5F5F5F5F5F5F5F5F5E2F5F5F5F5F5F5F5F5F5F5F5F5F5F5F5F5E2F5F5F5E2E2EFF5F5F5E2F5F5F5F5F5F5F5F5F5F5F5F5F5F5F5F5E2F5F5F5F5F5F5F5F5F5F5F5F5F5F5F5F5F5F5F5F5F5F5F5F5F5F5F5F5F5F5F5F5F5F5F5F5F5F5F5F5F5F5F5F5F5F5F5F5F5F5F5F5F5F5F5
310
F5F5F5F5F5F5F5F5F5F5F5F5F5F5F5F5F5F5F5F5F5F5F5F5F5F5F5F5F5F5F5F5F5F5F5F5F5F5F5F5F5F5F5F5F5F5F5F5F5F5F5F5F5F5F5F5F5F5F5F5F5F5F5F5F5F5F5F5F5F5F5F5F5F5F5F5F5F5F5F5E2F5F5F5F5F5F5F5F5F5F5F5F5F5F5F5F5E2F5F5F5E2E2EFF5F5F5E2F5F5F5F5F5F5F5F5F5F5F5F5F5F5F5F5E2F5F5
310
F5F5F5F5F5F5F5F5F5F5F5F5F5F5F5F5F5F5F5F5F5F5F5F5F5F5F5F5F5F5F5F5F5F5F5F5F5F5F5F5F5F5F5F5F5F5F5F5F5F5F5F5F5F5F5F5F5F5F5F5F5F5F5F5F5F5F5F5F5F5F5F5F5F5F5F5F5F5F5F5F5F5F5F5F5F5F5F5F5F5F5F5F5F5F5F5F5F5F5F5F5F5F5F5F5F5F5F5F5F5F5F5F5F5F5F5F5F5F5F5F5F5F5F5F5F5F5
310
F5F5F5F5F5F5E2F5F5F5F5F5F5F5F5F5F5F5F5F5F5F5F5E2F5F5F5E2E2EFF5F5F5E2F5F5F5F5F5F5F5F5F5F5F5F5F5F5F5F5E2F5F5F5F5F5F5F5F5F5F5F5F5F5F5F5F5F5F5F5F5F5F5F5F5F5F5F5F5F5F5F5F5F5F5F5F5F5F5F5F5F5F5F5F5F5F5F5F5F5F5F5F5F5F5F5F5F5F5F5F5F5F5F5F5F5F5F5F5F5F5F5F5F5F5F5F5
310
F5F5F5F5F5F5F5F5F5F5F5F5F5F5F5F5F5F5F5F5F5F5F5F5F5F5F5F5F5F5F5F5F5F5F5F5F5F5F5F5F5F5F5F5F5F5F5F5F5F5F5F5F5F5F5F5F5F5F5E2F5F5F5F5F5F5F5F5F5F5F5F5F5F5F5F5E2F5F5F5E2E2EFF5F5F5F5F5F5F5F5F5F5F5F5F5F5F5F5F5F5F5F5E2F5F5F5F5F5F5F5F5F5F5F5F5F5F5F5F5F5F5F5F5F5F5F5
310
F5F5F5F5F5F5F5F5F5F5F5F5F5F5F5F5F5F5F5F5F5F5F5F5F5F5F5F5F5F5F5F5F5F5F5F5F5F5F5F5F5F5F5F5F5F5F5F5F5F5F5F5F5F5F5F5F5F5F5F5F5F5F5F5F5F5F5F5F5F5F5F5F5F5F5F5F5F5F5F5F5F5F5F5F5F5F5F5F5F5F5F5F5F5F5F5F5F5F5F5F5F5F5F5F5F5F5F5F5F5F5F5E2F5F5F5F5F5F5F5F5F5F5F5F5F5F5
310
F5F5F5F5F5F5E2E2EFF5F5F5F5F5F5F5F5F5F5F5F5F5F5F5F5F5F5F5F5E2F5F5F5F5F5F5F5F5F5F5F5F5F5F5F5F5F5F5F5F5F5F5F5F5F5F5F5F5F5F5F5F5F5F5F5F5F5F5F5F5F5F5F5F5F5F5F5F5F5F5F5F5F5F5F5F5F5F5F5F5F5F5F5F5F5F5F5F5F5F5F5F5F5F5F5F5F5F5F5F5F5F5F5F5F5F5F5F5F5F5F5F5F5F5F5F5F5
310
F5F5F5F5F5F5F5F5F5F5F5F5F5F5F5F5F5F5F5F5F5F5F5F5F5F5F5F5F5F5F5F5F5F5F5F5F5F5E2F5F5F5F5F5F5F5F5F5F5F5F5F5F5F5F5F5F5F5F5E2E2EFF5F5F5F5F5F5F5F5F5F5F5F5F5F5F5F5F5F5F5F5E2F5F5F5F5F5F5F5F5F5F5F5F5F5F5F5F5F5F5F5F5F5F5F5F5F5F5F5F5F5F5F5F5F5F5F5F5F5F5F5F5F5F5F5F5
310
F5F5F5F5F5F5F5F5F5F5F5F5F5F5F5F5F5F5F5F5F5F5F5F5F5F5F5F5F5F5F5F5F5F5F5F5F5F5F5F5F5F5F5F5F5F5F5F5F5F5F5F5F5F5F5F5F5F5F5F5F5F5F5F5F5F5F5F5F5F5F5F5F5F5F5F5F5F5F5F5F5F5F5F5F5F5F5F5F5F5F5E2F5F5F5F5F5F5F5F5F5F5F5F5F5F5F5F5F5F5F5F5E2E2EFF5F5F5F5F5F5F5F5F5F5F5F5
310
F5F5F5F5F5F5F5F5E2F5F5F5F5F5F5F5F5F5F5F5F5F5F5F5F5F5F5F5F5F5F5F5F5F5F5F5F5F5F5F5F5F5F5F5F5F5F5F5F5F5F5F5F5F5F5F5F5F5F5F5F5F5F5F5F5F5F5F5F5F5F5F5F5F5F5F5F5F5F5F5F5F5F5F5F5F5F5F5F5F5F5F5F5F5F5F5F5F5F5F5F5F5F5F5F5F5F5F5F5F5F5F5F5F5F5F5F5F5F5F5F5F5F5F5F5F5F5
310
F5F5F5F5F5F5F5F5F5F5F5F5F5F5F5F5F5E2F5F5F5F5F5F5F5F5F5F5F5F5F5F5F5F5F5F5F5F5E2E2EFF5F5F5F5F5F5F5F5F5F5F5F5F5F5F5F5F5F5F5F5E2F5F5F5F5F5F5F5F5F5F5F5F5F5F5F5F5F5F5F5F5F5F5F5F5F5F5F5F5F5F5F5F5F5F5F5F5F5F5F5F5F5F5F5F5F5F5F5F5F5F5F5F5F5F5F5F5F5F5F5F5F5F5F5F5F5
310
F5F5F5F5F5F5F5F5F5F5F5F5F5F5F5F5F5F5F5F5F5F5F5F5F5F5F5F5F5F5F5F5F5F5F5F5F5F5F5F5F5F5F5F5F5F5F5F5F5F5F5F5F5F5F5F5F5F5F5F5F5F5F5F5F5F5F5F5F5F5E2F5F5F5F5F5F5F5F5F5F5F5F5F5F5F5F5F5F5F5F5E2E2EFF5F5F5F5F5F5F5F5F5F5F5F5F5F5F5F5F5F5F5F5E2F5F5F5F5F5F5F5F5F5F5F5F5
310
F5F5F5F5F5F5F5F5F5F5F5F5F5F5F5F5F5F5F5F5F5F5F5F5F5F5F5F5F5F5F5F5F5F5F5F5F5F5F5F5F5F5F5F5F5F5F5F5F5F5F5F5F5F5F5F5F5F5F5F5F5F5F5F5F5F5F5F5F5F5F5F5F5F5F5F5F5F5F5F5F5F5F5F5F5F5F5F5F5F5F5F5F5F5F5F5F5F5F5F5F5F5F5F5F5F5F5F5F5F5F5F5F5F5F5F5F5F5F5F5F5F5F5E2F5F5F5
310
F5F5F5F5F5F5F5F5F5F5F5F5F5F5F5F5F5E2E2EFF5F5F5F5F5F5F5F5F5F5F5F5F5F5F5F5F5F5F5F5E2F5F5F5F5F5F5F5F5F5F5F5F5F5F5F5F5F5F5F5F5F5F5F5F5F5F5F5F5F5F5F5F5F5F5F5F5F5F5F5F5F5F5F5F5F5F5F5F5F5F5F5F5F5F5F5F5F5F5F5F5F5F5F5F5F5F5F5F5F5F5F5F5F5F5F5F5F5F5F5F5F5F5F5F5F5F5
310
F5F5F5F5F5F5F5F5F5F5F5F5F5F5F5F5F5F5F5F5F5F5F5F5F5F5F5F5F5F5F5F5F5F5F5F5F5F5F5F5F5F5F5F5F5F5F5F5F5E2F5F5F5F5F5F5F5F5F5F5F5F5F5F5F5F5F5F5F5F5E2E2EFF5F5F5F5F5F5F5F5F5F5F5F5F5F5F5F5F5F5F5F5E2F5F5F5F5F5F5F5F5F5F5F5F5F5F5F5F5F5F5F5F5F5F5F5F5F5F5F5F5F5F5F5F5F5
310
F5F5F5F5F5F5F5F5F5F5F5F5F5F5F5F5F5F5F5F5F5F5F5F5F5F5F5F5F5F5F5F5F5F5F5F5F5F5F5F5F5F5F5F5F5F5F5F5F5F5F5F5F5F5F5F5F5F5F5F5F5F5F5F5F5F5F5F5F5F5F5F5F5F5F5F5F5F5F5F5F5F5F5F5F5F5F5F5F5F5F5F5F5F5F5F5F5F5F5F5F5F5E2F5F5F5F5F5F5F5F5F5F5F5F5F5F5F5F5F5F5F5F5E2E2EFF5
310
F5F5F5F5F5F5F5F5F5F5F5F5F5F5F5F5F5F5F5E2F5F5F5F5F5F5F5F5F5F5F5F5F5F5F5F5F5F5F5F5F5F5F5F5F5F5F5F5F5F5F5F5F5F5F5F5F5F5F5F5F5F5F5F5F5F5F5F5F5F5F5F5F5F5F5F5F5F5F5F5F5F5F5F5F5F5F5F5F5F5F5F5F5F5F5F5F5F5F5F5F5F5F5F5F5F5F5F5F5F5F5F5F5F5F5F5F5F5F5F5F5F5F5F5F5F5F5
310
F5F5F5F5F5F5F5F5F5F5F5F5F5F5F5F5F5F5F5F5F5F5F5F5F5F5F5F5E2F5F5F5F5F5F5F5F5F5F5F5F5F5F5F5F5F5F5F5F5E2E2EFF5F5F5E2F5F5F5F5F5F5F5F5F5F5F5F5F5F5F5F5E2F5F5F5F5F5F5F5F5F5F5F5F5F5F5F5F5F5F5F5F5F5F5F5F5F5F5F5F5F5F5F5F5F5F5F5F5F5F5F5F5F5F5F5F5F5F5F5F5F5F5F5F5F5F5
310
F5F5F5F5F5F5F5F5F5F5F5F5F5F5F5F5F5F5F5F5F5F5F5F5F5F5F5F5F5F5F5F5F5F5F5F5F5F5F5F5F5F5F5F5F5F5F5F5F5F5F5F5F5F5F5F5F5F5F5F5F5F5F5F5F5F5F5F5F5F5F5F5F5F5F5F5F5F5F5F5F5E2F5F5F5F5F5F5F5F5F5F5F5F5F5F5F5F5E2F5F5F5E2E2EFF5F5F5E2F5F5F5F5F5F5F5F5F5F5F5F5F5F5F5F5E2F5
310
F5F5F5F5F5F5F5F5F5F5F5F5F5F5F5F5F5F5F5F5F5F5F5F5F5F5F5F5F5F5F5F5F5F5F5F5F5F5F5F5F5F5F5F5F5F5F5F5F5F5F5F5F5F5F5F5F5F5F5F5F5F5F5F5F5F5F5F5F5F5F5F5F5F5F5F5F5F5F5F5F5F5F5F5F5F5F5F5F5F5F5F5F5F5F5F5F5F5F5F5F5F5F5F5F5F5F5F5F5F5F5F5F5F5F5F5F5F5F5F5F5F5F5F5F5F5F5
310
F5F5F5F5F5F5F5E2F5F5F5F5F5F5F5F5F5F5F5F5F5F5F5F5E2F5F5F5E2E2EFF5F5F5E2F5F5F5F5F5F5F5F5F5F5F5F5F5F5F5F5E2F5F5F5F5F5F5F5F5F5F5F5F5F5F5F5F5F5F5F5F5F5F5F5F5F5F5F5F5F5F5F5F5F5F5F5F5F5F5F5F5F5F5F5F5F5F5F5F5F5F5F5F5F5F5F5F5F5F5F5F5F5F5F5F5F5F5F5F5F5F5F5F5F5F5F5
310
F5F5F5F5F5F5F5F5F5F5F5F5F5F5F5F5F5F5F5F5F5F5F5F5F5F5F5F5F5F5F5F5F5F5F5F5F5F5F5F5F5F5F5F5F5F5F5F5F5F5F5F5F5F5F5F5F5F5F5F5E2F5F5F5F5F5F5F5F5F5F5F5F5F5F5F5F5E2F5F5F5E2E2EFF5F5F5E2F5F5F5F5F5F5F5F5F5F5F5F5F5F5F5F5E2F5F5F5F5F5F5F5F5F5F5F5F5F5F5F5F5F5F5F5F5F5F5
310
F5F5F5F5F5F5F5F5F5F5F5F5F5F5F5F5F5F5F5F5F5F5F5F5F5F5F5F5F5F5F5F5F5F5F5F5F5F5F5F5F5F5F5F5F5F5F5F5F5F5F5F5F5F5F5F5F5F5F5F5F5F5F5F5F5F5F5F5F5F5F5F5F5F5F5F5F5F5F5F5F5F5F5F5F5F5F5F5F5F5F5F5F5F5F5F5F5F5F5F5F5F5F5F5F5F5F5F5F5F5F5F5F5E2F5F5F5F5F5F5F5F5F5F5F5F5F5
310
F5F5F5E2F5F5F5E2E2EFF5F5F5E2F5F5F5F5F5F5F5F5F5F5F5F5F5F5F5F5E2F5F5F5F5F5F5F5F5F5F5F5F5F5F5F5F5F5F5F5F5F5F5F5F5F5F5F5F5F5F5F5F5F5F5F5F5F5F5F5F5F5F5F5F5F5F5F5F5F5F5F5F5F5F5F5F5F5F5F5F5F5F5F5F5F5F5F5F5F5F5F5F5F5F5F5F5F5F5F5F5F5F5F5F5F5F5F5F5F5F5F5F5F5F5F5F5
310
F5F5F5F5F5F5F5F5F5F5F5F5F5F5F5F5F5F5F5F5F5F5F5F5F5F5F5F5F5F5F5F5F5F5F5F5F5F5F5E2F5F5F5F5F5F5F5F5F5F5F5F5F5F5F5F5E2F5F5F5E2E2EFF5F5F5E2F5F5F5F5F5F5F5F5F5F5F5F5F5F5F5F5E2F5F5F5F5F5F5F5F5F5F5F5F5F5F5F5F5F5F5F5F5F5F5F5F5F5F5F5F5F5F5F5F5F5F5F5F5F5F5F5F5F5F5F5
310
F5F5F5F5F5F5F5F5F5F5F5F5F5F5F5F5F5F5F5F5F5F5F5F5F5F5F5F5F5F5F5F5F5F5F5F5F5F5F5F5F5F5F5F5F5F5F5F5F5F5F5F5F5F5F5F5F5F5F5F5F5F5F5F5F5F5F5F5F5F5F5F5F5F5F5F5F5F5F5F5F5F5F5F5F5F5F5F5F5F5F5F5E2F5F5F5F5F5F5F5F5F5F5F5F5F5F5F5F5E2F5F5F5E2E2EFF5F5F5E2F5F5F5F5F5F5F5
310
F5F5F5F5F5F5F5F5F5E2F5F5F5F5F5F5F5F5F5F5F5F5F5F5F5F5F5F5F5F5F5F5F5F5F5F5F5F5F5F5F5F5F5F5F5F5F5F5F5F5F5F5F5F5F5F5F5F5F5F5F5F5F5F5F5F5F5F5F5F5F5F5F5F5F5F5F5F5F5F5F5F5F5F5F5F5F5F5F5F5F5F5F5F5F5F5F5F5F5F5F5F5F5F5F5F5F5F5F5F5F5F5F5F5F5F5F5F5F5F5F5F5F5F5F5F5F5
310
F5F5F5F5F5F5F5F5F5F5F5F5F5F5F5F5F5F5E2F5F5F5F5F5F5F5F5F5F5F5F5F5F5F5F5E2F5F5F5E2E2EFF5F5F5E2F5F5F5F5F5F5F5F5F5F5F5F5F5F5F5F5E2F5F5F5F5F5F5F5F5F5F5F5F5F5F5F5F5F5F5F5F5F5F5F5F5F5F5F5F5F5F5F5F5F5F5F5F5F5F5F5F5F5F5F5F5F5F5F5F5F5F5F5F5F5F5F5F5F5F5F5F5F5F5F5F5
310
F5F5F5F5F5F5F5F5F5F5F5F5F5F5F5F5F5F5F5F5F5F5F5F5F5F5F5F5F5F5F5F5F5F5F5F5F5F5F5F5F5F5F5F5F5F5F5F5F5F5F5F5F5F5F5F5F5F5F5F5F5F5F5F5F5F5F5F5F5F5F5E2F5F5F5F5F5F5F5F5F5F5F5F5F5F5F5F5E2F5F5F5E2E2EFF5F5F5E2F5F5F5F5F5F5F5F5F5F5F5F5F5F5F5F5E2F5F5F5F5F5F5F5F5F5F5F5
310
F5F5F5F5F5F5F5F5F5F5F5F5F5F5F5F5F5F5F5F5F5F5F5F5F5F5F5F5F5F5F5F5F5F5F5F5F5F5F5F5F5F5F5F5F5F5F5F5F5F5F5F5F5F5F5F5F5F5F5F5F5F5F5F5F5F5F5F5F5F5F5F5F5F5F5F5F5F5F5F5F5F5F5F5F5F5F5F5F5F5F5F5F5F5F5F5F5F5F5F5F5F5F5F5F5F5F5F5F5F5F5F5F5F5F5F5F5F5F5F5F5F5F5F5E2F5F5
310
F5F5F5F5F5F5F5F5F5F5F5F5F5F5E2F5F5F5E2E2EFF5F5F5E2F5F5F5F5F5F5F5F5F5F5F5F5F5F5F5F5E2F5F5F5F5F5F5F5F5F5F5F5F5F5F5F5F5F5F5F5F5F5F5F5F5F5F5F5F5F5F5F5F5F5F5F5F5F5F5F5F5F5F5F5F5F5F5F5F5F5F5F5F5F5F5F5F5F5F5F5F5F5F5F5F5F5F5F5F5F5F5F5F5F5F5F5F5F5F5F5F5F5F5F5F5F5
310
F5F5F5F5F5F5F5F5F5F5F5F5F5F5F5F5F5F5F5F5F5F5F5F5F5F5F5F5F5F5F5F5F5F5F5F5F5F5F5F5F5F5F5F5F5F5F5F5F5F5E2F5F5F5F5F5F5F5F5F5F5F5F5F5F5F5F5E2F5F5F5E2E2EFF5F5F5E2F5F5F5F5F5F5F5F5F5F5F5F5F5F5F5F5E2F5F5F5F5F5F5F5F5F5F5F5F5F5F5F5F5F5F5F5F5F5F5F5F5F5F5F5F5F5F5F5F5
310
F5F5F5F5F5F5F5F5F5F5F5F5F5F5F5F5F5F5F5F5F5F5F5F5F5F5F5F5F5F5F5F5F5F5F5F5F5F5F5F5F5F5F5F5F5F5F5F5F5F5F5F5F5F5F5F5F5F5F5F5F5F5F5F5F5F5F5F5F5F5F5F5F5F5F5F5F5F5F5F5F5F5F5F5F5F5F5F5F5F5F5F5F5F5F5F5F5F5F5F5F5F5F5E2F5F5F5F5F5F5F5F5F5F5F5F5F5F5F5F5E2F5F5F5E2E2EF
310
F5F5F5E2F5F5F5F5F5F5F5F5F5F5F5F5F5F5F5F5E2F5F5F5F5F5F5F5F5F5F5F5F5F5F5F5F5F5F5F5F5F5F5F5F5F5F5F5F5F5F5F5F5F5F5F5F5F5F5F5F5F5F5F5F5F5F5F5F5F5F5F5F5F5F5F5F5F5F5F5F5F5F5F5F5F5F5F5F5F5F5F5F5F5F5F5F5F5F5F5F5F5F5F5F5F5F5F5F5F5F5F5F5F5F5F5F5F5F5F5F5F5F5F5F5F5F5
310
F5F5F5F5F5F5F5F5F5F5F5F5F5F5F5F5F5F5F5F5F5F5F5F5F5F5F5F5F5E2F5F5F5F5F5F5F5F5F5F5F5F5F5F5F5F5E2F5F5F5E2E2EFF5F5F5E2F5F5F5F5F5F5F5F5F5F5F5F5F5F5F5F5E2F5F5F5F5F5F5F5F5F5F5F5F5F5F5F5F5F5F5F5F5F5F5F5F5F5F5F5F5F5F5F5F5F5F5F5F5F5F5F5F5F5F5F5F5F5F5F5F5F5F5F5F5F5
310
F5F5F5F5F5F5F5F5F5F5F5F5F5F5F5F5F5F5F5F5F5F5F5F5F5F5F5F5F5F5F5F5F5F5F5F5F5F5F5F5F5F5F5F5F5F5F5F5F5F5F5F5F5F5F5F5F5F5F5F5F5F5F5F5F5F5F5F5F5F5F5F5F5F5F5F5F5F5F5F5F5F5E2F5F5F5F5F5F5F5F5F5F5F5F5F5F5F5F5E2F5F5F5E2E2EFF5F5F5E2F5F5F5F5F5F5F5F5F5F5F5F5F5F5F5F5E2
310
F5F5F5F5F5F5F5F5F5F5F5F5F5F5F5F5F5F5F5F5F5F5F5F5F5F5F5F5F5F5F5F5F5F5F5F5F5F5F5F5F5F5F5F5F5F5F5F5F5F5F5F5F5F5F5F5F5F5F5F5F5F5F5F5F5F5F5F5F5F5F5F5F5F5F5F5F5F5F5F5F5F5F5F5F5F5F5F5F5F5F5F5F5F5F5F5F5F5F5F5F5F5F5F5F5F5F5F5F5F5F5F5F5F5F5F5F5F5F5F5F5F5F5F5F5F5F5
310
F5F5F5F5F5F5F5F5E2F5F5F5F5F5F5F5F5F5F5F5F5F5F5F5F5E2F5F5F5E2E2EFF5F5F5E2F5F5F5F5F5F5F5F5F5F5F5F5F5F5F5F5E2F5F5F5F5F5F5F5F5F5F5F5F5F5F5F5F5F5F5F5F5F5F5F5F5F5F5F5F5F5F5F5F5F5F5F5F5F5F5F5F5F5F5F5F5F5F5F5F5F5F5F5F5F5F5F5F5F5F5F5F5F5F5F5F5F5F5F5F5F5F5F5F5F5F5
310
F5F5F5F5F5F5F5F5F5F5F5F5F5F5F5F5F5F5F5F5F5F5F5F5F5F5F5F5F5F5F5F5F5F5F5F5F5F5F5F5F5F5F5F5F5F5F5F5F5F5F5F5F5F5F5F5F5F5F5F5F5E2F5F5F5F5F5F5F5F5F5F5F5F5F5F5F5F5E2F5F5F5E2E2EFF5F5F5E2F5F5F5F5F5F5F5F5F5F5F5F5F5F5F5F5E2F5F5F5F5F5F5F5F5F5F5F5F5F5F5F5F5F5F5F5F5F5
310
F5F5F5F5F5F5F5F5F5F5F5F5F5F5F5F5F5F5F5F5F5F5F5F5F5F5F5F5F5F5F5F5F5F5F5F5F5F5F5F5F5F5F5F5F5F5F5F5F5F5F5F5F5F5F5F5F5F5F5F5F5F5F5F5F5F5F5F5F5F5F5F5F5F5F5F5F5F5F5F5F5F5F5F5F5F5F5F5F5F5F5F5F5F5F5F5F5F5F5F5F5F5F5F5F5F5F5F5F5F5F5F5F5F5E2F5F5F5F5F5F5F5F5F5F5F5F5
310
F5F5F5F5E2F5F5F5E2E2EFF5F5F5E2F5F5F5F5F5F5F5F5F5F5F5F5F5F5F5F5E2F5F5F5F5F5F5F5F5F5F5F5F5F5F5F5F5F5F5F5F5F5F5F5F5F5F5F5F5F5F5F5F5F5F5F5F5F5F5F5F5F5F5F5F5F5F5F5F5F5F5F5F5F5F5F5F5F5F5F5F5F5F5F5F5F5F5F5F5F5F5F5F5F5F5F5F5F5F5F5F5F5F5F5F5F5F5F5F5F5F5F5F5F5F5F5
310
F5F5F5F5F5F5F5F5F5F5F5F5F5F5F5F5F5F5F5F5F5F5F5F5F5F5F5F5F5F5F5F5F5F5F5F5F5F5F5F5E2F5F5F5F5F5F5F5F5F5F5F5F5F5F5F5F5E2F5F5F5E2E2EFF5F5F5F5F5F5F5F5F5F5F5F5F5F5F5F5F5F5F5F5E2F5F5F5F5F5F5F5F5F5F5F5F5F5F5F5F5F5F5F5F5F5F5F5F5F5F5F5F5F5F5F5F5F5F5F5F5F5F5F5F5F5F5
310
F5F5F5F5F5F5F5F5F5F5F5F5F5F5F5F5F5F5F5F5F5F5F5F5F5F5F5F5F5F5F5F5F5F5F5F5F5F5F5F5F5F5F5F5F5F5F5F5F5F5F5F5F5F5F5F5F5F5F5F5F5F5F5F5F5F5F5F5F5F5F5F5F5F5F5F5F5F5F5F5F5F5F5F5F5F5F5F5F5F5F5F5F5E2F5F5F5F5F5F5F5F5F5F5F5F5F5F5F5F5F5F5F5F5E2E2EFF5F5F5F5F5F5F5F5F5F5
310
F5F5F5F5F5F5F5F5F5F5E2F5F5F5F5F5F5F5F5F5F5F5F5F5F5F5F5F5F5F5F5F5F5F5F5F5F5F5F5F5F5F5F5F5F5F5F5F5F5F5F5F5F5F5F5F5F5F5F5F5F5F5F5F5F5F5F5F5F5F5F5F5F5F5F5F5F5F5F5F5F5F5F5F5F5F5F5F5F5F5F5F5F5F5F5F5F5F5F5F5F5F5F5F5F5F5F5F5F5F5F5F5F5F5F5F5F5F5F5F5F5F5F5F5F5F5F5
310
F5F5F5F5F5F5F5F5F5F5F5F5F5F5F5F5F5F5F5E2F5F5F5F5F5F5F5F5F5F5F5F5F5F5F5F5F5F5F5F5E2E2EFF5F5F5F5F5F5F5F5F5F5F5F5F5F5F5F5F5F5F5F5E2F5F5F5F5F5F5F5F5F5F5F5F5F5F5F5F5F5F5F5F5F5F5F5F5F5F5F5F5F5F5F5F5F5F5F5F5F5F5F5F5F5F5F5F5F5F5F5F5F5F5F5F5F5F5F5F5F5F5F5F5F5F5F5
310
F5F5F5F5F5F5F5F5F5F5F5F5F5F5F5F5F5F5F5F5F5F5F5F5F5F5F5F5F5F5F5F5F5F5F5F5F5F5F5F5F5F5F5F5F5F5F5F5F5F5F5F5F5F5F5F5F5F5F5F5F5F5F5F5F5F5F5F5F5F5F5F5E2F5F5F5F5F5F5F5F5F5F5F5F5F5F5F5F5F5F5F5F5E2E2EFF5F5F5F5F5F5F5F5F5F5F5F5F5F5F5F5F5F5F5F5E2F5F5F5F5F5F5F5F5F5F5
310
F5F5F5F5F5F5F5F5F5F5F5F5F5F5F5F5F5F5F5F5F5F5F5F5F5F5F5F5F5F5F5F5F5F5F5F5F5F5F5F5F5F5F5F5F5F5F5F5F5F5F5F5F5F5F5F5F5F5F5F5F5F5F5F5F5F5F5F5F5F5F5F5F5F5F5F5F5F5F5F5F5F5F5F5F5F5F5F5F5F5F5F5F5F5F5F5F5F5F5F5F5F5F5F5F5F5F5F5F5F5F5F5F5F5F5F5F5F5F5F5F5F5F5F5F5E2F5
310
F5F5F5F5F5F5F5F5F5F5F5F5F5F5F5F5F5F5F5E2E2EFF5F5F5F5F5F5F5F5F5F5F5F5F5F5F5F5F5F5F5F5E2F5F5F5F5F5F5F5F5F5F5F5F5F5F5F5F5F5F5F5F5F5F5F5F5F5F5F5F5F5F5F5F5F5F5F5F5F5F5F5F5F5F5F5F5F5F5F5F5F5F5F5F5F5F5F5F5F5F5F5F5F5F5F5F5F5F5F5F5F5F5F5F5F5F5F5F5F5F5F5F5F5F5F5F5
310
F5F5F5F5F5F5F5F5F5F5F5F5F5F5F5F5F5F5F5F5F5F5F5F5F5F5F5F5F5F5F5F5F5F5F5F5F5F5F5F5F5F5F5F5F5F5F5F5F5F5F5E2F5F5F5F5F5F5F5F5F5F5F5F5F5F5F5F5F5F5F5F5E2E2EFF5F5F5F5F5F5F5F5F5F5F5F5F5F5F5F5F5F5F5F5E2F5F5F5F5F5F5F5F5F5F5F5F5F5F5F5F5F5F5F5F5F5F5F5F5F5F5F5F5F5F5F5
310
F5F5F5F5F5F5F5F5F5F5F5F5F5F5F5F5F5F5F5F5F5F5F5F5F5F5F5F5F5F5F5F5F5F5F5F5F5F5F5F5F5F5F5F5F5F5F5F5F5F5F5F5F5F5F5F5F5F5F5F5F5F5F5F5F5F5F5F5F5F5F5F5F5F5F5F5F5F5F5F5F5F5F5F5F5F5F5F5F5F5F5F5F5F5F5F5F5F5F5F5F5F5F5F5E2F5F5F5F5F5F5F5F5F5F5F5F5F5F5F5F5F5F5F5F5E2E2
310
EFF5F5F5F5F5F5F5F5F5F5F5F5F5F5F5F5F5F5F5F5E2F5F5F5F5F5F5F5F5F5F5F5F5F5F5F5F5F5F5F5F5F5F5F5F5F5F5F5F5F5F5F5F5F5F5F5F5F5F5F5F5F5F5F5F5F5F5F5F5F5F5F5F5F5F5F5F5F5F5F5F5F5F5F5F5F5F5F5F5F5F5F5F5F5F5F5F5F5F5F5F5F5F5F5F5F5F5F5F5F5F5F5F5F5F5F5F5F5F5F5F5F5F5F5F5F5
310
F5F5F5F5F5F5F5F5F5F5F5F5F5F5F5F5F5F5F5F5F5F5F5F5F5F5F5F5F5F5E2F5F5F5F5F5F5F5F5F5F5F5F5F5F5F5F5F5F5F5F5E2E2EFF5F5F5F5F5F5F5F5F5F5F5F5F5F5F5F5F5F5F5F5E2F5F5F5F5F5F5F5F5F5F5F5F5F5F5F5F5F5F5F5F5F5F5F5F5F5F5F5F5F5F5F5F5F5F5F5F5F5F5F5F5F5F5F5F5F5F5F5F5F5F5F5F5
310
F5F5F5F5F5F5F5F5F5F5F5F5F5F5F5F5F5F5F5F5F5F5F5F5F5F5F5F5F5F5F5F5F5F5F5F5F5F5F5F5F5F5F5F5F5F5F5F5F5F5F5F5F5F5F5F5F5F5F5F5F5F5F5F5F5F5F5F5F5F5F5F5F5F5F5F5F5F5F5F5F5F5F5E2F5F5F5F5F5F5F5F5F5F5F5F5F5F5F5F5F5F5F5F5E2E2EFF5F5F5F5F5F5F5F5F5F5F5F5F5F5F5F5F5F5F5F5
310
E2F5F5F5F5F5F5F5F5F5F5F5F5F5F5F5F5F5F5F5F5F5F5F5F5F5F5F5F5F5F5F5F5F5F5F5F5F5F5F5F5F5F5F5F5F5F5F5F5F5F5F5F5F5F5F5F5F5F5F5F5F5F5F5F5F5F5F5F5F5F5F5F5F5F5F5F5F5F5F5F5F5F5F5F5F5F5F5F5F5F5F5F5F5F5F5F5F5F5F5F5F5F5F5F5F5F5F5F5F5F5F5F5F5F5F5F5F5F5F5F5F5F5F5F5F5F5
310
F5F5F5F5F5F5F5F5F5E2F5F5F5F5F5F5F5F5F5F5F5F5F5F5F5F5F5F5F5F5E2E2EFF5F5F5E2F5F5F5F5F5F5F5F5F5F5F5F5F5F5F5F5E2F5F5F5F5F5F5F5F5F5F5F5F5F5F5F5F5F5F5F5F5F5F5F5F5F5F5F5F5F5F5F5F5F5F5F5F5F5F5F5F5F5F5F5F5F5F5F5F5F5F5F5F5F5F5F5F5F5F5F5F5F5F5F5F5F5F5F5F5F5F5F5F5F5
310
F5F5F5F5F5F5F5F5F5F5F5F5F5F5F5F5F5F5F5F5F5F5F5F5F5F5F5F5F5F5F5F5F5F5F5F5F5F5F5F5F5F5F5F5F5F5F5F5F5F5F5F5F5F5F5F5F5F5F5F5F5F5E2F5F5F5F5F5F5F5F5F5F5F5F5F5F5F5F5E2F5F5F5E2E2EFF5F5F5E2F5F5F5F5F5F5F5F5F5F5F5F5F5F5F5F5E2F5F5F5F5F5F5F5F5F5F5F5F5F5F5F5F5F5F5F5F5
310
F5F5F5F5F5F5F5F5F5F5F5F5F5F5F5F5F5F5F5F5F5F5F5F5F5F5F5F5F5F5F5F5F5F5F5F5F5F5F5F5F5F5F5F5F5F5F5F5F5F5F5F5F5F5F5F5F5F5F5F5F5F5F5F5F5F5F5F5F5F5F5F5F5F5F5F5F5F5F5F5F5F5F5F5F5F5F5F5F5F5F5F5F5F5F5F5F5F5F5F5F5F5F5F5F5F5F5F5F5F5F5F5F5F5F5E2F5F5F5F5F5F5F5F5F5F5F5
310
F5F5F5F5F5E2F5F5F5E2E2EFF5F5F5E2F5F5F5F5F5F5F5F5F5F5F5F5F5F5F5F5E2F5F5F5F5F5F5F5F5F5F5F5F5F5F5F5F5F5F5F5F5F5F5F5F5F5F5F5F5F5F5F5F5F5F5F5F5F5F5F5F5F5F5F5F5F5F5F5F5F5F5F5F5F5F5F5F5F5F5F5F5F5F5F5F5F5F5F5F5F5F5F5F5F5F5F5F5F5F5F5F5F5F5F5F5F5F5F5F5F5F5F5F5F5F5
310
F5F5F5F5F5F5F5F5F5F5F5F5F5F5F5F5F5F5F5F5F5F5F5F5F5F5F5F5F5F5F5F5F5F5F5F5F5F5F5F5F5E2F5F5F5F5F5F5F5F5F5F5F5F5F5F5F5F5E2F5F5F5E2E2EFF5F5F5E2F5F5F5F5F5F5F5F5F5F5F5F5F5F5F5F5E2F5F5F5F5F5F5F5F5F5F5F5F5F5F5F5F5F5F5F5F5F5F5F5F5F5F5F5F5F5F5F5F5F5F5F5F5F5F5F5F5F5
310
F5F5F5F5F5F5F5F5F5F5F5F5F5F5F5F5F5F5F5F5F5F5F5F5F5F5F5F5F5F5F5F5F5F5F5F5F5F5F5F5F5F5F5F5F5F5F5F5F5F5F5F5F5F5F5F5F5F5F5F5F5F5F5F5F5F5F5F5F5F5F5F5F5F5F5F5F5F5F5F5F5F5F5F5F5F5F5F5F5F5F5F5F5F5E2F5F5F5F5F5F5F5F5F5F5F5F5F5F5F5F5E2F5F5F5E2E2EFF5F5F5E2F5F5F5F5F5
310
F5F5F5F5F5F5F5F5F5F5F5E2F5F5F5F5F5F5F5F5F5F5F5F5F5F5F5F5F5F5F5F5F5F5F5F5F5F5F5F5F5F5F5F5F5F5F5F5F5F5F5F5F5F5F5F5F5F5F5F5F5F5F5F5F5F5F5F5F5F5F5F5F5F5F5F5F5F5F5F5F5F5F5F5F5F5F5F5F5F5F5F5F5F5F5F5F5F5F5F5F5F5F5F5F5F5F5F5F5F5F5F5F5F5F5F5F5F5F5F5F5F5F5F5F5F5F5
310
F5F5F5F5F5F5F5F5F5F5F5F5F5F5F5F5F5F5F5F5E2F5F5F5F5F5F5F5F5F5F5F5F5F5F5F5F5E2F5F5F5E2E2EFF5F5F5E2F5F5F5F5F5F5F5F5F5F5F5F5F5F5F5F5E2F5F5F5F5F5F5F5F5F5F5F5F5F5F5F5F5F5F5F5F5F5F5F5F5F5F5F5F5F5F5F5F5F5F5F5F5F5F5F5F5F5F5F5F5F5F5F5F5F5F5F5F5F5F5F5F5F5F5F5F5F5F5
310
F5F5F5F5F5F5F5F5F5F5F5F5F5F5F5F5F5F5F5F5F5F5F5F5F5F5F5F5F5F5F5F5F5F5F5F5F5F5F5F5F5F5F5F5F5F5F5F5F5F5F5F5F5F5F5F5F5F5F5F5F5F5F5F5F5F5F5F5F5F5F5F5F5E2F5F5F5F5F5F5F5F5F5F5F5F5F5F5F5F5E2F5F5F5E2E2EFF5F5F5E2F5F5F5F5F5F5F5F5F5F5F5F5F5F5F5F5E2F5F5F5F5F5F5F5F5F5
310
F5F5F5F5F5F5F5F5F5F5F5F5F5F5F5F5F5F5F5F5F5F5F5F5F5F5F5F5F5F5F5F5F5F5F5F5F5F5F5F5F5F5F5F5F5F5F5F5F5F5F5F5F5F5F5F5F5F5F5F5F5F5F5F5F5F5F5F5F5F5F5F5F5F5F5F5F5F5F5F5F5F5F5F5F5F5F5F5F5F5F5F5F5F5F5F5F5F5F5F5F5F5F5F5F5F5F5F5F5F5F5F5F5F5F5F5F5F5F5F5F5F5F5F5F5F5E2
310
F5F5F5F5F5F5F5F5F5F5F5F5F5F5F5F5E2F5F5F5E2E2EFF5F5F5E2F5F5F5F5F5F5F5F5F5F5F5F5F5F5F5F5E2F5F5F5F5F5F5F5F5F5F5F5F5F5F5F5F5F5F5F5F5F5F5F5F5F5F5F5F5F5F5F5F5F5F5F5F5F5F5F5F5F5F5F5F5F5F5F5F5F5F5F5F5F5F5F5F5F5F5F5F5F5F5F5F5F5F5F5F5F5F5F5F5F5F5F5F5F5F5F5F5F5F5F5
310
F5F5F5F5F5F5F5F5F5F5F5F5F5F5F5F5F5F5F5F5F5F5F5F5F5F5F5F5F5F5F5F5F5F5F5F5F5F5F5F5F5F5F5F5F5F5F5F5F5F5F5F5E2F5F5F5F5F5F5F5F5F5F5F5F5F5F5F5F5E2F5F5F5E2E2EFF5F5F5E2F5F5F5F5F5F5F5F5F5F5F5F5F5F5F5F5E2F5F5F5F5F5F5F5F5F5F5F5F5F5F5F5F5F5F5F5F5F5F5F5F5F5F5F5F5F5F5
310
F5F5F5F5F5F5F5F5F5F5F5F5F5F5F5F5F5F5F5F5F5F5F5F5F5F5F5F5F5F5F5F5F5F5F5F5F5F5F5F5F5F5F5F5F5F5F5F5F5F5F5F5F5F5F5F5F5F5F5F5F5F5F5F5F5F5F5F5F5F5F5F5F5F5F5F5F5F5F5F5F5F5F5F5F5F5F5F5F5F5F5F5F5F5F5F5F5F5F5F5F5F5F5F5F5E2F5F5F5F5F5F5F5F5F5F5F5F5F5F5F5F5E2F5F5F5E2
310
E2EFF5F5F5E2F5F5F5F5F5F5F5F5F5F5F5F5F5F5F5F5E2F5F5F5F5F5F5F5F5F5F5F5F5F5F5F5F5F5F5F5F5F5F5F5F5F5F5F5F5F5F5F5F5F5F5F5F5F5F5F5F5F5F5F5F5F5F5F5F5F5F5F5F5F5F5F5F5F5F5F5F5F5F5F5F5F5F5F5F5F5F5F5F5F5F5F5F5F5F5F5F5F5F5F5F5F5F5F5F5F5F5F5F5F5F5F5F5F5F5F5F5F5F5F5F5
310
F5F5F5F5F5F5F5F5F5F5F5F5F5F5F5F5F5F5F5F5F5F5F5F5F5F5F5F5F5F5F5E2F5F5F5F5F5F5F5F5F5F5F5F5F5F5F5F5E2F5F5F5E2E2EFF5F5F5E2F5F5F5F5F5F5F5F5F5F5F5F5F5F5F5F5E2F5F5F5F5F5F5F5F5F5F5F5F5F5F5F5F5F5F5F5F5F5F5F5F5F5F5F5F5F5F5F5F5F5F5F5F5F5F5F5F5F5F5F5F5F5F5F5F5F5F5F5
310
F5F5F5F5F5F5F5F5F5F5F5F5F5F5F5F5F5F5F5F5F5F5F5F5F5F5F5F5F5F5F5F5F5F5F5F5F5F5F5F5F5F5F5F5F5F5F5F5F5F5F5F5F5F5F5F5F5F5F5F5F5F5F5F5F5F5F5F5F5F5F5F5F5F5F5F5F5F5F5F5F5F5F5F5E2F5F5F5F5F5F5F5F5F5F5F5F5F5F5F5F5E2F5F5F5E2E2EFF5F5F5E2F5F5F5F5F5F5F5F5F5F5F5F5F5F5F5
310
F5E2F5F5F5F5F5F5F5F5F5F5F5F5F5F5F5F5F5F5F5F5F5F5F5F5F5F5F5F5F5F5F5F5F5F5F5F5F5F5F5F5F5F5F5F5F5F5F5F5F5F5F5F5F5F5F5F5F5F5F5F5F5F5F5F5F5F5F5F5F5F5F5F5F5F5F5F5F5F5F5F5F5F5F5F5F5F5F5F5F5F5F5F5F5F5F5F5F5F5F5F5F5F5F5F5F5F5F5F5F5F5F5F5F5F5F5F5F5F5F5F5F5F5F5F5F5
310
F5F5F5F5F5F5F5F5F5F5E2F5F5F5F5F5F5F5F5F5F5F5F5F5F5F5F5E2F5F5F5E2E2EFF5F5F5E2F5F5F5F5F5F5F5F5F5F5F5F5F5F5F5F5E2F5F5F5F5F5F5F5F5F5F5F5F5F5F5F5F5F5F5F5F5F5F5F5F5F5F5F5F5F5F5F5F5F5F5F5F5F5F5F5F5F5F5F5F5F5F5F5F5F5F5F5F5F5F5F5F5F5F5F5F5F5F5F5F5F5F5F5F5F5F5F5F5
310
F5F5F5F5F5F5F5F5F5F5F5F5F5F5F5F5F5F5F5F5F5F5F5F5F5F5F5F5F5F5F5F5F5F5F5F5F5F5F5F5F5F5F5F5F5F5F5F5F5F5F5F5F5F5F5F5F5F5F5F5F5F5F5E2F5F5F5F5F5F5F5F5F5F5F5F5F5F5F5F5E2F5F5F5E2E2EFF5F5F5E2F5F5F5F5F5F5F5F5F5F5F5F5F5F5F5F5E2F5F5F5F5F5F5F5F5F5F5F5F5F5F5F5F5F5F5F5
310
F5F5F5F5F5F5F5F5F5F5F5F5F5F5F5F5F5F5F5F5F5F5F5F5F5F5F5F5F5F5F5F5F5F5F5F5F5F5F5F5F5F5F5F5F5F5F5F5F5F5F5F5F5F5F5F5F5F5F5F5F5F5F5F5F5F5F5F5F5F5F5F5F5F5F5F5F5F5F5F5F5F5F5F5F5F5F5F5F5F5F5F5F5F5F5F5F5F5F5F5F5F5F5F5F5F5F5F5F5F5F5F5F5F5F5F5E2F5F5F5F5F5F5F5F5F5F5
310
F5F5F5F5F5F5E2F5F5F5E2E2EFF5F5F5E2F5F5F5F5F5F5F5F5F5F5F5F5F5F5F5F5E2F5F5F5F5F5F5F5F5F5F5F5F5F5F5F5F5F5F5F5F5F5F5F5F5F5F5F5F5F5F5F5F5F5F5F5F5F5F5F5F5F5F5F5F5F5F5F5F5F5F5F5F5F5F5F5F5F5F5F5F5F5F5F5F5F5F5F5F5F5F5F5F5F5F5F5F5F5F5F5F5F5F5F5F5F5F5F5F5F5F5F5F5F5
310
F5F5F5F5F5F5F5F5F5F5F5F5F5F5F5F5F5F5F5F5F5F5F5F5F5F5F5F5F5F5F5F5F5F5F5F5F5F5F5F5F5F5E2F5F5F5F5F5F5F5F5F5F5F5F5F5F5F5F5E2F5F5F5E2E2EFF5F5F5E2F5F5F5F5F5F5F5F5F5F5F5F5F5F5F5F5E2F5F5F5F5F5F5F5F5F5F5F5F5F5F5F5F5F5F5F5F5F5F5F5F5F5F5F5F5F5F5F5F5F5F5F5F5F5F5F5F5
310
F5F5F5F5F5F5F5F5F5F5F5F5F5F5F5F5F5F5F5F5F5F5F5F5F5F5F5F5F5F5F5F5F5F5F5F5F5F5F5F5F5F5F5F5F5F5F5F5F5F5F5F5F5F5F5F5F5F5F5F5F5F5F5F5F5F5F5F5F5F5F5F5F5F5F5F5F5F5F5F5F5F5F5F5F5F5F5F5F5F5F5F5F5F5F5E2F5F5F5F5F5F5F5F5F5F5F5F5F5F5F5F5E2F5F5F5E2E2EFF5F5F5E2F5F5F5F5
310
F5F5F5F5F5F5F5F5F5F5F5F5E2F5F5F5F5F5F5F5F5F5F5F5F5F5F5F5F5F5F5F5F5F5F5F5F5F5F5F5F5F5F5F5F5F5F5F5F5F5F5F5F5F5F5F5F5F5F5F5F5F5F5F5F5F5F5F5F5F5F5F5F5F5F5F5F5F5F5F5F5F5F5F5F5F5F5F5F5F5F5F5F5F5F5F5F5F5F5F5F5F5F5F5F5F5F5F5F5F5F5F5F5F5F5F5F5F5F5F5F5F5F5F5F5F5F5
310
F5F5F5F5F5F5F5F5F5F5F5F5F5F5F5F5F5F5F5F5F5E2F5F5F5F5F5F5F5F5F5F5F5F5F5F5F5F5E2F5F5F5E2E2EFF5F5F5F5F5F5F5F5F5F5F5F5F5F5F5F5F5F5F5F5E2F5F5F5F5F5F5F5F5F5F5F5F5F5F5F5F5F5F5F5F5F5F5F5F5F5F5F5F5F5F5F5F5F5F5F5F5F5F5F5F5F5F5F5F5F5F5F5F5F5F5F5F5F5F5F5F5F5F5F5F5F5
310
F5F5F5F5F5F5F5F5F5F5F5F5F5F5F5F5F5F5F5F5F5F5F5F5F5F5F5F5F5F5F5F5F5F5F5F5F5F5F5F5F5F5F5F5F5F5F5F5F5F5F5F5F5F5F5F5F5F5F5F5F5F5F5F5F5F5F5F5F5F5F5F5F5F5E2F5F5F5F5F5F5F5F5F5F5F5F5F5F5F5F5F5F5F5F5E2E2EFF5F5F5F5F5F5F5F5F5F5F5F5F5F5F5F5F5F5F5F5E2F5F5F5F5F5F5F5F5
310
F5F5F5F5F5F5F5F5F5F5F5F5F5F5F5F5F5F5F5F5F5F5F5F5F5F5F5F5F5F5F5F5F5F5F5F5F5F5F5F5F5F5F5F5F5F5F5F5F5F5F5F5F5F5F5F5F5F5F5F5F5F5F5F5F5F5F5F5F5F5F5F5F5F5F5F5F5F5F5F5F5F5F5F5F5F5F5F5F5F5F5F5F5F5F5F5F5F5F5F5F5F5F5F5F5F5F5F5F5F5F5F5F5F5F5F5F5F5F5F5F5F5F5F5F5F5F5
310
E2F5F5F5F5F5F5F5F5F5F5F5F5F5F5F5F5F5F5F5F5E2E2EFF5F5F5F5F5F5F5F5F5F5F5F5F5F5F5F5F5F5F5F5E2F5F5F5F5F5F5F5F5F5F5F5F5F5F5F5F5F5F5F5F5F5F5F5F5F5F5F5F5F5F5F5F5F5F5F5F5F5F5F5F5F5F5F5F5F5F5F5F5F5F5F5F5F5F5F5F5F5F5F5F5F5F5F5F5F5F5F5F5F5F5F5F5F5F5F5F5F5F5F5F5F5F5
310
F5F5F5F5F5F5F5F5F5F5F5F5F5F5F5F5F5F5F5F5F5F5F5F5F5F5F5F5F5F5F5F5F5F5F5F5F5F5F5F5F5F5F5F5F5F5F5F5F5F5F5F5F5E2F5F5F5F5F5F5F5F5F5F5F5F5F5F5F5F5F5F5F5F5E2E2EFF5F5F5F5F5F5F5F5F5F5F5F5F5F5F5F5F5F5F5F5E2F5F5F5F5F5F5F5F5F5F5F5F5F5F5F5F5F5F5F5F5F5F5F5F5F5F5F5F5F5
310
F5F5F5F5F5F5F5F5F5F5F5F5F5F5F5F5F5F5F5F5F5F5F5F5F5F5F5F5F5F5F5F5F5F5F5F5F5F5F5F5F5F5F5F5F5F5F5F5F5F5F5F5F5F5F5F5F5F5F5F5F5F5F5F5F5F5F5F5F5F5F5F5F5F5F5F5F5F5F5F5F5F5F5F5F5F5F5F5F5F5F5F5F5F5F5F5F5F5F5F5F5F5F5F5F5F5E2F5F5F5F5F5F5F5F5F5F5F5F5F5F5F5F5F5F5F5F5
310
E2E2EFF5F5F5F5F5F5F5F5F5F5F5F5F5F5F5F5F5F5F5F5E2F5F5F5F5F5F5F5F5F5F5F5F5F5F5F5F5F5F5F5F5F5F5F5F5F5F5F5F5F5F5F5F5F5F5F5F5F5F5F5F5F5F5F5F5F5F5F5F5F5F5F5F5F5F5F5F5F5F5F5F5F5F5F5F5F5F5F5F5F5F5F5F5F5F5F5F5F5F5F5F5F5F5F5F5F5F5F5F5F5F5F5F5F5F5F5F5F5F5F5F5F5F5F5
310
F5F5F5F5F5F5F5F5F5F5F5F5F5F5F5F5F5F5F5F5F5F5F5F5F5F5F5F5F5F5F5F5E2F5F5F5F5F5F5F5F5F5F5F5F5F5F5F5F5F5F5F5F5E2E2EFF5F5F5F5F5F5F5F5F5F5F5F5F5F5F5F5F5F5F5F5E2F5F5F5F5F5F5F5F5F5F5F5F5F5F5F5F5F5F5F5F5F5F5F5F5F5F5F5F5F5F5F5F5F5F5F5F5F5F5F5F5F5F5F5F5F5F5F5F5F5F5
310
F5F5F5F5F5F5F5F5F5F5F5F5F5F5F5F5F5F5F5F5F5F5F5F5F5F5F5F5F5F5F5F5F5F5F5F5F5F5F5F5F5F5F5F5F5F5F5F5F5F5F5F5F5F5F5F5F5F5F5F5F5F5F5F5F5F5F5F5F5F5F5F5F5F5F5F5F5F5F5F5F5F5F5F5F5E2F5F5F5F5F5F5F5F5F5F5F5F5F5F5F5F5F5F5F5F5E2E2EFF5F5F5F5F5F5F5F5F5F5F5F5F5F5F5F5F5F5
310
F5F5E2F5F5F5F5F5F5F5F5F5F5F5F5F5F5F5F5F5F5F5F5F5F5F5F5F5F5F5F5F5F5F5F5F5F5F5F5F5F5F5F5F5F5F5F5F5F5F5F5F5F5F5F5F5F5F5F5F5F5F5F5F5F5F5F5F5F5F5F5F5F5F5F5F5F5F5F5F5F5F5F5F5F5F5F5F5F5F5F5F5F5F5F5F5F5F5F5F5F5F5F5F5F5F5F5F5F5F5F5F5F5F5F5F5F5F5F5F5F5F5F5F5F5F5F5
310
F5F5F5F5F5F5F5F5F5F5F5E2F5F5F5F5F5F5F5F5F5F5F5F5F5F5F5F5F5F5F5F5E2E2EFF5F5F5F5F5F5F5F5F5F5F5F5F5F5F5F5F5F5F5F5E2F5F5F5F5F5F5F5F5F5F5F5F5F5F5F5F5F5F5F5F5F5F5F5F5F5F5F5F5F5F5F5F5F5F5F5F5F5F5F5F5F5F5F5F5F5F5F5F5F5F5F5F5F5F5F5F5F5F5F5F5F5F5F5F5F5F5F5F5F5F5F5
310
F5F5F5F5F5F5F5F5F5F5F5F5F5F5F5F5F5F5F5F5F5F5F5F5F5F5F5F5F5F5F5F5F5F5F5F5F5F5F5F5F5F5F5F5F5F5F5F5F5F5F5F5F5F5F5F5F5F5F5F5F5F5F5F5E2F5F5F5F5F5F5F5F5F5F5F5F5F5F5F5F5F5F5F5F5E2E2EFF5F5F5F5F5F5F5F5F5F5F5F5F5F5F5F5F5F5F5F5E2F5F5F5F5F5F5F5F5F5F5F5F5F5F5F5F5F5F5
310
F5F5F5F5F5F5F5F5F5F5F5F5F5F5F5F5F5F5F5F5F5F5F5F5F5F5F5F5F5F5F5F5F5F5F5F5F5F5F5F5F5F5F5F5F5F5F5F5F5F5F5F5F5F5F5F5F5F5F5F5F5F5F5F5F5F5F5F5F5F5F5F5F5F5F5F5F5F5F5F5F5F5F5F5F5F5F5F5F5F5F5F5F5F5F5F5F5F5F5F5F5F5F5F5F5F5F5F5F5F5F5F5F5F5F5F5F5E2F5F5F5F5F5F5F5F5F5
310
F5F5F5F5F5F5F5F5F5F5F5E2E2EFF5F5F5E2F5F5F5F5F5F5F5F5F5F5F5F5F5F5F5F5E2F5F5F5F5F5F5F5F5F5F5F5F5F5F5F5F5F5F5F5F5F5F5F5F5F5F5F5F5F5F5F5F5F5F5F5F5F5F5F5F5F5F5F5F5F5F5F5F5F5F5F5F5F5F5F5F5F5F5F5F5F5F5F5F5F5F5F5F5F5F5F5F5F5F5F5F5F5F5F5F5F5F5F5F5F5F5F5F5F5F5F5F5
310
F5F5F5F5F5F5F5F5F5F5F5F5F5F5F5F5F5F5F5F5F5F5F5F5F5F5F5F5F5F5F5F5F5F5F5F5F5F5F5F5F5F5F5E2F5F5F5F5F5F5F5F5F5F5F5F5F5F5F5F5E2F5F5F5E2E2EFF5F5F5E2F5F5F5F5F5F5F5F5F5F5F5F5F5F5F5F5E2F5F5F5F5F5F5F5F5F5F5F5F5F5F5F5F5F5F5F5F5F5F5F5F5F5F5F5F5F5F5F5F5F5F5F5F5F5F5F5
310
F5F5F5F5F5F5F5F5F5F5F5F5F5F5F5F5F5F5F5F5F5F5F5F5F5F5F5F5F5F5F5F5F5F5F5F5F5F5F5F5F5F5F5F5F5F5F5F5F5F5F5F5F5F5F5F5F5F5F5F5F5F5F5F5F5F5F5F5F5F5F5F5F5F5F5F5F5F5F5F5F5F5F5F5F5F5F5F5F5F5F5F5F5F5F5F5E2F5F5F5F5F5F5F5F5F5F5F5F5F5F5F5F5E2F5F5F5E2E2EFF5F5F5E2F5F5F5
310
F5F5F5F5F5F5F5F5F5F5F5F5F5E2F5F5F5F5F5F5F5F5F5F5F5F5F5F5F5F5F5F5F5F5F5F5F5F5F5F5F5F5F5F5F5F5F5F5F5F5F5F5F5F5F5F5F5F5F5F5F5F5F5F5F5F5F5F5F5F5F5F5F5F5F5F5F5F5F5F5F5F5F5F5F5F5F5F5F5F5F5F5F5F5F5F5F5F5F5F5F5F5F5F5F5F5F5F5F5F5F5F5F5F5F5F5F5F5F5F5F5F5F5F5F5F5F5
310
F5F5F5F5F5F5F5F5F5F5F5F5F5F5F5F5F5F5F5F5F5F5E2F5F5F5F5F5F5F5F5F5F5F5F5F5F5F5F5E2F5F5F5E2E2EFF5F5F5E2F5F5F5F5F5F5F5F5F5F5F5F5F5F5F5F5E2F5F5F5F5F5F5F5F5F5F5F5F5F5F5F5F5F5F5F5F5F5F5F5F5F5F5F5F5F5F5F5F5F5F5F5F5F5F5F5F5F5F5F5F5F5F5F5F5F5F5F5F5F5F5F5F5F5F5F5F5
310
F5F5F5F5F5F5F5F5F5F5F5F5F5F5F5F5F5F5F5F5F5F5F5F5F5F5F5F5F5F5F5F5F5F5F5F5F5F5F5F5F5F5F5F5F5F5F5F5F5F5F5F5F5F5F5F5F5F5F5F5F5F5F5F5F5F5F5F5F5F5F5F5F5F5F5E2F5F5F5F5F5F5F5F5F5F5F5F5F5F5F5F5E2F5F5F5E2E2EFF5F5F5E2F5F5F5F5F5F5F5F5F5F5F5F5F5F5F5F5E2F5F5F5F5F5F5F5
310
F5F5F5F5F5F5F5F5F5F5F5F5F5F5F5F5F5F5F5F5F5F5F5F5F5F5F5F5F5F5F5F5F5F5F5F5F5F5F5F5F5F5F5F5F5F5F5F5F5F5F5F5F5F5F5F5F5F5F5F5F5F5F5F5F5F5F5F5F5F5F5F5F5F5F5F5F5F5F5F5F5F5F5F5F5F5F5F5F5F5F5F5F5F5F5F5F5F5F5F5F5F5F5F5F5F5F5F5F5F5F5F5F5F5F5F5F5F5F5F5F5F5F5F5F5F5F5
310
F5E2F5F5F5F5F5F5F5F5F5F5F5F5F5F5F5F5E2F5F5F5E2E2EFF5F5F5E2F5F5F5F5F5F5F5F5F5F5F5F5F5F5F5F5E2F5F5F5F5F5F5F5F5F5F5F5F5F5F5F5F5F5F5F5F5F5F5F5F5F5F5F5F5F5F5F5F5F5F5F5F5F5F5F5F5F5F5F5F5F5F5F5F5F5F5F5F5F5F5F5F5F5F5F5F5F5F5F5F5F5F5F5F5F5F5F5F5F5F5F5F5F5F5F5F5F5
310
F5F5F5F5F5F5F5F5F5F5F5F5F5F5F5F5F5F5F5F5F5F5F5F5F5F5F5F5F5F5F5F5F5F5F5F5F5F5F5F5F5F5F5F5F5F5F5F5F5F5F5F5F5F5E2F5F5F5F5F5F5F5F5F5F5F5F5F5F5F5F5E2F5F5F5E2E2EFF5F5F5E2F5F5F5F5F5F5F5F5F5F5F5F5F5F5F5F5E2F5F5F5F5F5F5F5F5F5F5F5F5F5F5F5F5F5F5F5F5F5F5F5F5F5F5F5F5
310
F5F5F5F5F5F5F5F5F5F5F5F5F5F5F5F5F5F5F5F5F5F5F5F5F5F5F5F5F5F5F5F5F5F5F5F5F5F5F5F5F5F5F5F5F5F5F5F5F5F5F5F5F5F5F5F5F5F5F5F5F5F5F5F5F5F5F5F5F5F5F5F5F5F5F5F5F5F5F5F5F5F5F5F5F5F5F5F5F5F5F5F5F5F5F5F5F5F5F5F5F5F5F5F5F5F5F5E2F5F5F5F5F5F5F5F5F5F5F5F5F5F5F5F5E2F5F5
310
F5E2E2EFF5F5F5E2F5F5F5F5F5F5F5F5F5F5F5F5F5F5F5F5E2F5F5F5F5F5F5F5F5F5F5F5F5F5F5F5F5F5F5F5F5F5F5F5F5F5F5F5F5F5F5F5F5F5F5F5F5F5F5F5F5F5F5F5F5F5F5F5F5F5F5F5F5F5F5F5F5F5F5F5F5F5F5F5F5F5F5F5F5F5F5F5F5F5F5F5F5F5F5F5F5F5F5F5F5F5F5F5F5F5F5F5F5F5F5F5F5F5F5F5F5F5F5
310
F5F5F5F5F5F5F5F5F5F5F5F5F5F5F5F5F5F5F5F5F5F5F5F5F5F5F5F5F5F5F5F5F5E2F5F5F5F5F5F5F5F5F5F5F5F5F5F5F5F5E2F5F5F5E2E2EFF5F5F5E2F5F5F5F5F5F5F5F5F5F5F5F5F5F5F5F5E2F5F5F5F5F5F5F5F5F5F5F5F5F5F5F5F5F5F5F5F5F5F5F5F5F5F5F5F5F5F5F5F5F5F5F5F5F5F5F5F5F5F5F5F5F5F5F5F5F5
310
F5F5F5F5F5F5F5F5F5F5F5F5F5F5F5F5F5F5F5F5F5F5F5F5F5F5F5F5F5F5F5F5F5F5F5F5F5F5F5F5F5F5F5F5F5F5F5F5F5F5F5F5F5F5F5F5F5F5F5F5F5F5F5F5F5F5F5F5F5F5F5F5F5F5F5F5F5F5F5F5F5F5F5F5F5F5E2F5F5F5F5F5F5F5F5F5F5F5F5F5F5F5F5E2F5F5F5E2E2EFF5F5F5E2F5F5F5F5F5F5F5F5F5F5F5F5F5
310
F5F5F5E2F5F5F5F5F5F5F5F5F5F5F5F5F5F5F5F5F5F5F5F5F5F5F5F5F5F5F5F5F5F5F5F5F5F5F5F5F5F5F5F5F5F5F5F5F5F5F5F5F5F5F5F5F5F5F5F5F5F5F5F5F5F5F5F5F5F5F5F5F5F5F5F5F5F5F5F5F5F5F5F5F5F5F5F5F5F5F5F5F5F5F5F5F5F5F5F5F5F5F5F5F5F5F5F5F5F5F5F5F5F5F5F5F5F5F5F5F5F5F5F5F5F5F5
310
F5F5F5F5F5F5F5F5F5F5F5F5E2F5F5F5F5F5F5F5F5F5F5F5F5F5F5F5F5E2F5F5F5E2E2EFF5F5F5E2F5F5F5F5F5F5F5F5F5F5F5F5F5F5F5F5E2F5F5F5F5F5F5F5F5F5F5F5F5F5F5F5F5F5F5F5F5F5F5F5F5F5F5F5F5F5F5F5F5F5F5F5F5F5F5F5F5F5F5F5F5F5F5F5F5F5F5F5F5F5F5F5F5F5F5F5F5F5F5F5F5F5F5F5F5F5F5
310
F5F5F5F5F5F5F5F5F5F5F5F5F5F5F5F5F5F5F5F5F5F5F5F5F5F5F5F5F5F5F5F5F5F5F5F5F5F5F5F5F5F5F5F5F5F5F5F5F5F5F5F5F5F5F5F5F5F5F5F5F5F5F5F5F5E2F5F5F5F5F5F5F5F5F5F5F5F5F5F5F5F5E2F5F5F5E2E2EFF5F5F5E2F5F5F5F5F5F5F5F5F5F5F5F5F5F5F5F5E2F5F5F5F5F5F5F5F5F5F5F5F5F5F5F5F5F5
310
F5F5F5F5F5F5F5F5F5F5F5F5F5F5F5F5F5F5F5F5F5F5F5F5F5F5F5F5F5F5F5F5F5F5F5F5F5F5F5F5F5F5F5F5F5F5F5F5F5F5F5F5F5F5F5F5F5F5F5F5F5F5F5F5F5F5F5F5F5F5F5F5F5F5F5F5F5F5F5F5F5F5F5F5F5F5F5F5F5F5F5F5F5F5F5F5F5F5F5F5F5F5F5F5F5F5F5F5F5F5F5F5F5F5F5F5F5F5E2F5F5F5F5F5F5F5F5
310
F5F5F5F5F5F5F5F5E2F5F5F5E2E2EFF5F5F5E2F5F5F5F5F5F5F5F5F5F5F5F5F5F5F5F5E2F5F5F5F5F5F5F5F5F5F5F5F5F5F5F5F5F5F5F5F5F5F5F5F5F5F5F5F5F5F5F5F5F5F5F5F5F5F5F5F5F5F5F5F5F5F5F5F5F5F5F5F5F5F5F5F5F5F5F5F5F5F5F5F5F5F5F5F5F5F5F5F5F5F5F5F5F5F5F5F5F5F5F5F5F5F5F5F5F5F5F5
310
F5F5F5F5F5F5F5F5F5F5F5F5F5F5F5F5F5F5F5F5F5F5F5F5F5F5F5F5F5F5F5F5F5F5F5F5F5F5F5F5F5F5F5F5E2F5F5F5F5F5F5F5F5F5F5F5F5F5F5F5F5E2F5F5F5E2E2EFF5F5F5E2F5F5F5F5F5F5F5F5F5F5F5F5F5F5F5F5E2F5F5F5F5F5F5F5F5F5F5F5F5F5F5F5F5F5F5F5F5F5F5F5F5F5F5F5F5F5F5F5F5F5F5F5F5F5F5
310
F5F5F5F5F5F5F5F5F5F5F5F5F5F5F5F5F5F5F5F5F5F5F5F5F5F5F5F5F5F5F5F5F5F5F5F5F5F5F5F5F5F5F5F5F5F5F5F5F5F5F5F5F5F5F5F5F5F5F5F5F5F5F5F5F5F5F5F5F5F5F5F5F5F5F5F5F5F5F5F5F5F5F5F5F5F5F5F5F5F5F5F5F5F5F5F5F5E2F5F5F5F5F5F5F5F5F5F5F5F5F5F5F5F5E2F5F5F5E2E2EFF5F5F5E2F5F5
310
F5F5F5F5F5F5F5F5F5F5F5F5F5F5E2F5F5F5F5F5F5F5F5F5F5F5F5F5F5F5F5F5F5F5F5F5F5F5F5F5F5F5F5F5F5F5F5F5F5F5F5F5F5F5F5F5F5F5F5F5F5F5F5F5F5F5F5F5F5F5F5F5F5F5F5F5F5F5F5F5F5F5F5F5F5F5F5F5F5F5F5F5F5F5F5F5F5F5F5F5F5F5F5F5F5F5F5F5F5F5F5F5F5F5F5F5F5F5F5F5F5F5F5F5F5F5F5
310
F5F5F5F5F5F5F5F5F5F5F5F5F5F5F5F5F5F5F5F5F5F5F5E2F5F5F5F5F5F5F5F5F5F5F5F5F5F5F5F5E2F5F5F5E2E2EFF5F5F5E2F5F5F5F5F5F5F5F5F5F5F5F5F5F5F5F5E2F5F5F5F5F5F5F5F5F5F5F5F5F5F5F5F5F5F5F5F5F5F5F5F5F5F5F5F5F5F5F5F5F5F5F5F5F5F5F5F5F5F5F5F5F5F5F5F5F5F5F5F5F5F5F5F5F5F5F5
310
F5F5F5F5F5F5F5F5F5F5F5F5F5F5F5F5F5F5F5F5F5F5F5F5F5F5F5F5F5F5F5F5F5F5F5F5F5F5F5F5F5F5F5F5F5F5F5F5F5F5F5F5F5F5F5F5F5F5F5F5F5F5F5F5F5F5F5F5F5F5F5F5F5F5F5F5E2F5F5F5F5F5F5F5F5F5F5F5F5F5F5F5F5E2F5F5F5E2E2EFF5F5F5E2F5F5F5F5F5F5F5F5F5F5F5F5F5F5F5F5E2F5F5F5F5F5F5
310
F5F5F5F5F5F5F5F5F5F5F5F5F5F5F5F5F5F5F5F5F5F5F5F5F5F5F5F5F5F5F5F5F5F5F5F5F5F5F5F5F5F5F5F5F5F5F5F5F5F5F5F5F5F5F5F5F5F5F5F5F5F5F5F5F5F5F5F5F5F5F5F5F5F5F5F5F5F5F5F5F5F5F5F5F5F5F5F5F5F5F5F5F5F5F5F5F5F5F5F5F5F5F5F5F5F5F5F5F5F5F5F5F5F5F5F5F5F5F5F5F5F5F5F5F5F5F5
310
F5F5E2F5F5F5F5F5F5F5F5F5F5F5F5F5F5F5F5E2F5F5F5E2E2EFF5F5F5F5F5F5F5F5F5F5F5F5F5F5F5F5F5F5F5F5E2F5F5F5F5F5F5F5F5F5F5F5F5F5F5F5F5F5F5F5F5F5F5F5F5F5F5F5F5F5F5F5F5F5F5F5F5F5F5F5F5F5F5F5F5F5F5F5F5F5F5F5F5F5F5F5F5F5F5F5F5F5F5F5F5F5F5F5F5F5F5F5F5F5F5F5F5F5F5F5F5
310
F5F5F5F5F5F5F5F5F5F5F5F5F5F5F5F5F5F5F5F5F5F5F5F5F5F5F5F5F5F5F5F5F5F5F5F5F5F5F5F5F5F5F5F5F5F5F5F5F5F5F5F5F5F5F5E2F5F5F5F5F5F5F5F5F5F5F5F5F5F5F5F5F5F5F5F5E2E2EFF5F5F5F5F5F5F5F5F5F5F5F5F5F5F5F5F5F5F5F5E2F5F5F5F5F5F5F5F5F5F5F5F5F5F5F5F5F5F5F5F5F5F5F5F5F5F5F5
310
F5F5F5F5F5F5F5F5F5F5F5F5F5F5F5F5F5F5F5F5F5F5F5F5F5F5F5F5F5F5F5F5F5F5F5F5F5F5F5F5F5F5F5F5F5F5F5F5F5F5F5F5F5F5F5F5F5F5F5F5F5F5F5F5F5F5F5F5F5F5F5F5F5F5F5F5F5F5F5F5F5F5F5F5F5F5F5F5F5F5F5F5F5F5F5F5F5F5F5F5F5F5F5F5F5F5F5F5E2F5F5F5F5F5F5F5F5F5F5F5F5F5F5F5F5F5F5
310
F5F5E2E2EFF5F5F5F5F5F5F5F5F5F5F5F5F5F5F5F5F5F5F5F5E2F5F5F5F5F5F5F5F5F5F5F5F5F5F5F5F5F5F5F5F5F5F5F5F5F5F5F5F5F5F5F5F5F5F5F5F5F5F5F5F5F5F5F5F5F5F5F5F5F5F5F5F5F5F5F5F5F5F5F5F5F5F5F5F5F5F5F5F5F5F5F5F5F5F5F5F5F5F5F5F5F5F5F5F5F5F5F5F5F5F5F5F5F5F5F5F5F5F5F5F5F5
310
F5F5F5F5F5F5F5F5F5F5F5F5F5F5F5F5F5F5F5F5F5F5F5F5F5F5F5F5F5F5F5F5F5F5E2F5F5F5F5F5F5F5F5F5F5F5F5F5F5F5F5F5F5F5F5E2E2EFF5F5F5F5F5F5F5F5F5F5F5F5F5F5F5F5F5F5F5F5E2F5F5F5F5F5F5F5F5F5F5F5F5F5F5F5F5F5F5F5F5F5F5F5F5F5F5F5F5F5F5F5F5F5F5F5F5F5F5F5F5F5F5F5F5F5F5F5F5
310
F5F5F5F5F5F5F5F5F5F5F5F5F5F5F5F5F5F5F5F5F5F5F5F5F5F5F5F5F5F5F5F5F5F5F5F5F5F5F5F5F5F5F5F5F5F5F5F5F5F5F5F5F5F5F5F5F5F5F5F5F5F5F5F5F5F5F5F5F5F5F5F5F5F5F5F5F5F5F5F5F5F5F5F5F5F5F5E2F5F5F5F5F5F5F5F5F5F5F5F5F5F5F5F5F5F5F5F5E2E2EFF5F5F5F5F5F5F5F5F5F5F5F5F5F5F5F5
310
F5F5F5F5E2E2E2E2E2E2E2E2E2E2E2E2E2E2E2E2E2E2E2E2E2E2E2E2E2E2E2E2E2E2E2E2E2E2E2E2E2E2E2E2E2E2E2E2E2E2E2E2E2E2E2E2E2E2E2E2E2E2E2E2E2E2E2E2E2E2E2E2E2E2E2E2E2E2E2E2E2E2E2E2E2E2E2E2E2E2E2E2E2E2E2E2E2E2E2E2E2E2E2E2E2E2E2E2E2E2E2E2E2E2E2E2E2E2E2E2E2E2E2E2E2E2E2
310
E2E2E2E2E2E2E2E2E2E2E2E2E2E2F5F5F5F5F5F5F5F5F5F5F5F5F5F5F5F5F5F5F5F5E2E2EFF5F5F5F5F5F5F5F5F5F5F5F5F5F5F5F5F5F5F5F5F5F5F5F5F5F5F5F5F5F5F5F5F5F5F5F5F5F5F5F5F5F5F5F5F5F5F5F5F5F5F5F5F5F5F5F5F5F5F5F5F5F5F5F5F5F5F5F5F5F5F5F5F5F5F5F5F5F5F5F5F5F5F5F5F5F5F5F5F5F5
310
F5F5F5F5F5F5F5F5F5F5F5F5F5F5F5F5F5F5F5F5F5F5F5F5F5F5F5F5F5F5F5F5F5F5F5F5F5F5F5F5F5F5F5F5F5F5F5F5F5F5F5F5F5F5F5F5F5F5F5F5F5F5F5F5F5F5F5F5F5F5F5F5F5F5F5F5F5F5F5F5F5F5F5F5F5F5F5E2E2EFF5F5F5F5F5F5F5F5F5F5F5F5F5F5F5F5F5F5F5F5F5F5F5F5F5F5F5F5F5F5F5F5F5F5F5F5F5
310
F5F5F5F5F5F5F5F5F5F5F5F5F5F5F5F5F5F5F5F5F5F5F5F5F5F5F5F5F5F5F5F5F5F5F5F5F5F5F5F5F5F5F5F5F5F5F5F5F5F5F5F5F5F5F5F5F5F5F5F5F5F5F5F5F5F5F5F5F5F5F5F5F5F5F5F5F5F5F5F5F5F5F5F5F5F5F5F5F5F5F5F5F5F5F5F5F5F5F5F5F5F5F5F5F5F5F5F5F5F5F5F5F5F5F5F5F5F5F5F5F5F5F5F5F5F5F5
310
F5F5F5F5F5F5F5F5F5F5F5F5F5E2E2EFF5F5F5F5F5F5F5F5F5F5F5F5F5F5F5F5F5F5F5F5F5F5F5F5F5F5F5F5F5F5F5F5F5F5F5F5F5F5F5F5F5F5F5F5F5F5F5F5F5F5F5F5F5F5F5F5F5F5F5F5F5F5F5F5F5F5F5F5F5F5F5F5F5F5F5F5F5F5F5F5F5F5F5F5F5F5F5F5F5F5F5F5F5F5F5F5F5F5F5F5F5F5F5F5F5F5F5F5F5F5F5
310
F5F5F5F5F5F5F5F5F5F5F5F5F5F5F5F5F5F5F5F5F5F5F5F5F5F5F5F5F5F5F5F5F5F5F5F5F5F5F5F5F5F5F5F5F5F5F5F5F5F5F5F5F5F5F5F5F5F5F5F5F5F5F5F5F5F5E2E2EFF5F5F5F5F5F5F5F5F5F5F5F5F5F5F5F5F5F5F5F5F5F5F5F5F5F5F5F5F5F5F5F5F5F5F5F5F5F5F5F5F5F5F5F5F5F5F5F5F5F5F5F5F5F5F5F5F5F5
310
F5F5F5F5F5F5F5F5F5F5F5F5F5F5F5F5F5F5F5F5F5F5F5F5F5F5F5F5F5F5F5F5F5F5F5F5F5F5F5F5F5F5F5F5F5F5F5F5F5F5F5F5F5F5F5F5F5F5F5F5F5F5F5F5F5F5F5F5F5F5F5F5F5F5F5F5F5F5F5F5F5F5F5F5F5F5F5F5F5F5F5F5F5F5F5F5F5F5F5F5F5F5F5F5F5F5F5F5F5F5F5F5F5F5F5F5F5F5F5E2E2EFF5F5F5E2F5
310
F5F5F5F5F5F5F5F5F5F5F5F5F5F5F5F5F5F5F5F5F5F5F5F5F5F5F5F5F5F5F5F5F5F5F5F5F5F5F5F5F5F5F5F5F5F5F5F5F5F5F5F5F5F5F5F5F5F5F5F5F5F5F5F5F5F5F5F5F5F5F5F5F5F5F5F5F5F5F5F5F5F5F5F5F5F5F5F5F5F5F5F5F5F5F5F5F5F5F5F5F5F5F5F5F5F5F5F5F5F5F5F5F5F5F5F5F5F5F5F5F5F5F5F5F5F5F5
310
F5F5F5F5F5F5F5F5F5F5F5F5F5F5F5F5F5F5F5F5F5F5F5F5F5F5F5F5F5F5F5F5F5F5F5F5F5F5F5F5F5E2F5F5F5E2E2EFF5F5F5E2F5F5F5F5F5F5F5F5F5F5F5F5F5F5F5F5F5F5F5F5F5F5F5F5F5F5F5F5F5F5F5F5F5F5F5F5F5F5F5F5F5F5F5F5F5F5F5F5F5F5F5F5F5F5F5F5F5F5F5F5F5F5F5F5F5F5F5F5F5F5F5F5F5F5F5
310
F5F5F5F5F5F5F5F5F5F5F5F5F5F5F5F5F5F5F5F5F5F5F5F5F5F5F5F5F5F5F5F5F5F5F5F5F5F5F5F5F5F5F5F5F5F5F5F5F5F5F5F5F5F5F5F5F5F5F5F5F5F5F5F5F5F5F5F5F5F5F5F5F5F5F5F5F5F5F5F5F5F5F5F5F5F5F5F5F5F5F5F5F5F5E2F5F5F5E2E2EFF5F5F5E2F5F5F5F5F5F5F5F5F5F5F5F5F5F5F5F5F5F5F5F5F5F5
310
F5F5F5F5F5F5F5F5F5F5F5F5F5F5F5F5F5F5F5F5F5F5F5F5F5F5F5F5F5F5F5F5F5F5F5F5F5F5F5F5F5F5F5F5F5F5F5F5F5F5F5F5F5F5F5F5F5F5F5F5F5F5F5F5F5F5F5F5F5F5F5F5F5F5F5F5F5F5F5F5F5F5F5F5F5F5F5F5F5F5F5F5F5F5F5F5F5F5F5F5F5F5F5F5F5F5F5F5F5F5F5F5F5F5F5F5F5F5F5F5F5F5F5F5F5F5F5
310
F5F5F5F5F5F5F5F5F5F5F5F5F5F5F5F5F5F5F5F5E2F5F5F5E2E2EFF5F5F5E2F5F5F5F5F5F5F5F5F5F5F5F5F5F5F5F5F5F5F5F5F5F5F5F5F5F5F5F5F5F5F5F5F5F5F5F5F5F5F5F5F5F5F5F5F5F5F5F5F5F5F5F5F5F5F5F5F5F5F5F5F5F5F5F5F5F5F5F5F5F5F5F5F5F5F5F5F5F5F5F5F5F5F5F5F5F5F5F5F5F5F5F5F5F5F5F5
310
F5F5F5F5F5F5F5F5F5F5F5F5F5F5F5F5F5F5F5F5F5F5F5F5F5F5F5F5F5F5F5F5F5F5F5F5F5F5F5F5F5F5F5F5F5F5F5F5F5F5F5F5F5F5F5F5F5F5F5F5F5F5F5F5F5F5F5F5F5F5F5F5F5E2F5F5F5E2E2EFF5F5F5E2F5F5F5F5F5F5F5F5F5F5F5F5F5F5F5F5F5F5F5F5F5F5F5F5F5F5F5F5F5F5F5F5F5F5F5F5F5F5F5F5F5F5F5
310
F5F5F5F5F5F5F5F5F5F5F5F5F5F5F5F5F5F5F5F5F5F5F5F5F5F5F5F5F5F5F5F5F5F5F5F5F5F5F5F5F5F5F5F5F5F5F5F5F5F5F5F5F5F5F5F5F5F5F5F5F5F5F5F5F5F5F5F5F5F5F5F5F5F5F5F5F5F5F5F5F5F5F5F5F5F5F5F5F5F5F5F5F5F5F5F5F5F5F5F5F5F5F5F5F5F5F5F5F5F5F5F5F5F5F5F5F5F5F5F5F5F5F5F5F5F5E2
310
F5F5F5E2E2EFF5F5F5E2F5F5F5F5F5F5F5F5F5F5F5F5F5F5F5F5F5F5F5F5F5F5F5F5F5F5F5F5F5F5F5F5F5F5F5F5F5F5F5F5F5F5F5F5F5F5F5F5F5F5F5F5F5F5F5F5F5F5F5F5F5F5F5F5F5F5F5F5F5F5F5F5F5F5F5F5F5F5F5F5F5F5F5F5F5F5F5F5F5F5F5F5F5F5F5F5F5F5F5F5F5F5F5F5F5F5F5F5F5F5F5F5F5F5F5F5F5
310
F5F5F5F5F5F5F5F5F5F5F5F5F5F5F5F5F5F5F5F5F5F5F5F5F5F5F5F5F5F5F5F5F5F5F5F5F5F5F5F5F5F5F5F5F5F5F5F5F5F5F5F5E2F5F5F5E2E2EFF5F5F5E2F5F5F5F5F5F5F5F5F5F5F5F5F5F5F5F5F5F5F5F5F5F5F5F5F5F5F5F5F5F5F5F5F5F5F5F5F5F5F5F5F5F5F5F5F5F5F5F5F5F5F5F5F5F5F5F5F5F5F5F5F5F5F5F5
310
F5F5F5F5F5F5F5F5F5F5F5F5F5F5F5F5F5F5F5F5F5F5F5F5F5F5F5F5F5F5F5F5F5F5F5F5F5F5F5F5F5F5F5F5F5F5F5F5F5F5F5F5F5F5F5F5F5F5F5F5F5F5F5F5F5F5F5F5F5F5F5F5F5F5F5F5F5F5F5F5F5F5F5F5F5F5F5F5F5F5F5F5F5F5F5F5F5F5F5F5F5F5F5F5F5E2F5F5F5E2E2EFF5F5F5E2F5F5F5F5F5F5F5F5F5F5F5
310
F5F5F5F5F5F5F5F5F5F5F5F5F5F5F5F5F5F5F5F5F5F5F5F5F5F5F5F5F5F5F5F5F5F5F5F5F5F5F5F5F5F5F5F5F5F5F5F5F5F5F5F5F5F5F5F5F5F5F5F5F5F5F5F5F5F5F5F5F5F5F5F5F5F5F5F5F5F5F5F5F5F5F5F5F5F5F5F5F5F5F5F5F5F5F5F5F5F5F5F5F5F5F5F5F5F5F5F5F5F5F5F5F5F5F5F5F5F5F5F5F5F5F5F5F5F5F5
310
F5F5F5F5F5F5F5F5F5F5F5F5F5F5F5F5F5F5F5F5F5F5F5F5F5F5F5F5F5F5F5E2F5F5F5E2E2EFF5F5F5E2E2E2E2E2E2E2E2F5F5F5F5F5F5F5F5F5E2E2E2E2E2E2E2E2E2E2E2E2E2E2E2E2F5F5F5F5F5F5F5F5E2E2E2E2E2E2E2E2E2E2E2E2E2E2E2E2F5F5F5F5F5F5F5F5F5E2E2E2E2E2E2E2E2E2E2E2E2E2E2E2F5F5F5F5F5
310
F5F5F5F5E2E2E2E2E2E2E2E2E2E2E2E2E2E2E2F5F5F5F5F5F5F5F5F5E2E2E2E2E2E2E2E2E2E2E2E2E2E2E2E2F5F5F5F5F5F5F5F5E2E2E2E2E2E2E2E2E2E2E2E2E2E2E2E2F5F5F5F5F5F5F5F5F5E2E2E2E2E2E2E2E2F5F5F5E2E2EFF5F5F5F5F5F5F5F5F5F5F5F5F5F5F5F5F5F5F5F5F5F5F5F5F5F5F5F5F5F5F5F5F5F5F5F5
310
F5F5F5F5F5F5F5F5F5F5F5F5F5F5F5F5F5F5F5F5F5F5F5F5F5F5F5F5F5F5F5F5F5F5F5F5F5F5F5F5F5F5F5F5F5F5F5F5F5F5F5F5F5F5F5F5F5F5F5F5F5F5F5F5F5F5F5F5F5F5F5F5F5F5F5F5F5F5F5F5F5F5F5F5F5F5F5F5F5F5F5F5F5F5F5F5F5F5F5F5F5F5F5F5F5F5F5F5F5F5F5F5F5F5F5F5F5F5F5F5F5F5F5F5F5F5F5
310
F5F5F5F5F5F5F5F5F5F5F5F5F5F5E2E2EFF5F5F5F5F5F5F5F5F5F5F5F5F5F5F5F5F5F5F5F5F5F5F5F5F5F5F5F5F5F5F5F5F5F5F5F5F5F5F5F5F5F5F5F5F5F5F5F5F5F5F5F5F5F5F5F5F5F5F5F5F5F5F5F5F5F5F5F5F5F5F5F5F5F5F5F5F5F5F5F5F5F5F5F5F5F5F5F5F5F5F5F5F5F5F5F5F5F5F5F5F5F5F5F5F5F5F5F5F5F5
310
F5F5F5F5F5F5F5F5F5F5F5F5F5F5F5F5F5F5F5F5F5F5F5F5F5F5F5F5F5F5F5F5F5F5F5F5F5F5F5F5F5F5F5F5F5F5F5F5F5F5F5F5F5F5F5F5F5F5F5F5F5F5F5F5F5F5F5E2EFEFF5F5F5F5F5F5F5F5F5F5F5F5F5F5F5F5F5F5F5F5F5F5F5F5F5F5F5F5F5F5F5F5F5F5F5F5F5F5F5F5F5F5F5F5F5F5F5F5F5F5F5F5F5F5F5F5F5
310
F5F5F5F5F5F5F5F5F5F5F5F5F5F5F5F5F5F5F5F5F5F5F5F5F5F5F5F5F5F5F5F5F5F5F5F5F5F5F5F5F5F5F5F5F5F5F5F5F5F5F5F5F5F5F5F5F5F5F5F5F5F5F5F5F5F5F5F5F5F5F5F5F5F5F5F5F5F5F5F5F5F5F5F5F5F5F5F5F5F5F5F5F5F5F5F5F5F5F5F5F5F5F5F5F5F5F5F5F5F5F5F5F5F5F5F5F5F5F5F5E2EFEFE2E2E2E2
310
E2E2E2E2E2E2E2E2E2E2E2E2E2E2E2E2E2E2E2E2E2E2E2E2E2E2E2E2E2E2E2E2E2E2E2E2E2E2E2E2E2E2E2E2E2E2E2E2E2E2E2E2E2E2E2E2E2E2E2E2E2E2E2E2E2E2E2E2E2E2E2E2E2E2E2E2E2E2E2E2E2E2E2E2E2E2E2E2E2E2E2E2E2E2E2E2E2E2E2E2E2E2E2E2E2E2E2E2E2E2E2E2E2E2E2E2E2E2E2E2E2E2E2E2E2E2E2
310
E2E2E2E2E2E2E2E2E2E2E2E2E2E2E2E2E2E2E2E2E2E2E2E2E2E2E2E2E2E2E2E2E2E2E2E2E2E2E2E2E2E2E2E2E2E2E2EFEF
  0
XRECORD
  5
11CC
102
{ACAD_REACTORS
330
11CB
102
}
330
11CB
100
AcDbXrecord
280
     1
270
     1
271
     1
  0
XRECORD
  5
11CD
102
{ACAD_REACTORS
330
11CB
102
}
330
11CB
100
AcDbXrecord
280
     1
270
     1
271
     1
  0
XRECORD
  5
11CE
102
{ACAD_REACTORS
330
11CB
102
}
330
11CB
100
AcDbXrecord
280
     1
270
     1
271
     1
  0
XRECORD
  5
11CF
102
{ACAD_REACTORS
330
11CB
102
}
330
11CB
100
AcDbXrecord
280
     1
270
     1
271
     1
  0
XRECORD
  5
11D0
102
{ACAD_REACTORS
330
11CB
102
}
330
11CB
100
AcDbXrecord
280
     1
270
     1
271
     1
  0
XRECORD
  5
11D1
102
{ACAD_REACTORS
330
11CB
102
}
330
11CB
100
AcDbXrecord
280
     1
270
     1
271
     1
  0
XRECORD
  5
11C4
102
{ACAD_REACTORS
330
11C3
102
}
330
11C3
100
AcDbXrecord
280
     1
270
     1
271
     1
  0
XRECORD
  5
11C5
102
{ACAD_REACTORS
330
11C3
102
}
330
11C3
100
AcDbXrecord
280
     1
270
     1
271
     1
  0
XRECORD
  5
11C6
102
{ACAD_REACTORS
330
11C3
102
}
330
11C3
100
AcDbXrecord
280
     1
270
     1
271
     1
  0
XRECORD
  5
11C7
102
{ACAD_REACTORS
330
11C3
102
}
330
11C3
100
AcDbXrecord
280
     1
270
     1
271
     1
  0
XRECORD
  5
11C8
102
{ACAD_REACTORS
330
11C3
102
}
330
11C3
100
AcDbXrecord
280
     1
270
     1
271
     1
  0
XRECORD
  5
11C9
102
{ACAD_REACTORS
330
11C3
102
}
330
11C3
100
AcDbXrecord
280
     1
270
     1
271
     1
  0
XRECORD
  5
119A
102
{ACAD_REACTORS
330
1199
102
}
330
1199
100
AcDbXrecord
280
     1
270
     1
271
     1
  0
XRECORD
  5
119B
102
{ACAD_REACTORS
330
1199
102
}
330
1199
100
AcDbXrecord
280
     1
270
     1
271
     1
  0
XRECORD
  5
119C
102
{ACAD_REACTORS
330
1199
102
}
330
1199
100
AcDbXrecord
280
     1
270
     1
271
     1
  0
XRECORD
  5
119D
102
{ACAD_REACTORS
330
1199
102
}
330
1199
100
AcDbXrecord
280
     1
270
     1
271
     1
  0
XRECORD
  5
119E
102
{ACAD_REACTORS
330
1199
102
}
330
1199
100
AcDbXrecord
280
     1
270
     1
271
     1
  0
XRECORD
  5
119F
102
{ACAD_REACTORS
330
1199
102
}
330
1199
100
AcDbXrecord
280
     1
270
     1
271
     1
  0
CELLSTYLEMAP
  5
2717
102
{ACAD_REACTORS
330
1381
102
}
330
1381
100
AcDbCellStyleMap
 90
        3
300
CELLSTYLE
  1
TABLEFORMAT_BEGIN
 90
        5
170
     1
 91
        0
 92
    32768
 62
   257
 93
        1
300
CONTENTFORMAT
  1
CONTENTFORMAT_BEGIN
 90
        0
 91
        0
 92
        4
 93
        0
300

 40
0.0
140
1.0
 94
        5
 62
     0
340
11AF
144
0.25
309
CONTENTFORMAT_END
171
     1
301
MARGIN
  1
CELLMARGIN_BEGIN
 40
0.06
 40
0.06
 40
0.06
 40
0.06
 40
0.18
 40
0.18
309
CELLMARGIN_END
 94
        6
 95
        1
302
GRIDFORMAT
  1
GRIDFORMAT_BEGIN
 90
        0
 91
        1
 62
     0
 92
       -2
340
0
 93
        0
 40
0.045
309
GRIDFORMAT_END
 95
        2
302
GRIDFORMAT
  1
GRIDFORMAT_BEGIN
 90
        0
 91
        1
 62
     0
 92
       -2
340
0
 93
        0
 40
0.045
309
GRIDFORMAT_END
 95
        4
302
GRIDFORMAT
  1
GRIDFORMAT_BEGIN
 90
        0
 91
        1
 62
     0
 92
       -2
340
0
 93
        0
 40
0.045
309
GRIDFORMAT_END
 95
        8
302
GRIDFORMAT
  1
GRIDFORMAT_BEGIN
 90
        0
 91
        1
 62
     0
 92
       -2
340
0
 93
        0
 40
0.045
309
GRIDFORMAT_END
 95
       16
302
GRIDFORMAT
  1
GRIDFORMAT_BEGIN
 90
        0
 91
        1
 62
     0
 92
       -2
340
0
 93
        0
 40
0.045
309
GRIDFORMAT_END
 95
       32
302
GRIDFORMAT
  1
GRIDFORMAT_BEGIN
 90
        0
 91
        1
 62
     0
 92
       -2
340
0
 93
        0
 40
0.045
309
GRIDFORMAT_END
309
TABLEFORMAT_END
  1
CELLSTYLE_BEGIN
 90
        1
 91
        1
300
_TITLE
309
CELLSTYLE_END
300
CELLSTYLE
  1
TABLEFORMAT_BEGIN
 90
        5
170
     1
 91
        0
 92
        0
 62
   257
 93
        1
300
CONTENTFORMAT
  1
CONTENTFORMAT_BEGIN
 90
        0
 91
        0
 92
        4
 93
        0
300

 40
0.0
140
1.0
 94
        5
 62
     0
340
11AF
144
0.18
309
CONTENTFORMAT_END
171
     1
301
MARGIN
  1
CELLMARGIN_BEGIN
 40
0.06
 40
0.06
 40
0.06
 40
0.06
 40
0.18
 40
0.18
309
CELLMARGIN_END
 94
        6
 95
        1
302
GRIDFORMAT
  1
GRIDFORMAT_BEGIN
 90
        0
 91
        1
 62
     0
 92
       -2
340
0
 93
        0
 40
0.045
309
GRIDFORMAT_END
 95
        2
302
GRIDFORMAT
  1
GRIDFORMAT_BEGIN
 90
        0
 91
        1
 62
     0
 92
       -2
340
0
 93
        0
 40
0.045
309
GRIDFORMAT_END
 95
        4
302
GRIDFORMAT
  1
GRIDFORMAT_BEGIN
 90
        0
 91
        1
 62
     0
 92
       -2
340
0
 93
        0
 40
0.045
309
GRIDFORMAT_END
 95
        8
302
GRIDFORMAT
  1
GRIDFORMAT_BEGIN
 90
        0
 91
        1
 62
     0
 92
       -2
340
0
 93
        0
 40
0.045
309
GRIDFORMAT_END
 95
       16
302
GRIDFORMAT
  1
GRIDFORMAT_BEGIN
 90
        0
 91
        1
 62
     0
 92
       -2
340
0
 93
        0
 40
0.045
309
GRIDFORMAT_END
 95
       32
302
GRIDFORMAT
  1
GRIDFORMAT_BEGIN
 90
        0
 91
        1
 62
     0
 92
       -2
340
0
 93
        0
 40
0.045
309
GRIDFORMAT_END
309
TABLEFORMAT_END
  1
CELLSTYLE_BEGIN
 90
        2
 91
        1
300
_HEADER
309
CELLSTYLE_END
300
CELLSTYLE
  1
TABLEFORMAT_BEGIN
 90
        5
170
     1
 91
        0
 92
        0
 62
   257
 93
        1
300
CONTENTFORMAT
  1
CONTENTFORMAT_BEGIN
 90
        0
 91
        0
 92
        4
 93
        0
300

 40
0.0
140
1.0
 94
        2
 62
     0
340
11AF
144
0.18
309
CONTENTFORMAT_END
171
     1
301
MARGIN
  1
CELLMARGIN_BEGIN
 40
0.06
 40
0.06
 40
0.06
 40
0.06
 40
0.18
 40
0.18
309
CELLMARGIN_END
 94
        6
 95
        1
302
GRIDFORMAT
  1
GRIDFORMAT_BEGIN
 90
        0
 91
        1
 62
     0
 92
       -2
340
0
 93
        0
 40
0.045
309
GRIDFORMAT_END
 95
        2
302
GRIDFORMAT
  1
GRIDFORMAT_BEGIN
 90
        0
 91
        1
 62
     0
 92
       -2
340
0
 93
        0
 40
0.045
309
GRIDFORMAT_END
 95
        4
302
GRIDFORMAT
  1
GRIDFORMAT_BEGIN
 90
        0
 91
        1
 62
     0
 92
       -2
340
0
 93
        0
 40
0.045
309
GRIDFORMAT_END
 95
        8
302
GRIDFORMAT
  1
GRIDFORMAT_BEGIN
 90
        0
 91
        1
 62
     0
 92
       -2
340
0
 93
        0
 40
0.045
309
GRIDFORMAT_END
 95
       16
302
GRIDFORMAT
  1
GRIDFORMAT_BEGIN
 90
        0
 91
        1
 62
     0
 92
       -2
340
0
 93
        0
 40
0.045
309
GRIDFORMAT_END
 95
       32
302
GRIDFORMAT
  1
GRIDFORMAT_BEGIN
 90
        0
 91
        1
 62
     0
 92
       -2
340
0
 93
        0
 40
0.045
309
GRIDFORMAT_END
309
TABLEFORMAT_END
  1
CELLSTYLE_BEGIN
 90
        3
 91
        2
300
_DATA
309
CELLSTYLE_END
  0
XRECORD
  5
271A
102
{ACAD_REACTORS
330
2719
102
}
330
2719
100
AcDbXrecord
280
     1
102
RTVSPropertyOp0
 70
     1
102
RTVSPropertyOp1
 70
     1
102
RTVSPropertyOp2
 70
     1
102
RTVSPropertyOp3
 70
     1
102
RTVSPropertyOp4
 70
     1
102
RTVSPropertyOp5
 70
     1
102
RTVSPropertyOp6
 70
     1
102
RTVSPropertyOp7
 70
     1
102
RTVSPropertyOp8
 70
     1
102
RTVSPropertyOp9
 70
     1
102
RTVSPropertyOp10
 70
     1
102
RTVSPropertyOp11
 70
     1
102
RTVSPropertyOp12
 70
     1
102
RTVSPropertyOp13
 70
     1
102
RTVSPropertyOp14
 70
     1
102
RTVSPropertyOp15
 70
     1
102
RTVSPropertyOp16
 70
     1
102
RTVSPropertyOp17
 70
     1
102
RTVSPropertyOp18
 70
     1
102
RTVSPropertyOp19
 70
     1
102
RTVSPropertyOp20
 70
     1
102
RTVSPropertyOp21
 70
     1
102
RTVSPropertyOp22
 70
     1
102
RTVSPropertyOp23
 70
     1
102
RTVSPropertyOp24
 70
     1
102
RTVSPropertyOp25
 70
     1
102
RTVSPropertyOp26
 70
     1
102
RTVSPropertyOp27
 70
     1
  0
XRECORD
  5
272A
102
{ACAD_REACTORS
330
2729
102
}
330
2729
100
AcDbXrecord
280
     1
102
RTVSPropertyOp0
 70
     1
102
RTVSPropertyOp1
 70
     1
102
RTVSPropertyOp2
 70
     1
102
RTVSPropertyOp3
 70
     1
102
RTVSPropertyOp4
 70
     1
102
RTVSPropertyOp5
 70
     1
102
RTVSPropertyOp6
 70
     1
102
RTVSPropertyOp7
 70
     1
102
RTVSPropertyOp8
 70
     1
102
RTVSPropertyOp9
 70
     1
102
RTVSPropertyOp10
 70
     1
102
RTVSPropertyOp11
 70
     1
102
RTVSPropertyOp12
 70
     1
102
RTVSPropertyOp13
 70
     1
102
RTVSPropertyOp14
 70
     1
102
RTVSPropertyOp15
 70
     1
102
RTVSPropertyOp16
 70
     1
102
RTVSPropertyOp17
 70
     1
102
RTVSPropertyOp18
 70
     1
102
RTVSPropertyOp19
 70
     1
102
RTVSPropertyOp20
 70
     1
102
RTVSPropertyOp21
 70
     1
102
RTVSPropertyOp22
 70
     1
102
RTVSPropertyOp23
 70
     1
102
RTVSPropertyOp24
 70
     1
102
RTVSPropertyOp25
 70
     1
102
RTVSPropertyOp26
 70
     1
102
RTVSPropertyOp27
 70
     1
  0
XRECORD
  5
271E
102
{ACAD_REACTORS
330
271D
102
}
330
271D
100
AcDbXrecord
280
     1
102
RTVSPropertyOp0
 70
     1
102
RTVSPropertyOp1
 70
     1
102
RTVSPropertyOp2
 70
     1
102
RTVSPropertyOp3
 70
     1
102
RTVSPropertyOp4
 70
     1
102
RTVSPropertyOp5
 70
     1
102
RTVSPropertyOp6
 70
     1
102
RTVSPropertyOp7
 70
     1
102
RTVSPropertyOp8
 70
     1
102
RTVSPropertyOp9
 70
     1
102
RTVSPropertyOp10
 70
     1
102
RTVSPropertyOp11
 70
     1
102
RTVSPropertyOp12
 70
     1
102
RTVSPropertyOp13
 70
     1
102
RTVSPropertyOp14
 70
     1
102
RTVSPropertyOp15
 70
     1
102
RTVSPropertyOp16
 70
     1
102
RTVSPropertyOp17
 70
     1
102
RTVSPropertyOp18
 70
     1
102
RTVSPropertyOp19
 70
     1
102
RTVSPropertyOp20
 70
     1
102
RTVSPropertyOp21
 70
     1
102
RTVSPropertyOp22
 70
     1
102
RTVSPropertyOp23
 70
     1
102
RTVSPropertyOp24
 70
     1
102
RTVSPropertyOp25
 70
     1
102
RTVSPropertyOp26
 70
     1
102
RTVSPropertyOp27
 70
     1
  0
XRECORD
  5
2728
102
{ACAD_REACTORS
330
2727
102
}
330
2727
100
AcDbXrecord
280
     1
102
RTVSPropertyOp0
 70
     1
102
RTVSPropertyOp1
 70
     1
102
RTVSPropertyOp2
 70
     1
102
RTVSPropertyOp3
 70
     1
102
RTVSPropertyOp4
 70
     1
102
RTVSPropertyOp5
 70
     1
102
RTVSPropertyOp6
 70
     1
102
RTVSPropertyOp7
 70
     1
102
RTVSPropertyOp8
 70
     1
102
RTVSPropertyOp9
 70
     1
102
RTVSPropertyOp10
 70
     1
102
RTVSPropertyOp11
 70
     1
102
RTVSPropertyOp12
 70
     1
102
RTVSPropertyOp13
 70
     1
102
RTVSPropertyOp14
 70
     1
102
RTVSPropertyOp15
 70
     1
102
RTVSPropertyOp16
 70
     1
102
RTVSPropertyOp17
 70
     1
102
RTVSPropertyOp18
 70
     1
102
RTVSPropertyOp19
 70
     1
102
RTVSPropertyOp20
 70
     1
102
RTVSPropertyOp21
 70
     1
102
RTVSPropertyOp22
 70
     1
102
RTVSPropertyOp23
 70
     1
102
RTVSPropertyOp24
 70
     1
102
RTVSPropertyOp25
 70
     1
102
RTVSPropertyOp26
 70
     1
102
RTVSPropertyOp27
 70
     1
  0
XRECORD
  5
2730
102
{ACAD_REACTORS
330
272F
102
}
330
272F
100
AcDbXrecord
280
     1
102
RTVSPropertyOp0
 70
     1
102
RTVSPropertyOp1
 70
     1
102
RTVSPropertyOp2
 70
     1
102
RTVSPropertyOp3
 70
     1
102
RTVSPropertyOp4
 70
     1
102
RTVSPropertyOp5
 70
     1
102
RTVSPropertyOp6
 70
     1
102
RTVSPropertyOp7
 70
     1
102
RTVSPropertyOp8
 70
     1
102
RTVSPropertyOp9
 70
     1
102
RTVSPropertyOp10
 70
     1
102
RTVSPropertyOp11
 70
     1
102
RTVSPropertyOp12
 70
     1
102
RTVSPropertyOp13
 70
     1
102
RTVSPropertyOp14
 70
     1
102
RTVSPropertyOp15
 70
     1
102
RTVSPropertyOp16
 70
     1
102
RTVSPropertyOp17
 70
     1
102
RTVSPropertyOp18
 70
     1
102
RTVSPropertyOp19
 70
     1
102
RTVSPropertyOp20
 70
     1
102
RTVSPropertyOp21
 70
     1
102
RTVSPropertyOp22
 70
     1
102
RTVSPropertyOp23
 70
     1
102
RTVSPropertyOp24
 70
     1
102
RTVSPropertyOp25
 70
     1
102
RTVSPropertyOp26
 70
     1
102
RTVSPropertyOp27
 70
     1
  0
XRECORD
  5
2738
102
{ACAD_REACTORS
330
2737
102
}
330
2737
100
AcDbXrecord
280
     1
102
RTVSPropertyOp0
 70
     1
102
RTVSPropertyOp1
 70
     1
102
RTVSPropertyOp2
 70
     1
102
RTVSPropertyOp3
 70
     1
102
RTVSPropertyOp4
 70
     1
102
RTVSPropertyOp5
 70
     1
102
RTVSPropertyOp6
 70
     1
102
RTVSPropertyOp7
 70
     1
102
RTVSPropertyOp8
 70
     1
102
RTVSPropertyOp9
 70
     1
102
RTVSPropertyOp10
 70
     1
102
RTVSPropertyOp11
 70
     1
102
RTVSPropertyOp12
 70
     1
102
RTVSPropertyOp13
 70
     1
102
RTVSPropertyOp14
 70
     1
102
RTVSPropertyOp15
 70
     1
102
RTVSPropertyOp16
 70
     1
102
RTVSPropertyOp17
 70
     1
102
RTVSPropertyOp18
 70
     1
102
RTVSPropertyOp19
 70
     1
102
RTVSPropertyOp20
 70
     1
102
RTVSPropertyOp21
 70
     1
102
RTVSPropertyOp22
 70
     1
102
RTVSPropertyOp23
 70
     1
102
RTVSPropertyOp24
 70
     1
102
RTVSPropertyOp25
 70
     1
102
RTVSPropertyOp26
 70
     1
102
RTVSPropertyOp27
 70
     1
  0
XRECORD
  5
272C
102
{ACAD_REACTORS
330
272B
102
}
330
272B
100
AcDbXrecord
280
     1
102
RTVSPropertyOp0
 70
     1
102
RTVSPropertyOp1
 70
     1
102
RTVSPropertyOp2
 70
     1
102
RTVSPropertyOp3
 70
     1
102
RTVSPropertyOp4
 70
     1
102
RTVSPropertyOp5
 70
     1
102
RTVSPropertyOp6
 70
     1
102
RTVSPropertyOp7
 70
     1
102
RTVSPropertyOp8
 70
     1
102
RTVSPropertyOp9
 70
     1
102
RTVSPropertyOp10
 70
     1
102
RTVSPropertyOp11
 70
     1
102
RTVSPropertyOp12
 70
     1
102
RTVSPropertyOp13
 70
     1
102
RTVSPropertyOp14
 70
     1
102
RTVSPropertyOp15
 70
     1
102
RTVSPropertyOp16
 70
     1
102
RTVSPropertyOp17
 70
     1
102
RTVSPropertyOp18
 70
     1
102
RTVSPropertyOp19
 70
     1
102
RTVSPropertyOp20
 70
     1
102
RTVSPropertyOp21
 70
     1
102
RTVSPropertyOp22
 70
     1
102
RTVSPropertyOp23
 70
     1
102
RTVSPropertyOp24
 70
     1
102
RTVSPropertyOp25
 70
     1
102
RTVSPropertyOp26
 70
     1
102
RTVSPropertyOp27
 70
     1
  0
XRECORD
  5
272E
102
{ACAD_REACTORS
330
272D
102
}
330
272D
100
AcDbXrecord
280
     1
102
RTVSPropertyOp0
 70
     1
102
RTVSPropertyOp1
 70
     1
102
RTVSPropertyOp2
 70
     1
102
RTVSPropertyOp3
 70
     1
102
RTVSPropertyOp4
 70
     1
102
RTVSPropertyOp5
 70
     1
102
RTVSPropertyOp6
 70
     1
102
RTVSPropertyOp7
 70
     1
102
RTVSPropertyOp8
 70
     1
102
RTVSPropertyOp9
 70
     1
102
RTVSPropertyOp10
 70
     1
102
RTVSPropertyOp11
 70
     1
102
RTVSPropertyOp12
 70
     1
102
RTVSPropertyOp13
 70
     1
102
RTVSPropertyOp14
 70
     1
102
RTVSPropertyOp15
 70
     1
102
RTVSPropertyOp16
 70
     1
102
RTVSPropertyOp17
 70
     1
102
RTVSPropertyOp18
 70
     1
102
RTVSPropertyOp19
 70
     1
102
RTVSPropertyOp20
 70
     1
102
RTVSPropertyOp21
 70
     1
102
RTVSPropertyOp22
 70
     1
102
RTVSPropertyOp23
 70
     1
102
RTVSPropertyOp24
 70
     1
102
RTVSPropertyOp25
 70
     1
102
RTVSPropertyOp26
 70
     1
102
RTVSPropertyOp27
 70
     1
  0
XRECORD
  5
273E
102
{ACAD_REACTORS
330
273D
102
}
330
273D
100
AcDbXrecord
280
     1
102
RTVSPropertyOp0
 70
     0
102
RTVSPropertyOp1
 70
     0
102
RTVSPropertyOp2
 70
     0
102
RTVSPropertyOp3
 70
     0
102
RTVSPropertyOp4
 70
     0
102
RTVSPropertyOp5
 70
     0
102
RTVSPropertyOp6
 70
     0
102
RTVSPropertyOp7
 70
     0
102
RTVSPropertyOp8
 70
     0
102
RTVSPropertyOp9
 70
     0
102
RTVSPropertyOp10
 70
     0
102
RTVSPropertyOp11
 70
     0
102
RTVSPropertyOp12
 70
     0
102
RTVSPropertyOp13
 70
     0
102
RTVSPropertyOp14
 70
     2
102
RTVSPropertyOp15
 70
     0
102
RTVSPropertyOp16
 70
     0
102
RTVSPropertyOp17
 70
     0
102
RTVSPropertyOp18
 70
     0
102
RTVSPropertyOp19
 70
     0
102
RTVSPropertyOp20
 70
     0
102
RTVSPropertyOp21
 70
     0
102
RTVSPropertyOp22
 70
     0
102
RTVSPropertyOp23
 70
     0
102
RTVSPropertyOp24
 70
     0
102
RTVSPropertyOp25
 70
     0
102
RTVSPropertyOp26
 70
     0
102
RTVSPropertyOp27
 70
     0
  0
XRECORD
  5
2736
102
{ACAD_REACTORS
330
2735
102
}
330
2735
100
AcDbXrecord
280
     1
102
RTVSPropertyOp0
 70
     1
102
RTVSPropertyOp1
 70
     1
102
RTVSPropertyOp2
 70
     1
102
RTVSPropertyOp3
 70
     1
102
RTVSPropertyOp4
 70
     1
102
RTVSPropertyOp5
 70
     1
102
RTVSPropertyOp6
 70
     1
102
RTVSPropertyOp7
 70
     1
102
RTVSPropertyOp8
 70
     1
102
RTVSPropertyOp9
 70
     1
102
RTVSPropertyOp10
 70
     1
102
RTVSPropertyOp11
 70
     1
102
RTVSPropertyOp12
 70
     1
102
RTVSPropertyOp13
 70
     1
102
RTVSPropertyOp14
 70
     1
102
RTVSPropertyOp15
 70
     1
102
RTVSPropertyOp16
 70
     1
102
RTVSPropertyOp17
 70
     1
102
RTVSPropertyOp18
 70
     1
102
RTVSPropertyOp19
 70
     1
102
RTVSPropertyOp20
 70
     1
102
RTVSPropertyOp21
 70
     1
102
RTVSPropertyOp22
 70
     1
102
RTVSPropertyOp23
 70
     1
102
RTVSPropertyOp24
 70
     1
102
RTVSPropertyOp25
 70
     1
102
RTVSPropertyOp26
 70
     1
102
RTVSPropertyOp27
 70
     1
  0
XRECORD
  5
2720
102
{ACAD_REACTORS
330
271F
102
}
330
271F
100
AcDbXrecord
280
     1
102
RTVSPropertyOp0
 70
     1
102
RTVSPropertyOp1
 70
     1
102
RTVSPropertyOp2
 70
     1
102
RTVSPropertyOp3
 70
     1
102
RTVSPropertyOp4
 70
     1
102
RTVSPropertyOp5
 70
     1
102
RTVSPropertyOp6
 70
     1
102
RTVSPropertyOp7
 70
     1
102
RTVSPropertyOp8
 70
     1
102
RTVSPropertyOp9
 70
     1
102
RTVSPropertyOp10
 70
     1
102
RTVSPropertyOp11
 70
     1
102
RTVSPropertyOp12
 70
     1
102
RTVSPropertyOp13
 70
     1
102
RTVSPropertyOp14
 70
     1
102
RTVSPropertyOp15
 70
     1
102
RTVSPropertyOp16
 70
     1
102
RTVSPropertyOp17
 70
     1
102
RTVSPropertyOp18
 70
     1
102
RTVSPropertyOp19
 70
     1
102
RTVSPropertyOp20
 70
     1
102
RTVSPropertyOp21
 70
     1
102
RTVSPropertyOp22
 70
     1
102
RTVSPropertyOp23
 70
     1
102
RTVSPropertyOp24
 70
     1
102
RTVSPropertyOp25
 70
     1
102
RTVSPropertyOp26
 70
     1
102
RTVSPropertyOp27
 70
     1
  0
XRECORD
  5
2722
102
{ACAD_REACTORS
330
2721
102
}
330
2721
100
AcDbXrecord
280
     1
102
RTVSPropertyOp0
 70
     1
102
RTVSPropertyOp1
 70
     1
102
RTVSPropertyOp2
 70
     1
102
RTVSPropertyOp3
 70
     1
102
RTVSPropertyOp4
 70
     1
102
RTVSPropertyOp5
 70
     1
102
RTVSPropertyOp6
 70
     1
102
RTVSPropertyOp7
 70
     1
102
RTVSPropertyOp8
 70
     1
102
RTVSPropertyOp9
 70
     1
102
RTVSPropertyOp10
 70
     1
102
RTVSPropertyOp11
 70
     1
102
RTVSPropertyOp12
 70
     1
102
RTVSPropertyOp13
 70
     1
102
RTVSPropertyOp14
 70
     1
102
RTVSPropertyOp15
 70
     1
102
RTVSPropertyOp16
 70
     1
102
RTVSPropertyOp17
 70
     1
102
RTVSPropertyOp18
 70
     1
102
RTVSPropertyOp19
 70
     1
102
RTVSPropertyOp20
 70
     1
102
RTVSPropertyOp21
 70
     1
102
RTVSPropertyOp22
 70
     1
102
RTVSPropertyOp23
 70
     1
102
RTVSPropertyOp24
 70
     1
102
RTVSPropertyOp25
 70
     1
102
RTVSPropertyOp26
 70
     1
102
RTVSPropertyOp27
 70
     1
  0
XRECORD
  5
2724
102
{ACAD_REACTORS
330
2723
102
}
330
2723
100
AcDbXrecord
280
     1
102
RTVSPropertyOp0
 70
     1
102
RTVSPropertyOp1
 70
     1
102
RTVSPropertyOp2
 70
     1
102
RTVSPropertyOp3
 70
     1
102
RTVSPropertyOp4
 70
     1
102
RTVSPropertyOp5
 70
     1
102
RTVSPropertyOp6
 70
     1
102
RTVSPropertyOp7
 70
     1
102
RTVSPropertyOp8
 70
     1
102
RTVSPropertyOp9
 70
     1
102
RTVSPropertyOp10
 70
     1
102
RTVSPropertyOp11
 70
     1
102
RTVSPropertyOp12
 70
     1
102
RTVSPropertyOp13
 70
     1
102
RTVSPropertyOp14
 70
     1
102
RTVSPropertyOp15
 70
     1
102
RTVSPropertyOp16
 70
     1
102
RTVSPropertyOp17
 70
     1
102
RTVSPropertyOp18
 70
     1
102
RTVSPropertyOp19
 70
     1
102
RTVSPropertyOp20
 70
     1
102
RTVSPropertyOp21
 70
     1
102
RTVSPropertyOp22
 70
     1
102
RTVSPropertyOp23
 70
     1
102
RTVSPropertyOp24
 70
     1
102
RTVSPropertyOp25
 70
     1
102
RTVSPropertyOp26
 70
     1
102
RTVSPropertyOp27
 70
     1
  0
XRECORD
  5
2726
102
{ACAD_REACTORS
330
2725
102
}
330
2725
100
AcDbXrecord
280
     1
102
RTVSPropertyOp0
 70
     1
102
RTVSPropertyOp1
 70
     1
102
RTVSPropertyOp2
 70
     1
102
RTVSPropertyOp3
 70
     1
102
RTVSPropertyOp4
 70
     1
102
RTVSPropertyOp5
 70
     1
102
RTVSPropertyOp6
 70
     1
102
RTVSPropertyOp7
 70
     1
102
RTVSPropertyOp8
 70
     1
102
RTVSPropertyOp9
 70
     1
102
RTVSPropertyOp10
 70
     1
102
RTVSPropertyOp11
 70
     1
102
RTVSPropertyOp12
 70
     1
102
RTVSPropertyOp13
 70
     1
102
RTVSPropertyOp14
 70
     1
102
RTVSPropertyOp15
 70
     1
102
RTVSPropertyOp16
 70
     1
102
RTVSPropertyOp17
 70
     1
102
RTVSPropertyOp18
 70
     1
102
RTVSPropertyOp19
 70
     1
102
RTVSPropertyOp20
 70
     1
102
RTVSPropertyOp21
 70
     1
102
RTVSPropertyOp22
 70
     1
102
RTVSPropertyOp23
 70
     1
102
RTVSPropertyOp24
 70
     1
102
RTVSPropertyOp25
 70
     1
102
RTVSPropertyOp26
 70
     1
102
RTVSPropertyOp27
 70
     1
  0
XRECORD
  5
273A
102
{ACAD_REACTORS
330
2739
102
}
330
2739
100
AcDbXrecord
280
     1
102
RTVSPropertyOp0
 70
     0
102
RTVSPropertyOp1
 70
     0
102
RTVSPropertyOp2
 70
     0
102
RTVSPropertyOp3
 70
     0
102
RTVSPropertyOp4
 70
     0
102
RTVSPropertyOp5
 70
     0
102
RTVSPropertyOp6
 70
     0
102
RTVSPropertyOp7
 70
     0
102
RTVSPropertyOp8
 70
     0
102
RTVSPropertyOp9
 70
     0
102
RTVSPropertyOp10
 70
     0
102
RTVSPropertyOp11
 70
     0
102
RTVSPropertyOp12
 70
     0
102
RTVSPropertyOp13
 70
     0
102
RTVSPropertyOp14
 70
     2
102
RTVSPropertyOp15
 70
     0
102
RTVSPropertyOp16
 70
     0
102
RTVSPropertyOp17
 70
     0
102
RTVSPropertyOp18
 70
     0
102
RTVSPropertyOp19
 70
     0
102
RTVSPropertyOp20
 70
     0
102
RTVSPropertyOp21
 70
     0
102
RTVSPropertyOp22
 70
     0
102
RTVSPropertyOp23
 70
     0
102
RTVSPropertyOp24
 70
     0
102
RTVSPropertyOp25
 70
     0
102
RTVSPropertyOp26
 70
     0
102
RTVSPropertyOp27
 70
     0
  0
XRECORD
  5
2734
102
{ACAD_REACTORS
330
2733
102
}
330
2733
100
AcDbXrecord
280
     1
102
RTVSPropertyOp0
 70
     1
102
RTVSPropertyOp1
 70
     1
102
RTVSPropertyOp2
 70
     1
102
RTVSPropertyOp3
 70
     1
102
RTVSPropertyOp4
 70
     1
102
RTVSPropertyOp5
 70
     1
102
RTVSPropertyOp6
 70
     1
102
RTVSPropertyOp7
 70
     1
102
RTVSPropertyOp8
 70
     1
102
RTVSPropertyOp9
 70
     1
102
RTVSPropertyOp10
 70
     1
102
RTVSPropertyOp11
 70
     1
102
RTVSPropertyOp12
 70
     1
102
RTVSPropertyOp13
 70
     1
102
RTVSPropertyOp14
 70
     1
102
RTVSPropertyOp15
 70
     1
102
RTVSPropertyOp16
 70
     1
102
RTVSPropertyOp17
 70
     1
102
RTVSPropertyOp18
 70
     1
102
RTVSPropertyOp19
 70
     1
102
RTVSPropertyOp20
 70
     1
102
RTVSPropertyOp21
 70
     1
102
RTVSPropertyOp22
 70
     1
102
RTVSPropertyOp23
 70
     1
102
RTVSPropertyOp24
 70
     1
102
RTVSPropertyOp25
 70
     1
102
RTVSPropertyOp26
 70
     1
102
RTVSPropertyOp27
 70
     1
  0
XRECORD
  5
273C
102
{ACAD_REACTORS
330
273B
102
}
330
273B
100
AcDbXrecord
280
     1
102
RTVSPropertyOp0
 70
     0
102
RTVSPropertyOp1
 70
     0
102
RTVSPropertyOp2
 70
     0
102
RTVSPropertyOp3
 70
     0
102
RTVSPropertyOp4
 70
     0
102
RTVSPropertyOp5
 70
     0
102
RTVSPropertyOp6
 70
     0
102
RTVSPropertyOp7
 70
     0
102
RTVSPropertyOp8
 70
     0
102
RTVSPropertyOp9
 70
     0
102
RTVSPropertyOp10
 70
     0
102
RTVSPropertyOp11
 70
     0
102
RTVSPropertyOp12
 70
     0
102
RTVSPropertyOp13
 70
     0
102
RTVSPropertyOp14
 70
     2
102
RTVSPropertyOp15
 70
     0
102
RTVSPropertyOp16
 70
     0
102
RTVSPropertyOp17
 70
     0
102
RTVSPropertyOp18
 70
     0
102
RTVSPropertyOp19
 70
     0
102
RTVSPropertyOp20
 70
     0
102
RTVSPropertyOp21
 70
     0
102
RTVSPropertyOp22
 70
     0
102
RTVSPropertyOp23
 70
     0
102
RTVSPropertyOp24
 70
     0
102
RTVSPropertyOp25
 70
     0
102
RTVSPropertyOp26
 70
     0
102
RTVSPropertyOp27
 70
     0
  0
XRECORD
  5
271C
102
{ACAD_REACTORS
330
271B
102
}
330
271B
100
AcDbXrecord
280
     1
102
RTVSPropertyOp0
 70
     1
102
RTVSPropertyOp1
 70
     1
102
RTVSPropertyOp2
 70
     1
102
RTVSPropertyOp3
 70
     1
102
RTVSPropertyOp4
 70
     1
102
RTVSPropertyOp5
 70
     1
102
RTVSPropertyOp6
 70
     1
102
RTVSPropertyOp7
 70
     1
102
RTVSPropertyOp8
 70
     1
102
RTVSPropertyOp9
 70
     1
102
RTVSPropertyOp10
 70
     1
102
RTVSPropertyOp11
 70
     1
102
RTVSPropertyOp12
 70
     1
102
RTVSPropertyOp13
 70
     1
102
RTVSPropertyOp14
 70
     1
102
RTVSPropertyOp15
 70
     1
102
RTVSPropertyOp16
 70
     1
102
RTVSPropertyOp17
 70
     1
102
RTVSPropertyOp18
 70
     1
102
RTVSPropertyOp19
 70
     1
102
RTVSPropertyOp20
 70
     1
102
RTVSPropertyOp21
 70
     1
102
RTVSPropertyOp22
 70
     1
102
RTVSPropertyOp23
 70
     1
102
RTVSPropertyOp24
 70
     1
102
RTVSPropertyOp25
 70
     1
102
RTVSPropertyOp26
 70
     1
102
RTVSPropertyOp27
 70
     1
  0
XRECORD
  5
2732
102
{ACAD_REACTORS
330
2731
102
}
330
2731
100
AcDbXrecord
280
     1
102
RTVSPropertyOp0
 70
     1
102
RTVSPropertyOp1
 70
     1
102
RTVSPropertyOp2
 70
     1
102
RTVSPropertyOp3
 70
     1
102
RTVSPropertyOp4
 70
     1
102
RTVSPropertyOp5
 70
     1
102
RTVSPropertyOp6
 70
     1
102
RTVSPropertyOp7
 70
     1
102
RTVSPropertyOp8
 70
     1
102
RTVSPropertyOp9
 70
     1
102
RTVSPropertyOp10
 70
     1
102
RTVSPropertyOp11
 70
     1
102
RTVSPropertyOp12
 70
     1
102
RTVSPropertyOp13
 70
     1
102
RTVSPropertyOp14
 70
     1
102
RTVSPropertyOp15
 70
     1
102
RTVSPropertyOp16
 70
     1
102
RTVSPropertyOp17
 70
     1
102
RTVSPropertyOp18
 70
     1
102
RTVSPropertyOp19
 70
     1
102
RTVSPropertyOp20
 70
     1
102
RTVSPropertyOp21
 70
     1
102
RTVSPropertyOp22
 70
     1
102
RTVSPropertyOp23
 70
     1
102
RTVSPropertyOp24
 70
     1
102
RTVSPropertyOp25
 70
     1
102
RTVSPropertyOp26
 70
     1
102
RTVSPropertyOp27
 70
     1
  0
ENDSEC
  0
EOF
