  0
SECTION
  2
HEADER
  9
$ACADVER
  1
AC1021
  9
$ACADMAINTVER
 70
    50
  9
$DWGCODEPAGE
  3
ANSI_1252
  9
$AUTHOR
  1
dworden
  9
$LASTSAVEDBY
  1
dworden
  9
$INSBASE
 10
0.0
 20
0.0
 30
0.0
  9
$EXTMIN
 10
-26.429807
 20
-0.500102
 30
-0.000146
  9
$EXTMAX
 10
0.5
 20
16.499799
 30
0.000004
  9
$LIMMIN
 10
-76.658268
 20
-55.693516
  9
$LIMMAX
 10
50.728461
 20
71.693213
  9
$ORTHOMODE
 70
     0
  9
$REGENMODE
 70
     1
  9
$FILLMODE
 70
     1
  9
$QTEXTMODE
 70
     0
  9
$MIRRTEXT
 70
     0
  9
$LTSCALE
 40
1.0
  9
$ATTMODE
 70
     1
  9
$TEXTSIZE
 40
0.03
  9
$TRACEWID
 40
0.05
  9
$TEXTSTYLE
  7
Standard
  9
$CLAYER
  8
Level 1
  9
$CELTYPE
  6
Continuous
  9
$CECOLOR
 62
     7
  9
$CELTSCALE
 40
1.0
  9
$DISPSILH
 70
     0
  9
$DIMSCALE
 40
1.0
  9
$DIMASZ
 40
0.045
  9
$DIMEXO
 40
0.018
  9
$DIMDLI
 40
0.0
  9
$DIMRND
 40
0.0
  9
$DIMDLE
 40
0.0
  9
$DIMEXE
 40
0.015
  9
$DIMTP
 40
0.002
  9
$DIMTM
 40
0.002
  9
$DIMTXT
 40
0.03
  9
$DIMCEN
 40
0.09
  9
$DIMTSZ
 40
0.0
  9
$DIMTOL
 70
     0
  9
$DIMLIM
 70
     0
  9
$DIMTIH
 70
     1
  9
$DIMTOH
 70
     1
  9
$DIMSE1
 70
     0
  9
$DIMSE2
 70
     0
  9
$DIMTAD
 70
     0
  9
$DIMZIN
 70
     7
  9
$DIMBLK
  1

  9
$DIMASO
 70
     1
  9
$DIMSHO
 70
     1
  9
$DIMPOST
  1
\X
  9
$DIMAPOST
  1

  9
$DIMALT
 70
     1
  9
$DIMALTD
 70
     2
  9
$DIMALTF
 40
25.4
  9
$DIMLFAC
 40
1.0
  9
$DIMTOFL
 70
     0
  9
$DIMTVP
 40
0.0
  9
$DIMTIX
 70
     0
  9
$DIMSOXD
 70
     0
  9
$DIMSAH
 70
     0
  9
$DIMBLK1
  1

  9
$DIMBLK2
  1

  9
$DIMSTYLE
  2
Standard
  9
$DIMCLRD
 70
     0
  9
$DIMCLRE
 70
     0
  9
$DIMCLRT
 70
     0
  9
$DIMTFAC
 40
1.0
  9
$DIMGAP
 40
0.009
  9
$DIMJUST
 70
     0
  9
$DIMSD1
 70
     0
  9
$DIMSD2
 70
     0
  9
$DIMTOLJ
 70
     0
  9
$DIMTZIN
 70
     7
  9
$DIMALTZ
 70
    15
  9
$DIMALTTZ
 70
    15
  9
$DIMUPT
 70
     1
  9
$DIMDEC
 70
     3
  9
$DIMTDEC
 70
     3
  9
$DIMALTU
 70
     2
  9
$DIMALTTD
 70
     2
  9
$DIMTXSTY
  7
Style-WORKING
  9
$DIMAUNIT
 70
     0
  9
$DIMADEC
 70
     0
  9
$DIMALTRND
 40
0.0
  9
$DIMAZIN
 70
     3
  9
$DIMDSEP
 70
    46
  9
$DIMATFIT
 70
     1
  9
$DIMFRAC
 70
     2
  9
$DIMLDRBLK
  1

  9
$DIMLUNIT
 70
     2
  9
$DIMLWD
 70
    -2
  9
$DIMLWE
 70
    -2
  9
$DIMTMOVE
 70
     0
  9
$DIMFXL
 40
1.0
  9
$DIMFXLON
 70
     0
  9
$DIMJOGANG
 40
0.785398
  9
$DIMTFILL
 70
     0
  9
$DIMTFILLCLR
 70
     0
  9
$DIMARCSYM
 70
     0
  9
$DIMLTYPE
  6

  9
$DIMLTEX1
  6

  9
$DIMLTEX2
  6

  9
$LUNITS
 70
     2
  9
$LUPREC
 70
     4
  9
$SKETCHINC
 40
0.1
  9
$FILLETRAD
 40
0.0
  9
$AUNITS
 70
     0
  9
$AUPREC
 70
     4
  9
$MENU
  1
.
  9
$ELEVATION
 40
0.0
  9
$PELEVATION
 40
0.0
  9
$THICKNESS
 40
0.0
  9
$LIMCHECK
 70
     0
  9
$CHAMFERA
 40
0.0
  9
$CHAMFERB
 40
0.0
  9
$CHAMFERC
 40
0.0
  9
$CHAMFERD
 40
0.0
  9
$SKPOLY
 70
     0
  9
$TDCREATE
 40
2454144.486357349
  9
$TDUCREATE
 40
2454144.778024017
  9
$TDUPDATE
 40
2454144.487020359
  9
$TDUUPDATE
 40
2454144.778687026
  9
$TDINDWG
 40
0.0027998380
  9
$TDUSRTIMER
 40
0.0027992940
  9
$USRTIMER
 70
     1
  9
$ANGBASE
 50
0.0
  9
$ANGDIR
 70
     0
  9
$PDMODE
 70
     0
  9
$PDSIZE
 40
0.0
  9
$PLINEWID
 40
0.0
  9
$SPLFRAME
 70
     0
  9
$SPLINETYPE
 70
     6
  9
$SPLINESEGS
 70
     8
  9
$HANDSEED
  5
2254
  9
$SURFTAB1
 70
     6
  9
$SURFTAB2
 70
     6
  9
$SURFTYPE
 70
     6
  9
$SURFU
 70
     6
  9
$SURFV
 70
     6
  9
$UCSBASE
  2

  9
$UCSNAME
  2

  9
$UCSORG
 10
0.0
 20
0.0
 30
0.0
  9
$UCSXDIR
 10
1.0
 20
0.0
 30
0.0
  9
$UCSYDIR
 10
0.0
 20
1.0
 30
0.0
  9
$UCSORTHOREF
  2

  9
$UCSORTHOVIEW
 70
     0
  9
$UCSORGTOP
 10
0.0
 20
0.0
 30
0.0
  9
$UCSORGBOTTOM
 10
0.0
 20
0.0
 30
0.0
  9
$UCSORGLEFT
 10
0.0
 20
0.0
 30
0.0
  9
$UCSORGRIGHT
 10
0.0
 20
0.0
 30
0.0
  9
$UCSORGFRONT
 10
0.0
 20
0.0
 30
0.0
  9
$UCSORGBACK
 10
0.0
 20
0.0
 30
0.0
  9
$PUCSBASE
  2

  9
$PUCSNAME
  2

  9
$PUCSORG
 10
0.0
 20
0.0
 30
0.0
  9
$PUCSXDIR
 10
1.0
 20
0.0
 30
0.0
  9
$PUCSYDIR
 10
0.0
 20
1.0
 30
0.0
  9
$PUCSORTHOREF
  2

  9
$PUCSORTHOVIEW
 70
     0
  9
$PUCSORGTOP
 10
0.0
 20
0.0
 30
0.0
  9
$PUCSORGBOTTOM
 10
0.0
 20
0.0
 30
0.0
  9
$PUCSORGLEFT
 10
0.0
 20
0.0
 30
0.0
  9
$PUCSORGRIGHT
 10
0.0
 20
0.0
 30
0.0
  9
$PUCSORGFRONT
 10
0.0
 20
0.0
 30
0.0
  9
$PUCSORGBACK
 10
0.0
 20
0.0
 30
0.0
  9
$USERI1
 70
     0
  9
$USERI2
 70
     0
  9
$USERI3
 70
     0
  9
$USERI4
 70
     0
  9
$USERI5
 70
     0
  9
$USERR1
 40
0.0
  9
$USERR2
 40
0.0
  9
$USERR3
 40
0.0
  9
$USERR4
 40
0.0
  9
$USERR5
 40
0.0
  9
$WORLDVIEW
 70
     1
  9
$SHADEDGE
 70
     3
  9
$SHADEDIF
 70
    70
  9
$TILEMODE
 70
     1
  9
$MAXACTVP
 70
    64
  9
$PINSBASE
 10
0.0
 20
0.0
 30
0.0
  9
$PLIMCHECK
 70
     0
  9
$PEXTMIN
 10
1.049744
 20
0.799667
 30
-0.001526
  9
$PEXTMAX
 10
9.450623
 20
7.200577
 30
0.0
  9
$PLIMMIN
 10
-0.25
 20
-0.25
  9
$PLIMMAX
 10
10.75
 20
8.25
  9
$UNITMODE
 70
     0
  9
$VISRETAIN
 70
     1
  9
$PLINEGEN
 70
     0
  9
$PSLTSCALE
 70
     0
  9
$TREEDEPTH
 70
  3020
  9
$CMLSTYLE
  2
Standard
  9
$CMLJUST
 70
     0
  9
$CMLSCALE
 40
1.0
  9
$PROXYGRAPHICS
 70
     1
  9
$MEASUREMENT
 70
     0
  9
$CELWEIGHT
370
     0
  9
$ENDCAPS
280
     0
  9
$JOINSTYLE
280
     0
  9
$LWDISPLAY
290
     1
  9
$INSUNITS
 70
     1
  9
$HYPERLINKBASE
  1

  9
$STYLESHEET
  1

  9
$XEDIT
290
     1
  9
$CEPSNTYPE
380
     0
  9
$PSTYLEMODE
290
     1
  9
$FINGERPRINTGUID
  2
{AD36225F-6E79-4235-B745-90DF8435BC79}
  9
$VERSIONGUID
  2
{82C521FC-BF81-46B3-825E-420B6BD93A99}
  9
$EXTNAMES
290
     1
  9
$PSVPSCALE
 40
0.0
  9
$OLESTARTUP
290
     0
  9
$SORTENTS
280
   127
  9
$INDEXCTL
280
     0
  9
$HIDETEXT
280
     1
  9
$XCLIPFRAME
290
     0
  9
$HALOGAP
280
     0
  9
$OBSCOLOR
 70
   257
  9
$OBSLTYPE
280
     0
  9
$INTERSECTIONDISPLAY
280
     0
  9
$INTERSECTIONCOLOR
 70
   257
  9
$DIMASSOC
280
     1
  9
$PROJECTNAME
  1

  9
$CAMERADISPLAY
290
     0
  9
$LENSLENGTH
 40
50.0
  9
$CAMERAHEIGHT
 40
0.0
  9
$STEPSPERSEC
 40
2.0
  9
$STEPSIZE
 40
6.0
  9
$3DDWFPREC
 40
2.0
  9
$PSOLWIDTH
 40
0.25
  9
$PSOLHEIGHT
 40
4.0
  9
$LOFTANG1
 40
1.570796
  9
$LOFTANG2
 40
1.570796
  9
$LOFTMAG1
 40
0.0
  9
$LOFTMAG2
 40
0.0
  9
$LOFTPARAM
 70
     7
  9
$LOFTNORMALS
280
     1
  9
$LATITUDE
 40
37.795
  9
$LONGITUDE
 40
-122.394
  9
$NORTHDIRECTION
 40
0.0
  9
$TIMEZONE
 70
 -8000
  9
$LIGHTGLYPHDISPLAY
280
     1
  9
$TILEMODELIGHTSYNCH
280
     1
  9
$CMATERIAL
347
11C2
  9
$SOLIDHIST
280
     1
  9
$SHOWHIST
280
     1
  9
$DWFFRAME
280
     2
  9
$DGNFRAME
280
     0
  9
$REALWORLDSCALE
290
     1
  9
$INTERFERECOLOR
 62
     1
  9
$INTERFEREOBJVS
345
11D8
  9
$INTERFEREVPVS
346
11D9
  9
$CSHADOW
280
     0
  9
$SHADOWPLANELOCATION
 40
0.0
  0
ENDSEC
  0
SECTION
  2
CLASSES
  0
CLASS
  1
ACDBDICTIONARYWDFLT
  2
AcDbDictionaryWithDefault
  3
ObjectDBX Classes
 90
        0
 91
        1
280
     0
281
     0
  0
CLASS
  1
DICTIONARYVAR
  2
AcDbDictionaryVar
  3
ObjectDBX Classes
 90
        0
 91
        7
280
     0
281
     0
  0
CLASS
  1
TABLESTYLE
  2
AcDbTableStyle
  3
ObjectDBX Classes
 90
     4095
 91
        1
280
     0
281
     0
  0
CLASS
  1
MATERIAL
  2
AcDbMaterial
  3
ObjectDBX Classes
 90
     1153
 91
        3
280
     0
281
     0
  0
CLASS
  1
VISUALSTYLE
  2
AcDbVisualStyle
  3
ObjectDBX Classes
 90
     4095
 91
       19
280
     0
281
     0
  0
CLASS
  1
SCALE
  2
AcDbScale
  3
ObjectDBX Classes
 90
     1153
 91
       33
280
     0
281
     0
  0
CLASS
  1
MLEADERSTYLE
  2
AcDbMLeaderStyle
  3
ACDB_MLEADERSTYLE_CLASS
 90
     4095
 91
        1
280
     0
281
     0
  0
CLASS
  1
SORTENTSTABLE
  2
AcDbSortentsTable
  3
ObjectDBX Classes
 90
        0
 91
        2
280
     0
281
     0
  0
CLASS
  1
CELLSTYLEMAP
  2
AcDbCellStyleMap
  3
ObjectDBX Classes
 90
     1152
 91
        2
280
     0
281
     0
  0
ENDSEC
  0
SECTION
  2
TABLES
  0
TABLE
  2
VPORT
  5
11B6
330
0
100
AcDbSymbolTable
 70
     1
  0
VPORT
  5
102
330
11B6
100
AcDbSymbolTableRecord
100
AcDbViewportTableRecord
  2
*ACTIVE
 70
     0
 10
0.0
 20
0.0
 11
1.0
 21
1.0
 12
-9.071116
 22
2.881185
 13
0.0
 23
0.0
 14
0.001
 24
0.001
 15
0.001
 25
0.001
 16
0.0
 26
0.0
 36
1.0
 17
0.0
 27
0.0
 37
0.0
 40
1.050644
 41
2.025496
 42
50.0
 43
0.0
 44
0.0
 50
0.0
 51
0.0
 71
     0
 72
   100
 73
     1
 74
     0
 75
     0
 76
     0
 77
     0
 78
     1
281
     0
 65
     1
110
0.0
120
0.0
130
0.0
111
1.0
121
0.0
131
0.0
112
0.0
122
1.0
132
0.0
 79
     0
146
0.0
348
11B8
 60
     3
 61
  1000
292
     1
282
     1
141
0.0
142
0.0
 63
   250
421
  3355443
  0
ENDTAB
  0
TABLE
  2
LTYPE
  5
11B1
330
0
100
AcDbSymbolTable
 70
     2
  0
LTYPE
  5
11B2
330
11B1
100
AcDbSymbolTableRecord
100
AcDbLinetypeTableRecord
  2
ByBlock
 70
     0
  3

 72
    65
 73
     0
 40
0.0
  0
LTYPE
  5
11B3
330
11B1
100
AcDbSymbolTableRecord
100
AcDbLinetypeTableRecord
  2
ByLayer
 70
     0
  3

 72
    65
 73
     0
 40
0.0
  0
LTYPE
  5
11A0
330
11B1
100
AcDbSymbolTableRecord
100
AcDbLinetypeTableRecord
  2
Continuous
 70
     0
  3
Solid line
 72
    65
 73
     0
 40
0.0
  0
LTYPE
  5
1288
330
11B1
100
AcDbSymbolTableRecord
100
AcDbLinetypeTableRecord
  2
DGN Style 4
 70
     0
  3
Dgn Style 4
 72
    65
 73
     4
 40
0.034073
 49
0.017026
 74
     0
 49
-0.008513
 74
     0
 49
0.000021
 74
     0
 49
-0.008513
 74
     0
  0
ENDTAB
  0
TABLE
  2
LAYER
  5
11AB
102
{ACAD_XDICTIONARY
360
11AC
102
}
330
0
100
AcDbSymbolTable
 70
   191
  0
LAYER
  5
1193
330
11AB
100
AcDbSymbolTableRecord
100
AcDbLayerTableRecord
  2
0
 70
     0
 62
     7
  6
Continuous
370
    -3
390
1194
347
1197
  0
LAYER
  5
3C
330
11AB
100
AcDbSymbolTableRecord
100
AcDbLayerTableRecord
  2
Level 1
 70
     0
 62
     7
  6
Continuous
370
     0
390
1194
347
1197
  0
LAYER
  5
3D
330
11AB
100
AcDbSymbolTableRecord
100
AcDbLayerTableRecord
  2
Level 2
 70
     0
 62
     7
  6
Continuous
370
     0
390
1194
347
1197
  0
LAYER
  5
3E
330
11AB
100
AcDbSymbolTableRecord
100
AcDbLayerTableRecord
  2
Level 3
 70
     0
 62
     7
  6
Continuous
370
     0
390
1194
347
1197
  0
LAYER
  5
3F
330
11AB
100
AcDbSymbolTableRecord
100
AcDbLayerTableRecord
  2
Level 4
 70
     0
 62
     7
  6
Continuous
370
     0
390
1194
347
1197
  0
LAYER
  5
40
330
11AB
100
AcDbSymbolTableRecord
100
AcDbLayerTableRecord
  2
Level 5
 70
     0
 62
     7
  6
Continuous
370
     0
390
1194
347
1197
  0
LAYER
  5
41
330
11AB
100
AcDbSymbolTableRecord
100
AcDbLayerTableRecord
  2
Level 6
 70
     0
 62
     7
  6
Continuous
370
     0
390
1194
347
1197
  0
LAYER
  5
42
330
11AB
100
AcDbSymbolTableRecord
100
AcDbLayerTableRecord
  2
Level 7
 70
     0
 62
     7
  6
Continuous
370
     0
390
1194
347
1197
  0
LAYER
  5
43
330
11AB
100
AcDbSymbolTableRecord
100
AcDbLayerTableRecord
  2
Level 8
 70
     0
 62
     7
  6
Continuous
370
     0
390
1194
347
1197
  0
LAYER
  5
44
330
11AB
100
AcDbSymbolTableRecord
100
AcDbLayerTableRecord
  2
Level 9
 70
     0
 62
     7
  6
Continuous
370
     0
390
1194
347
1197
  0
LAYER
  5
45
330
11AB
100
AcDbSymbolTableRecord
100
AcDbLayerTableRecord
  2
Level 10
 70
     0
 62
     7
  6
Continuous
370
     0
390
1194
347
1197
  0
LAYER
  5
46
330
11AB
100
AcDbSymbolTableRecord
100
AcDbLayerTableRecord
  2
Level 11
 70
     0
 62
     7
  6
Continuous
370
     0
390
1194
347
1197
  0
LAYER
  5
47
330
11AB
100
AcDbSymbolTableRecord
100
AcDbLayerTableRecord
  2
Level 12
 70
     0
 62
     7
  6
Continuous
370
     0
390
1194
347
1197
  0
LAYER
  5
48
330
11AB
100
AcDbSymbolTableRecord
100
AcDbLayerTableRecord
  2
Level 13
 70
     0
 62
     7
  6
Continuous
370
     0
390
1194
347
1197
  0
LAYER
  5
49
330
11AB
100
AcDbSymbolTableRecord
100
AcDbLayerTableRecord
  2
Level 14
 70
     0
 62
     7
  6
Continuous
370
     0
390
1194
347
1197
  0
LAYER
  5
4A
330
11AB
100
AcDbSymbolTableRecord
100
AcDbLayerTableRecord
  2
Level 15
 70
     0
 62
     7
  6
Continuous
370
     0
390
1194
347
1197
  0
LAYER
  5
4B
330
11AB
100
AcDbSymbolTableRecord
100
AcDbLayerTableRecord
  2
Level 16
 70
     0
 62
     7
  6
Continuous
370
     0
390
1194
347
1197
  0
LAYER
  5
4C
330
11AB
100
AcDbSymbolTableRecord
100
AcDbLayerTableRecord
  2
Level 17
 70
     0
 62
     7
  6
Continuous
370
     0
390
1194
347
1197
  0
LAYER
  5
4D
330
11AB
100
AcDbSymbolTableRecord
100
AcDbLayerTableRecord
  2
Level 18
 70
     0
 62
     7
  6
Continuous
370
     0
390
1194
347
1197
  0
LAYER
  5
4E
330
11AB
100
AcDbSymbolTableRecord
100
AcDbLayerTableRecord
  2
Level 19
 70
     0
 62
     7
  6
Continuous
370
     0
390
1194
347
1197
  0
LAYER
  5
4F
330
11AB
100
AcDbSymbolTableRecord
100
AcDbLayerTableRecord
  2
Level 20
 70
     0
 62
     7
  6
Continuous
370
     0
390
1194
347
1197
  0
LAYER
  5
50
330
11AB
100
AcDbSymbolTableRecord
100
AcDbLayerTableRecord
  2
Level 21
 70
     0
 62
     7
  6
Continuous
370
     0
390
1194
347
1197
  0
LAYER
  5
51
330
11AB
100
AcDbSymbolTableRecord
100
AcDbLayerTableRecord
  2
Level 22
 70
     0
 62
     7
  6
Continuous
370
     0
390
1194
347
1197
  0
LAYER
  5
52
330
11AB
100
AcDbSymbolTableRecord
100
AcDbLayerTableRecord
  2
Level 23
 70
     0
 62
     7
  6
Continuous
370
     0
390
1194
347
1197
  0
LAYER
  5
53
330
11AB
100
AcDbSymbolTableRecord
100
AcDbLayerTableRecord
  2
Level 24
 70
     0
 62
     7
  6
Continuous
370
     0
390
1194
347
1197
  0
LAYER
  5
54
330
11AB
100
AcDbSymbolTableRecord
100
AcDbLayerTableRecord
  2
Level 25
 70
     0
 62
     7
  6
Continuous
370
     0
390
1194
347
1197
  0
LAYER
  5
55
330
11AB
100
AcDbSymbolTableRecord
100
AcDbLayerTableRecord
  2
Level 26
 70
     0
 62
     7
  6
Continuous
370
     0
390
1194
347
1197
  0
LAYER
  5
56
330
11AB
100
AcDbSymbolTableRecord
100
AcDbLayerTableRecord
  2
Level 27
 70
     0
 62
     7
  6
Continuous
370
     0
390
1194
347
1197
  0
LAYER
  5
57
330
11AB
100
AcDbSymbolTableRecord
100
AcDbLayerTableRecord
  2
Level 28
 70
     0
 62
     7
  6
Continuous
370
     0
390
1194
347
1197
  0
LAYER
  5
58
330
11AB
100
AcDbSymbolTableRecord
100
AcDbLayerTableRecord
  2
Level 29
 70
     0
 62
     7
  6
Continuous
370
     0
390
1194
347
1197
  0
LAYER
  5
59
330
11AB
100
AcDbSymbolTableRecord
100
AcDbLayerTableRecord
  2
Level 30
 70
     0
 62
     7
  6
Continuous
370
     0
390
1194
347
1197
  0
LAYER
  5
5A
330
11AB
100
AcDbSymbolTableRecord
100
AcDbLayerTableRecord
  2
Level 31
 70
     0
 62
     7
  6
Continuous
370
     0
390
1194
347
1197
  0
LAYER
  5
5B
330
11AB
100
AcDbSymbolTableRecord
100
AcDbLayerTableRecord
  2
Level 32
 70
     0
 62
     7
  6
Continuous
370
     0
390
1194
347
1197
  0
LAYER
  5
5C
330
11AB
100
AcDbSymbolTableRecord
100
AcDbLayerTableRecord
  2
Level 33
 70
     0
 62
     7
  6
Continuous
370
     0
390
1194
347
1197
  0
LAYER
  5
5D
330
11AB
100
AcDbSymbolTableRecord
100
AcDbLayerTableRecord
  2
Level 34
 70
     0
 62
     7
  6
Continuous
370
     0
390
1194
347
1197
  0
LAYER
  5
5E
330
11AB
100
AcDbSymbolTableRecord
100
AcDbLayerTableRecord
  2
Level 35
 70
     0
 62
     7
  6
Continuous
370
     0
390
1194
347
1197
  0
LAYER
  5
5F
330
11AB
100
AcDbSymbolTableRecord
100
AcDbLayerTableRecord
  2
Level 36
 70
     0
 62
     7
  6
Continuous
370
     0
390
1194
347
1197
  0
LAYER
  5
60
330
11AB
100
AcDbSymbolTableRecord
100
AcDbLayerTableRecord
  2
Level 37
 70
     0
 62
     7
  6
Continuous
370
     0
390
1194
347
1197
  0
LAYER
  5
61
330
11AB
100
AcDbSymbolTableRecord
100
AcDbLayerTableRecord
  2
Level 38
 70
     0
 62
     7
  6
Continuous
370
     0
390
1194
347
1197
  0
LAYER
  5
62
330
11AB
100
AcDbSymbolTableRecord
100
AcDbLayerTableRecord
  2
Level 39
 70
     0
 62
     7
  6
Continuous
370
     0
390
1194
347
1197
  0
LAYER
  5
63
330
11AB
100
AcDbSymbolTableRecord
100
AcDbLayerTableRecord
  2
Level 40
 70
     0
 62
     7
  6
Continuous
370
     0
390
1194
347
1197
  0
LAYER
  5
64
330
11AB
100
AcDbSymbolTableRecord
100
AcDbLayerTableRecord
  2
Level 41
 70
     0
 62
     7
  6
Continuous
370
     0
390
1194
347
1197
  0
LAYER
  5
65
330
11AB
100
AcDbSymbolTableRecord
100
AcDbLayerTableRecord
  2
Level 42
 70
     0
 62
     7
  6
Continuous
370
     0
390
1194
347
1197
  0
LAYER
  5
66
330
11AB
100
AcDbSymbolTableRecord
100
AcDbLayerTableRecord
  2
Level 43
 70
     0
 62
     7
  6
Continuous
370
     0
390
1194
347
1197
  0
LAYER
  5
67
330
11AB
100
AcDbSymbolTableRecord
100
AcDbLayerTableRecord
  2
Level 44
 70
     0
 62
     7
  6
Continuous
370
     0
390
1194
347
1197
  0
LAYER
  5
68
330
11AB
100
AcDbSymbolTableRecord
100
AcDbLayerTableRecord
  2
Level 45
 70
     0
 62
     7
  6
Continuous
370
     0
390
1194
347
1197
  0
LAYER
  5
69
330
11AB
100
AcDbSymbolTableRecord
100
AcDbLayerTableRecord
  2
Level 46
 70
     0
 62
     7
  6
Continuous
370
     0
390
1194
347
1197
  0
LAYER
  5
6A
330
11AB
100
AcDbSymbolTableRecord
100
AcDbLayerTableRecord
  2
Level 47
 70
     0
 62
     7
  6
Continuous
370
     0
390
1194
347
1197
  0
LAYER
  5
6B
330
11AB
100
AcDbSymbolTableRecord
100
AcDbLayerTableRecord
  2
Level 48
 70
     0
 62
     7
  6
Continuous
370
     0
390
1194
347
1197
  0
LAYER
  5
6C
330
11AB
100
AcDbSymbolTableRecord
100
AcDbLayerTableRecord
  2
Level 49
 70
     0
 62
     7
  6
Continuous
370
     0
390
1194
347
1197
  0
LAYER
  5
6D
330
11AB
100
AcDbSymbolTableRecord
100
AcDbLayerTableRecord
  2
Level 50
 70
     0
 62
     7
  6
Continuous
370
     0
390
1194
347
1197
  0
LAYER
  5
6E
330
11AB
100
AcDbSymbolTableRecord
100
AcDbLayerTableRecord
  2
Level 51
 70
     0
 62
     7
  6
Continuous
370
     0
390
1194
347
1197
  0
LAYER
  5
6F
330
11AB
100
AcDbSymbolTableRecord
100
AcDbLayerTableRecord
  2
Level 52
 70
     0
 62
     7
  6
Continuous
370
     0
390
1194
347
1197
  0
LAYER
  5
70
330
11AB
100
AcDbSymbolTableRecord
100
AcDbLayerTableRecord
  2
Level 53
 70
     0
 62
     7
  6
Continuous
370
     0
390
1194
347
1197
  0
LAYER
  5
71
330
11AB
100
AcDbSymbolTableRecord
100
AcDbLayerTableRecord
  2
Level 54
 70
     0
 62
     7
  6
Continuous
370
     0
390
1194
347
1197
  0
LAYER
  5
72
330
11AB
100
AcDbSymbolTableRecord
100
AcDbLayerTableRecord
  2
Level 55
 70
     0
 62
     7
  6
Continuous
370
     0
390
1194
347
1197
  0
LAYER
  5
73
330
11AB
100
AcDbSymbolTableRecord
100
AcDbLayerTableRecord
  2
Level 56
 70
     0
 62
     7
  6
Continuous
370
     0
390
1194
347
1197
  0
LAYER
  5
74
330
11AB
100
AcDbSymbolTableRecord
100
AcDbLayerTableRecord
  2
Level 57
 70
     0
 62
     7
  6
Continuous
370
     0
390
1194
347
1197
  0
LAYER
  5
75
330
11AB
100
AcDbSymbolTableRecord
100
AcDbLayerTableRecord
  2
Level 58
 70
     0
 62
     7
  6
Continuous
370
     0
390
1194
347
1197
  0
LAYER
  5
76
330
11AB
100
AcDbSymbolTableRecord
100
AcDbLayerTableRecord
  2
Level 59
 70
     0
 62
     7
  6
Continuous
370
     0
390
1194
347
1197
  0
LAYER
  5
77
330
11AB
100
AcDbSymbolTableRecord
100
AcDbLayerTableRecord
  2
Level 60
 70
     0
 62
     7
  6
Continuous
370
     0
390
1194
347
1197
  0
LAYER
  5
78
330
11AB
100
AcDbSymbolTableRecord
100
AcDbLayerTableRecord
  2
Level 61
 70
     0
 62
     7
  6
Continuous
370
     0
390
1194
347
1197
  0
LAYER
  5
79
330
11AB
100
AcDbSymbolTableRecord
100
AcDbLayerTableRecord
  2
Level 62
 70
     0
 62
     7
  6
Continuous
370
     0
390
1194
347
1197
  0
LAYER
  5
7A
330
11AB
100
AcDbSymbolTableRecord
100
AcDbLayerTableRecord
  2
Level 63
 70
     0
 62
     7
  6
Continuous
370
     0
390
1194
347
1197
  0
LAYER
  5
1200
330
11AB
100
AcDbSymbolTableRecord
100
AcDbLayerTableRecord
  2
umiborder|Level 1
 70
    16
 62
     7
  6
Continuous
370
     0
390
1194
347
1197
  0
LAYER
  5
1201
330
11AB
100
AcDbSymbolTableRecord
100
AcDbLayerTableRecord
  2
umiborder|Level 2
 70
    16
 62
     7
  6
Continuous
370
     0
390
1194
347
1197
  0
LAYER
  5
1202
330
11AB
100
AcDbSymbolTableRecord
100
AcDbLayerTableRecord
  2
umiborder|Level 3
 70
    16
 62
     7
  6
Continuous
370
     0
390
1194
347
1197
  0
LAYER
  5
1203
330
11AB
100
AcDbSymbolTableRecord
100
AcDbLayerTableRecord
  2
umiborder|Level 4
 70
    16
 62
     7
  6
Continuous
370
     0
390
1194
347
1197
  0
LAYER
  5
1204
330
11AB
100
AcDbSymbolTableRecord
100
AcDbLayerTableRecord
  2
umiborder|Level 5
 70
    16
 62
     7
  6
Continuous
370
     0
390
1194
347
1197
  0
LAYER
  5
1205
330
11AB
100
AcDbSymbolTableRecord
100
AcDbLayerTableRecord
  2
umiborder|Level 6
 70
    16
 62
     7
  6
Continuous
370
     0
390
1194
347
1197
  0
LAYER
  5
1206
330
11AB
100
AcDbSymbolTableRecord
100
AcDbLayerTableRecord
  2
umiborder|Level 7
 70
    16
 62
     7
  6
Continuous
370
     0
390
1194
347
1197
  0
LAYER
  5
1207
330
11AB
100
AcDbSymbolTableRecord
100
AcDbLayerTableRecord
  2
umiborder|Level 8
 70
    16
 62
     7
  6
Continuous
370
     0
390
1194
347
1197
  0
LAYER
  5
1208
330
11AB
100
AcDbSymbolTableRecord
100
AcDbLayerTableRecord
  2
umiborder|Level 9
 70
    16
 62
     7
  6
Continuous
370
     0
390
1194
347
1197
  0
LAYER
  5
1209
330
11AB
100
AcDbSymbolTableRecord
100
AcDbLayerTableRecord
  2
umiborder|Level 10
 70
    16
 62
     7
  6
Continuous
370
     0
390
1194
347
1197
  0
LAYER
  5
120A
330
11AB
100
AcDbSymbolTableRecord
100
AcDbLayerTableRecord
  2
umiborder|Level 11
 70
    16
 62
     7
  6
Continuous
370
     0
390
1194
347
1197
  0
LAYER
  5
120B
330
11AB
100
AcDbSymbolTableRecord
100
AcDbLayerTableRecord
  2
umiborder|Level 12
 70
    16
 62
     7
  6
Continuous
370
     0
390
1194
347
1197
  0
LAYER
  5
120C
330
11AB
100
AcDbSymbolTableRecord
100
AcDbLayerTableRecord
  2
umiborder|Level 13
 70
    16
 62
     7
  6
Continuous
370
     0
390
1194
347
1197
  0
LAYER
  5
120D
330
11AB
100
AcDbSymbolTableRecord
100
AcDbLayerTableRecord
  2
umiborder|Level 14
 70
    16
 62
     7
  6
Continuous
370
     0
390
1194
347
1197
  0
LAYER
  5
120E
330
11AB
100
AcDbSymbolTableRecord
100
AcDbLayerTableRecord
  2
umiborder|Level 15
 70
    16
 62
     7
  6
Continuous
370
     0
390
1194
347
1197
  0
LAYER
  5
120F
330
11AB
100
AcDbSymbolTableRecord
100
AcDbLayerTableRecord
  2
umiborder|Level 16
 70
    16
 62
     7
  6
Continuous
370
     0
390
1194
347
1197
  0
LAYER
  5
1210
330
11AB
100
AcDbSymbolTableRecord
100
AcDbLayerTableRecord
  2
umiborder|Level 17
 70
    16
 62
     7
  6
Continuous
370
     0
390
1194
347
1197
  0
LAYER
  5
1211
330
11AB
100
AcDbSymbolTableRecord
100
AcDbLayerTableRecord
  2
umiborder|Level 18
 70
    16
 62
     7
  6
Continuous
370
     0
390
1194
347
1197
  0
LAYER
  5
1212
330
11AB
100
AcDbSymbolTableRecord
100
AcDbLayerTableRecord
  2
umiborder|Level 19
 70
    16
 62
     7
  6
Continuous
370
     0
390
1194
347
1197
  0
LAYER
  5
1213
330
11AB
100
AcDbSymbolTableRecord
100
AcDbLayerTableRecord
  2
umiborder|Level 20
 70
    16
 62
     7
  6
Continuous
370
     0
390
1194
347
1197
  0
LAYER
  5
1214
330
11AB
100
AcDbSymbolTableRecord
100
AcDbLayerTableRecord
  2
umiborder|Level 21
 70
    16
 62
     7
  6
Continuous
370
     0
390
1194
347
1197
  0
LAYER
  5
1215
330
11AB
100
AcDbSymbolTableRecord
100
AcDbLayerTableRecord
  2
umiborder|Level 22
 70
    16
 62
     7
  6
Continuous
370
     0
390
1194
347
1197
  0
LAYER
  5
1216
330
11AB
100
AcDbSymbolTableRecord
100
AcDbLayerTableRecord
  2
umiborder|Level 23
 70
    16
 62
     7
  6
Continuous
370
     0
390
1194
347
1197
  0
LAYER
  5
1217
330
11AB
100
AcDbSymbolTableRecord
100
AcDbLayerTableRecord
  2
umiborder|Level 24
 70
    16
 62
     7
  6
Continuous
370
     0
390
1194
347
1197
  0
LAYER
  5
1218
330
11AB
100
AcDbSymbolTableRecord
100
AcDbLayerTableRecord
  2
umiborder|Level 25
 70
    16
 62
     7
  6
Continuous
370
     0
390
1194
347
1197
  0
LAYER
  5
1219
330
11AB
100
AcDbSymbolTableRecord
100
AcDbLayerTableRecord
  2
umiborder|Level 26
 70
    16
 62
     7
  6
Continuous
370
     0
390
1194
347
1197
  0
LAYER
  5
121A
330
11AB
100
AcDbSymbolTableRecord
100
AcDbLayerTableRecord
  2
umiborder|Level 27
 70
    16
 62
     7
  6
Continuous
370
     0
390
1194
347
1197
  0
LAYER
  5
121B
330
11AB
100
AcDbSymbolTableRecord
100
AcDbLayerTableRecord
  2
umiborder|Level 28
 70
    16
 62
     7
  6
Continuous
370
     0
390
1194
347
1197
  0
LAYER
  5
121C
330
11AB
100
AcDbSymbolTableRecord
100
AcDbLayerTableRecord
  2
umiborder|Level 29
 70
    16
 62
     7
  6
Continuous
370
     0
390
1194
347
1197
  0
LAYER
  5
121D
330
11AB
100
AcDbSymbolTableRecord
100
AcDbLayerTableRecord
  2
umiborder|Level 30
 70
    16
 62
     7
  6
Continuous
370
     0
390
1194
347
1197
  0
LAYER
  5
121E
330
11AB
100
AcDbSymbolTableRecord
100
AcDbLayerTableRecord
  2
umiborder|Level 31
 70
    16
 62
     7
  6
Continuous
370
     0
390
1194
347
1197
  0
LAYER
  5
121F
330
11AB
100
AcDbSymbolTableRecord
100
AcDbLayerTableRecord
  2
umiborder|Level 32
 70
    16
 62
     7
  6
Continuous
370
     0
390
1194
347
1197
  0
LAYER
  5
1220
330
11AB
100
AcDbSymbolTableRecord
100
AcDbLayerTableRecord
  2
umiborder|Level 33
 70
    16
 62
     7
  6
Continuous
370
     0
390
1194
347
1197
  0
LAYER
  5
1221
330
11AB
100
AcDbSymbolTableRecord
100
AcDbLayerTableRecord
  2
umiborder|Level 34
 70
    16
 62
     7
  6
Continuous
370
     0
390
1194
347
1197
  0
LAYER
  5
1222
330
11AB
100
AcDbSymbolTableRecord
100
AcDbLayerTableRecord
  2
umiborder|Level 35
 70
    16
 62
     7
  6
Continuous
370
     0
390
1194
347
1197
  0
LAYER
  5
1223
330
11AB
100
AcDbSymbolTableRecord
100
AcDbLayerTableRecord
  2
umiborder|Level 36
 70
    16
 62
     7
  6
Continuous
370
     0
390
1194
347
1197
  0
LAYER
  5
1224
330
11AB
100
AcDbSymbolTableRecord
100
AcDbLayerTableRecord
  2
umiborder|Level 37
 70
    16
 62
     7
  6
Continuous
370
     0
390
1194
347
1197
  0
LAYER
  5
1225
330
11AB
100
AcDbSymbolTableRecord
100
AcDbLayerTableRecord
  2
umiborder|Level 38
 70
    16
 62
     7
  6
Continuous
370
     0
390
1194
347
1197
  0
LAYER
  5
1226
330
11AB
100
AcDbSymbolTableRecord
100
AcDbLayerTableRecord
  2
umiborder|Level 39
 70
    16
 62
     7
  6
Continuous
370
     0
390
1194
347
1197
  0
LAYER
  5
1227
330
11AB
100
AcDbSymbolTableRecord
100
AcDbLayerTableRecord
  2
umiborder|Level 40
 70
    16
 62
     7
  6
Continuous
370
     0
390
1194
347
1197
  0
LAYER
  5
1228
330
11AB
100
AcDbSymbolTableRecord
100
AcDbLayerTableRecord
  2
umiborder|Level 41
 70
    16
 62
     7
  6
Continuous
370
     0
390
1194
347
1197
  0
LAYER
  5
1229
330
11AB
100
AcDbSymbolTableRecord
100
AcDbLayerTableRecord
  2
umiborder|Level 42
 70
    16
 62
     7
  6
Continuous
370
     0
390
1194
347
1197
  0
LAYER
  5
122A
330
11AB
100
AcDbSymbolTableRecord
100
AcDbLayerTableRecord
  2
umiborder|Level 43
 70
    16
 62
     7
  6
Continuous
370
     0
390
1194
347
1197
  0
LAYER
  5
122B
330
11AB
100
AcDbSymbolTableRecord
100
AcDbLayerTableRecord
  2
umiborder|Level 44
 70
    16
 62
     7
  6
Continuous
370
     0
390
1194
347
1197
  0
LAYER
  5
122C
330
11AB
100
AcDbSymbolTableRecord
100
AcDbLayerTableRecord
  2
umiborder|Level 45
 70
    16
 62
     7
  6
Continuous
370
     0
390
1194
347
1197
  0
LAYER
  5
122D
330
11AB
100
AcDbSymbolTableRecord
100
AcDbLayerTableRecord
  2
umiborder|Level 46
 70
    16
 62
     7
  6
Continuous
370
     0
390
1194
347
1197
  0
LAYER
  5
122E
330
11AB
100
AcDbSymbolTableRecord
100
AcDbLayerTableRecord
  2
umiborder|Level 47
 70
    16
 62
     7
  6
Continuous
370
     0
390
1194
347
1197
  0
LAYER
  5
122F
330
11AB
100
AcDbSymbolTableRecord
100
AcDbLayerTableRecord
  2
umiborder|Level 48
 70
    16
 62
     7
  6
Continuous
370
     0
390
1194
347
1197
  0
LAYER
  5
1230
330
11AB
100
AcDbSymbolTableRecord
100
AcDbLayerTableRecord
  2
umiborder|Level 49
 70
    16
 62
     7
  6
Continuous
370
     0
390
1194
347
1197
  0
LAYER
  5
1231
330
11AB
100
AcDbSymbolTableRecord
100
AcDbLayerTableRecord
  2
umiborder|Level 50
 70
    16
 62
     7
  6
Continuous
370
     0
390
1194
347
1197
  0
LAYER
  5
1232
330
11AB
100
AcDbSymbolTableRecord
100
AcDbLayerTableRecord
  2
umiborder|Level 51
 70
    16
 62
     7
  6
Continuous
370
     0
390
1194
347
1197
  0
LAYER
  5
1233
330
11AB
100
AcDbSymbolTableRecord
100
AcDbLayerTableRecord
  2
umiborder|Level 52
 70
    16
 62
     7
  6
Continuous
370
     0
390
1194
347
1197
  0
LAYER
  5
1234
330
11AB
100
AcDbSymbolTableRecord
100
AcDbLayerTableRecord
  2
umiborder|Level 53
 70
    16
 62
     7
  6
Continuous
370
     0
390
1194
347
1197
  0
LAYER
  5
1235
330
11AB
100
AcDbSymbolTableRecord
100
AcDbLayerTableRecord
  2
umiborder|Level 54
 70
    16
 62
     7
  6
Continuous
370
     0
390
1194
347
1197
  0
LAYER
  5
1236
330
11AB
100
AcDbSymbolTableRecord
100
AcDbLayerTableRecord
  2
umiborder|Level 55
 70
    16
 62
     7
  6
Continuous
370
     0
390
1194
347
1197
  0
LAYER
  5
1237
330
11AB
100
AcDbSymbolTableRecord
100
AcDbLayerTableRecord
  2
umiborder|Level 56
 70
    16
 62
     7
  6
Continuous
370
     0
390
1194
347
1197
  0
LAYER
  5
1238
330
11AB
100
AcDbSymbolTableRecord
100
AcDbLayerTableRecord
  2
umiborder|Level 57
 70
    16
 62
     7
  6
Continuous
370
     0
390
1194
347
1197
  0
LAYER
  5
1239
330
11AB
100
AcDbSymbolTableRecord
100
AcDbLayerTableRecord
  2
umiborder|Level 58
 70
    16
 62
     7
  6
Continuous
370
     0
390
1194
347
1197
  0
LAYER
  5
123A
330
11AB
100
AcDbSymbolTableRecord
100
AcDbLayerTableRecord
  2
umiborder|Level 59
 70
    16
 62
     7
  6
Continuous
370
     0
390
1194
347
1197
  0
LAYER
  5
123B
330
11AB
100
AcDbSymbolTableRecord
100
AcDbLayerTableRecord
  2
umiborder|Level 60
 70
    16
 62
     7
  6
Continuous
370
     0
390
1194
347
1197
  0
LAYER
  5
123C
330
11AB
100
AcDbSymbolTableRecord
100
AcDbLayerTableRecord
  2
umiborder|Level 61
 70
    16
 62
     7
  6
Continuous
370
     0
390
1194
347
1197
  0
LAYER
  5
123D
330
11AB
100
AcDbSymbolTableRecord
100
AcDbLayerTableRecord
  2
umiborder|Level 62
 70
    16
 62
     7
  6
Continuous
370
     0
390
1194
347
1197
  0
LAYER
  5
123E
330
11AB
100
AcDbSymbolTableRecord
100
AcDbLayerTableRecord
  2
umiborder|Level 63
 70
    16
 62
     7
  6
Continuous
370
     0
390
1194
347
1197
  0
LAYER
  5
1242
330
11AB
100
AcDbSymbolTableRecord
100
AcDbLayerTableRecord
  2
Style 1  PCB layouts|Level 1
 70
    16
 62
     7
  6
Continuous
370
     0
390
1194
347
1197
  0
LAYER
  5
1243
330
11AB
100
AcDbSymbolTableRecord
100
AcDbLayerTableRecord
  2
Style 1  PCB layouts|Level 2
 70
    16
 62
     7
  6
Continuous
370
     0
390
1194
347
1197
  0
LAYER
  5
1244
330
11AB
100
AcDbSymbolTableRecord
100
AcDbLayerTableRecord
  2
Style 1  PCB layouts|Level 3
 70
    16
 62
     7
  6
Continuous
370
     0
390
1194
347
1197
  0
LAYER
  5
1245
330
11AB
100
AcDbSymbolTableRecord
100
AcDbLayerTableRecord
  2
Style 1  PCB layouts|Level 4
 70
    16
 62
     7
  6
Continuous
370
     0
390
1194
347
1197
  0
LAYER
  5
1246
330
11AB
100
AcDbSymbolTableRecord
100
AcDbLayerTableRecord
  2
Style 1  PCB layouts|Level 5
 70
    16
 62
     7
  6
Continuous
370
     0
390
1194
347
1197
  0
LAYER
  5
1247
330
11AB
100
AcDbSymbolTableRecord
100
AcDbLayerTableRecord
  2
Style 1  PCB layouts|Level 6
 70
    16
 62
     7
  6
Continuous
370
     0
390
1194
347
1197
  0
LAYER
  5
1248
330
11AB
100
AcDbSymbolTableRecord
100
AcDbLayerTableRecord
  2
Style 1  PCB layouts|Level 7
 70
    16
 62
     7
  6
Continuous
370
     0
390
1194
347
1197
  0
LAYER
  5
1249
330
11AB
100
AcDbSymbolTableRecord
100
AcDbLayerTableRecord
  2
Style 1  PCB layouts|Level 8
 70
    16
 62
     7
  6
Continuous
370
     0
390
1194
347
1197
  0
LAYER
  5
124A
330
11AB
100
AcDbSymbolTableRecord
100
AcDbLayerTableRecord
  2
Style 1  PCB layouts|Level 9
 70
    16
 62
     7
  6
Continuous
370
     0
390
1194
347
1197
  0
LAYER
  5
124B
330
11AB
100
AcDbSymbolTableRecord
100
AcDbLayerTableRecord
  2
Style 1  PCB layouts|Level 10
 70
    16
 62
     7
  6
Continuous
370
     0
390
1194
347
1197
  0
LAYER
  5
124C
330
11AB
100
AcDbSymbolTableRecord
100
AcDbLayerTableRecord
  2
Style 1  PCB layouts|Level 11
 70
    16
 62
     7
  6
Continuous
370
     0
390
1194
347
1197
  0
LAYER
  5
124D
330
11AB
100
AcDbSymbolTableRecord
100
AcDbLayerTableRecord
  2
Style 1  PCB layouts|Level 12
 70
    16
 62
     7
  6
Continuous
370
     0
390
1194
347
1197
  0
LAYER
  5
124E
330
11AB
100
AcDbSymbolTableRecord
100
AcDbLayerTableRecord
  2
Style 1  PCB layouts|Level 13
 70
    16
 62
     7
  6
Continuous
370
     0
390
1194
347
1197
  0
LAYER
  5
124F
330
11AB
100
AcDbSymbolTableRecord
100
AcDbLayerTableRecord
  2
Style 1  PCB layouts|Level 14
 70
    16
 62
     7
  6
Continuous
370
     0
390
1194
347
1197
  0
LAYER
  5
1250
330
11AB
100
AcDbSymbolTableRecord
100
AcDbLayerTableRecord
  2
Style 1  PCB layouts|Level 15
 70
    16
 62
     7
  6
Continuous
370
     0
390
1194
347
1197
  0
LAYER
  5
1251
330
11AB
100
AcDbSymbolTableRecord
100
AcDbLayerTableRecord
  2
Style 1  PCB layouts|Level 16
 70
    16
 62
     7
  6
Continuous
370
     0
390
1194
347
1197
  0
LAYER
  5
1252
330
11AB
100
AcDbSymbolTableRecord
100
AcDbLayerTableRecord
  2
Style 1  PCB layouts|Level 17
 70
    16
 62
     7
  6
Continuous
370
     0
390
1194
347
1197
  0
LAYER
  5
1253
330
11AB
100
AcDbSymbolTableRecord
100
AcDbLayerTableRecord
  2
Style 1  PCB layouts|Level 18
 70
    16
 62
     7
  6
Continuous
370
     0
390
1194
347
1197
  0
LAYER
  5
1254
330
11AB
100
AcDbSymbolTableRecord
100
AcDbLayerTableRecord
  2
Style 1  PCB layouts|Level 19
 70
    16
 62
     7
  6
Continuous
370
     0
390
1194
347
1197
  0
LAYER
  5
1255
330
11AB
100
AcDbSymbolTableRecord
100
AcDbLayerTableRecord
  2
Style 1  PCB layouts|Level 20
 70
    16
 62
     7
  6
Continuous
370
     0
390
1194
347
1197
  0
LAYER
  5
1256
330
11AB
100
AcDbSymbolTableRecord
100
AcDbLayerTableRecord
  2
Style 1  PCB layouts|Level 21
 70
    16
 62
     7
  6
Continuous
370
     0
390
1194
347
1197
  0
LAYER
  5
1257
330
11AB
100
AcDbSymbolTableRecord
100
AcDbLayerTableRecord
  2
Style 1  PCB layouts|Level 22
 70
    16
 62
     7
  6
Continuous
370
     0
390
1194
347
1197
  0
LAYER
  5
1258
330
11AB
100
AcDbSymbolTableRecord
100
AcDbLayerTableRecord
  2
Style 1  PCB layouts|Level 23
 70
    16
 62
     7
  6
Continuous
370
     0
390
1194
347
1197
  0
LAYER
  5
1259
330
11AB
100
AcDbSymbolTableRecord
100
AcDbLayerTableRecord
  2
Style 1  PCB layouts|Level 24
 70
    16
 62
     7
  6
Continuous
370
     0
390
1194
347
1197
  0
LAYER
  5
125A
330
11AB
100
AcDbSymbolTableRecord
100
AcDbLayerTableRecord
  2
Style 1  PCB layouts|Level 25
 70
    16
 62
     7
  6
Continuous
370
     0
390
1194
347
1197
  0
LAYER
  5
125B
330
11AB
100
AcDbSymbolTableRecord
100
AcDbLayerTableRecord
  2
Style 1  PCB layouts|Level 26
 70
    16
 62
     7
  6
Continuous
370
     0
390
1194
347
1197
  0
LAYER
  5
125C
330
11AB
100
AcDbSymbolTableRecord
100
AcDbLayerTableRecord
  2
Style 1  PCB layouts|Level 27
 70
    16
 62
     7
  6
Continuous
370
     0
390
1194
347
1197
  0
LAYER
  5
125D
330
11AB
100
AcDbSymbolTableRecord
100
AcDbLayerTableRecord
  2
Style 1  PCB layouts|Level 28
 70
    16
 62
     7
  6
Continuous
370
     0
390
1194
347
1197
  0
LAYER
  5
125E
330
11AB
100
AcDbSymbolTableRecord
100
AcDbLayerTableRecord
  2
Style 1  PCB layouts|Level 29
 70
    16
 62
     7
  6
Continuous
370
     0
390
1194
347
1197
  0
LAYER
  5
125F
330
11AB
100
AcDbSymbolTableRecord
100
AcDbLayerTableRecord
  2
Style 1  PCB layouts|Level 30
 70
    16
 62
     7
  6
Continuous
370
     0
390
1194
347
1197
  0
LAYER
  5
1260
330
11AB
100
AcDbSymbolTableRecord
100
AcDbLayerTableRecord
  2
Style 1  PCB layouts|Level 31
 70
    16
 62
     7
  6
Continuous
370
     0
390
1194
347
1197
  0
LAYER
  5
1261
330
11AB
100
AcDbSymbolTableRecord
100
AcDbLayerTableRecord
  2
Style 1  PCB layouts|Level 32
 70
    16
 62
     7
  6
Continuous
370
     0
390
1194
347
1197
  0
LAYER
  5
1262
330
11AB
100
AcDbSymbolTableRecord
100
AcDbLayerTableRecord
  2
Style 1  PCB layouts|Level 33
 70
    16
 62
     7
  6
Continuous
370
     0
390
1194
347
1197
  0
LAYER
  5
1263
330
11AB
100
AcDbSymbolTableRecord
100
AcDbLayerTableRecord
  2
Style 1  PCB layouts|Level 34
 70
    16
 62
     7
  6
Continuous
370
     0
390
1194
347
1197
  0
LAYER
  5
1264
330
11AB
100
AcDbSymbolTableRecord
100
AcDbLayerTableRecord
  2
Style 1  PCB layouts|Level 35
 70
    16
 62
     7
  6
Continuous
370
     0
390
1194
347
1197
  0
LAYER
  5
1265
330
11AB
100
AcDbSymbolTableRecord
100
AcDbLayerTableRecord
  2
Style 1  PCB layouts|Level 36
 70
    16
 62
     7
  6
Continuous
370
     0
390
1194
347
1197
  0
LAYER
  5
1266
330
11AB
100
AcDbSymbolTableRecord
100
AcDbLayerTableRecord
  2
Style 1  PCB layouts|Level 37
 70
    16
 62
     7
  6
Continuous
370
     0
390
1194
347
1197
  0
LAYER
  5
1267
330
11AB
100
AcDbSymbolTableRecord
100
AcDbLayerTableRecord
  2
Style 1  PCB layouts|Level 38
 70
    16
 62
     7
  6
Continuous
370
     0
390
1194
347
1197
  0
LAYER
  5
1268
330
11AB
100
AcDbSymbolTableRecord
100
AcDbLayerTableRecord
  2
Style 1  PCB layouts|Level 39
 70
    16
 62
     7
  6
Continuous
370
     0
390
1194
347
1197
  0
LAYER
  5
1269
330
11AB
100
AcDbSymbolTableRecord
100
AcDbLayerTableRecord
  2
Style 1  PCB layouts|Level 40
 70
    16
 62
     7
  6
Continuous
370
     0
390
1194
347
1197
  0
LAYER
  5
126A
330
11AB
100
AcDbSymbolTableRecord
100
AcDbLayerTableRecord
  2
Style 1  PCB layouts|Level 41
 70
    16
 62
     7
  6
Continuous
370
     0
390
1194
347
1197
  0
LAYER
  5
126B
330
11AB
100
AcDbSymbolTableRecord
100
AcDbLayerTableRecord
  2
Style 1  PCB layouts|Level 42
 70
    16
 62
     7
  6
Continuous
370
     0
390
1194
347
1197
  0
LAYER
  5
126C
330
11AB
100
AcDbSymbolTableRecord
100
AcDbLayerTableRecord
  2
Style 1  PCB layouts|Level 43
 70
    16
 62
     7
  6
Continuous
370
     0
390
1194
347
1197
  0
LAYER
  5
126D
330
11AB
100
AcDbSymbolTableRecord
100
AcDbLayerTableRecord
  2
Style 1  PCB layouts|Level 44
 70
    16
 62
     7
  6
Continuous
370
     0
390
1194
347
1197
  0
LAYER
  5
126E
330
11AB
100
AcDbSymbolTableRecord
100
AcDbLayerTableRecord
  2
Style 1  PCB layouts|Level 45
 70
    16
 62
     7
  6
Continuous
370
     0
390
1194
347
1197
  0
LAYER
  5
126F
330
11AB
100
AcDbSymbolTableRecord
100
AcDbLayerTableRecord
  2
Style 1  PCB layouts|Level 46
 70
    16
 62
     7
  6
Continuous
370
     0
390
1194
347
1197
  0
LAYER
  5
1270
330
11AB
100
AcDbSymbolTableRecord
100
AcDbLayerTableRecord
  2
Style 1  PCB layouts|Level 47
 70
    16
 62
     7
  6
Continuous
370
     0
390
1194
347
1197
  0
LAYER
  5
1271
330
11AB
100
AcDbSymbolTableRecord
100
AcDbLayerTableRecord
  2
Style 1  PCB layouts|Level 48
 70
    16
 62
     7
  6
Continuous
370
     0
390
1194
347
1197
  0
LAYER
  5
1272
330
11AB
100
AcDbSymbolTableRecord
100
AcDbLayerTableRecord
  2
Style 1  PCB layouts|Level 49
 70
    16
 62
     7
  6
Continuous
370
     0
390
1194
347
1197
  0
LAYER
  5
1273
330
11AB
100
AcDbSymbolTableRecord
100
AcDbLayerTableRecord
  2
Style 1  PCB layouts|Level 50
 70
    16
 62
     7
  6
Continuous
370
     0
390
1194
347
1197
  0
LAYER
  5
1274
330
11AB
100
AcDbSymbolTableRecord
100
AcDbLayerTableRecord
  2
Style 1  PCB layouts|Level 51
 70
    16
 62
     7
  6
Continuous
370
     0
390
1194
347
1197
  0
LAYER
  5
1275
330
11AB
100
AcDbSymbolTableRecord
100
AcDbLayerTableRecord
  2
Style 1  PCB layouts|Level 52
 70
    16
 62
     7
  6
Continuous
370
     0
390
1194
347
1197
  0
LAYER
  5
1276
330
11AB
100
AcDbSymbolTableRecord
100
AcDbLayerTableRecord
  2
Style 1  PCB layouts|Level 53
 70
    16
 62
     7
  6
Continuous
370
     0
390
1194
347
1197
  0
LAYER
  5
1277
330
11AB
100
AcDbSymbolTableRecord
100
AcDbLayerTableRecord
  2
Style 1  PCB layouts|Level 54
 70
    16
 62
     7
  6
Continuous
370
     0
390
1194
347
1197
  0
LAYER
  5
1278
330
11AB
100
AcDbSymbolTableRecord
100
AcDbLayerTableRecord
  2
Style 1  PCB layouts|Level 55
 70
    16
 62
     7
  6
Continuous
370
     0
390
1194
347
1197
  0
LAYER
  5
1279
330
11AB
100
AcDbSymbolTableRecord
100
AcDbLayerTableRecord
  2
Style 1  PCB layouts|Level 56
 70
    16
 62
     7
  6
Continuous
370
     0
390
1194
347
1197
  0
LAYER
  5
127A
330
11AB
100
AcDbSymbolTableRecord
100
AcDbLayerTableRecord
  2
Style 1  PCB layouts|Level 57
 70
    16
 62
     7
  6
Continuous
370
     0
390
1194
347
1197
  0
LAYER
  5
127B
330
11AB
100
AcDbSymbolTableRecord
100
AcDbLayerTableRecord
  2
Style 1  PCB layouts|Level 58
 70
    16
 62
     7
  6
Continuous
370
     0
390
1194
347
1197
  0
LAYER
  5
127C
330
11AB
100
AcDbSymbolTableRecord
100
AcDbLayerTableRecord
  2
Style 1  PCB layouts|Level 59
 70
    16
 62
     7
  6
Continuous
370
     0
390
1194
347
1197
  0
LAYER
  5
127D
330
11AB
100
AcDbSymbolTableRecord
100
AcDbLayerTableRecord
  2
Style 1  PCB layouts|Level 60
 70
    16
 62
     7
  6
Continuous
370
     0
390
1194
347
1197
  0
LAYER
  5
127E
330
11AB
100
AcDbSymbolTableRecord
100
AcDbLayerTableRecord
  2
Style 1  PCB layouts|Level 61
 70
    16
 62
     7
  6
Continuous
370
     0
390
1194
347
1197
  0
LAYER
  5
127F
330
11AB
100
AcDbSymbolTableRecord
100
AcDbLayerTableRecord
  2
Style 1  PCB layouts|Level 62
 70
    16
 62
     7
  6
Continuous
370
     0
390
1194
347
1197
  0
LAYER
  5
1280
330
11AB
100
AcDbSymbolTableRecord
100
AcDbLayerTableRecord
  2
Style 1  PCB layouts|Level 63
 70
    16
 62
     7
  6
Continuous
370
     0
390
1194
347
1197
  0
LAYER
  5
1297
330
11AB
100
AcDbSymbolTableRecord
100
AcDbLayerTableRecord
  2
Defpoints
 70
     0
 62
     7
  6
Continuous
290
     0
370
    -3
390
1194
347
1197
  0
ENDTAB
  0
TABLE
  2
STYLE
  5
11AE
330
0
100
AcDbSymbolTable
 70
     3
  0
STYLE
  5
11AF
330
11AE
100
AcDbSymbolTableRecord
100
AcDbTextStyleTableRecord
  2
Standard
 70
     0
 40
0.0
 41
1.0
 50
0.0
 71
     0
 42
0.03
  3
txt.shx
  4

  0
STYLE
  5
1286
330
11AE
100
AcDbSymbolTableRecord
100
AcDbTextStyleTableRecord
  2
Style-WORKING
 70
     0
 40
0.0
 41
1.0
 50
0.0
 71
     0
 42
0.03
  3
WORKING.shx
  4

  0
STYLE
  5
1289
330
11AE
100
AcDbSymbolTableRecord
100
AcDbTextStyleTableRecord
  2
Style-ANSI_SYMBOLS
 70
     0
 40
0.0
 41
1.0
 50
0.0
 71
     0
 42
0.03
  3
ANSI_SYMBOLS.shx
  4

  0
ENDTAB
  0
TABLE
  2
VIEW
  5
11B4
330
0
100
AcDbSymbolTable
 70
     2
  0
VIEW
  5
110
102
{ACAD_XDICTIONARY
360
1282
102
}
330
11B4
100
AcDbSymbolTableRecord
100
AcDbViewTableRecord
  2
VIEW 5
 70
     0
 40
11.630165
 10
-7.758911
 20
5.32565
 41
18.974736
 11
0.0
 21
0.0
 31
1.0
 12
0.0
 22
0.0
 32
0.0
 42
50.0
 43
0.001969
 44
-0.001969
 50
0.0
 71
    16
281
     0
 72
     0
 73
     0
348
11B8
  0
VIEW
  5
112
102
{ACAD_XDICTIONARY
360
1284
102
}
330
11B4
100
AcDbSymbolTableRecord
100
AcDbViewTableRecord
  2
V2
 70
     0
 40
13.786559
 10
9.249309
 20
6.341453
 41
18.16465
 11
0.0
 21
0.0
 31
1.0
 12
0.0
 22
0.0
 32
0.0
 42
50.0
 43
0.001969
 44
-0.001969
 50
0.0
 71
    16
281
     0
 72
     0
 73
     0
348
11B8
  0
ENDTAB
  0
TABLE
  2
UCS
  5
11B5
330
0
100
AcDbSymbolTable
 70
     0
  0
ENDTAB
  0
TABLE
  2
APPID
  5
11BA
330
0
100
AcDbSymbolTable
 70
     3
  0
APPID
  5
11BB
330
11BA
100
AcDbSymbolTableRecord
100
AcDbRegAppTableRecord
  2
ACAD
 70
     0
  0
APPID
  5
11AA
330
11BA
100
AcDbSymbolTableRecord
100
AcDbRegAppTableRecord
  2
ACAD_PSEXT
 70
     0
  0
APPID
  5
1589
330
11BA
100
AcDbSymbolTableRecord
100
AcDbRegAppTableRecord
  2
ACAD_MLEADERVER
 70
     0
  0
ENDTAB
  0
TABLE
  2
DIMSTYLE
  5
11BC
330
0
100
AcDbSymbolTable
 70
     1
100
AcDbDimStyleTable
 71
     1
340
11BD
  0
DIMSTYLE
105
11BD
102
{ACAD_REACTORS
330
7CB
330
7CC
330
7CD
330
7CE
330
1176
330
7CA
330
7D0
330
7D2
330
7CF
102
}
330
11BC
100
AcDbSymbolTableRecord
100
AcDbDimStyleTableRecord
  2
Standard
 70
     0
 42
0.0625
 44
0.18
147
0.09
340
11AF
  0
ENDTAB
  0
TABLE
  2
BLOCK_RECORD
  5
1190
330
0
100
AcDbSymbolTable
 70
    26
  0
BLOCK_RECORD
  5
1191
102
{ACAD_XDICTIONARY
360
1376
102
}
330
1190
100
AcDbSymbolTableRecord
100
AcDbBlockTableRecord
  2
*Model_Space
340
11A2
 70
     0
280
     1
281
     0
  0
BLOCK_RECORD
  5
11A4
102
{ACAD_XDICTIONARY
360
1705
102
}
330
1190
100
AcDbSymbolTableRecord
100
AcDbBlockTableRecord
  2
*Paper_Space
340
11A7
 70
     0
280
     1
281
     0
  0
BLOCK_RECORD
  5
11FD
330
1190
100
AcDbSymbolTableRecord
100
AcDbBlockTableRecord
  2
umiborder
340
0
102
{BLKREFS
331
6F0
102
}
 70
     0
280
     1
281
     0
  0
BLOCK_RECORD
  5
123F
330
1190
100
AcDbSymbolTableRecord
100
AcDbBlockTableRecord
  2
Style 1  PCB layouts
340
0
102
{BLKREFS
331
73A
102
}
 70
     0
280
     1
281
     0
  0
BLOCK_RECORD
  5
128B
330
1190
100
AcDbSymbolTableRecord
100
AcDbBlockTableRecord
  2
*D2
340
0
 70
     0
280
     1
281
     0
  0
BLOCK_RECORD
  5
129C
330
1190
100
AcDbSymbolTableRecord
100
AcDbBlockTableRecord
  2
*D3
340
0
 70
     0
280
     1
281
     0
  0
BLOCK_RECORD
  5
12A9
330
1190
100
AcDbSymbolTableRecord
100
AcDbBlockTableRecord
  2
*D4
340
0
 70
     0
280
     1
281
     0
  0
BLOCK_RECORD
  5
12B9
330
1190
100
AcDbSymbolTableRecord
100
AcDbBlockTableRecord
  2
*D5
340
0
 70
     0
280
     1
281
     0
  0
BLOCK_RECORD
  5
12C6
330
1190
100
AcDbSymbolTableRecord
100
AcDbBlockTableRecord
  2
*D6
340
0
 70
     0
280
     1
281
     0
  0
BLOCK_RECORD
  5
12D6
330
1190
100
AcDbSymbolTableRecord
100
AcDbBlockTableRecord
  2
*D7
340
0
 70
     0
280
     1
281
     0
  0
BLOCK_RECORD
  5
12E4
330
1190
100
AcDbSymbolTableRecord
100
AcDbBlockTableRecord
  2
*D8
340
0
 70
     0
280
     1
281
     0
  0
BLOCK_RECORD
  5
12F4
330
1190
100
AcDbSymbolTableRecord
100
AcDbBlockTableRecord
  2
*D9
340
0
 70
     0
280
     1
281
     0
  0
BLOCK_RECORD
  5
1302
330
1190
100
AcDbSymbolTableRecord
100
AcDbBlockTableRecord
  2
*D10
340
0
 70
     0
280
     1
281
     0
  0
BLOCK_RECORD
  5
1312
330
1190
100
AcDbSymbolTableRecord
100
AcDbBlockTableRecord
  2
*D11
340
0
 70
     0
280
     1
281
     0
  0
BLOCK_RECORD
  5
131F
330
1190
100
AcDbSymbolTableRecord
100
AcDbBlockTableRecord
  2
*D12
340
0
 70
     0
280
     1
281
     0
  0
BLOCK_RECORD
  5
132F
330
1190
100
AcDbSymbolTableRecord
100
AcDbBlockTableRecord
  2
*D13
340
0
 70
     0
280
     1
281
     0
  0
BLOCK_RECORD
  5
133C
330
1190
100
AcDbSymbolTableRecord
100
AcDbBlockTableRecord
  2
*D14
340
0
 70
     0
280
     1
281
     0
  0
BLOCK_RECORD
  5
134C
330
1190
100
AcDbSymbolTableRecord
100
AcDbBlockTableRecord
  2
*D15
340
0
 70
     0
280
     1
281
     0
  0
BLOCK_RECORD
  5
1359
330
1190
100
AcDbSymbolTableRecord
100
AcDbBlockTableRecord
  2
*D16
340
0
 70
     0
280
     1
281
     0
  0
BLOCK_RECORD
  5
1369
330
1190
100
AcDbSymbolTableRecord
100
AcDbBlockTableRecord
  2
*D17
340
0
 70
     0
280
     1
281
     0
  0
BLOCK_RECORD
  5
1492
330
1190
100
AcDbSymbolTableRecord
100
AcDbBlockTableRecord
  2
*D18
340
0
 70
     0
280
     1
281
     0
  0
BLOCK_RECORD
  5
14AD
330
1190
100
AcDbSymbolTableRecord
100
AcDbBlockTableRecord
  2
*D19
340
0
 70
     0
280
     1
281
     0
  0
BLOCK_RECORD
  5
14C8
330
1190
100
AcDbSymbolTableRecord
100
AcDbBlockTableRecord
  2
*D20
340
0
 70
     0
280
     1
281
     0
  0
BLOCK_RECORD
  5
182D
330
1190
100
AcDbSymbolTableRecord
100
AcDbBlockTableRecord
  2
*D21
340
0
 70
     0
280
     1
281
     0
  0
BLOCK_RECORD
  5
1848
330
1190
100
AcDbSymbolTableRecord
100
AcDbBlockTableRecord
  2
*D22
340
0
 70
     0
280
     1
281
     0
  0
BLOCK_RECORD
  5
1A08
330
1190
100
AcDbSymbolTableRecord
100
AcDbBlockTableRecord
  2
*D23
340
0
 70
     0
280
     1
281
     0
  0
BLOCK_RECORD
  5
1BCA
330
1190
100
AcDbSymbolTableRecord
100
AcDbBlockTableRecord
  2
*D24
340
0
 70
     0
280
     1
281
     0
  0
BLOCK_RECORD
  5
2067
330
1190
100
AcDbSymbolTableRecord
100
AcDbBlockTableRecord
  2
*D25
340
0
 70
     0
280
     1
281
     0
  0
ENDTAB
  0
ENDSEC
  0
SECTION
  2
BLOCKS
  0
BLOCK
  5
1192
330
1191
100
AcDbEntity
  8
0
100
AcDbBlockBegin
  2
*Model_Space
 70
     0
 10
0.0
 20
0.0
 30
0.0
  3
*Model_Space
  1

  0
ENDBLK
  5
11A1
330
1191
100
AcDbEntity
  8
0
100
AcDbBlockEnd
  0
BLOCK
  5
11A5
330
11A4
100
AcDbEntity
 67
     1
  8
0
100
AcDbBlockBegin
  2
*Paper_Space
 70
     0
 10
0.0
 20
0.0
 30
0.0
  3
*Paper_Space
  1

  0
ENDBLK
  5
11A6
330
11A4
100
AcDbEntity
 67
     1
  8
0
100
AcDbBlockEnd
  0
BLOCK
  5
11FE
330
11FD
100
AcDbEntity
  8
0
100
AcDbBlockBegin
  2
umiborder
 70
     4
 71
     1
 10
0.0
 20
0.0
 30
0.0
  3
umiborder
  1
C:\D DRIVE\MSTRDWG\umiborder.dwg
  0
ENDBLK
  5
11FF
330
11FD
100
AcDbEntity
  8
0
100
AcDbBlockEnd
  0
BLOCK
  5
1240
330
123F
100
AcDbEntity
  8
0
100
AcDbBlockBegin
  2
Style 1  PCB layouts
 70
     4
 71
     1
 10
0.0
 20
0.0
 30
0.0
  3
Style 1  PCB layouts
  1
C:\D drive\mstrdwg\pdf catalog drawings\cad files\Style 1  PCB layouts.dwg
  0
ENDBLK
  5
1241
330
123F
100
AcDbEntity
  8
0
100
AcDbBlockEnd
  0
BLOCK
  5
1295
330
128B
100
AcDbEntity
  8
0
 62
     7
370
     0
100
AcDbBlockBegin
  2
*D2
 70
     1
 10
0.0
 20
0.0
 30
0.0
  3
*D2
  1

  0
TEXT
  5
128C
330
128B
100
AcDbEntity
  8
Level 55
  6
Continuous
 62
     7
370
     0
100
AcDbText
 10
-9.326041
 20
3.341302
 30
0.0
 40
0.03
  1
.715
 41
0.916667
  7
Style-WORKING
 11
-9.326041
 21
3.356302
 31
0.0
100
AcDbText
 73
     2
  0
TEXT
  5
128E
330
128B
100
AcDbEntity
  8
Level 55
  6
Continuous
 62
     7
370
     0
100
AcDbText
 10
-9.33308
 20
3.281302
 30
0.0
 40
0.03
  1
18.16
 41
0.916667
  7
Style-WORKING
 11
-9.33308
 21
3.296302
 31
0.0
100
AcDbText
 73
     2
  0
LINE
  5
128F
330
128B
100
AcDbEntity
  8
Level 55
  6
Continuous
 62
     7
370
     0
100
AcDbLine
 10
-9.33308
 20
3.326302
 30
0.0
 11
-9.243454
 21
3.326302
 31
0.0
  0
LINE
  5
1290
330
128B
100
AcDbEntity
  8
Level 55
  6
Continuous
 62
     7
370
     0
100
AcDbLine
 10
-8.887756
 20
3.326302
 30
0.0
 11
-9.602756
 21
3.326302
 31
0.0
  0
SOLID
  5
1291
330
128B
100
AcDbEntity
  8
Level 55
  6
Continuous
 62
     7
370
     0
100
AcDbTrace
 10
8.932756
 20
3.333802
 30
0.0
 11
8.887756
 21
3.326302
 31
0.0
 12
8.932756
 22
3.318802
 32
0.0
 13
8.932756
 23
3.318802
 33
0.0
210
0.0
220
0.0
230
-1.0
  0
SOLID
  5
1292
330
128B
100
AcDbEntity
  8
Level 55
  6
Continuous
 62
     7
370
     0
100
AcDbTrace
 10
-9.557756
 20
3.318802
 30
0.0
 11
-9.602756
 21
3.326302
 31
0.0
 12
-9.557756
 22
3.333802
 32
0.0
 13
-9.557756
 23
3.333802
 33
0.0
  0
LINE
  5
1293
330
128B
100
AcDbEntity
  8
Level 55
  6
Continuous
 62
     7
370
     0
100
AcDbLine
 10
-8.887756
 20
3.134529
 30
0.0
 11
-8.887756
 21
3.341302
 31
0.0
  0
LINE
  5
1294
330
128B
100
AcDbEntity
  8
Level 55
  6
Continuous
 62
     7
370
     0
100
AcDbLine
 10
-9.602756
 20
3.134529
 30
0.0
 11
-9.602756
 21
3.341302
 31
0.0
  0
POINT
  5
1298
330
128B
100
AcDbEntity
  8
Defpoints
  6
Continuous
 62
     7
370
     0
100
AcDbPoint
 10
-9.602756
 20
3.326302
 30
0.0
  0
POINT
  5
1299
330
128B
100
AcDbEntity
  8
Defpoints
  6
Continuous
 62
     7
370
     0
100
AcDbPoint
 10
-8.887756
 20
3.116529
 30
0.0
  0
POINT
  5
129A
330
128B
100
AcDbEntity
  8
Defpoints
  6
Continuous
 62
     7
370
     0
100
AcDbPoint
 10
-9.602756
 20
3.116529
 30
0.0
  0
POINT
  5
129B
330
128B
100
AcDbEntity
  8
Defpoints
  6
Continuous
 62
     7
370
     0
100
AcDbPoint
 10
-9.288267
 20
3.326302
 30
0.0
  0
ENDBLK
  5
1296
330
128B
100
AcDbEntity
  8
0
 62
     7
370
     0
100
AcDbBlockEnd
  0
BLOCK
  5
129D
330
129C
100
AcDbEntity
  8
0
 62
     7
370
     0
100
AcDbBlockBegin
  2
*D3
 70
     1
 10
0.0
 20
0.0
 30
0.0
  3
*D3
  1

  0
LINE
  5
21DA
330
129C
100
AcDbEntity
  8
Level 55
  6
Continuous
 62
     0
370
    -2
100
AcDbLine
 10
-8.887756
 20
3.134529
 30
0.0
 11
-8.887756
 21
3.341302
 31
0.0
  0
LINE
  5
21DB
330
129C
100
AcDbEntity
  8
Level 55
  6
Continuous
 62
     0
370
    -2
100
AcDbLine
 10
-9.602756
 20
3.134529
 30
0.0
 11
-9.602756
 21
3.341302
 31
0.0
  0
LINE
  5
21DC
330
129C
100
AcDbEntity
  8
Level 55
  6
Continuous
 62
     0
370
    -2
100
AcDbLine
 10
-8.932756
 20
3.326302
 30
0.0
 11
-9.202442
 21
3.326302
 31
0.0
  0
LINE
  5
21DD
330
129C
100
AcDbEntity
  8
Level 55
  6
Continuous
 62
     0
370
    -2
100
AcDbLine
 10
-9.557756
 20
3.326302
 30
0.0
 11
-9.374092
 21
3.326302
 31
0.0
  0
SOLID
  5
21DE
330
129C
100
AcDbEntity
  8
Level 55
  6
Continuous
 62
     0
370
     0
100
AcDbTrace
 10
-8.932756
 20
3.333802
 30
0.0
 11
-8.932756
 21
3.318802
 31
0.0
 12
-8.887756
 22
3.326302
 32
0.0
 13
-8.887756
 23
3.326302
 33
0.0
  0
SOLID
  5
21DF
330
129C
100
AcDbEntity
  8
Level 55
  6
Continuous
 62
     0
370
     0
100
AcDbTrace
 10
-9.557756
 20
3.333802
 30
0.0
 11
-9.557756
 21
3.318802
 31
0.0
 12
-9.602756
 22
3.326302
 32
0.0
 13
-9.602756
 23
3.326302
 33
0.0
  0
MTEXT
  5
21E0
330
129C
100
AcDbEntity
  8
Level 55
  6
Continuous
 62
     0
370
     0
100
AcDbMText
 10
-9.288267
 20
3.326302
 30
0.0
 40
0.03
 41
0.0
 46
0.0
 71
     5
 72
     1
  1
\H1x;\W0.916667;.715\P [18.16]\H1x;\W0.916667;
  7
Style-WORKING
 73
     1
 44
1.0
  0
POINT
  5
21E1
330
129C
100
AcDbEntity
  8
Defpoints
  6
Continuous
 62
     0
370
     0
100
AcDbPoint
 10
-8.887756
 20
3.116529
 30
0.0
  0
POINT
  5
21E2
330
129C
100
AcDbEntity
  8
Defpoints
  6
Continuous
 62
     0
370
     0
100
AcDbPoint
 10
-9.602756
 20
3.116529
 30
0.0
  0
POINT
  5
21E3
330
129C
100
AcDbEntity
  8
Defpoints
  6
Continuous
 62
     0
370
     0
100
AcDbPoint
 10
-9.602756
 20
3.326302
 30
0.0
  0
ENDBLK
  5
129E
330
129C
100
AcDbEntity
  8
0
 62
     7
370
     0
100
AcDbBlockEnd
  0
BLOCK
  5
12B3
330
12A9
100
AcDbEntity
  8
0
 62
     7
370
     0
100
AcDbBlockBegin
  2
*D4
 70
     1
 10
0.0
 20
0.0
 30
0.0
  3
*D4
  1

  0
TEXT
  5
12AA
330
12A9
100
AcDbEntity
  8
Level 55
  6
Continuous
 62
     7
370
     0
100
AcDbText
 10
-9.024161
 20
3.241036
 30
0.0
 40
0.03
  1
.183
 41
0.916667
  7
Style-WORKING
 11
-9.024161
 21
3.256036
 31
0.0
100
AcDbText
 73
     2
  0
TEXT
  5
12AB
330
12A9
100
AcDbEntity
  8
Level 55
  6
Continuous
 62
     7
370
     0
100
AcDbText
 10
-9.030111
 20
3.181036
 30
0.0
 40
0.03
  1
4.63
 41
0.916667
  7
Style-WORKING
 11
-9.030111
 21
3.196036
 31
0.0
100
AcDbText
 73
     2
  0
LINE
  5
12AC
330
12A9
100
AcDbEntity
  8
Level 55
  6
Continuous
 62
     7
370
     0
100
AcDbLine
 10
-9.030111
 20
3.226036
 30
0.0
 11
-8.942871
 21
3.226036
 31
0.0
  0
LINE
  5
12AD
330
12A9
100
AcDbEntity
  8
Level 55
  6
Continuous
 62
     7
370
     0
100
AcDbLine
 10
-8.819006
 20
3.226036
 30
0.0
 11
-8.887756
 21
3.226036
 31
0.0
  0
LINE
  5
12AE
330
12A9
100
AcDbEntity
  8
Level 55
  6
Continuous
 62
     7
370
     0
100
AcDbLine
 10
-9.138756
 20
3.226036
 30
0.0
 11
-9.070006
 21
3.226036
 31
0.0
  0
SOLID
  5
12AF
330
12A9
100
AcDbEntity
  8
Level 55
  6
Continuous
 62
     7
370
     0
100
AcDbTrace
 10
-8.842756
 20
3.218536
 30
0.0
 11
-8.887756
 21
3.226036
 31
0.0
 12
-8.842756
 22
3.233536
 32
0.0
 13
-8.842756
 23
3.233536
 33
0.0
  0
SOLID
  5
12B0
330
12A9
100
AcDbEntity
  8
Level 55
  6
Continuous
 62
     7
370
     0
100
AcDbTrace
 10
9.115006
 20
3.233536
 30
0.0
 11
9.070006
 21
3.226036
 31
0.0
 12
9.115006
 22
3.218536
 32
0.0
 13
9.115006
 23
3.218536
 33
0.0
210
0.0
220
0.0
230
-1.0
  0
LINE
  5
12B1
330
12A9
100
AcDbEntity
  8
Level 55
  6
Continuous
 62
     7
370
     0
100
AcDbLine
 10
-8.887756
 20
3.134529
 30
0.0
 11
-8.887756
 21
3.241036
 31
0.0
  0
LINE
  5
12B2
330
12A9
100
AcDbEntity
  8
Level 55
  6
Continuous
 62
     7
370
     0
100
AcDbLine
 10
-9.070006
 20
3.112255
 30
0.0
 11
-9.070006
 21
3.241036
 31
0.0
  0
POINT
  5
12B5
330
12A9
100
AcDbEntity
  8
Defpoints
  6
Continuous
 62
     7
370
     0
100
AcDbPoint
 10
-9.070006
 20
3.226036
 30
0.0
  0
POINT
  5
12B6
330
12A9
100
AcDbEntity
  8
Defpoints
  6
Continuous
 62
     7
370
     0
100
AcDbPoint
 10
-8.887756
 20
3.116529
 30
0.0
  0
POINT
  5
12B7
330
12A9
100
AcDbEntity
  8
Defpoints
  6
Continuous
 62
     7
370
     0
100
AcDbPoint
 10
-9.070006
 20
3.094255
 30
0.0
  0
POINT
  5
12B8
330
12A9
100
AcDbEntity
  8
Defpoints
  6
Continuous
 62
     7
370
     0
100
AcDbPoint
 10
-8.986491
 20
3.226036
 30
0.0
  0
ENDBLK
  5
12B4
330
12A9
100
AcDbEntity
  8
0
 62
     7
370
     0
100
AcDbBlockEnd
  0
BLOCK
  5
12BA
330
12B9
100
AcDbEntity
  8
0
 62
     7
370
     0
100
AcDbBlockBegin
  2
*D5
 70
     1
 10
0.0
 20
0.0
 30
0.0
  3
*D5
  1

  0
LINE
  5
1449
330
12B9
100
AcDbEntity
  8
Level 55
  6
Continuous
 62
     0
370
    -2
100
AcDbLine
 10
-8.887756
 20
3.134529
 30
0.0
 11
-8.887756
 21
3.241036
 31
0.0
  0
LINE
  5
144A
330
12B9
100
AcDbEntity
  8
Level 55
  6
Continuous
 62
     0
370
    -2
100
AcDbLine
 10
-9.070006
 20
3.112255
 30
0.0
 11
-9.070006
 21
3.241036
 31
0.0
  0
LINE
  5
144B
330
12B9
100
AcDbEntity
  8
Level 55
  6
Continuous
 62
     0
370
    -2
100
AcDbLine
 10
-8.842756
 20
3.226036
 30
0.0
 11
-8.797756
 21
3.226036
 31
0.0
  0
LINE
  5
144C
330
12B9
100
AcDbEntity
  8
Level 55
  6
Continuous
 62
     0
370
    -2
100
AcDbLine
 10
-9.115006
 20
3.226036
 30
0.0
 11
-9.160006
 21
3.226036
 31
0.0
  0
SOLID
  5
144D
330
12B9
100
AcDbEntity
  8
Level 55
  6
Continuous
 62
     0
370
     0
100
AcDbTrace
 10
-8.842756
 20
3.233536
 30
0.0
 11
-8.842756
 21
3.218536
 31
0.0
 12
-8.887756
 22
3.226036
 32
0.0
 13
-8.887756
 23
3.226036
 33
0.0
  0
SOLID
  5
144E
330
12B9
100
AcDbEntity
  8
Level 55
  6
Continuous
 62
     0
370
     0
100
AcDbTrace
 10
-9.115006
 20
3.233536
 30
0.0
 11
-9.115006
 21
3.218536
 31
0.0
 12
-9.070006
 22
3.226036
 32
0.0
 13
-9.070006
 23
3.226036
 33
0.0
  0
MTEXT
  5
144F
330
12B9
100
AcDbEntity
  8
Level 55
  6
Continuous
 62
     0
370
     0
100
AcDbMText
 10
-8.986491
 20
3.226036
 30
0.0
 40
0.03
 41
0.0
 46
0.0
 71
     5
 72
     1
  1
\H1x;\W0.916667;.183\P\H1x;\W0.916667;
  7
Style-WORKING
 73
     1
 44
1.0
  0
POINT
  5
1450
330
12B9
100
AcDbEntity
  8
Defpoints
  6
Continuous
 62
     0
370
     0
100
AcDbPoint
 10
-8.887756
 20
3.116529
 30
0.0
  0
POINT
  5
1451
330
12B9
100
AcDbEntity
  8
Defpoints
  6
Continuous
 62
     0
370
     0
100
AcDbPoint
 10
-9.070006
 20
3.094255
 30
0.0
  0
POINT
  5
1452
330
12B9
100
AcDbEntity
  8
Defpoints
  6
Continuous
 62
     0
370
     0
100
AcDbPoint
 10
-9.070006
 20
3.226036
 30
0.0
  0
ENDBLK
  5
12BB
330
12B9
100
AcDbEntity
  8
0
 62
     7
370
     0
100
AcDbBlockEnd
  0
BLOCK
  5
12D0
330
12C6
100
AcDbEntity
  8
0
 62
     7
370
     0
100
AcDbBlockBegin
  2
*D6
 70
     1
 10
0.0
 20
0.0
 30
0.0
  3
*D6
  1

  0
TEXT
  5
12C7
330
12C6
100
AcDbEntity
  8
Level 55
  6
Continuous
 62
     7
370
     0
100
AcDbText
 10
-8.680932
 20
3.221911
 30
0.0
 40
0.03
  1
.075 TYP
 41
0.916667
  7
Style-WORKING
 11
-8.680932
 21
3.236911
 31
0.0
100
AcDbText
 73
     2
  0
TEXT
  5
12C8
330
12C6
100
AcDbEntity
  8
Level 55
  6
Continuous
 62
     7
370
     0
100
AcDbText
 10
-8.604284
 20
3.161911
 30
0.0
 40
0.03
  1
1.9
 41
0.916667
  7
Style-WORKING
 11
-8.604284
 21
3.176911
 31
0.0
100
AcDbText
 73
     2
  0
LINE
  5
12C9
330
12C6
100
AcDbEntity
  8
Level 55
  6
Continuous
 62
     7
370
     0
100
AcDbLine
 10
-8.680932
 20
3.206911
 30
0.0
 11
-8.481097
 21
3.206911
 31
0.0
  0
LINE
  5
12CA
330
12C6
100
AcDbEntity
  8
Level 55
  6
Continuous
 62
     7
370
     0
100
AcDbLine
 10
-8.581014
 20
3.152911
 30
0.0
 11
-8.581014
 21
3.094255
 31
0.0
  0
LINE
  5
12CB
330
12C6
100
AcDbEntity
  8
Level 55
  6
Continuous
 62
     7
370
     0
100
AcDbLine
 10
-8.581014
 20
2.950505
 30
0.0
 11
-8.581014
 21
3.019255
 31
0.0
  0
SOLID
  5
12CC
330
12C6
100
AcDbEntity
  8
Level 55
  6
Continuous
 62
     7
370
     0
100
AcDbTrace
 10
-8.573514
 20
3.139255
 30
0.0
 11
-8.581014
 21
3.094255
 31
0.0
 12
-8.588514
 22
3.139255
 32
0.0
 13
-8.588514
 23
3.139255
 33
0.0
  0
SOLID
  5
12CD
330
12C6
100
AcDbEntity
  8
Level 55
  6
Continuous
 62
     7
370
     0
100
AcDbTrace
 10
8.588514
 20
2.974255
 30
0.0
 11
8.581014
 21
3.019255
 31
0.0
 12
8.573514
 22
2.974255
 32
0.0
 13
8.573514
 23
2.974255
 33
0.0
210
0.0
220
0.0
230
-1.0
  0
LINE
  5
12CE
330
12C6
100
AcDbEntity
  8
Level 55
  6
Continuous
 62
     7
370
     0
100
AcDbLine
 10
-9.052006
 20
3.094255
 30
0.0
 11
-8.566014
 21
3.094255
 31
0.0
  0
LINE
  5
12CF
330
12C6
100
AcDbEntity
  8
Level 55
  6
Continuous
 62
     7
370
     0
100
AcDbLine
 10
-9.077006
 20
3.019255
 30
0.0
 11
-8.566014
 21
3.019255
 31
0.0
  0
POINT
  5
12D2
330
12C6
100
AcDbEntity
  8
Defpoints
  6
Continuous
 62
     7
370
     0
100
AcDbPoint
 10
-8.581014
 20
3.019255
 30
0.0
  0
POINT
  5
12D3
330
12C6
100
AcDbEntity
  8
Defpoints
  6
Continuous
 62
     7
370
     0
100
AcDbPoint
 10
-9.070006
 20
3.094255
 30
0.0
  0
POINT
  5
12D4
330
12C6
100
AcDbEntity
  8
Defpoints
  6
Continuous
 62
     7
370
     0
100
AcDbPoint
 10
-9.095006
 20
3.019255
 30
0.0
  0
POINT
  5
12D5
330
12C6
100
AcDbEntity
  8
Defpoints
  6
Continuous
 62
     7
370
     0
100
AcDbPoint
 10
-8.581014
 20
3.206911
 30
0.0
  0
ENDBLK
  5
12D1
330
12C6
100
AcDbEntity
  8
0
 62
     7
370
     0
100
AcDbBlockEnd
  0
BLOCK
  5
12D7
330
12D6
100
AcDbEntity
  8
0
 62
     7
370
     0
100
AcDbBlockBegin
  2
*D7
 70
     1
 10
0.0
 20
0.0
 30
0.0
  3
*D7
  1

  0
LINE
  5
1453
330
12D6
100
AcDbEntity
  8
Level 55
  6
Continuous
 62
     0
370
    -2
100
AcDbLine
 10
-9.052006
 20
3.094255
 30
0.0
 11
-8.73929
 21
3.094255
 31
0.0
  0
LINE
  5
1454
330
12D6
100
AcDbEntity
  8
Level 55
  6
Continuous
 62
     0
370
    -2
100
AcDbLine
 10
-9.077006
 20
3.019255
 30
0.0
 11
-8.73929
 21
3.019255
 31
0.0
  0
LINE
  5
1455
330
12D6
100
AcDbEntity
  8
Level 55
  6
Continuous
 62
     0
370
    -2
100
AcDbLine
 10
-8.75429
 20
2.974255
 30
0.0
 11
-8.75429
 21
2.929255
 31
0.0
  0
LINE
  5
1456
330
12D6
100
AcDbEntity
  8
Level 55
  6
Continuous
 62
     0
370
    -2
100
AcDbLine
 10
-8.75429
 20
3.139255
 30
0.0
 11
-8.75429
 21
3.206911
 31
0.0
  0
LINE
  5
1457
330
12D6
100
AcDbEntity
  8
Level 55
  6
Continuous
 62
     0
370
    -2
100
AcDbLine
 10
-8.75429
 20
3.206911
 30
0.0
 11
-8.70929
 21
3.206911
 31
0.0
  0
SOLID
  5
1458
330
12D6
100
AcDbEntity
  8
Level 55
  6
Continuous
 62
     0
370
     0
100
AcDbTrace
 10
-8.76179
 20
2.974255
 30
0.0
 11
-8.74679
 21
2.974255
 31
0.0
 12
-8.75429
 22
3.019255
 32
0.0
 13
-8.75429
 23
3.019255
 33
0.0
  0
SOLID
  5
1459
330
12D6
100
AcDbEntity
  8
Level 55
  6
Continuous
 62
     0
370
     0
100
AcDbTrace
 10
-8.76179
 20
3.139255
 30
0.0
 11
-8.74679
 21
3.139255
 31
0.0
 12
-8.75429
 22
3.094255
 32
0.0
 13
-8.75429
 23
3.094255
 33
0.0
  0
MTEXT
  5
145A
330
12D6
100
AcDbEntity
  8
Level 55
  6
Continuous
 62
     0
370
     0
100
AcDbMText
 10
-8.581014
 20
3.206911
 30
0.0
 40
0.03
 41
0.0
 46
0.0
 71
     5
 72
     1
  1
\H1x;\W0.916667;.075\P [1.91] TYP\H1x;\W0.916667;
  7
Style-WORKING
 73
     1
 44
1.0
  0
POINT
  5
145B
330
12D6
100
AcDbEntity
  8
Defpoints
  6
Continuous
 62
     0
370
     0
100
AcDbPoint
 10
-9.070006
 20
3.094255
 30
0.0
  0
POINT
  5
145C
330
12D6
100
AcDbEntity
  8
Defpoints
  6
Continuous
 62
     0
370
     0
100
AcDbPoint
 10
-9.095006
 20
3.019255
 30
0.0
  0
POINT
  5
145D
330
12D6
100
AcDbEntity
  8
Defpoints
  6
Continuous
 62
     0
370
     0
100
AcDbPoint
 10
-8.75429
 20
3.019255
 30
0.0
  0
ENDBLK
  5
12D8
330
12D6
100
AcDbEntity
  8
0
 62
     7
370
     0
100
AcDbBlockEnd
  0
BLOCK
  5
12EE
330
12E4
100
AcDbEntity
  8
0
 62
     7
370
     0
100
AcDbBlockBegin
  2
*D8
 70
     1
 10
0.0
 20
0.0
 30
0.0
  3
*D8
  1

  0
TEXT
  5
12E5
330
12E4
100
AcDbEntity
  8
Level 55
  6
Continuous
 62
     7
370
     0
100
AcDbText
 10
-8.781356
 20
2.941924
 30
0.0
 40
0.03
  1
.038
 41
0.916667
  7
Style-WORKING
 11
-8.781356
 21
2.956924
 31
0.0
100
AcDbText
 73
     2
  0
TEXT
  5
12E6
330
12E4
100
AcDbEntity
  8
Level 55
  6
Continuous
 62
     7
370
     0
100
AcDbText
 10
-8.767062
 20
2.881924
 30
0.0
 40
0.03
  1
.95
 41
0.916667
  7
Style-WORKING
 11
-8.767062
 21
2.896924
 31
0.0
100
AcDbText
 73
     2
  0
LINE
  5
12E7
330
12E4
100
AcDbEntity
  8
Level 55
  6
Continuous
 62
     7
370
     0
100
AcDbLine
 10
-8.781356
 20
2.926924
 30
0.0
 11
-8.694324
 21
2.926924
 31
0.0
  0
LINE
  5
12E8
330
12E4
100
AcDbEntity
  8
Level 55
  6
Continuous
 62
     7
370
     0
100
AcDbLine
 10
-8.73784
 20
2.980924
 30
0.0
 11
-8.73784
 21
3.056754
 31
0.0
  0
LINE
  5
12E9
330
12E4
100
AcDbEntity
  8
Level 55
  6
Continuous
 62
     7
370
     0
100
AcDbLine
 10
-8.73784
 20
3.163005
 30
0.0
 11
-8.73784
 21
3.094255
 31
0.0
  0
SOLID
  5
12EA
330
12E4
100
AcDbEntity
  8
Level 55
  6
Continuous
 62
     7
370
     0
100
AcDbTrace
 10
8.74534
 20
3.011754
 30
0.0
 11
8.73784
 21
3.056754
 31
0.0
 12
8.73034
 22
3.011754
 32
0.0
 13
8.73034
 23
3.011754
 33
0.0
210
0.0
220
0.0
230
-1.0
  0
SOLID
  5
12EB
330
12E4
100
AcDbEntity
  8
Level 55
  6
Continuous
 62
     7
370
     0
100
AcDbTrace
 10
-8.73034
 20
3.139255
 30
0.0
 11
-8.73784
 21
3.094255
 31
0.0
 12
-8.74534
 22
3.139255
 32
0.0
 13
-8.74534
 23
3.139255
 33
0.0
  0
LINE
  5
12EC
330
12E4
100
AcDbEntity
  8
Level 55
  6
Continuous
 62
     7
370
     0
100
AcDbLine
 10
-8.811216
 20
3.056754
 30
0.0
 11
-8.72284
 21
3.056754
 31
0.0
  0
LINE
  5
12ED
330
12E4
100
AcDbEntity
  8
Level 55
  6
Continuous
 62
     7
370
     0
100
AcDbLine
 10
-9.052006
 20
3.094255
 30
0.0
 11
-8.72284
 21
3.094255
 31
0.0
  0
POINT
  5
12F0
330
12E4
100
AcDbEntity
  8
Defpoints
  6
Continuous
 62
     7
370
     0
100
AcDbPoint
 10
-8.73784
 20
3.094255
 30
0.0
  0
POINT
  5
12F1
330
12E4
100
AcDbEntity
  8
Defpoints
  6
Continuous
 62
     7
370
     0
100
AcDbPoint
 10
-8.829216
 20
3.056754
 30
0.0
  0
POINT
  5
12F2
330
12E4
100
AcDbEntity
  8
Defpoints
  6
Continuous
 62
     7
370
     0
100
AcDbPoint
 10
-9.070006
 20
3.094255
 30
0.0
  0
POINT
  5
12F3
330
12E4
100
AcDbEntity
  8
Defpoints
  6
Continuous
 62
     7
370
     0
100
AcDbPoint
 10
-8.73784
 20
2.926924
 30
0.0
  0
ENDBLK
  5
12EF
330
12E4
100
AcDbEntity
  8
0
 62
     7
370
     0
100
AcDbBlockEnd
  0
BLOCK
  5
12F5
330
12F4
100
AcDbEntity
  8
0
 62
     7
370
     0
100
AcDbBlockBegin
  2
*D9
 70
     1
 10
0.0
 20
0.0
 30
0.0
  3
*D9
  1

  0
LINE
  5
145E
330
12F4
100
AcDbEntity
  8
Level 55
  6
Continuous
 62
     0
370
    -2
100
AcDbLine
 10
-8.811216
 20
3.056754
 30
0.0
 11
-8.607511
 21
3.056754
 31
0.0
  0
LINE
  5
145F
330
12F4
100
AcDbEntity
  8
Level 55
  6
Continuous
 62
     0
370
    -2
100
AcDbLine
 10
-9.052006
 20
3.094255
 30
0.0
 11
-8.607511
 21
3.094255
 31
0.0
  0
LINE
  5
1460
330
12F4
100
AcDbEntity
  8
Level 55
  6
Continuous
 62
     0
370
    -2
100
AcDbLine
 10
-8.622511
 20
3.139255
 30
0.0
 11
-8.622511
 21
3.184255
 31
0.0
  0
LINE
  5
1461
330
12F4
100
AcDbEntity
  8
Level 55
  6
Continuous
 62
     0
370
    -2
100
AcDbLine
 10
-8.622511
 20
3.011754
 30
0.0
 11
-8.622511
 21
2.926924
 31
0.0
  0
LINE
  5
1462
330
12F4
100
AcDbEntity
  8
Level 55
  6
Continuous
 62
     0
370
    -2
100
AcDbLine
 10
-8.622511
 20
2.926924
 30
0.0
 11
-8.667511
 21
2.926924
 31
0.0
  0
SOLID
  5
1463
330
12F4
100
AcDbEntity
  8
Level 55
  6
Continuous
 62
     0
370
     0
100
AcDbTrace
 10
-8.630011
 20
3.139255
 30
0.0
 11
-8.615011
 21
3.139255
 31
0.0
 12
-8.622511
 22
3.094255
 32
0.0
 13
-8.622511
 23
3.094255
 33
0.0
  0
SOLID
  5
1464
330
12F4
100
AcDbEntity
  8
Level 55
  6
Continuous
 62
     0
370
     0
100
AcDbTrace
 10
-8.630011
 20
3.011754
 30
0.0
 11
-8.615011
 21
3.011754
 31
0.0
 12
-8.622511
 22
3.056754
 32
0.0
 13
-8.622511
 23
3.056754
 33
0.0
  0
MTEXT
  5
1465
330
12F4
100
AcDbEntity
  8
Level 55
  6
Continuous
 62
     0
370
     0
100
AcDbMText
 10
-8.73784
 20
2.926924
 30
0.0
 40
0.03
 41
0.0
 46
0.0
 71
     5
 72
     1
  1
\H1x;\W0.916667;.038\P [.95]\H1x;\W0.916667;
  7
Style-WORKING
 73
     1
 44
1.0
  0
POINT
  5
1466
330
12F4
100
AcDbEntity
  8
Defpoints
  6
Continuous
 62
     0
370
     0
100
AcDbPoint
 10
-8.829216
 20
3.056754
 30
0.0
  0
POINT
  5
1467
330
12F4
100
AcDbEntity
  8
Defpoints
  6
Continuous
 62
     0
370
     0
100
AcDbPoint
 10
-9.070006
 20
3.094255
 30
0.0
  0
POINT
  5
1468
330
12F4
100
AcDbEntity
  8
Defpoints
  6
Continuous
 62
     0
370
     0
100
AcDbPoint
 10
-8.622511
 20
3.094255
 30
0.0
  0
ENDBLK
  5
12F6
330
12F4
100
AcDbEntity
  8
0
 62
     7
370
     0
100
AcDbBlockEnd
  0
BLOCK
  5
130C
330
1302
100
AcDbEntity
  8
0
 62
     7
370
     0
100
AcDbBlockBegin
  2
*D10
 70
     1
 10
0.0
 20
0.0
 30
0.0
  3
*D10
  1

  0
TEXT
  5
1303
330
1302
100
AcDbEntity
  8
Level 55
  6
Continuous
 62
     7
370
     0
100
AcDbText
 10
-8.968916
 20
2.866127
 30
0.0
 40
0.03
  1
.025
 41
0.916667
  7
Style-WORKING
 11
-8.968916
 21
2.881127
 31
0.0
100
AcDbText
 73
     2
  0
TEXT
  5
1304
330
1302
100
AcDbEntity
  8
Level 55
  6
Continuous
 62
     7
370
     0
100
AcDbText
 10
-8.954622
 20
2.806127
 30
0.0
 40
0.03
  1
.63
 41
0.916667
  7
Style-WORKING
 11
-8.954622
 21
2.821127
 31
0.0
100
AcDbText
 73
     2
  0
LINE
  5
1305
330
1302
100
AcDbEntity
  8
Level 55
  6
Continuous
 62
     7
370
     0
100
AcDbLine
 10
-8.968916
 20
2.851127
 30
0.0
 11
-8.881884
 21
2.851127
 31
0.0
  0
LINE
  5
1306
330
1302
100
AcDbEntity
  8
Level 55
  6
Continuous
 62
     7
370
     0
100
AcDbLine
 10
-8.977916
 20
2.851127
 30
0.0
 11
-9.070006
 21
2.851127
 31
0.0
  0
LINE
  5
1307
330
1302
100
AcDbEntity
  8
Level 55
  6
Continuous
 62
     7
370
     0
100
AcDbLine
 10
-9.163756
 20
2.851127
 30
0.0
 11
-9.095006
 21
2.851127
 31
0.0
  0
SOLID
  5
1308
330
1302
100
AcDbEntity
  8
Level 55
  6
Continuous
 62
     7
370
     0
100
AcDbTrace
 10
-9.025006
 20
2.843627
 30
0.0
 11
-9.070006
 21
2.851127
 31
0.0
 12
-9.025006
 22
2.858627
 32
0.0
 13
-9.025006
 23
2.858627
 33
0.0
  0
SOLID
  5
1309
330
1302
100
AcDbEntity
  8
Level 55
  6
Continuous
 62
     7
370
     0
100
AcDbTrace
 10
9.140006
 20
2.858627
 30
0.0
 11
9.095006
 21
2.851127
 31
0.0
 12
9.140006
 22
2.843627
 32
0.0
 13
9.140006
 23
2.843627
 33
0.0
210
0.0
220
0.0
230
-1.0
  0
LINE
  5
130A
330
1302
100
AcDbEntity
  8
Level 55
  6
Continuous
 62
     7
370
     0
100
AcDbLine
 10
-9.070006
 20
3.076255
 30
0.0
 11
-9.070006
 21
2.836127
 31
0.0
  0
LINE
  5
130B
330
1302
100
AcDbEntity
  8
Level 55
  6
Continuous
 62
     7
370
     0
100
AcDbLine
 10
-9.095006
 20
3.001255
 30
0.0
 11
-9.095006
 21
2.836127
 31
0.0
  0
POINT
  5
130E
330
1302
100
AcDbEntity
  8
Defpoints
  6
Continuous
 62
     7
370
     0
100
AcDbPoint
 10
-9.095006
 20
2.851127
 30
0.0
  0
POINT
  5
130F
330
1302
100
AcDbEntity
  8
Defpoints
  6
Continuous
 62
     7
370
     0
100
AcDbPoint
 10
-9.070006
 20
3.094255
 30
0.0
  0
POINT
  5
1310
330
1302
100
AcDbEntity
  8
Defpoints
  6
Continuous
 62
     7
370
     0
100
AcDbPoint
 10
-9.095006
 20
3.019255
 30
0.0
  0
POINT
  5
1311
330
1302
100
AcDbEntity
  8
Defpoints
  6
Continuous
 62
     7
370
     0
100
AcDbPoint
 10
-8.9254
 20
2.851127
 30
0.0
  0
ENDBLK
  5
130D
330
1302
100
AcDbEntity
  8
0
 62
     7
370
     0
100
AcDbBlockEnd
  0
BLOCK
  5
1313
330
1312
100
AcDbEntity
  8
0
 62
     7
370
     0
100
AcDbBlockBegin
  2
*D11
 70
     1
 10
0.0
 20
0.0
 30
0.0
  3
*D11
  1

  0
LINE
  5
21E4
330
1312
100
AcDbEntity
  8
Level 55
  6
Continuous
 62
     0
370
    -2
100
AcDbLine
 10
-9.070006
 20
3.076255
 30
0.0
 11
-9.070006
 21
2.836127
 31
0.0
  0
LINE
  5
21E5
330
1312
100
AcDbEntity
  8
Level 55
  6
Continuous
 62
     0
370
    -2
100
AcDbLine
 10
-9.095006
 20
3.001255
 30
0.0
 11
-9.095006
 21
2.836127
 31
0.0
  0
LINE
  5
21E6
330
1312
100
AcDbEntity
  8
Level 55
  6
Continuous
 62
     0
370
    -2
100
AcDbLine
 10
-9.140006
 20
2.851127
 30
0.0
 11
-9.185006
 21
2.851127
 31
0.0
  0
LINE
  5
21E7
330
1312
100
AcDbEntity
  8
Level 55
  6
Continuous
 62
     0
370
    -2
100
AcDbLine
 10
-9.025006
 20
2.851127
 30
0.0
 11
-8.980006
 21
2.851127
 31
0.0
  0
SOLID
  5
21E8
330
1312
100
AcDbEntity
  8
Level 55
  6
Continuous
 62
     0
370
     0
100
AcDbTrace
 10
-9.140006
 20
2.858627
 30
0.0
 11
-9.140006
 21
2.843627
 31
0.0
 12
-9.095006
 22
2.851127
 32
0.0
 13
-9.095006
 23
2.851127
 33
0.0
  0
SOLID
  5
21E9
330
1312
100
AcDbEntity
  8
Level 55
  6
Continuous
 62
     0
370
     0
100
AcDbTrace
 10
-9.025006
 20
2.858627
 30
0.0
 11
-9.025006
 21
2.843627
 31
0.0
 12
-9.070006
 22
2.851127
 32
0.0
 13
-9.070006
 23
2.851127
 33
0.0
  0
MTEXT
  5
21EA
330
1312
100
AcDbEntity
  8
Level 55
  6
Continuous
 62
     0
370
     0
100
AcDbMText
 10
-8.909022
 20
2.851127
 30
0.0
 40
0.03
 41
0.0
 46
0.0
 71
     5
 72
     1
  1
\H1x;\W0.916667;.025\P [.64]\H1x;\W0.916667;
  7
Style-WORKING
 73
     1
 44
1.0
  0
POINT
  5
21EB
330
1312
100
AcDbEntity
  8
Defpoints
  6
Continuous
 62
     0
370
     0
100
AcDbPoint
 10
-9.070006
 20
3.094255
 30
0.0
  0
POINT
  5
21EC
330
1312
100
AcDbEntity
  8
Defpoints
  6
Continuous
 62
     0
370
     0
100
AcDbPoint
 10
-9.095006
 20
3.019255
 30
0.0
  0
POINT
  5
21ED
330
1312
100
AcDbEntity
  8
Defpoints
  6
Continuous
 62
     0
370
     0
100
AcDbPoint
 10
-9.095006
 20
2.851127
 30
0.0
  0
ENDBLK
  5
1314
330
1312
100
AcDbEntity
  8
0
 62
     7
370
     0
100
AcDbBlockEnd
  0
BLOCK
  5
1329
330
131F
100
AcDbEntity
  8
0
 62
     7
370
     0
100
AcDbBlockBegin
  2
*D12
 70
     1
 10
0.0
 20
0.0
 30
0.0
  3
*D12
  1

  0
TEXT
  5
1320
330
131F
100
AcDbEntity
  8
Level 55
  6
Continuous
 62
     7
370
     0
100
AcDbText
 10
-9.356405
 20
2.792017
 30
0.0
 40
0.03
  1
.050
 41
0.916667
  7
Style-WORKING
 11
-9.356405
 21
2.807017
 31
0.0
100
AcDbText
 73
     2
  0
TEXT
  5
1321
330
131F
100
AcDbEntity
  8
Level 55
  6
Continuous
 62
     7
370
     0
100
AcDbText
 10
-9.350775
 20
2.732017
 30
0.0
 40
0.03
  1
1.27
 41
0.916667
  7
Style-WORKING
 11
-9.350775
 21
2.747017
 31
0.0
100
AcDbText
 73
     2
  0
LINE
  5
1322
330
131F
100
AcDbEntity
  8
Level 55
  6
Continuous
 62
     7
370
     0
100
AcDbLine
 10
-9.356405
 20
2.777017
 30
0.0
 11
-9.269591
 21
2.777017
 31
0.0
  0
LINE
  5
1323
330
131F
100
AcDbEntity
  8
Level 55
  6
Continuous
 62
     7
370
     0
100
AcDbLine
 10
-9.001256
 20
2.777017
 30
0.0
 11
-9.070006
 21
2.777017
 31
0.0
  0
LINE
  5
1324
330
131F
100
AcDbEntity
  8
Level 55
  6
Continuous
 62
     7
370
     0
100
AcDbLine
 10
-9.260591
 20
2.777017
 30
0.0
 11
-9.120006
 21
2.777017
 31
0.0
  0
SOLID
  5
1325
330
131F
100
AcDbEntity
  8
Level 55
  6
Continuous
 62
     7
370
     0
100
AcDbTrace
 10
-9.025006
 20
2.769517
 30
0.0
 11
-9.070006
 21
2.777017
 31
0.0
 12
-9.025006
 22
2.784517
 32
0.0
 13
-9.025006
 23
2.784517
 33
0.0
  0
SOLID
  5
1326
330
131F
100
AcDbEntity
  8
Level 55
  6
Continuous
 62
     7
370
     0
100
AcDbTrace
 10
9.165006
 20
2.784517
 30
0.0
 11
9.120006
 21
2.777017
 31
0.0
 12
9.165006
 22
2.769517
 32
0.0
 13
9.165006
 23
2.769517
 33
0.0
210
0.0
220
0.0
230
-1.0
  0
LINE
  5
1327
330
131F
100
AcDbEntity
  8
Level 55
  6
Continuous
 62
     7
370
     0
100
AcDbLine
 10
-9.070006
 20
3.076255
 30
0.0
 11
-9.070006
 21
2.762017
 31
0.0
  0
LINE
  5
1328
330
131F
100
AcDbEntity
  8
Level 55
  6
Continuous
 62
     7
370
     0
100
AcDbLine
 10
-9.120006
 20
3.151255
 30
0.0
 11
-9.120006
 21
2.762017
 31
0.0
  0
POINT
  5
132B
330
131F
100
AcDbEntity
  8
Defpoints
  6
Continuous
 62
     7
370
     0
100
AcDbPoint
 10
-9.120006
 20
2.777017
 30
0.0
  0
POINT
  5
132C
330
131F
100
AcDbEntity
  8
Defpoints
  6
Continuous
 62
     7
370
     0
100
AcDbPoint
 10
-9.070006
 20
3.094255
 30
0.0
  0
POINT
  5
132D
330
131F
100
AcDbEntity
  8
Defpoints
  6
Continuous
 62
     7
370
     0
100
AcDbPoint
 10
-9.120006
 20
3.169255
 30
0.0
  0
POINT
  5
132E
330
131F
100
AcDbEntity
  8
Defpoints
  6
Continuous
 62
     7
370
     0
100
AcDbPoint
 10
-9.312998
 20
2.777017
 30
0.0
  0
ENDBLK
  5
132A
330
131F
100
AcDbEntity
  8
0
 62
     7
370
     0
100
AcDbBlockEnd
  0
BLOCK
  5
1330
330
132F
100
AcDbEntity
  8
0
 62
     7
370
     0
100
AcDbBlockBegin
  2
*D13
 70
     1
 10
0.0
 20
0.0
 30
0.0
  3
*D13
  1

  0
LINE
  5
21EE
330
132F
100
AcDbEntity
  8
Level 55
  6
Continuous
 62
     0
370
    -2
100
AcDbLine
 10
-9.070006
 20
3.076255
 30
0.0
 11
-9.070006
 21
2.762017
 31
0.0
  0
LINE
  5
21EF
330
132F
100
AcDbEntity
  8
Level 55
  6
Continuous
 62
     0
370
    -2
100
AcDbLine
 10
-9.120006
 20
3.151255
 30
0.0
 11
-9.120006
 21
2.762017
 31
0.0
  0
LINE
  5
21F0
330
132F
100
AcDbEntity
  8
Level 55
  6
Continuous
 62
     0
370
    -2
100
AcDbLine
 10
-9.025006
 20
2.777017
 30
0.0
 11
-8.980006
 21
2.777017
 31
0.0
  0
LINE
  5
21F1
330
132F
100
AcDbEntity
  8
Level 55
  6
Continuous
 62
     0
370
    -2
100
AcDbLine
 10
-9.165006
 20
2.777017
 30
0.0
 11
-9.234157
 21
2.777017
 31
0.0
  0
SOLID
  5
21F2
330
132F
100
AcDbEntity
  8
Level 55
  6
Continuous
 62
     0
370
     0
100
AcDbTrace
 10
-9.025006
 20
2.784517
 30
0.0
 11
-9.025006
 21
2.769517
 31
0.0
 12
-9.070006
 22
2.777017
 32
0.0
 13
-9.070006
 23
2.777017
 33
0.0
  0
SOLID
  5
21F3
330
132F
100
AcDbEntity
  8
Level 55
  6
Continuous
 62
     0
370
     0
100
AcDbTrace
 10
-9.165006
 20
2.784517
 30
0.0
 11
-9.165006
 21
2.769517
 31
0.0
 12
-9.120006
 22
2.777017
 32
0.0
 13
-9.120006
 23
2.777017
 33
0.0
  0
MTEXT
  5
21F4
330
132F
100
AcDbEntity
  8
Level 55
  6
Continuous
 62
     0
370
     0
100
AcDbMText
 10
-9.312998
 20
2.777017
 30
0.0
 40
0.03
 41
0.0
 46
0.0
 71
     5
 72
     1
  1
\H1x;\W0.916667;.050\P [1.27]\H1x;\W0.916667;
  7
Style-WORKING
 73
     1
 44
1.0
  0
POINT
  5
21F5
330
132F
100
AcDbEntity
  8
Defpoints
  6
Continuous
 62
     0
370
     0
100
AcDbPoint
 10
-9.070006
 20
3.094255
 30
0.0
  0
POINT
  5
21F6
330
132F
100
AcDbEntity
  8
Defpoints
  6
Continuous
 62
     0
370
     0
100
AcDbPoint
 10
-9.120006
 20
3.169255
 30
0.0
  0
POINT
  5
21F7
330
132F
100
AcDbEntity
  8
Defpoints
  6
Continuous
 62
     0
370
     0
100
AcDbPoint
 10
-9.120006
 20
2.777017
 30
0.0
  0
ENDBLK
  5
1331
330
132F
100
AcDbEntity
  8
0
 62
     7
370
     0
100
AcDbBlockEnd
  0
BLOCK
  5
1346
330
133C
100
AcDbEntity
  8
0
 62
     7
370
     0
100
AcDbBlockBegin
  2
*D14
 70
     1
 10
0.0
 20
0.0
 30
0.0
  3
*D14
  1

  0
TEXT
  5
133D
330
133C
100
AcDbEntity
  8
Level 55
  6
Continuous
 62
     7
370
     0
100
AcDbText
 10
-8.956055
 20
2.713547
 30
0.0
 40
0.03
  1
.075
 41
0.916667
  7
Style-WORKING
 11
-8.956055
 21
2.728547
 31
0.0
100
AcDbText
 73
     2
  0
TEXT
  5
133E
330
133C
100
AcDbEntity
  8
Level 55
  6
Continuous
 62
     7
370
     0
100
AcDbText
 10
-8.943495
 20
2.653547
 30
0.0
 40
0.03
  1
1.91
 41
0.916667
  7
Style-WORKING
 11
-8.943495
 21
2.668547
 31
0.0
100
AcDbText
 73
     2
  0
LINE
  5
133F
330
133C
100
AcDbEntity
  8
Level 55
  6
Continuous
 62
     7
370
     0
100
AcDbLine
 10
-8.956055
 20
2.698547
 30
0.0
 11
-8.868815
 21
2.698547
 31
0.0
  0
LINE
  5
1340
330
133C
100
AcDbEntity
  8
Level 55
  6
Continuous
 62
     7
370
     0
100
AcDbLine
 10
-8.965055
 20
2.698547
 30
0.0
 11
-9.070006
 21
2.698547
 31
0.0
  0
LINE
  5
1341
330
133C
100
AcDbEntity
  8
Level 55
  6
Continuous
 62
     7
370
     0
100
AcDbLine
 10
-9.213756
 20
2.698547
 30
0.0
 11
-9.145006
 21
2.698547
 31
0.0
  0
SOLID
  5
1342
330
133C
100
AcDbEntity
  8
Level 55
  6
Continuous
 62
     7
370
     0
100
AcDbTrace
 10
-9.025006
 20
2.691047
 30
0.0
 11
-9.070006
 21
2.698547
 31
0.0
 12
-9.025006
 22
2.706047
 32
0.0
 13
-9.025006
 23
2.706047
 33
0.0
  0
SOLID
  5
1343
330
133C
100
AcDbEntity
  8
Level 55
  6
Continuous
 62
     7
370
     0
100
AcDbTrace
 10
9.190006
 20
2.706047
 30
0.0
 11
9.145006
 21
2.698547
 31
0.0
 12
9.190006
 22
2.691047
 32
0.0
 13
9.190006
 23
2.691047
 33
0.0
210
0.0
220
0.0
230
-1.0
  0
LINE
  5
1344
330
133C
100
AcDbEntity
  8
Level 55
  6
Continuous
 62
     7
370
     0
100
AcDbLine
 10
-9.070006
 20
3.076255
 30
0.0
 11
-9.070006
 21
2.683547
 31
0.0
  0
LINE
  5
1345
330
133C
100
AcDbEntity
  8
Level 55
  6
Continuous
 62
     7
370
     0
100
AcDbLine
 10
-9.145006
 20
2.926254
 30
0.0
 11
-9.145006
 21
2.683547
 31
0.0
  0
POINT
  5
1348
330
133C
100
AcDbEntity
  8
Defpoints
  6
Continuous
 62
     7
370
     0
100
AcDbPoint
 10
-9.145006
 20
2.698547
 30
0.0
  0
POINT
  5
1349
330
133C
100
AcDbEntity
  8
Defpoints
  6
Continuous
 62
     7
370
     0
100
AcDbPoint
 10
-9.070006
 20
3.094255
 30
0.0
  0
POINT
  5
134A
330
133C
100
AcDbEntity
  8
Defpoints
  6
Continuous
 62
     7
370
     0
100
AcDbPoint
 10
-9.145006
 20
2.944254
 30
0.0
  0
POINT
  5
134B
330
133C
100
AcDbEntity
  8
Defpoints
  6
Continuous
 62
     7
370
     0
100
AcDbPoint
 10
-8.912435
 20
2.698547
 30
0.0
  0
ENDBLK
  5
1347
330
133C
100
AcDbEntity
  8
0
 62
     7
370
     0
100
AcDbBlockEnd
  0
BLOCK
  5
134D
330
134C
100
AcDbEntity
  8
0
 62
     7
370
     0
100
AcDbBlockBegin
  2
*D15
 70
     1
 10
0.0
 20
0.0
 30
0.0
  3
*D15
  1

  0
LINE
  5
21F8
330
134C
100
AcDbEntity
  8
Level 55
  6
Continuous
 62
     0
370
    -2
100
AcDbLine
 10
-9.070006
 20
3.076255
 30
0.0
 11
-9.070006
 21
2.683547
 31
0.0
  0
LINE
  5
21F9
330
134C
100
AcDbEntity
  8
Level 55
  6
Continuous
 62
     0
370
    -2
100
AcDbLine
 10
-9.145006
 20
2.926254
 30
0.0
 11
-9.145006
 21
2.683547
 31
0.0
  0
LINE
  5
21FA
330
134C
100
AcDbEntity
  8
Level 55
  6
Continuous
 62
     0
370
    -2
100
AcDbLine
 10
-9.190006
 20
2.698547
 30
0.0
 11
-9.235006
 21
2.698547
 31
0.0
  0
LINE
  5
21FB
330
134C
100
AcDbEntity
  8
Level 55
  6
Continuous
 62
     0
370
    -2
100
AcDbLine
 10
-9.025006
 20
2.698547
 30
0.0
 11
-8.980005
 21
2.698547
 31
0.0
  0
SOLID
  5
21FC
330
134C
100
AcDbEntity
  8
Level 55
  6
Continuous
 62
     0
370
     0
100
AcDbTrace
 10
-9.190006
 20
2.706047
 30
0.0
 11
-9.190006
 21
2.691047
 31
0.0
 12
-9.145006
 22
2.698547
 32
0.0
 13
-9.145006
 23
2.698547
 33
0.0
  0
SOLID
  5
21FD
330
134C
100
AcDbEntity
  8
Level 55
  6
Continuous
 62
     0
370
     0
100
AcDbTrace
 10
-9.025006
 20
2.706047
 30
0.0
 11
-9.025006
 21
2.691047
 31
0.0
 12
-9.070006
 22
2.698547
 32
0.0
 13
-9.070006
 23
2.698547
 33
0.0
  0
MTEXT
  5
21FE
330
134C
100
AcDbEntity
  8
Level 55
  6
Continuous
 62
     0
370
     0
100
AcDbMText
 10
-8.90793
 20
2.698547
 30
0.0
 40
0.03
 41
0.0
 46
0.0
 71
     5
 72
     1
  1
\H1x;\W0.916667;.075\P [1.91]\H1x;\W0.916667;
  7
Style-WORKING
 73
     1
 44
1.0
  0
POINT
  5
21FF
330
134C
100
AcDbEntity
  8
Defpoints
  6
Continuous
 62
     0
370
     0
100
AcDbPoint
 10
-9.070006
 20
3.094255
 30
0.0
  0
POINT
  5
2200
330
134C
100
AcDbEntity
  8
Defpoints
  6
Continuous
 62
     0
370
     0
100
AcDbPoint
 10
-9.145006
 20
2.944254
 30
0.0
  0
POINT
  5
2201
330
134C
100
AcDbEntity
  8
Defpoints
  6
Continuous
 62
     0
370
     0
100
AcDbPoint
 10
-9.145006
 20
2.698547
 30
0.0
  0
ENDBLK
  5
134E
330
134C
100
AcDbEntity
  8
0
 62
     7
370
     0
100
AcDbBlockEnd
  0
BLOCK
  5
1363
330
1359
100
AcDbEntity
  8
0
 62
     7
370
     0
100
AcDbBlockBegin
  2
*D16
 70
     1
 10
0.0
 20
0.0
 30
0.0
  3
*D16
  1

  0
TEXT
  5
135A
330
1359
100
AcDbEntity
  8
Level 55
  6
Continuous
 62
     7
370
     0
100
AcDbText
 10
-9.478642
 20
2.622
 30
0.0
 40
0.03
  1
.100 TYP
 41
0.916667
  7
Style-WORKING
 11
-9.478642
 21
2.637
 31
0.0
100
AcDbText
 73
     2
  0
TEXT
  5
135B
330
1359
100
AcDbEntity
  8
Level 55
  6
Continuous
 62
     7
370
     0
100
AcDbText
 10
-9.429284
 20
2.562
 30
0.0
 40
0.03
  1
2.54
 41
0.916667
  7
Style-WORKING
 11
-9.429284
 21
2.577
 31
0.0
100
AcDbText
 73
     2
  0
LINE
  5
135C
330
1359
100
AcDbEntity
  8
Level 55
  6
Continuous
 62
     7
370
     0
100
AcDbLine
 10
-9.478642
 20
2.607
 30
0.0
 11
-9.291373
 21
2.607
 31
0.0
  0
LINE
  5
135D
330
1359
100
AcDbEntity
  8
Level 55
  6
Continuous
 62
     7
370
     0
100
AcDbLine
 10
-9.001256
 20
2.607
 30
0.0
 11
-9.070006
 21
2.607
 31
0.0
  0
LINE
  5
135E
330
1359
100
AcDbEntity
  8
Level 55
  6
Continuous
 62
     7
370
     0
100
AcDbLine
 10
-9.282373
 20
2.607
 30
0.0
 11
-9.170006
 21
2.607
 31
0.0
  0
SOLID
  5
135F
330
1359
100
AcDbEntity
  8
Level 55
  6
Continuous
 62
     7
370
     0
100
AcDbTrace
 10
-9.025006
 20
2.5995
 30
0.0
 11
-9.070006
 21
2.607
 31
0.0
 12
-9.025006
 22
2.6145
 32
0.0
 13
-9.025006
 23
2.6145
 33
0.0
  0
SOLID
  5
1360
330
1359
100
AcDbEntity
  8
Level 55
  6
Continuous
 62
     7
370
     0
100
AcDbTrace
 10
9.215006
 20
2.6145
 30
0.0
 11
9.170006
 21
2.607
 31
0.0
 12
9.215006
 22
2.5995
 32
0.0
 13
9.215006
 23
2.5995
 33
0.0
210
0.0
220
0.0
230
-1.0
  0
LINE
  5
1361
330
1359
100
AcDbEntity
  8
Level 55
  6
Continuous
 62
     7
370
     0
100
AcDbLine
 10
-9.070006
 20
3.076255
 30
0.0
 11
-9.070006
 21
2.592
 31
0.0
  0
LINE
  5
1362
330
1359
100
AcDbEntity
  8
Level 55
  6
Continuous
 62
     7
370
     0
100
AcDbLine
 10
-9.170006
 20
3.076254
 30
0.0
 11
-9.170006
 21
2.592
 31
0.0
  0
POINT
  5
1365
330
1359
100
AcDbEntity
  8
Defpoints
  6
Continuous
 62
     7
370
     0
100
AcDbPoint
 10
-9.170006
 20
2.607
 30
0.0
  0
POINT
  5
1366
330
1359
100
AcDbEntity
  8
Defpoints
  6
Continuous
 62
     7
370
     0
100
AcDbPoint
 10
-9.070006
 20
3.094255
 30
0.0
  0
POINT
  5
1367
330
1359
100
AcDbEntity
  8
Defpoints
  6
Continuous
 62
     7
370
     0
100
AcDbPoint
 10
-9.170006
 20
3.094254
 30
0.0
  0
POINT
  5
1368
330
1359
100
AcDbEntity
  8
Defpoints
  6
Continuous
 62
     7
370
     0
100
AcDbPoint
 10
-9.385007
 20
2.607
 30
0.0
  0
ENDBLK
  5
1364
330
1359
100
AcDbEntity
  8
0
 62
     7
370
     0
100
AcDbBlockEnd
  0
BLOCK
  5
136A
330
1369
100
AcDbEntity
  8
0
 62
     7
370
     0
100
AcDbBlockBegin
  2
*D17
 70
     1
 10
0.0
 20
0.0
 30
0.0
  3
*D17
  1

  0
LINE
  5
203D
330
1369
100
AcDbEntity
  8
Level 55
  6
Continuous
 62
     0
370
    -2
100
AcDbLine
 10
-9.070006
 20
3.076255
 30
0.0
 11
-9.070006
 21
2.592
 31
0.0
  0
LINE
  5
203E
330
1369
100
AcDbEntity
  8
Level 55
  6
Continuous
 62
     0
370
    -2
100
AcDbLine
 10
-9.170006
 20
3.076254
 30
0.0
 11
-9.170006
 21
2.592
 31
0.0
  0
LINE
  5
203F
330
1369
100
AcDbEntity
  8
Level 55
  6
Continuous
 62
     0
370
    -2
100
AcDbLine
 10
-9.025006
 20
2.607
 30
0.0
 11
-8.980006
 21
2.607
 31
0.0
  0
LINE
  5
2040
330
1369
100
AcDbEntity
  8
Level 55
  6
Continuous
 62
     0
370
    -2
100
AcDbLine
 10
-9.215006
 20
2.607
 30
0.0
 11
-9.260007
 21
2.607
 31
0.0
  0
SOLID
  5
2041
330
1369
100
AcDbEntity
  8
Level 55
  6
Continuous
 62
     0
370
     0
100
AcDbTrace
 10
-9.025006
 20
2.6145
 30
0.0
 11
-9.025006
 21
2.5995
 31
0.0
 12
-9.070006
 22
2.607
 32
0.0
 13
-9.070006
 23
2.607
 33
0.0
  0
SOLID
  5
2042
330
1369
100
AcDbEntity
  8
Level 55
  6
Continuous
 62
     0
370
     0
100
AcDbTrace
 10
-9.215006
 20
2.6145
 30
0.0
 11
-9.215006
 21
2.5995
 31
0.0
 12
-9.170006
 22
2.607
 32
0.0
 13
-9.170006
 23
2.607
 33
0.0
  0
MTEXT
  5
2043
330
1369
100
AcDbEntity
  8
Level 55
  6
Continuous
 62
     0
370
     0
100
AcDbMText
 10
-9.401596
 20
2.607
 30
0.0
 40
0.03
 41
0.0
 46
0.0
 71
     5
 72
     1
  1
\H1x;\W0.916667;.100\P [2.54] TYP\H1x;\W0.916667;
  7
Style-WORKING
 73
     1
 44
1.0
  0
POINT
  5
2044
330
1369
100
AcDbEntity
  8
Defpoints
  6
Continuous
 62
     0
370
     0
100
AcDbPoint
 10
-9.070006
 20
3.094255
 30
0.0
  0
POINT
  5
2045
330
1369
100
AcDbEntity
  8
Defpoints
  6
Continuous
 62
     0
370
     0
100
AcDbPoint
 10
-9.170006
 20
3.094254
 30
0.0
  0
POINT
  5
2046
330
1369
100
AcDbEntity
  8
Defpoints
  6
Continuous
 62
     0
370
     0
100
AcDbPoint
 10
-9.170006
 20
2.607
 30
0.0
  0
ENDBLK
  5
136B
330
1369
100
AcDbEntity
  8
0
 62
     7
370
     0
100
AcDbBlockEnd
  0
BLOCK
  5
149C
330
1492
100
AcDbEntity
  8
0
 62
     7
370
     0
100
AcDbBlockBegin
  2
*D18
 70
     1
 10
0.0
 20
0.0
 30
0.0
  3
*D18
  1

  0
LINE
  5
180D
330
1492
100
AcDbEntity
  8
Level 55
  6
Continuous
 62
     0
370
    -2
100
AcDbLine
 10
-9.052006
 20
3.094255
 30
0.0
 11
-8.655304
 21
3.094255
 31
0.0
  0
LINE
  5
180E
330
1492
100
AcDbEntity
  8
Level 55
  6
Continuous
 62
     0
370
    -2
100
AcDbLine
 10
-9.077006
 20
3.019255
 30
0.0
 11
-8.655304
 21
3.019255
 31
0.0
  0
LINE
  5
180F
330
1492
100
AcDbEntity
  8
Level 55
  6
Continuous
 62
     0
370
    -2
100
AcDbLine
 10
-8.670304
 20
2.974255
 30
0.0
 11
-8.670304
 21
2.929255
 31
0.0
  0
LINE
  5
1810
330
1492
100
AcDbEntity
  8
Level 55
  6
Continuous
 62
     0
370
    -2
100
AcDbLine
 10
-8.670304
 20
3.139255
 30
0.0
 11
-8.670304
 21
3.285795
 31
0.0
  0
LINE
  5
1811
330
1492
100
AcDbEntity
  8
Level 55
  6
Continuous
 62
     0
370
    -2
100
AcDbLine
 10
-8.670304
 20
3.285795
 30
0.0
 11
-8.625304
 21
3.285795
 31
0.0
  0
SOLID
  5
1812
330
1492
100
AcDbEntity
  8
Level 55
  6
Continuous
 62
     0
370
     0
100
AcDbTrace
 10
-8.677804
 20
2.974255
 30
0.0
 11
-8.662804
 21
2.974255
 31
0.0
 12
-8.670304
 22
3.019255
 32
0.0
 13
-8.670304
 23
3.019255
 33
0.0
  0
SOLID
  5
1813
330
1492
100
AcDbEntity
  8
Level 55
  6
Continuous
 62
     0
370
     0
100
AcDbTrace
 10
-8.677804
 20
3.139255
 30
0.0
 11
-8.662804
 21
3.139255
 31
0.0
 12
-8.670304
 22
3.094255
 32
0.0
 13
-8.670304
 23
3.094255
 33
0.0
  0
MTEXT
  5
1814
330
1492
100
AcDbEntity
  8
Level 55
  6
Continuous
 62
     0
370
     0
100
AcDbMText
 10
-8.497028
 20
3.285795
 30
0.0
 40
0.03
 41
0.0
 46
0.0
 71
     5
 72
     1
  1
\H1x;\W0.916667;.075\P [1.91] TYP\H1x;\W0.916667;
  7
Style-WORKING
 73
     1
 44
1.0
  0
POINT
  5
1815
330
1492
100
AcDbEntity
  8
Defpoints
  6
Continuous
 62
     0
370
     0
100
AcDbPoint
 10
-9.070006
 20
3.094255
 30
0.0
  0
POINT
  5
1816
330
1492
100
AcDbEntity
  8
Defpoints
  6
Continuous
 62
     0
370
     0
100
AcDbPoint
 10
-9.095006
 20
3.019255
 30
0.0
  0
POINT
  5
1817
330
1492
100
AcDbEntity
  8
Defpoints
  6
Continuous
 62
     0
370
     0
100
AcDbPoint
 10
-8.670304
 20
3.019255
 30
0.0
  0
ENDBLK
  5
149D
330
1492
100
AcDbEntity
  8
0
 62
     7
370
     0
100
AcDbBlockEnd
  0
BLOCK
  5
14B7
330
14AD
100
AcDbEntity
  8
0
 62
     7
370
     0
100
AcDbBlockBegin
  2
*D19
 70
     1
 10
0.0
 20
0.0
 30
0.0
  3
*D19
  1

  0
LINE
  5
1818
330
14AD
100
AcDbEntity
  8
Level 55
  6
Continuous
 62
     0
370
    -2
100
AcDbLine
 10
-8.811216
 20
3.056754
 30
0.0
 11
-8.582633
 21
3.056754
 31
0.0
  0
LINE
  5
1819
330
14AD
100
AcDbEntity
  8
Level 55
  6
Continuous
 62
     0
370
    -2
100
AcDbLine
 10
-9.052006
 20
3.094255
 30
0.0
 11
-8.582633
 21
3.094255
 31
0.0
  0
LINE
  5
181A
330
14AD
100
AcDbEntity
  8
Level 55
  6
Continuous
 62
     0
370
    -2
100
AcDbLine
 10
-8.597633
 20
3.139255
 30
0.0
 11
-8.597633
 21
3.184255
 31
0.0
  0
LINE
  5
181B
330
14AD
100
AcDbEntity
  8
Level 55
  6
Continuous
 62
     0
370
    -2
100
AcDbLine
 10
-8.597633
 20
3.011754
 30
0.0
 11
-8.597633
 21
2.874479
 31
0.0
  0
LINE
  5
181C
330
14AD
100
AcDbEntity
  8
Level 55
  6
Continuous
 62
     0
370
    -2
100
AcDbLine
 10
-8.597633
 20
2.874479
 30
0.0
 11
-8.642633
 21
2.874479
 31
0.0
  0
SOLID
  5
181D
330
14AD
100
AcDbEntity
  8
Level 55
  6
Continuous
 62
     0
370
     0
100
AcDbTrace
 10
-8.605133
 20
3.139255
 30
0.0
 11
-8.590133
 21
3.139255
 31
0.0
 12
-8.597633
 22
3.094255
 32
0.0
 13
-8.597633
 23
3.094255
 33
0.0
  0
SOLID
  5
181E
330
14AD
100
AcDbEntity
  8
Level 55
  6
Continuous
 62
     0
370
     0
100
AcDbTrace
 10
-8.605133
 20
3.011754
 30
0.0
 11
-8.590133
 21
3.011754
 31
0.0
 12
-8.597633
 22
3.056754
 32
0.0
 13
-8.597633
 23
3.056754
 33
0.0
  0
MTEXT
  5
181F
330
14AD
100
AcDbEntity
  8
Level 55
  6
Continuous
 62
     0
370
     0
100
AcDbMText
 10
-8.712962
 20
2.874479
 30
0.0
 40
0.03
 41
0.0
 46
0.0
 71
     5
 72
     1
  1
\H1x;\W0.916667;.038\P [.95]\H1x;\W0.916667;
  7
Style-WORKING
 73
     1
 44
1.0
  0
POINT
  5
1820
330
14AD
100
AcDbEntity
  8
Defpoints
  6
Continuous
 62
     0
370
     0
100
AcDbPoint
 10
-8.829216
 20
3.056754
 30
0.0
  0
POINT
  5
1821
330
14AD
100
AcDbEntity
  8
Defpoints
  6
Continuous
 62
     0
370
     0
100
AcDbPoint
 10
-9.070006
 20
3.094255
 30
0.0
  0
POINT
  5
1822
330
14AD
100
AcDbEntity
  8
Defpoints
  6
Continuous
 62
     0
370
     0
100
AcDbPoint
 10
-8.597633
 20
3.094255
 30
0.0
  0
ENDBLK
  5
14B8
330
14AD
100
AcDbEntity
  8
0
 62
     7
370
     0
100
AcDbBlockEnd
  0
BLOCK
  5
14D2
330
14C8
100
AcDbEntity
  8
0
 62
     7
370
     0
100
AcDbBlockBegin
  2
*D20
 70
     1
 10
0.0
 20
0.0
 30
0.0
  3
*D20
  1

  0
LINE
  5
2202
330
14C8
100
AcDbEntity
  8
Level 55
  6
Continuous
 62
     0
370
    -2
100
AcDbLine
 10
-8.887756
 20
3.134529
 30
0.0
 11
-8.887756
 21
3.241036
 31
0.0
  0
LINE
  5
2203
330
14C8
100
AcDbEntity
  8
Level 55
  6
Continuous
 62
     0
370
    -2
100
AcDbLine
 10
-9.070006
 20
3.112255
 30
0.0
 11
-9.070006
 21
3.241036
 31
0.0
  0
LINE
  5
2204
330
14C8
100
AcDbEntity
  8
Level 55
  6
Continuous
 62
     0
370
    -2
100
AcDbLine
 10
-8.842756
 20
3.226036
 30
0.0
 11
-8.797756
 21
3.226036
 31
0.0
  0
LINE
  5
2205
330
14C8
100
AcDbEntity
  8
Level 55
  6
Continuous
 62
     0
370
    -2
100
AcDbLine
 10
-9.115006
 20
3.226036
 30
0.0
 11
-9.160006
 21
3.226036
 31
0.0
  0
SOLID
  5
2206
330
14C8
100
AcDbEntity
  8
Level 55
  6
Continuous
 62
     0
370
     0
100
AcDbTrace
 10
-8.842756
 20
3.233536
 30
0.0
 11
-8.842756
 21
3.218536
 31
0.0
 12
-8.887756
 22
3.226036
 32
0.0
 13
-8.887756
 23
3.226036
 33
0.0
  0
SOLID
  5
2207
330
14C8
100
AcDbEntity
  8
Level 55
  6
Continuous
 62
     0
370
     0
100
AcDbTrace
 10
-9.115006
 20
3.233536
 30
0.0
 11
-9.115006
 21
3.218536
 31
0.0
 12
-9.070006
 22
3.226036
 32
0.0
 13
-9.070006
 23
3.226036
 33
0.0
  0
MTEXT
  5
2208
330
14C8
100
AcDbEntity
  8
Level 55
  6
Continuous
 62
     0
370
     0
100
AcDbMText
 10
-8.986491
 20
3.226036
 30
0.0
 40
0.03
 41
0.0
 46
0.0
 71
     5
 72
     1
  1
\H1x;\W0.916667;.183\P\H1x;\W0.916667;
  7
Style-WORKING
 73
     1
 44
1.0
  0
POINT
  5
2209
330
14C8
100
AcDbEntity
  8
Defpoints
  6
Continuous
 62
     0
370
     0
100
AcDbPoint
 10
-8.887756
 20
3.116529
 30
0.0
  0
POINT
  5
220A
330
14C8
100
AcDbEntity
  8
Defpoints
  6
Continuous
 62
     0
370
     0
100
AcDbPoint
 10
-9.070006
 20
3.094255
 30
0.0
  0
POINT
  5
220B
330
14C8
100
AcDbEntity
  8
Defpoints
  6
Continuous
 62
     0
370
     0
100
AcDbPoint
 10
-9.070006
 20
3.226036
 30
0.0
  0
ENDBLK
  5
14D3
330
14C8
100
AcDbEntity
  8
0
 62
     7
370
     0
100
AcDbBlockEnd
  0
BLOCK
  5
1837
330
182D
100
AcDbEntity
  8
0
 62
     7
370
     0
100
AcDbBlockBegin
  2
*D21
 70
     1
 10
0.0
 20
0.0
 30
0.0
  3
*D21
  1

  0
LINE
  5
19F2
330
182D
100
AcDbEntity
  8
Level 55
  6
Continuous
 62
     0
370
    -2
100
AcDbLine
 10
-9.052006
 20
3.094255
 30
0.0
 11
-8.853368
 21
3.094255
 31
0.0
  0
LINE
  5
19F3
330
182D
100
AcDbEntity
  8
Level 55
  6
Continuous
 62
     0
370
    -2
100
AcDbLine
 10
-9.077006
 20
3.019255
 30
0.0
 11
-8.853368
 21
3.019255
 31
0.0
  0
LINE
  5
19F4
330
182D
100
AcDbEntity
  8
Level 55
  6
Continuous
 62
     0
370
    -2
100
AcDbLine
 10
-8.868368
 20
2.974255
 30
0.0
 11
-8.868368
 21
2.929255
 31
0.0
  0
LINE
  5
19F5
330
182D
100
AcDbEntity
  8
Level 55
  6
Continuous
 62
     0
370
    -2
100
AcDbLine
 10
-8.868368
 20
3.139255
 30
0.0
 11
-8.868368
 21
3.285795
 31
0.0
  0
LINE
  5
19F6
330
182D
100
AcDbEntity
  8
Level 55
  6
Continuous
 62
     0
370
    -2
100
AcDbLine
 10
-8.868368
 20
3.285795
 30
0.0
 11
-8.823368
 21
3.285795
 31
0.0
  0
SOLID
  5
19F7
330
182D
100
AcDbEntity
  8
Level 55
  6
Continuous
 62
     0
370
     0
100
AcDbTrace
 10
-8.875868
 20
2.974255
 30
0.0
 11
-8.860868
 21
2.974255
 31
0.0
 12
-8.868368
 22
3.019255
 32
0.0
 13
-8.868368
 23
3.019255
 33
0.0
  0
SOLID
  5
19F8
330
182D
100
AcDbEntity
  8
Level 55
  6
Continuous
 62
     0
370
     0
100
AcDbTrace
 10
-8.875868
 20
3.139255
 30
0.0
 11
-8.860868
 21
3.139255
 31
0.0
 12
-8.868368
 22
3.094255
 32
0.0
 13
-8.868368
 23
3.094255
 33
0.0
  0
MTEXT
  5
19F9
330
182D
100
AcDbEntity
  8
Level 55
  6
Continuous
 62
     0
370
     0
100
AcDbMText
 10
-8.695092
 20
3.285795
 30
0.0
 40
0.03
 41
0.0
 46
0.0
 71
     5
 72
     1
  1
\H1x;\W0.916667;.075\P [1.91] TYP\H1x;\W0.916667;
  7
Style-WORKING
 73
     1
 44
1.0
  0
POINT
  5
19FA
330
182D
100
AcDbEntity
  8
Defpoints
  6
Continuous
 62
     0
370
     0
100
AcDbPoint
 10
-9.070006
 20
3.094255
 30
0.0
  0
POINT
  5
19FB
330
182D
100
AcDbEntity
  8
Defpoints
  6
Continuous
 62
     0
370
     0
100
AcDbPoint
 10
-9.095006
 20
3.019255
 30
0.0
  0
POINT
  5
19FC
330
182D
100
AcDbEntity
  8
Defpoints
  6
Continuous
 62
     0
370
     0
100
AcDbPoint
 10
-8.868368
 20
3.019255
 30
0.0
  0
ENDBLK
  5
1838
330
182D
100
AcDbEntity
  8
0
 62
     7
370
     0
100
AcDbBlockEnd
  0
BLOCK
  5
1852
330
1848
100
AcDbEntity
  8
0
 62
     7
370
     0
100
AcDbBlockBegin
  2
*D22
 70
     1
 10
0.0
 20
0.0
 30
0.0
  3
*D22
  1

  0
LINE
  5
220C
330
1848
100
AcDbEntity
  8
Level 55
  6
Continuous
 62
     0
370
    -2
100
AcDbLine
 10
-8.811216
 20
3.056754
 30
0.0
 11
-8.341382
 21
3.056754
 31
0.0
  0
LINE
  5
220D
330
1848
100
AcDbEntity
  8
Level 55
  6
Continuous
 62
     0
370
    -2
100
AcDbLine
 10
-9.052006
 20
3.094255
 30
0.0
 11
-8.341382
 21
3.094255
 31
0.0
  0
LINE
  5
220E
330
1848
100
AcDbEntity
  8
Level 55
  6
Continuous
 62
     0
370
    -2
100
AcDbLine
 10
-8.356382
 20
3.139255
 30
0.0
 11
-8.356382
 21
3.184255
 31
0.0
  0
LINE
  5
220F
330
1848
100
AcDbEntity
  8
Level 55
  6
Continuous
 62
     0
370
    -2
100
AcDbLine
 10
-8.356382
 20
3.011754
 30
0.0
 11
-8.356382
 21
2.874479
 31
0.0
  0
LINE
  5
2210
330
1848
100
AcDbEntity
  8
Level 55
  6
Continuous
 62
     0
370
    -2
100
AcDbLine
 10
-8.356382
 20
2.874479
 30
0.0
 11
-8.401382
 21
2.874479
 31
0.0
  0
SOLID
  5
2211
330
1848
100
AcDbEntity
  8
Level 55
  6
Continuous
 62
     0
370
     0
100
AcDbTrace
 10
-8.363882
 20
3.139255
 30
0.0
 11
-8.348882
 21
3.139255
 31
0.0
 12
-8.356382
 22
3.094255
 32
0.0
 13
-8.356382
 23
3.094255
 33
0.0
  0
SOLID
  5
2212
330
1848
100
AcDbEntity
  8
Level 55
  6
Continuous
 62
     0
370
     0
100
AcDbTrace
 10
-8.363882
 20
3.011754
 30
0.0
 11
-8.348882
 21
3.011754
 31
0.0
 12
-8.356382
 22
3.056754
 32
0.0
 13
-8.356382
 23
3.056754
 33
0.0
  0
MTEXT
  5
2213
330
1848
100
AcDbEntity
  8
Level 55
  6
Continuous
 62
     0
370
     0
100
AcDbMText
 10
-8.471711
 20
2.874479
 30
0.0
 40
0.03
 41
0.0
 46
0.0
 71
     5
 72
     1
  1
\H1x;\W0.916667;.038\P [.95]\H1x;\W0.916667;
  7
Style-WORKING
 73
     1
 44
1.0
  0
POINT
  5
2214
330
1848
100
AcDbEntity
  8
Defpoints
  6
Continuous
 62
     0
370
     0
100
AcDbPoint
 10
-8.829216
 20
3.056754
 30
0.0
  0
POINT
  5
2215
330
1848
100
AcDbEntity
  8
Defpoints
  6
Continuous
 62
     0
370
     0
100
AcDbPoint
 10
-9.070006
 20
3.094255
 30
0.0
  0
POINT
  5
2216
330
1848
100
AcDbEntity
  8
Defpoints
  6
Continuous
 62
     0
370
     0
100
AcDbPoint
 10
-8.356382
 20
3.094255
 30
0.0
  0
ENDBLK
  5
1853
330
1848
100
AcDbEntity
  8
0
 62
     7
370
     0
100
AcDbBlockEnd
  0
BLOCK
  5
1A12
330
1A08
100
AcDbEntity
  8
0
 62
     7
370
     0
100
AcDbBlockBegin
  2
*D23
 70
     1
 10
0.0
 20
0.0
 30
0.0
  3
*D23
  1

  0
LINE
  5
1BBF
330
1A08
100
AcDbEntity
  8
Level 55
  6
Continuous
 62
     0
370
    -2
100
AcDbLine
 10
-9.052006
 20
3.094255
 30
0.0
 11
-8.783375
 21
3.094255
 31
0.0
  0
LINE
  5
1BC0
330
1A08
100
AcDbEntity
  8
Level 55
  6
Continuous
 62
     0
370
    -2
100
AcDbLine
 10
-9.077006
 20
3.019255
 30
0.0
 11
-8.783375
 21
3.019255
 31
0.0
  0
LINE
  5
1BC1
330
1A08
100
AcDbEntity
  8
Level 55
  6
Continuous
 62
     0
370
    -2
100
AcDbLine
 10
-8.798375
 20
2.974255
 30
0.0
 11
-8.798375
 21
2.929255
 31
0.0
  0
LINE
  5
1BC2
330
1A08
100
AcDbEntity
  8
Level 55
  6
Continuous
 62
     0
370
    -2
100
AcDbLine
 10
-8.798375
 20
3.139255
 30
0.0
 11
-8.798375
 21
3.285795
 31
0.0
  0
LINE
  5
1BC3
330
1A08
100
AcDbEntity
  8
Level 55
  6
Continuous
 62
     0
370
    -2
100
AcDbLine
 10
-8.798375
 20
3.285795
 30
0.0
 11
-8.753375
 21
3.285795
 31
0.0
  0
SOLID
  5
1BC4
330
1A08
100
AcDbEntity
  8
Level 55
  6
Continuous
 62
     0
370
     0
100
AcDbTrace
 10
-8.805875
 20
2.974255
 30
0.0
 11
-8.790875
 21
2.974255
 31
0.0
 12
-8.798375
 22
3.019255
 32
0.0
 13
-8.798375
 23
3.019255
 33
0.0
  0
SOLID
  5
1BC5
330
1A08
100
AcDbEntity
  8
Level 55
  6
Continuous
 62
     0
370
     0
100
AcDbTrace
 10
-8.805875
 20
3.139255
 30
0.0
 11
-8.790875
 21
3.139255
 31
0.0
 12
-8.798375
 22
3.094255
 32
0.0
 13
-8.798375
 23
3.094255
 33
0.0
  0
MTEXT
  5
1BC6
330
1A08
100
AcDbEntity
  8
Level 55
  6
Continuous
 62
     0
370
     0
100
AcDbMText
 10
-8.625099
 20
3.285795
 30
0.0
 40
0.03
 41
0.0
 46
0.0
 71
     5
 72
     1
  1
\H1x;\W0.916667;.075\P [1.91] TYP\H1x;\W0.916667;
  7
Style-WORKING
 73
     1
 44
1.0
  0
POINT
  5
1BC7
330
1A08
100
AcDbEntity
  8
Defpoints
  6
Continuous
 62
     0
370
     0
100
AcDbPoint
 10
-9.070006
 20
3.094255
 30
0.0
  0
POINT
  5
1BC8
330
1A08
100
AcDbEntity
  8
Defpoints
  6
Continuous
 62
     0
370
     0
100
AcDbPoint
 10
-9.095006
 20
3.019255
 30
0.0
  0
POINT
  5
1BC9
330
1A08
100
AcDbEntity
  8
Defpoints
  6
Continuous
 62
     0
370
     0
100
AcDbPoint
 10
-8.798375
 20
3.019255
 30
0.0
  0
ENDBLK
  5
1A13
330
1A08
100
AcDbEntity
  8
0
 62
     7
370
     0
100
AcDbBlockEnd
  0
BLOCK
  5
1BD4
330
1BCA
100
AcDbEntity
  8
0
 62
     7
370
     0
100
AcDbBlockBegin
  2
*D24
 70
     1
 10
0.0
 20
0.0
 30
0.0
  3
*D24
  1

  0
LINE
  5
2217
330
1BCA
100
AcDbEntity
  8
Level 55
  6
Continuous
 62
     0
370
    -2
100
AcDbLine
 10
-9.052006
 20
3.094255
 30
0.0
 11
-8.732742
 21
3.094255
 31
0.0
  0
LINE
  5
2218
330
1BCA
100
AcDbEntity
  8
Level 55
  6
Continuous
 62
     0
370
    -2
100
AcDbLine
 10
-9.077006
 20
3.019255
 30
0.0
 11
-8.732742
 21
3.019255
 31
0.0
  0
LINE
  5
2219
330
1BCA
100
AcDbEntity
  8
Level 55
  6
Continuous
 62
     0
370
    -2
100
AcDbLine
 10
-8.747742
 20
2.974255
 30
0.0
 11
-8.747742
 21
2.929255
 31
0.0
  0
LINE
  5
221A
330
1BCA
100
AcDbEntity
  8
Level 55
  6
Continuous
 62
     0
370
    -2
100
AcDbLine
 10
-8.747742
 20
3.139255
 30
0.0
 11
-8.747742
 21
3.285795
 31
0.0
  0
LINE
  5
221B
330
1BCA
100
AcDbEntity
  8
Level 55
  6
Continuous
 62
     0
370
    -2
100
AcDbLine
 10
-8.747742
 20
3.285795
 30
0.0
 11
-8.702742
 21
3.285795
 31
0.0
  0
SOLID
  5
221C
330
1BCA
100
AcDbEntity
  8
Level 55
  6
Continuous
 62
     0
370
     0
100
AcDbTrace
 10
-8.755242
 20
2.974255
 30
0.0
 11
-8.740242
 21
2.974255
 31
0.0
 12
-8.747742
 22
3.019255
 32
0.0
 13
-8.747742
 23
3.019255
 33
0.0
  0
SOLID
  5
221D
330
1BCA
100
AcDbEntity
  8
Level 55
  6
Continuous
 62
     0
370
     0
100
AcDbTrace
 10
-8.755242
 20
3.139255
 30
0.0
 11
-8.740242
 21
3.139255
 31
0.0
 12
-8.747742
 22
3.094255
 32
0.0
 13
-8.747742
 23
3.094255
 33
0.0
  0
MTEXT
  5
221E
330
1BCA
100
AcDbEntity
  8
Level 55
  6
Continuous
 62
     0
370
     0
100
AcDbMText
 10
-8.574466
 20
3.285795
 30
0.0
 40
0.03
 41
0.0
 46
0.0
 71
     5
 72
     1
  1
\H1x;\W0.916667;.075\P [1.91] TYP\H1x;\W0.916667;
  7
Style-WORKING
 73
     1
 44
1.0
  0
POINT
  5
221F
330
1BCA
100
AcDbEntity
  8
Defpoints
  6
Continuous
 62
     0
370
     0
100
AcDbPoint
 10
-9.070006
 20
3.094255
 30
0.0
  0
POINT
  5
2220
330
1BCA
100
AcDbEntity
  8
Defpoints
  6
Continuous
 62
     0
370
     0
100
AcDbPoint
 10
-9.095006
 20
3.019255
 30
0.0
  0
POINT
  5
2221
330
1BCA
100
AcDbEntity
  8
Defpoints
  6
Continuous
 62
     0
370
     0
100
AcDbPoint
 10
-8.747742
 20
3.019255
 30
0.0
  0
ENDBLK
  5
1BD5
330
1BCA
100
AcDbEntity
  8
0
 62
     7
370
     0
100
AcDbBlockEnd
  0
BLOCK
  5
2071
330
2067
100
AcDbEntity
  8
0
 62
     7
370
     0
100
AcDbBlockBegin
  2
*D25
 70
     1
 10
0.0
 20
0.0
 30
0.0
  3
*D25
  1

  0
LINE
  5
2222
330
2067
100
AcDbEntity
  8
Level 55
  6
Continuous
 62
     0
370
    -2
100
AcDbLine
 10
-9.070006
 20
3.076255
 30
0.0
 11
-9.070006
 21
2.604642
 31
0.0
  0
LINE
  5
2223
330
2067
100
AcDbEntity
  8
Level 55
  6
Continuous
 62
     0
370
    -2
100
AcDbLine
 10
-9.170006
 20
3.076254
 30
0.0
 11
-9.170006
 21
2.604642
 31
0.0
  0
LINE
  5
2224
330
2067
100
AcDbEntity
  8
Level 55
  6
Continuous
 62
     0
370
    -2
100
AcDbLine
 10
-9.025006
 20
2.619642
 30
0.0
 11
-8.980006
 21
2.619642
 31
0.0
  0
LINE
  5
2225
330
2067
100
AcDbEntity
  8
Level 55
  6
Continuous
 62
     0
370
    -2
100
AcDbLine
 10
-9.215006
 20
2.619642
 30
0.0
 11
-9.260007
 21
2.619642
 31
0.0
  0
SOLID
  5
2226
330
2067
100
AcDbEntity
  8
Level 55
  6
Continuous
 62
     0
370
     0
100
AcDbTrace
 10
-9.025006
 20
2.627142
 30
0.0
 11
-9.025006
 21
2.612142
 31
0.0
 12
-9.070006
 22
2.619642
 32
0.0
 13
-9.070006
 23
2.619642
 33
0.0
  0
SOLID
  5
2227
330
2067
100
AcDbEntity
  8
Level 55
  6
Continuous
 62
     0
370
     0
100
AcDbTrace
 10
-9.215006
 20
2.627142
 30
0.0
 11
-9.215006
 21
2.612142
 31
0.0
 12
-9.170006
 22
2.619642
 32
0.0
 13
-9.170006
 23
2.619642
 33
0.0
  0
MTEXT
  5
2228
330
2067
100
AcDbEntity
  8
Level 55
  6
Continuous
 62
     0
370
     0
100
AcDbMText
 10
-9.401596
 20
2.619642
 30
0.0
 40
0.03
 41
0.0
 46
0.0
 71
     5
 72
     1
  1
\H1x;\W0.916667;.100\P [2.54] TYP\H1x;\W0.916667;
  7
Style-WORKING
 73
     1
 44
1.0
  0
POINT
  5
2229
330
2067
100
AcDbEntity
  8
Defpoints
  6
Continuous
 62
     0
370
     0
100
AcDbPoint
 10
-9.070006
 20
3.094255
 30
0.0
  0
POINT
  5
222A
330
2067
100
AcDbEntity
  8
Defpoints
  6
Continuous
 62
     0
370
     0
100
AcDbPoint
 10
-9.170006
 20
3.094254
 30
0.0
  0
POINT
  5
222B
330
2067
100
AcDbEntity
  8
Defpoints
  6
Continuous
 62
     0
370
     0
100
AcDbPoint
 10
-9.170006
 20
2.619642
 30
0.0
  0
ENDBLK
  5
2072
330
2067
100
AcDbEntity
  8
0
 62
     7
370
     0
100
AcDbBlockEnd
  0
ENDSEC
  0
SECTION
  2
ENTITIES
  0
CIRCLE
  5
784
330
1191
100
AcDbEntity
  8
Level 1
  6
Continuous
 62
     7
370
     0
100
AcDbCircle
 10
8.887756
 20
3.056755
 30
0.0
 40
0.04649999256
210
0.0
220
0.0
230
-1.0
  0
LINE
  5
785
330
1191
100
AcDbEntity
  8
Level 1
  6
DGN Style 4
 62
     7
370
     0
100
AcDbLine
 10
-8.829216
 20
3.056754
 30
0.0
 11
-8.945984
 21
3.056754
 31
0.0
  0
LINE
  5
786
330
1191
100
AcDbEntity
  8
Level 1
  6
DGN Style 4
 62
     7
370
     0
100
AcDbLine
 10
-9.602756
 20
3.116529
 30
0.0
 11
-9.602756
 21
2.995573
 31
0.0
  0
CIRCLE
  5
787
330
1191
100
AcDbEntity
  8
Level 1
  6
Continuous
 62
     7
370
     0
100
AcDbCircle
 10
9.602756
 20
3.056755
 30
0.0
 40
0.04649999256
210
0.0
220
0.0
230
-1.0
  0
LINE
  5
788
330
1191
100
AcDbEntity
  8
Level 1
  6
DGN Style 4
 62
     7
370
     0
100
AcDbLine
 10
-9.544216
 20
3.056754
 30
0.0
 11
-9.660984
 21
3.056754
 31
0.0
  0
CIRCLE
  5
7B9
330
1191
100
AcDbEntity
  8
Level 1
  6
Continuous
 62
     7
370
     0
100
AcDbCircle
 10
-9.420006
 20
3.169255
 30
0.0
 40
0.01
  0
CIRCLE
  5
7BA
330
1191
100
AcDbEntity
  8
Level 1
  6
Continuous
 62
     7
370
     0
100
AcDbCircle
 10
-9.320006
 20
3.169255
 30
0.0
 40
0.01
  0
CIRCLE
  5
7BB
330
1191
100
AcDbEntity
  8
Level 1
  6
Continuous
 62
     7
370
     0
100
AcDbCircle
 10
-9.220006
 20
3.169255
 30
0.0
 40
0.01
  0
CIRCLE
  5
7BC
330
1191
100
AcDbEntity
  8
Level 1
  6
Continuous
 62
     7
370
     0
100
AcDbCircle
 10
-9.120006
 20
3.169255
 30
0.0
 40
0.01
  0
CIRCLE
  5
7BD
330
1191
100
AcDbEntity
  8
Level 1
  6
Continuous
 62
     7
370
     0
100
AcDbCircle
 10
-9.070006
 20
3.094255
 30
0.0
 40
0.01
  0
CIRCLE
  5
7BE
330
1191
100
AcDbEntity
  8
Level 1
  6
Continuous
 62
     7
370
     0
100
AcDbCircle
 10
-9.170006
 20
3.094254
 30
0.0
 40
0.01
  0
CIRCLE
  5
7BF
330
1191
100
AcDbEntity
  8
Level 1
  6
Continuous
 62
     7
370
     0
100
AcDbCircle
 10
-9.270006
 20
3.094255
 30
0.0
 40
0.01
  0
CIRCLE
  5
7C0
330
1191
100
AcDbEntity
  8
Level 1
  6
Continuous
 62
     7
370
     0
100
AcDbCircle
 10
-9.370006
 20
3.094255
 30
0.0
 40
0.01
  0
CIRCLE
  5
7C1
330
1191
100
AcDbEntity
  8
Level 1
  6
Continuous
 62
     7
370
     0
100
AcDbCircle
 10
-9.395006
 20
3.019255
 30
0.0
 40
0.01
  0
CIRCLE
  5
7C2
330
1191
100
AcDbEntity
  8
Level 1
  6
Continuous
 62
     7
370
     0
100
AcDbCircle
 10
-9.295006
 20
3.019255
 30
0.0
 40
0.01
  0
CIRCLE
  5
7C3
330
1191
100
AcDbEntity
  8
Level 1
  6
Continuous
 62
     7
370
     0
100
AcDbCircle
 10
-9.195006
 20
3.019255
 30
0.0
 40
0.01
  0
CIRCLE
  5
7C4
330
1191
100
AcDbEntity
  8
Level 1
  6
Continuous
 62
     7
370
     0
100
AcDbCircle
 10
-9.095006
 20
3.019255
 30
0.0
 40
0.01
  0
CIRCLE
  5
7C5
330
1191
100
AcDbEntity
  8
Level 1
  6
Continuous
 62
     7
370
     0
100
AcDbCircle
 10
-9.145006
 20
2.944254
 30
0.0
 40
0.01
  0
CIRCLE
  5
7C6
330
1191
100
AcDbEntity
  8
Level 1
  6
Continuous
 62
     7
370
     0
100
AcDbCircle
 10
-9.245006
 20
2.944254
 30
0.0
 40
0.01
  0
CIRCLE
  5
7C7
330
1191
100
AcDbEntity
  8
Level 1
  6
Continuous
 62
     7
370
     0
100
AcDbCircle
 10
-9.345006
 20
2.944255
 30
0.0
 40
0.01
  0
LINE
  5
7C9
330
1191
100
AcDbEntity
  8
Level 1
  6
DGN Style 4
 62
     7
370
     0
100
AcDbLine
 10
-8.887756
 20
3.116529
 30
0.0
 11
-8.887756
 21
2.995573
 31
0.0
  0
LINE
  5
7D1
330
1191
100
AcDbEntity
  8
Level 1
  6
Continuous
 62
     7
370
     0
100
AcDbLine
 10
-9.070006
 20
3.094255
 30
0.0
 11
-9.070006
 21
3.019255
 31
0.0
  0
TEXT
  5
78A
330
1191
100
AcDbEntity
  8
Level 1
  6
Continuous
 62
     7
370
     0
100
AcDbText
 10
-9.126836
 20
3.125458
 30
0.0
 40
0.0275
  1
2
 41
0.818182
  7
Style-ANSI_SYMBOLS
 72
     1
 11
-9.119515
 21
3.139208
 31
0.0
100
AcDbText
 73
     2
  0
TEXT
  5
78B
330
1191
100
AcDbEntity
  8
Level 1
  6
Continuous
 62
     7
370
     0
100
AcDbText
 10
-9.163746
 20
3.054618
 30
0.0
 40
0.0275
  1
3
 41
0.818182
  7
Style-ANSI_SYMBOLS
 72
     1
 11
-9.156425
 21
3.068368
 31
0.0
100
AcDbText
 73
     2
  0
TEXT
  5
78C
330
1191
100
AcDbEntity
  8
Level 1
  6
Continuous
 62
     7
370
     0
100
AcDbText
 10
-9.226865
 20
3.126652
 30
0.0
 40
0.0275
  1
4
 41
0.818182
  7
Style-ANSI_SYMBOLS
 72
     1
 11
-9.219544
 21
3.140402
 31
0.0
100
AcDbText
 73
     2
  0
TEXT
  5
78D
330
1191
100
AcDbEntity
  8
Level 1
  6
Continuous
 62
     7
370
     0
100
AcDbText
 10
-9.259225
 20
3.053523
 30
0.0
 40
0.0275
  1
5
 41
0.818182
  7
Style-ANSI_SYMBOLS
 72
     1
 11
-9.251904
 21
3.067273
 31
0.0
100
AcDbText
 73
     2
  0
TEXT
  5
78E
330
1191
100
AcDbEntity
  8
Level 1
  6
Continuous
 62
     7
370
     0
100
AcDbText
 10
-9.326106
 20
3.12492
 30
0.0
 40
0.0275
  1
6
 41
0.818182
  7
Style-ANSI_SYMBOLS
 72
     1
 11
-9.318785
 21
3.13867
 31
0.0
100
AcDbText
 73
     2
  0
TEXT
  5
78F
330
1191
100
AcDbEntity
  8
Level 1
  6
Continuous
 62
     7
370
     0
100
AcDbText
 10
-9.361786
 20
3.053396
 30
0.0
 40
0.0275
  1
7
 41
0.818182
  7
Style-ANSI_SYMBOLS
 72
     1
 11
-9.354465
 21
3.067146
 31
0.0
100
AcDbText
 73
     2
  0
TEXT
  5
790
330
1191
100
AcDbEntity
  8
Level 1
  6
Continuous
 62
     7
370
     0
100
AcDbText
 10
-9.43173
 20
3.126724
 30
0.0
 40
0.0275
  1
8
 41
0.818182
  7
Style-ANSI_SYMBOLS
 72
     1
 11
-9.424409
 21
3.140474
 31
0.0
100
AcDbText
 73
     2
  0
TEXT
  5
791
330
1191
100
AcDbEntity
  8
Level 1
  6
Continuous
 62
     7
370
     0
100
AcDbText
 10
-9.091581
 20
2.976317
 30
0.0
 40
0.0275
  1
9
 41
0.818182
  7
Style-ANSI_SYMBOLS
 72
     1
 11
-9.08426
 21
2.990067
 31
0.0
100
AcDbText
 73
     2
  0
TEXT
  5
792
330
1191
100
AcDbEntity
  8
Level 1
  6
Continuous
 62
     7
370
     0
100
AcDbText
 10
-9.161274
 20
2.901878
 30
0.0
 40
0.0275
  1
10
 41
0.818182
  7
Style-ANSI_SYMBOLS
 72
     1
 11
-9.142703
 21
2.915628
 31
0.0
100
AcDbText
 73
     2
  0
TEXT
  5
793
330
1191
100
AcDbEntity
  8
Level 1
  6
Continuous
 62
     7
370
     0
100
AcDbText
 10
-9.208662
 20
2.974057
 30
0.0
 40
0.0275
  1
11
 41
0.818182
  7
Style-ANSI_SYMBOLS
 72
     1
 11
-9.193841
 21
2.987807
 31
0.0
100
AcDbText
 73
     2
  0
TEXT
  5
794
330
1191
100
AcDbEntity
  8
Level 1
  6
Continuous
 62
     7
370
     0
100
AcDbText
 10
-9.260392
 20
2.903993
 30
0.0
 40
0.0275
  1
12
 41
0.818182
  7
Style-ANSI_SYMBOLS
 72
     1
 11
-9.241821
 21
2.917743
 31
0.0
100
AcDbText
 73
     2
  0
TEXT
  5
795
330
1191
100
AcDbEntity
  8
Level 1
  6
Continuous
 62
     7
370
     0
100
AcDbText
 10
-9.310863
 20
2.977846
 30
0.0
 40
0.0275
  1
13
 41
0.818182
  7
Style-ANSI_SYMBOLS
 72
     1
 11
-9.292292
 21
2.991596
 31
0.0
100
AcDbText
 73
     2
  0
TEXT
  5
796
330
1191
100
AcDbEntity
  8
Level 1
  6
Continuous
 62
     7
370
     0
100
AcDbText
 10
-9.362559
 20
2.906986
 30
0.0
 40
0.0275
  1
14
 41
0.818182
  7
Style-ANSI_SYMBOLS
 72
     1
 11
-9.343988
 21
2.920736
 31
0.0
100
AcDbText
 73
     2
  0
TEXT
  5
797
330
1191
100
AcDbEntity
  8
Level 1
  6
Continuous
 62
     7
370
     0
100
AcDbText
 10
-9.410174
 20
2.977438
 30
0.0
 40
0.0275
  1
15
 41
0.818182
  7
Style-ANSI_SYMBOLS
 72
     1
 11
-9.391603
 21
2.991188
 31
0.0
100
AcDbText
 73
     2
  0
TEXT
  5
7C8
330
1191
100
AcDbEntity
  8
Level 1
  6
Continuous
 62
     7
370
     0
100
AcDbText
 10
-9.059384
 20
3.052285
 30
0.0
 40
0.0275
  1
1
 41
0.818182
  7
Style-ANSI_SYMBOLS
 72
     1
 11
-9.055813
 21
3.066035
 31
0.0
100
AcDbText
 73
     2
  0
DIMENSION
  5
7CB
330
1191
100
AcDbEntity
  8
Level 55
  6
Continuous
 62
     7
370
     0
100
AcDbDimension
  2
*D3
 10
-9.602756
 20
3.326302
 30
0.0
 11
-9.288267
 21
3.326302
 31
0.0
 70
   160
  1
\H1x;\W0.916667;<>\H1x;\W0.916667;
 71
     5
 42
0.715
 73
     0
 74
     0
 75
     0
  3
Standard
100
AcDbAlignedDimension
 13
-8.887756
 23
3.116529
 33
0.0
 14
-9.602756
 24
3.116529
 34
0.0
 50
180.0
100
AcDbRotatedDimension
1001
ACAD
1000
DSTYLE
1002
{
1070
    78
1070
     7
1070
   288
1070
     1
1070
   284
1070
     7
1070
   140
1040
0.03
1070
   340
1005
1286
1070
    47
1040
0.002
1070
   283
1070
     0
1070
    48
1040
0.002
1070
   272
1070
     3
1070
     3
1000
\X
1070
   147
1040
0.009
1070
   276
1070
     2
1070
    42
1040
0.018
1070
    44
1040
0.015
1070
    43
1040
0.0
1070
   271
1070
     3
1070
   289
1070
     1
1070
    41
1040
0.045
1070
   285
1070
    15
1070
   286
1070
    15
1070
   170
1070
     1
1002
}
  0
DIMENSION
  5
7CA
330
1191
100
AcDbEntity
  8
Level 55
  6
Continuous
 62
     7
370
     0
100
AcDbDimension
  2
*D20
 10
-9.070006
 20
3.226036
 30
0.0
 11
-8.986491
 21
3.226036
 31
0.0
 70
   160
  1
\H1x;\W0.916667;.183\X\H1x;\W0.916667;
 71
     5
 42
0.18225
 73
     0
 74
     0
 75
     0
  3
Standard
100
AcDbAlignedDimension
 13
-8.887756
 23
3.116529
 33
0.0
 14
-9.070006
 24
3.094255
 34
0.0
 50
180.0
100
AcDbRotatedDimension
1001
ACAD
1000
DSTYLE
1002
{
1070
    78
1070
     7
1070
   288
1070
     0
1070
   284
1070
     7
1070
   140
1040
0.03
1070
   340
1005
1286
1070
    47
1040
0.0
1070
   283
1070
     0
1070
    48
1040
0.0
1070
   272
1070
     3
1070
     3
1000
\X
1070
   147
1040
0.009
1070
   276
1070
     2
1070
    42
1040
0.018
1070
    44
1040
0.015
1070
    43
1040
0.0
1070
   271
1070
     3
1070
   289
1070
     1
1070
    41
1040
0.045
1070
   285
1070
    15
1070
   286
1070
    15
1070
   170
1070
     1
1002
}
  0
DIMENSION
  5
7D2
330
1191
100
AcDbEntity
  8
Level 55
  6
Continuous
 62
     7
370
     0
100
AcDbDimension
  2
*D24
 10
-8.747742
 20
3.019255
 30
0.0
 11
-8.574466
 21
3.285795
 31
0.0
 70
   160
  1
\H1x;\W0.916667;<> TYP\H1x;\W0.916667;
 71
     5
 42
0.075
 73
     0
 74
     0
 75
     0
  3
Standard
100
AcDbAlignedDimension
 13
-9.070006
 23
3.094255
 33
0.0
 14
-9.095006
 24
3.019255
 34
0.0
 50
270.0
100
AcDbRotatedDimension
1001
ACAD
1000
DSTYLE
1002
{
1070
    78
1070
     7
1070
   288
1070
     0
1070
   284
1070
     7
1070
   140
1040
0.03
1070
   340
1005
1286
1070
    47
1040
0.0
1070
   283
1070
     0
1070
    48
1040
0.0
1070
   272
1070
     3
1070
     3
1000
\X
1070
   147
1040
0.009
1070
   276
1070
     2
1070
    42
1040
0.018
1070
    44
1040
0.015
1070
    43
1040
0.0
1070
   271
1070
     3
1070
   289
1070
     1
1070
    41
1040
0.045
1070
   285
1070
    15
1070
   286
1070
    15
1070
   170
1070
     1
1002
}
  0
DIMENSION
  5
7D0
330
1191
100
AcDbEntity
  8
Level 55
  6
Continuous
 62
     7
370
     0
100
AcDbDimension
  2
*D22
 10
-8.356382
 20
3.094255
 30
0.0
 11
-8.471711
 21
2.874479
 31
0.0
 70
   160
  1
\H1x;\W0.916667;<>\H1x;\W0.916667;
 71
     5
 42
0.037501
 73
     0
 74
     0
 75
     0
  3
Standard
100
AcDbAlignedDimension
 13
-8.829216
 23
3.056754
 33
0.0
 14
-9.070006
 24
3.094255
 34
0.0
 50
90.0
100
AcDbRotatedDimension
1001
ACAD
1000
DSTYLE
1002
{
1070
    78
1070
     7
1070
   288
1070
     0
1070
   284
1070
     7
1070
   140
1040
0.03
1070
   340
1005
1286
1070
    47
1040
0.0
1070
   283
1070
     0
1070
    48
1040
0.0
1070
   272
1070
     3
1070
     3
1000
\X
1070
   147
1040
0.009
1070
   276
1070
     2
1070
    42
1040
0.018
1070
    44
1040
0.015
1070
    43
1040
0.0
1070
   271
1070
     3
1070
   289
1070
     1
1070
    41
1040
0.045
1070
   285
1070
    15
1070
   286
1070
    15
1070
   170
1070
     1
1002
}
  0
DIMENSION
  5
7CC
330
1191
100
AcDbEntity
  8
Level 55
  6
Continuous
 62
     7
370
     0
100
AcDbDimension
  2
*D11
 10
-9.095006
 20
2.851127
 30
0.0
 11
-8.909022
 21
2.851127
 31
0.0
 70
   160
  1
\H1x;\W0.916667;<>\H1x;\W0.916667;
 71
     5
 42
0.025
 73
     0
 74
     0
 75
     0
  3
Standard
100
AcDbAlignedDimension
 13
-9.070006
 23
3.094255
 33
0.0
 14
-9.095006
 24
3.019255
 34
0.0
 50
180.0
100
AcDbRotatedDimension
1001
ACAD
1000
DSTYLE
1002
{
1070
    78
1070
     7
1070
   288
1070
     1
1070
   284
1070
     7
1070
   140
1040
0.03
1070
   340
1005
1286
1070
    47
1040
0.002
1070
   283
1070
     0
1070
    48
1040
0.002
1070
   272
1070
     3
1070
     3
1000
\X
1070
   147
1040
0.009
1070
   276
1070
     2
1070
    42
1040
0.018
1070
    44
1040
0.015
1070
    43
1040
0.0
1070
   271
1070
     3
1070
   289
1070
     1
1070
    41
1040
0.045
1070
   285
1070
    15
1070
   286
1070
    15
1070
   170
1070
     1
1002
}
  0
DIMENSION
  5
7CD
330
1191
100
AcDbEntity
  8
Level 55
  6
Continuous
 62
     7
370
     0
100
AcDbDimension
  2
*D13
 10
-9.120006
 20
2.777017
 30
0.0
 11
-9.312998
 21
2.777017
 31
0.0
 70
   160
  1
\H1x;\W0.916667;<>\H1x;\W0.916667;
 71
     5
 42
0.05
 73
     0
 74
     0
 75
     0
  3
Standard
100
AcDbAlignedDimension
 13
-9.070006
 23
3.094255
 33
0.0
 14
-9.120006
 24
3.169255
 34
0.0
 50
180.0
100
AcDbRotatedDimension
1001
ACAD
1000
DSTYLE
1002
{
1070
    78
1070
     7
1070
   288
1070
     1
1070
   284
1070
     7
1070
   140
1040
0.03
1070
   340
1005
1286
1070
    47
1040
0.002
1070
   283
1070
     0
1070
    48
1040
0.002
1070
   272
1070
     3
1070
     3
1000
\X
1070
   147
1040
0.009
1070
   276
1070
     2
1070
    42
1040
0.018
1070
    44
1040
0.015
1070
    43
1040
0.0
1070
   271
1070
     3
1070
   289
1070
     1
1070
    41
1040
0.045
1070
   285
1070
    15
1070
   286
1070
    15
1070
   170
1070
     1
1002
}
  0
DIMENSION
  5
7CE
330
1191
100
AcDbEntity
  8
Level 55
  6
Continuous
 62
     7
370
     0
100
AcDbDimension
  2
*D15
 10
-9.145006
 20
2.698547
 30
0.0
 11
-8.90793
 21
2.698547
 31
0.0
 70
   160
  1
\H1x;\W0.916667;<>\H1x;\W0.916667;
 71
     5
 42
0.075
 73
     0
 74
     0
 75
     0
  3
Standard
100
AcDbAlignedDimension
 13
-9.070006
 23
3.094255
 33
0.0
 14
-9.145006
 24
2.944254
 34
0.0
 50
180.0
100
AcDbRotatedDimension
1001
ACAD
1000
DSTYLE
1002
{
1070
    78
1070
     7
1070
   288
1070
     1
1070
   284
1070
     7
1070
   140
1040
0.03
1070
   340
1005
1286
1070
    47
1040
0.002
1070
   283
1070
     0
1070
    48
1040
0.002
1070
   272
1070
     3
1070
     3
1000
\X
1070
   147
1040
0.009
1070
   276
1070
     2
1070
    42
1040
0.018
1070
    44
1040
0.015
1070
    43
1040
0.0
1070
   271
1070
     3
1070
   289
1070
     1
1070
    41
1040
0.045
1070
   285
1070
    15
1070
   286
1070
    15
1070
   170
1070
     1
1002
}
  0
DIMENSION
  5
7CF
330
1191
100
AcDbEntity
  8
Level 55
  6
Continuous
 62
     7
370
     0
100
AcDbDimension
  2
*D25
 10
-9.170006
 20
2.619642
 30
0.0
 11
-9.401596
 21
2.619642
 31
0.0
 70
   160
  1
\H1x;\W0.916667;<> TYP\H1x;\W0.916667;
 71
     5
 42
0.1
 73
     0
 74
     0
 75
     0
  3
Standard
100
AcDbAlignedDimension
 13
-9.070006
 23
3.094255
 33
0.0
 14
-9.170006
 24
3.094254
 34
0.0
 50
180.0
100
AcDbRotatedDimension
1001
ACAD
1000
DSTYLE
1002
{
1070
    78
1070
     7
1070
   288
1070
     0
1070
   284
1070
     7
1070
   140
1040
0.03
1070
   340
1005
1286
1070
    47
1040
0.0
1070
   283
1070
     0
1070
    48
1040
0.0
1070
   272
1070
     3
1070
     3
1000
\X
1070
   147
1040
0.009
1070
   276
1070
     2
1070
    42
1040
0.018
1070
    44
1040
0.015
1070
    43
1040
0.0
1070
   271
1070
     3
1070
   289
1070
     1
1070
    41
1040
0.045
1070
   285
1070
    15
1070
   286
1070
    15
1070
   170
1070
     1
1002
}
  0
TEXT
  5
789
330
1191
100
AcDbEntity
  8
Level 1
  6
Continuous
 62
     7
370
     0
100
AcDbText
 10
-9.28624
 20
2.490729
 30
0.0
 40
0.03
  1
SIZE 15
 41
0.916667
  7
Style-WORKING
 72
     1
 11
-9.210397
 21
2.505729
 31
0.0
100
AcDbText
 73
     2
  0
LEADER
  5
1176
330
1191
100
AcDbEntity
  8
Level 55
  6
Continuous
 62
     7
370
     0
100
AcDbLeader
  3
Standard
 76
     3
 10
-9.642412
 20
3.085768
 30
0.0
 10
-9.718794
 20
3.151715
 30
0.0
 10
-9.729278
 20
3.151715
 30
0.0
1001
ACAD
1000
DSTYLE
1002
{
1070
   140
1040
0.03
1070
   340
1005
1286
1070
   147
1040
0.015
1070
    41
1040
0.045
1002
}
  0
TEXT
  5
1177
330
1191
100
AcDbEntity
  8
Level 1
  6
Continuous
 62
     7
370
     0
100
AcDbText
 10
-10.009673
 20
3.138213
 30
0.0
 40
0.03
  1
%%c.096 [2.44]
 41
0.916667
 72
     1
 11
-9.879048
 21
3.153213
 31
0.0
100
AcDbText
 73
     2
  0
INSERT
  5
6F0
330
1191
100
AcDbEntity
  8
0
  6
Continuous
 62
     7
370
     0
100
AcDbBlockReference
  2
umiborder
 10
0.0
 20
0.0
 30
0.0
  0
INSERT
  5
73A
330
1191
100
AcDbEntity
  8
0
  6
Continuous
 62
     7
370
     0
100
AcDbBlockReference
  2
Style 1  PCB layouts
 10
0.0
 20
0.0
 30
0.0
  0
MTEXT
  5
15CB
330
1191
100
AcDbEntity
  8
Level 1
  6
Continuous
 62
     7
370
     0
100
AcDbMText
 10
-9.048033
 20
3.196378
 30
0.0
 40
0.03
 41
0.0
 46
0.0
 71
     1
 72
     1
  1
\H1x;\W0.9;[4.65]
 73
     1
 44
1.0
  0
VIEWPORT
  5
13B4
330
11A4
100
AcDbEntity
 67
     1
  8
0
  6
Continuous
 62
     7
370
     0
100
AcDbViewport
 10
5.250184
 20
4.000122
 30
0.0
 40
8.400879
 41
6.40091
 68
     0
 69
     2
 12
5.250184
 22
4.000122
 13
0.0
 23
0.0
 14
0.0
 24
0.0
 15
3.937008
 25
3.937008
 16
0.0
 26
0.0
 36
1.0
 17
0.0
 27
0.0
 37
0.0
 42
50.0
 43
0.0
 44
0.0
 45
6.40091
 50
0.0
 51
0.0
 72
   100
 90
    32768
  1

281
     0
 71
     1
 74
     1
110
0.0
120
0.0
130
0.0
111
1.0
121
0.0
131
0.0
112
0.0
122
1.0
132
0.0
 79
     0
146
0.0
170
     0
 61
    10
348
11B8
292
     1
282
     1
141
0.0
142
0.0
 63
   250
421
  3355443
  0
VIEWPORT
  5
1591
330
11A4
100
AcDbEntity
 67
     1
  8
0
 62
     7
370
     0
100
AcDbViewport
 10
5.250184
 20
4.000122
 30
0.0
 40
8.400879
 41
6.40091
 68
    -1
 69
     1
 12
5.250184
 22
4.000122
 13
0.0
 23
0.0
 14
0.0
 24
0.0
 15
0.0
 25
0.0
 16
0.0
 26
0.0
 36
1.0
 17
0.0
 27
0.0
 37
0.0
 42
50.0
 43
0.0
 44
0.0
 45
6.40091
 50
0.0
 51
0.0
 72
   100
 90
    32768
  1

281
     0
 71
     1
 74
     1
110
0.0
120
0.0
130
0.0
111
1.0
121
0.0
131
0.0
112
0.0
122
1.0
132
0.0
 79
     0
146
0.0
170
     0
 61
     5
292
     1
282
     1
141
0.0
142
0.0
 63
   250
421
  3355443
  0
ENDSEC
  0
SECTION
  2
OBJECTS
  0
DICTIONARY
  5
1196
330
0
100
AcDbDictionary
281
     1
  3
ACAD_COLOR
350
11D2
  3
ACAD_GROUP
350
11BF
  3
ACAD_LAYOUT
350
11A3
  3
ACAD_MATERIAL
350
1198
  3
ACAD_MLEADERSTYLE
350
11D5
  3
ACAD_MLINESTYLE
350
11C0
  3
ACAD_PLOTSETTINGS
350
11C1
  3
ACAD_PLOTSTYLENAME
350
1195
  3
ACAD_SCALELIST
350
11D3
  3
ACAD_TABLESTYLE
350
11D4
  3
ACAD_VISUALSTYLE
350
11B9
  3
AcadDim
350
1287
  3
ACDB_RECOMPOSE_DATA
350
222D
  3
AcDbVariableDictionary
350
1379
  3
MicroStation
350
1491
  0
DICTIONARY
  5
11AC
330
11AB
100
AcDbDictionary
280
     1
281
     1
  3
ACAD_LAYERFILTERS
360
1281
  3
ACAD_LAYERSTATES
360
11AD
  0
DICTIONARY
  5
1282
330
110
100
AcDbDictionary
280
     1
281
     1
  3
ADSK_XREC_VTRVIEWINFO
360
1283
  0
DICTIONARY
  5
1284
330
112
100
AcDbDictionary
280
     1
281
     1
  3
ADSK_XREC_VTRVIEWINFO
360
1285
  0
DICTIONARY
  5
1376
330
1191
100
AcDbDictionary
280
     1
281
     1
  3
ACAD_SORTENTS
360
1377
  0
DICTIONARY
  5
1705
330
11A4
100
AcDbDictionary
280
     1
281
     1
  3
ACAD_SORTENTS
360
1706
  0
DICTIONARY
  5
11D2
102
{ACAD_REACTORS
330
1196
102
}
330
1196
100
AcDbDictionary
281
     1
  0
DICTIONARY
  5
11BF
102
{ACAD_REACTORS
330
1196
102
}
330
1196
100
AcDbDictionary
281
     1
  0
DICTIONARY
  5
11A3
102
{ACAD_REACTORS
330
1196
102
}
330
1196
100
AcDbDictionary
281
     1
  3
Layout1
350
11A7
  3
Model
350
11A2
  0
DICTIONARY
  5
1198
102
{ACAD_REACTORS
330
1196
102
}
330
1196
100
AcDbDictionary
281
     1
  3
ByBlock
350
11CA
  3
ByLayer
350
11C2
  3
Global
350
1197
  0
DICTIONARY
  5
11D5
102
{ACAD_REACTORS
330
1196
102
}
330
1196
100
AcDbDictionary
281
     1
  3
Standard
350
139E
  0
DICTIONARY
  5
11C0
102
{ACAD_REACTORS
330
1196
102
}
330
1196
100
AcDbDictionary
281
     1
  3
Standard
350
11D6
  0
DICTIONARY
  5
11C1
102
{ACAD_REACTORS
330
1196
102
}
330
1196
100
AcDbDictionary
281
     1
  0
ACDBDICTIONARYWDFLT
  5
1195
102
{ACAD_REACTORS
330
1196
102
}
330
1196
100
AcDbDictionary
281
     1
  3
Normal
350
1194
100
AcDbDictionaryWithDefault
340
1194
  0
DICTIONARY
  5
11D3
102
{ACAD_REACTORS
330
1196
102
}
330
1196
100
AcDbDictionary
281
     1
  3
A0
350
11DA
  3
A1
350
11DB
  3
A2
350
11DC
  3
A3
350
11DD
  3
A4
350
11DE
  3
A5
350
11DF
  3
A6
350
11E0
  3
A7
350
11E1
  3
A8
350
11E2
  3
A9
350
11E3
  3
B0
350
11E4
  3
B1
350
11E5
  3
B2
350
11E6
  3
B3
350
11E7
  3
B4
350
11E8
  3
B5
350
11E9
  3
B6
350
11EA
  3
B7
350
11EB
  3
B8
350
11EC
  3
B9
350
11ED
  3
C0
350
11EE
  3
C1
350
11EF
  3
C2
350
11F0
  3
C3
350
11F1
  3
C4
350
11F2
  3
C5
350
11F3
  3
C6
350
11F4
  3
C7
350
11F5
  3
C8
350
11F6
  3
C9
350
11F7
  3
D0
350
11F8
  3
D1
350
11F9
  3
D2
350
11FA
  0
DICTIONARY
  5
11D4
102
{ACAD_REACTORS
330
1196
102
}
330
1196
100
AcDbDictionary
281
     1
  3
Standard
350
11D7
  0
DICTIONARY
  5
11B9
102
{ACAD_REACTORS
330
1196
102
}
330
1196
100
AcDbDictionary
281
     1
  3
2dWireframe
350
11B8
  3
3D Hidden
350
1393
  3
3dWireframe
350
11D9
  3
Basic
350
1392
  3
Brighten
350
1396
  3
ColorChange
350
139A
  3
Conceptual
350
1394
  3
Dim
350
1395
  3
EdgeColorOff
350
139D
  3
Facepattern
350
1399
  3
Flat
350
138E
  3
FlatWithEdges
350
138F
  3
Gouraud
350
1390
  3
GouraudWithEdges
350
1391
  3
JitterOff
350
139B
  3
Linepattern
350
1398
  3
OverhangOff
350
139C
  3
Realistic
350
11D8
  3
Thicken
350
1397
  0
XRECORD
  5
1287
102
{ACAD_REACTORS
330
1196
102
}
330
1196
100
AcDbXrecord
280
     1
 90
   990106
  3
 
 60
     0
 61
     0
 62
     1
 63
     1
 64
     0
 65
     0
 66
     0
 67
     3
 68
     1
 69
     1
 70
     0
 71
     0
 72
     0
 40
0.0
170
     0
  0
XRECORD
  5
222D
102
{ACAD_REACTORS
330
1196
102
}
330
1196
100
AcDbXrecord
280
     1
 90
        1
330
11D7
  0
DICTIONARY
  5
1379
102
{ACAD_REACTORS
330
1196
102
}
330
1196
100
AcDbDictionary
281
     1
  3
CANNOSCALE
350
137D
  3
CMLEADERSTYLE
350
137B
  3
CTABLESTYLE
350
137A
  3
LAYEREVAL
350
137F
  3
LAYERNOTIFY
350
1380
  3
LIGHTINGUNITS
350
137E
  3
MSLTSCALE
350
137C
  0
DICTIONARY
  5
1491
102
{ACAD_REACTORS
330
1196
102
}
330
1196
100
AcDbDictionary
281
     1
  0
DICTIONARY
  5
1281
102
{ACAD_REACTORS
330
11AC
102
}
330
11AC
100
AcDbDictionary
281
     1
  0
DICTIONARY
  5
11AD
102
{ACAD_REACTORS
330
11AC
102
}
330
11AC
100
AcDbDictionary
281
     1
  0
XRECORD
  5
1283
102
{ACAD_REACTORS
330
1282
102
}
330
1282
100
AcDbXrecord
280
     1
290
     0
292
     0
330
11A2
294
     0
  0
XRECORD
  5
1285
102
{ACAD_REACTORS
330
1284
102
}
330
1284
100
AcDbXrecord
280
     1
290
     0
292
     0
330
11A2
294
     0
  0
SORTENTSTABLE
  5
1377
102
{ACAD_REACTORS
330
1376
102
}
330
1376
100
AcDbSortentsTable
330
1191
331
1176
  5
1176
331
7C1
  5
791
331
786
  5
786
331
796
  5
7C7
331
7BB
  5
78B
331
790
  5
7C1
331
7CA
  5
7CB
331
78D
  5
7BE
331
1177
  5
1177
331
7C2
  5
792
331
787
  5
787
331
797
  5
7C8
331
7BC
  5
78C
331
791
  5
7C2
331
7CB
  5
7CA
331
78E
  5
7BF
331
7D0
  5
7CD
331
7C3
  5
793
331
788
  5
788
331
7BD
  5
78D
331
792
  5
7C3
331
7CC
  5
7CE
331
78F
  5
7C0
331
7D1
  5
7BA
331
7C4
  5
794
331
789
  5
7D2
331
7BE
  5
78E
331
793
  5
7C4
331
7CD
  5
7CF
331
7D2
  5
7CC
331
7C5
  5
795
331
78A
  5
7BB
331
7BF
  5
78F
331
73A
  5
73A
331
784
  5
784
331
794
  5
7C5
331
7CE
  5
7D0
331
7B9
  5
789
331
7C6
  5
796
331
7C8
  5
7C9
331
78B
  5
7BC
331
15CB
  5
15CB
331
7C0
  5
790
331
6F0
  5
6F0
331
785
  5
785
331
7CF
  5
7D1
331
795
  5
7C6
331
7BA
  5
78A
331
7C9
  5
7B9
331
7C7
  5
797
331
78C
  5
7BD
  0
SORTENTSTABLE
  5
1706
102
{ACAD_REACTORS
330
1705
102
}
330
1705
100
AcDbSortentsTable
330
11A4
331
13B4
  5
13B4
331
1591
  5
1591
  0
LAYOUT
  5
11A7
102
{ACAD_XDICTIONARY
360
11A8
102
}
102
{ACAD_REACTORS
330
11A3
102
}
330
11A3
100
AcDbPlotSettings
  1

  2
none_device
  4
Letter_(8.50_x_11.00_Inches)
  6

 40
6.35
 41
6.35
 42
6.350006
 43
6.350006
 44
215.899994
 45
279.399994
 46
0.0
 47
0.0
 48
0.0
 49
0.0
140
0.0
141
0.0
142
1.0
143
1.0
 70
   688
 72
     0
 73
     1
 74
     5
  7

 75
    16
147
1.0
 76
     0
 77
     2
 78
   300
148
0.0
149
0.0
100
AcDbLayout
  1
Layout1
 70
     1
 71
     1
 10
-0.25
 20
-0.25
 11
10.75
 21
8.25
 12
0.0
 22
0.0
 32
0.0
 14
1.049744
 24
0.799667
 34
-0.001526
 15
9.450623
 25
7.200577
 35
0.0
146
0.0
 13
0.0
 23
0.0
 33
0.0
 16
1.0
 26
0.0
 36
0.0
 17
0.0
 27
1.0
 37
0.0
 76
     0
330
11A4
1001
ACAD_PSEXT
1000
None
1000
None
1000
Not applicable
1000
The layout will not be plotted unless a new plotter configuration name is selected.
1070
     0
  0
LAYOUT
  5
11A2
102
{ACAD_REACTORS
330
11A3
102
}
330
11A3
100
AcDbPlotSettings
  1

  2
none_device
  4
ANSI_A_(8.50_x_11.00_Inches)
  6

 40
6.35
 41
19.049999
 42
6.350006
 43
19.049988
 44
215.899994
 45
279.399994
 46
0.0
 47
0.0
 48
0.0
 49
0.0
140
0.0
141
0.0
142
1.0
143
2.584895
 70
 11952
 72
     0
 73
     1
 74
     0
  7

 75
     0
147
0.386863
 76
     0
 77
     2
 78
   300
148
0.0
149
0.0
100
AcDbLayout
  1
Model
 70
     1
 71
     0
 10
0.0
 20
0.0
 11
12.0
 21
9.0
 12
0.0
 22
0.0
 32
0.0
 14
0.0
 24
0.0
 34
0.0
 15
0.0
 25
0.0
 35
0.0
146
0.0
 13
0.0
 23
0.0
 33
0.0
 16
1.0
 26
0.0
 36
0.0
 17
0.0
 27
1.0
 37
0.0
 76
     0
330
1191
  0
MATERIAL
  5
11CA
102
{ACAD_XDICTIONARY
360
11CB
102
}
102
{ACAD_REACTORS
330
1198
102
}
330
1198
100
AcDbMaterial
  1
ByBlock
 72
     0
 43
0.020833
 43
0.0
 43
0.0
 43
0.0
 43
0.0
 43
0.020833
 43
0.0
 43
0.0
 43
0.0
 43
0.0
 43
1.0
 43
0.0
 43
0.0
 43
0.0
 43
0.0
 43
1.0
 77
     0
 47
0.020833
 47
0.0
 47
0.0
 47
0.0
 47
0.0
 47
0.020833
 47
0.0
 47
0.0
 47
0.0
 47
0.0
 47
1.0
 47
0.0
 47
0.0
 47
0.0
 47
0.0
 47
1.0
171
     0
 49
0.020833
 49
0.0
 49
0.0
 49
0.0
 49
0.0
 49
0.020833
 49
0.0
 49
0.0
 49
0.0
 49
0.0
 49
1.0
 49
0.0
 49
0.0
 49
0.0
 49
0.0
 49
1.0
175
     0
142
0.020833
142
0.0
142
0.0
142
0.0
142
0.0
142
0.020833
142
0.0
142
0.0
142
0.0
142
0.0
142
1.0
142
0.0
142
0.0
142
0.0
142
0.0
142
1.0
179
     0
144
0.020833
144
0.0
144
0.0
144
0.0
144
0.0
144
0.020833
144
0.0
144
0.0
144
0.0
144
0.0
144
1.0
144
0.0
144
0.0
144
0.0
144
0.0
144
1.0
147
0.020833
147
0.0
147
0.0
147
0.0
147
0.0
147
0.020833
147
0.0
147
0.0
147
0.0
147
0.0
147
1.0
147
0.0
147
0.0
147
0.0
147
0.0
147
1.0
  0
MATERIAL
  5
11C2
102
{ACAD_XDICTIONARY
360
11C3
102
}
102
{ACAD_REACTORS
330
1198
102
}
330
1198
100
AcDbMaterial
  1
ByLayer
 72
     0
 43
0.020833
 43
0.0
 43
0.0
 43
0.0
 43
0.0
 43
0.020833
 43
0.0
 43
0.0
 43
0.0
 43
0.0
 43
1.0
 43
0.0
 43
0.0
 43
0.0
 43
0.0
 43
1.0
 77
     0
 47
0.020833
 47
0.0
 47
0.0
 47
0.0
 47
0.0
 47
0.020833
 47
0.0
 47
0.0
 47
0.0
 47
0.0
 47
1.0
 47
0.0
 47
0.0
 47
0.0
 47
0.0
 47
1.0
171
     0
 49
0.020833
 49
0.0
 49
0.0
 49
0.0
 49
0.0
 49
0.020833
 49
0.0
 49
0.0
 49
0.0
 49
0.0
 49
1.0
 49
0.0
 49
0.0
 49
0.0
 49
0.0
 49
1.0
175
     0
142
0.020833
142
0.0
142
0.0
142
0.0
142
0.0
142
0.020833
142
0.0
142
0.0
142
0.0
142
0.0
142
1.0
142
0.0
142
0.0
142
0.0
142
0.0
142
1.0
179
     0
144
0.020833
144
0.0
144
0.0
144
0.0
144
0.0
144
0.020833
144
0.0
144
0.0
144
0.0
144
0.0
144
1.0
144
0.0
144
0.0
144
0.0
144
0.0
144
1.0
147
0.020833
147
0.0
147
0.0
147
0.0
147
0.0
147
0.020833
147
0.0
147
0.0
147
0.0
147
0.0
147
1.0
147
0.0
147
0.0
147
0.0
147
0.0
147
1.0
  0
MATERIAL
  5
1197
102
{ACAD_XDICTIONARY
360
1199
102
}
102
{ACAD_REACTORS
330
1198
102
}
330
1198
100
AcDbMaterial
  1
Global
 72
     0
 43
0.020833
 43
0.0
 43
0.0
 43
0.0
 43
0.0
 43
0.020833
 43
0.0
 43
0.0
 43
0.0
 43
0.0
 43
1.0
 43
0.0
 43
0.0
 43
0.0
 43
0.0
 43
1.0
 77
     0
 47
0.020833
 47
0.0
 47
0.0
 47
0.0
 47
0.0
 47
0.020833
 47
0.0
 47
0.0
 47
0.0
 47
0.0
 47
1.0
 47
0.0
 47
0.0
 47
0.0
 47
0.0
 47
1.0
171
     0
 49
0.020833
 49
0.0
 49
0.0
 49
0.0
 49
0.0
 49
0.020833
 49
0.0
 49
0.0
 49
0.0
 49
0.0
 49
1.0
 49
0.0
 49
0.0
 49
0.0
 49
0.0
 49
1.0
175
     0
142
0.020833
142
0.0
142
0.0
142
0.0
142
0.0
142
0.020833
142
0.0
142
0.0
142
0.0
142
0.0
142
1.0
142
0.0
142
0.0
142
0.0
142
0.0
142
1.0
179
     0
144
0.020833
144
0.0
144
0.0
144
0.0
144
0.0
144
0.020833
144
0.0
144
0.0
144
0.0
144
0.0
144
1.0
144
0.0
144
0.0
144
0.0
144
0.0
144
1.0
147
0.020833
147
0.0
147
0.0
147
0.0
147
0.0
147
0.020833
147
0.0
147
0.0
147
0.0
147
0.0
147
1.0
147
0.0
147
0.0
147
0.0
147
0.0
147
1.0
  0
MLEADERSTYLE
  5
139E
102
{ACAD_REACTORS
330
11D5
102
}
330
11D5
100
AcDbMLeaderStyle
170
     2
171
     1
172
     0
 90
        2
 40
0.0
 41
0.0
173
     1
 91
-1056964608
340
11B2
 92
       -2
290
     1
 42
0.09
291
     1
 43
0.36
  3
Standard
 44
0.18
300

342
11AF
174
     1
178
     6
175
     1
176
     0
 93
-1056964608
 45
0.18
292
     0
297
     0
 46
0.18
 94
-1056964608
 47
1.0
 49
1.0
140
1.0
293
     1
141
0.0
294
     1
177
     0
142
1.0
295
     0
296
     0
143
0.125
1001
ACAD_MLEADERVER
1070
     2
  0
MLINESTYLE
  5
11D6
102
{ACAD_REACTORS
330
11C0
102
}
330
11C0
100
AcDbMlineStyle
  2
STANDARD
 70
     0
  3

 62
   256
 51
90.0
 52
90.0
 71
     2
 49
0.5
 62
   256
  6
BYLAYER
 49
-0.5
 62
   256
  6
BYLAYER
  0
ACDBPLACEHOLDER
  5
1194
102
{ACAD_REACTORS
330
1195
102
}
330
1195
  0
SCALE
  5
11DA
102
{ACAD_REACTORS
330
11D3
102
}
330
11D3
100
AcDbScale
 70
     0
300
1:1
140
1.0
141
1.0
290
     1
  0
SCALE
  5
11DB
102
{ACAD_REACTORS
330
11D3
102
}
330
11D3
100
AcDbScale
 70
     0
300
1:2
140
1.0
141
2.0
290
     0
  0
SCALE
  5
11DC
102
{ACAD_REACTORS
330
11D3
102
}
330
11D3
100
AcDbScale
 70
     0
300
1:4
140
1.0
141
4.0
290
     0
  0
SCALE
  5
11DD
102
{ACAD_REACTORS
330
11D3
102
}
330
11D3
100
AcDbScale
 70
     0
300
1:5
140
1.0
141
5.0
290
     0
  0
SCALE
  5
11DE
102
{ACAD_REACTORS
330
11D3
102
}
330
11D3
100
AcDbScale
 70
     0
300
1:8
140
1.0
141
8.0
290
     0
  0
SCALE
  5
11DF
102
{ACAD_REACTORS
330
11D3
102
}
330
11D3
100
AcDbScale
 70
     0
300
1:10
140
1.0
141
10.0
290
     0
  0
SCALE
  5
11E0
102
{ACAD_REACTORS
330
11D3
102
}
330
11D3
100
AcDbScale
 70
     0
300
1:16
140
1.0
141
16.0
290
     0
  0
SCALE
  5
11E1
102
{ACAD_REACTORS
330
11D3
102
}
330
11D3
100
AcDbScale
 70
     0
300
1:20
140
1.0
141
20.0
290
     0
  0
SCALE
  5
11E2
102
{ACAD_REACTORS
330
11D3
102
}
330
11D3
100
AcDbScale
 70
     0
300
1:30
140
1.0
141
30.0
290
     0
  0
SCALE
  5
11E3
102
{ACAD_REACTORS
330
11D3
102
}
330
11D3
100
AcDbScale
 70
     0
300
1:40
140
1.0
141
40.0
290
     0
  0
SCALE
  5
11E4
102
{ACAD_REACTORS
330
11D3
102
}
330
11D3
100
AcDbScale
 70
     0
300
1:50
140
1.0
141
50.0
290
     0
  0
SCALE
  5
11E5
102
{ACAD_REACTORS
330
11D3
102
}
330
11D3
100
AcDbScale
 70
     0
300
1:100
140
1.0
141
100.0
290
     0
  0
SCALE
  5
11E6
102
{ACAD_REACTORS
330
11D3
102
}
330
11D3
100
AcDbScale
 70
     0
300
2:1
140
2.0
141
1.0
290
     0
  0
SCALE
  5
11E7
102
{ACAD_REACTORS
330
11D3
102
}
330
11D3
100
AcDbScale
 70
     0
300
4:1
140
4.0
141
1.0
290
     0
  0
SCALE
  5
11E8
102
{ACAD_REACTORS
330
11D3
102
}
330
11D3
100
AcDbScale
 70
     0
300
8:1
140
8.0
141
1.0
290
     0
  0
SCALE
  5
11E9
102
{ACAD_REACTORS
330
11D3
102
}
330
11D3
100
AcDbScale
 70
     0
300
10:1
140
10.0
141
1.0
290
     0
  0
SCALE
  5
11EA
102
{ACAD_REACTORS
330
11D3
102
}
330
11D3
100
AcDbScale
 70
     0
300
100:1
140
100.0
141
1.0
290
     0
  0
SCALE
  5
11EB
102
{ACAD_REACTORS
330
11D3
102
}
330
11D3
100
AcDbScale
 70
     0
300
1/128" = 1'-0"
140
0.007813
141
12.0
290
     0
  0
SCALE
  5
11EC
102
{ACAD_REACTORS
330
11D3
102
}
330
11D3
100
AcDbScale
 70
     0
300
1/64" = 1'-0"
140
0.015625
141
12.0
290
     0
  0
SCALE
  5
11ED
102
{ACAD_REACTORS
330
11D3
102
}
330
11D3
100
AcDbScale
 70
     0
300
1/32" = 1'-0"
140
0.03125
141
12.0
290
     0
  0
SCALE
  5
11EE
102
{ACAD_REACTORS
330
11D3
102
}
330
11D3
100
AcDbScale
 70
     0
300
1/16" = 1'-0"
140
0.0625
141
12.0
290
     0
  0
SCALE
  5
11EF
102
{ACAD_REACTORS
330
11D3
102
}
330
11D3
100
AcDbScale
 70
     0
300
3/32" = 1'-0"
140
0.09375
141
12.0
290
     0
  0
SCALE
  5
11F0
102
{ACAD_REACTORS
330
11D3
102
}
330
11D3
100
AcDbScale
 70
     0
300
1/8" = 1'-0"
140
0.125
141
12.0
290
     0
  0
SCALE
  5
11F1
102
{ACAD_REACTORS
330
11D3
102
}
330
11D3
100
AcDbScale
 70
     0
300
3/16" = 1'-0"
140
0.1875
141
12.0
290
     0
  0
SCALE
  5
11F2
102
{ACAD_REACTORS
330
11D3
102
}
330
11D3
100
AcDbScale
 70
     0
300
1/4" = 1'-0"
140
0.25
141
12.0
290
     0
  0
SCALE
  5
11F3
102
{ACAD_REACTORS
330
11D3
102
}
330
11D3
100
AcDbScale
 70
     0
300
3/8" = 1'-0"
140
0.375
141
12.0
290
     0
  0
SCALE
  5
11F4
102
{ACAD_REACTORS
330
11D3
102
}
330
11D3
100
AcDbScale
 70
     0
300
1/2" = 1'-0"
140
0.5
141
12.0
290
     0
  0
SCALE
  5
11F5
102
{ACAD_REACTORS
330
11D3
102
}
330
11D3
100
AcDbScale
 70
     0
300
3/4" = 1'-0"
140
0.75
141
12.0
290
     0
  0
SCALE
  5
11F6
102
{ACAD_REACTORS
330
11D3
102
}
330
11D3
100
AcDbScale
 70
     0
300
1" = 1'-0"
140
1.0
141
12.0
290
     0
  0
SCALE
  5
11F7
102
{ACAD_REACTORS
330
11D3
102
}
330
11D3
100
AcDbScale
 70
     0
300
1-1/2" = 1'-0"
140
1.5
141
12.0
290
     0
  0
SCALE
  5
11F8
102
{ACAD_REACTORS
330
11D3
102
}
330
11D3
100
AcDbScale
 70
     0
300
3" = 1'-0"
140
3.0
141
12.0
290
     0
  0
SCALE
  5
11F9
102
{ACAD_REACTORS
330
11D3
102
}
330
11D3
100
AcDbScale
 70
     0
300
6" = 1'-0"
140
6.0
141
12.0
290
     0
  0
SCALE
  5
11FA
102
{ACAD_REACTORS
330
11D3
102
}
330
11D3
100
AcDbScale
 70
     0
300
1'-0" = 1'-0"
140
12.0
141
12.0
290
     0
  0
TABLESTYLE
  5
11D7
102
{ACAD_XDICTIONARY
360
1381
102
}
102
{ACAD_REACTORS
330
11D4
102
}
330
11D4
100
AcDbTableStyle
  3
Standard
 70
     0
 71
     0
 40
0.06
 41
0.06
280
     0
281
     0
  7
Standard
140
0.18
170
     2
 62
     0
 63
     7
283
     0
 90
        4
 91
        0
  1

274
    -2
284
     1
 64
     0
275
    -2
285
     1
 65
     0
276
    -2
286
     1
 66
     0
277
    -2
287
     1
 67
     0
278
    -2
288
     1
 68
     0
279
    -2
289
     1
 69
     0
  7
Standard
140
0.25
170
     5
 62
     0
 63
     7
283
     0
 90
        4
 91
        0
  1

274
    -2
284
     1
 64
     0
275
    -2
285
     1
 65
     0
276
    -2
286
     1
 66
     0
277
    -2
287
     1
 67
     0
278
    -2
288
     1
 68
     0
279
    -2
289
     1
 69
     0
  7
Standard
140
0.18
170
     5
 62
     0
 63
     7
283
     0
 90
        4
 91
        0
  1

274
    -2
284
     1
 64
     0
275
    -2
285
     1
 65
     0
276
    -2
286
     1
 66
     0
277
    -2
287
     1
 67
     0
278
    -2
288
     1
 68
     0
279
    -2
289
     1
 69
     0
  0
VISUALSTYLE
  5
11B8
102
{ACAD_XDICTIONARY
360
222E
102
}
102
{ACAD_REACTORS
330
11B9
102
}
330
11B9
100
AcDbVisualStyle
  2

 70
     4
 71
     0
 72
     2
 73
     0
 90
        0
 40
-0.6
 41
-30.0
 62
     5
 63
     7
421
 16777215
 74
     1
 91
        4
 64
     7
 65
   257
 75
     1
175
     1
 42
1.0
 92
        0
 66
   257
 43
1.0
 76
     1
 77
     6
 78
     2
 67
     7
 79
     5
170
     0
171
     0
290
     0
174
     0
 93
        1
 44
0.0
173
     0
291
     0
 45
0.0
1001
ACAD
1000
AcDbSavedByObjectVersion
1070
     0
  0
VISUALSTYLE
  5
1393
102
{ACAD_XDICTIONARY
360
223E
102
}
102
{ACAD_REACTORS
330
11B9
102
}
330
11B9
100
AcDbVisualStyle
  2

 70
     6
 71
     1
 72
     2
 73
     2
 90
        0
 40
-0.6
 41
-30.0
 62
     5
 63
     7
421
 16777215
 74
     2
 91
        2
 64
     7
 65
   257
 75
     2
175
     1
 42
179.0
 92
        0
 66
   257
 43
1.0
 76
     1
 77
     6
 78
     2
 67
     7
 79
     3
170
     0
171
     0
290
     0
174
     0
 93
        1
 44
0.0
173
     0
291
     0
 45
0.0
1001
ACAD
1000
AcDbSavedByObjectVersion
1070
     0
  0
VISUALSTYLE
  5
11D9
102
{ACAD_XDICTIONARY
360
2232
102
}
102
{ACAD_REACTORS
330
11B9
102
}
330
11B9
100
AcDbVisualStyle
  2

 70
     5
 71
     0
 72
     2
 73
     0
 90
        0
 40
-0.6
 41
-30.0
 62
     5
 63
     7
421
 16777215
 74
     1
 91
        4
 64
     7
 65
   257
 75
     1
175
     1
 42
1.0
 92
        0
 66
   257
 43
1.0
 76
     1
 77
     6
 78
     2
 67
     7
 79
     5
170
     0
171
     0
290
     0
174
     0
 93
        1
 44
0.0
173
     0
291
     0
 45
0.0
1001
ACAD
1000
AcDbSavedByObjectVersion
1070
     0
  0
VISUALSTYLE
  5
1392
102
{ACAD_XDICTIONARY
360
223C
102
}
102
{ACAD_REACTORS
330
11B9
102
}
330
11B9
100
AcDbVisualStyle
  2

 70
     7
 71
     1
 72
     0
 73
     1
 90
        0
 40
-0.6
 41
-30.0
 62
     5
 63
     7
421
 16777215
 74
     0
 91
        4
 64
     7
 65
   257
 75
     1
175
     1
 42
1.0
 92
        8
 66
     7
 43
1.0
 76
     1
 77
     6
 78
     2
 67
     7
 79
     5
170
     0
171
     0
290
     0
174
     0
 93
        1
 44
0.0
173
     0
291
     1
 45
0.0
1001
ACAD
1000
AcDbSavedByObjectVersion
1070
     0
  0
VISUALSTYLE
  5
1396
102
{ACAD_XDICTIONARY
360
2244
102
}
102
{ACAD_REACTORS
330
11B9
102
}
330
11B9
100
AcDbVisualStyle
  2

 70
    12
 71
     2
 72
     2
 73
     0
 90
        0
 40
-0.6
 41
-30.0
 62
     5
 63
     7
421
 16777215
 74
     1
 91
        4
 64
     7
 65
   257
 75
     1
175
     1
 42
1.0
 92
        8
 66
     7
 43
1.0
 76
     1
 77
     6
 78
     2
 67
     7
 79
     5
170
     0
171
     0
290
     0
174
     0
 93
        1
 44
50.0
173
     0
291
     1
 45
0.0
1001
ACAD
1000
AcDbSavedByObjectVersion
1070
     0
  0
VISUALSTYLE
  5
139A
102
{ACAD_XDICTIONARY
360
224C
102
}
102
{ACAD_REACTORS
330
11B9
102
}
330
11B9
100
AcDbVisualStyle
  2

 70
    16
 71
     2
 72
     2
 73
     3
 90
        0
 40
-0.6
 41
-30.0
 62
     5
 63
     8
421
  8421504
 74
     1
 91
        4
 64
     7
 65
   257
 75
     1
175
     1
 42
1.0
 92
        8
 66
     8
424
  8421504
 43
1.0
 76
     1
 77
     6
 78
     2
 67
     7
 79
     5
170
     0
171
     0
290
     0
174
     0
 93
        1
 44
0.0
173
     0
291
     1
 45
0.0
1001
ACAD
1000
AcDbSavedByObjectVersion
1070
     0
  0
VISUALSTYLE
  5
1394
102
{ACAD_XDICTIONARY
360
2240
102
}
102
{ACAD_REACTORS
330
11B9
102
}
330
11B9
100
AcDbVisualStyle
  2

 70
     9
 71
     3
 72
     2
 73
     0
 90
        0
 40
-0.6
 41
-30.0
 62
     5
 63
     7
421
 16777215
 74
     2
 91
        2
 64
     7
 65
   257
 75
     1
175
     1
 42
179.0
 92
        8
 66
     7
 43
1.0
 76
     1
 77
     6
 78
     2
 67
     7
 79
     3
170
     0
171
     0
290
     0
174
     0
 93
        1
 44
0.0
173
     0
291
     0
 45
0.0
1001
ACAD
1000
AcDbSavedByObjectVersion
1070
     0
  0
VISUALSTYLE
  5
1395
102
{ACAD_XDICTIONARY
360
2242
102
}
102
{ACAD_REACTORS
330
11B9
102
}
330
11B9
100
AcDbVisualStyle
  2

 70
    11
 71
     2
 72
     2
 73
     0
 90
        0
 40
-0.6
 41
-30.0
 62
     5
 63
     7
421
 16777215
 74
     1
 91
        4
 64
     7
 65
   257
 75
     1
175
     1
 42
1.0
 92
        8
 66
     7
 43
1.0
 76
     1
 77
     6
 78
     2
 67
     7
 79
     5
170
     0
171
     0
290
     0
174
     0
 93
        1
 44
-50.0
173
     0
291
     1
 45
0.0
1001
ACAD
1000
AcDbSavedByObjectVersion
1070
     0
  0
VISUALSTYLE
  5
139D
102
{ACAD_XDICTIONARY
360
2252
102
}
102
{ACAD_REACTORS
330
11B9
102
}
330
11B9
100
AcDbVisualStyle
  2

 70
    22
 71
     2
 72
     2
 73
     0
 90
        0
 40
-0.6
 41
-30.0
 62
     5
 63
     7
421
 16777215
 74
     1
 91
        4
 64
     7
 65
   257
 75
     1
175
     1
 42
1.0
 92
        8
 66
     7
 43
1.0
 76
     1
 77
     6
 78
     2
 67
     7
 79
     5
170
     0
171
     0
290
     0
174
     0
 93
        1
 44
0.0
173
     0
291
     1
 45
0.0
1001
ACAD
1000
AcDbSavedByObjectVersion
1070
     0
  0
VISUALSTYLE
  5
1399
102
{ACAD_XDICTIONARY
360
224A
102
}
102
{ACAD_REACTORS
330
11B9
102
}
330
11B9
100
AcDbVisualStyle
  2

 70
    15
 71
     2
 72
     2
 73
     0
 90
        0
 40
-0.6
 41
-30.0
 62
     5
 63
     7
421
 16777215
 74
     1
 91
        4
 64
     7
 65
   257
 75
     1
175
     1
 42
1.0
 92
        8
 66
     7
 43
1.0
 76
     1
 77
     6
 78
     2
 67
     7
 79
     5
170
     0
171
     0
290
     0
174
     0
 93
        1
 44
0.0
173
     0
291
     1
 45
0.0
1001
ACAD
1000
AcDbSavedByObjectVersion
1070
     0
  0
VISUALSTYLE
  5
138E
102
{ACAD_XDICTIONARY
360
2234
102
}
102
{ACAD_REACTORS
330
11B9
102
}
330
11B9
100
AcDbVisualStyle
  2

 70
     0
 71
     2
 72
     1
 73
     1
 90
        2
 40
-0.6
 41
30.0
 62
     5
 63
     7
421
 16777215
 74
     0
 91
        4
 64
     7
 65
   257
 75
     1
175
     1
 42
1.0
 92
        8
 66
     7
 43
1.0
 76
     1
 77
     6
 78
     2
 67
     7
 79
     5
170
     0
171
     0
290
     0
174
     0
 93
       13
 44
0.0
173
     0
291
     1
 45
0.0
1001
ACAD
1000
AcDbSavedByObjectVersion
1070
     0
  0
VISUALSTYLE
  5
138F
102
{ACAD_XDICTIONARY
360
2236
102
}
102
{ACAD_REACTORS
330
11B9
102
}
330
11B9
100
AcDbVisualStyle
  2

 70
     1
 71
     2
 72
     1
 73
     1
 90
        2
 40
-0.6
 41
30.0
 62
     5
 63
     7
421
 16777215
 74
     1
 91
        4
 64
     7
 65
   257
 75
     1
175
     1
 42
1.0
 92
        0
 66
   257
 43
1.0
 76
     1
 77
     6
 78
     2
 67
     7
 79
     5
170
     0
171
     0
290
     0
174
     0
 93
       13
 44
0.0
173
     0
291
     1
 45
0.0
1001
ACAD
1000
AcDbSavedByObjectVersion
1070
     0
  0
VISUALSTYLE
  5
1390
102
{ACAD_XDICTIONARY
360
2238
102
}
102
{ACAD_REACTORS
330
11B9
102
}
330
11B9
100
AcDbVisualStyle
  2

 70
     2
 71
     2
 72
     2
 73
     1
 90
        2
 40
-0.6
 41
30.0
 62
     5
 63
     7
421
 16777215
 74
     0
 91
        4
 64
     7
 65
   257
 75
     1
175
     1
 42
1.0
 92
        0
 66
     7
 43
1.0
 76
     1
 77
     6
 78
     2
 67
     7
 79
     5
170
     0
171
     0
290
     0
174
     0
 93
       13
 44
0.0
173
     0
291
     1
 45
0.0
1001
ACAD
1000
AcDbSavedByObjectVersion
1070
     0
  0
VISUALSTYLE
  5
1391
102
{ACAD_XDICTIONARY
360
223A
102
}
102
{ACAD_REACTORS
330
11B9
102
}
330
11B9
100
AcDbVisualStyle
  2

 70
     3
 71
     2
 72
     2
 73
     1
 90
        2
 40
-0.6
 41
30.0
 62
     5
 63
     7
421
 16777215
 74
     1
 91
        4
 64
     7
 65
   257
 75
     1
175
     1
 42
1.0
 92
        0
 66
   257
 43
1.0
 76
     1
 77
     6
 78
     2
 67
     7
 79
     5
170
     0
171
     0
290
     0
174
     0
 93
       13
 44
0.0
173
     0
291
     1
 45
0.0
1001
ACAD
1000
AcDbSavedByObjectVersion
1070
     0
  0
VISUALSTYLE
  5
139B
102
{ACAD_XDICTIONARY
360
224E
102
}
102
{ACAD_REACTORS
330
11B9
102
}
330
11B9
100
AcDbVisualStyle
  2

 70
    20
 71
     2
 72
     2
 73
     0
 90
        0
 40
-0.6
 41
-30.0
 62
     5
 63
     7
421
 16777215
 74
     1
 91
        4
 64
     7
 65
   257
 75
     1
175
     1
 42
1.0
 92
       10
 66
     7
 43
1.0
 76
     1
 77
     6
 78
     2
 67
     7
 79
     5
170
     0
171
     0
290
     0
174
     0
 93
        1
 44
0.0
173
     0
291
     1
 45
0.0
1001
ACAD
1000
AcDbSavedByObjectVersion
1070
     0
  0
VISUALSTYLE
  5
1398
102
{ACAD_XDICTIONARY
360
2248
102
}
102
{ACAD_REACTORS
330
11B9
102
}
330
11B9
100
AcDbVisualStyle
  2

 70
    14
 71
     2
 72
     2
 73
     0
 90
        0
 40
-0.6
 41
-30.0
 62
     5
 63
     7
421
 16777215
 74
     1
 91
        4
 64
     7
 65
   257
 75
     7
175
     7
 42
1.0
 92
        8
 66
     7
 43
1.0
 76
     1
 77
     6
 78
     2
 67
     7
 79
     5
170
     0
171
     0
290
     0
174
     0
 93
        1
 44
0.0
173
     0
291
     1
 45
0.0
1001
ACAD
1000
AcDbSavedByObjectVersion
1070
     0
  0
VISUALSTYLE
  5
139C
102
{ACAD_XDICTIONARY
360
2250
102
}
102
{ACAD_REACTORS
330
11B9
102
}
330
11B9
100
AcDbVisualStyle
  2

 70
    21
 71
     2
 72
     2
 73
     0
 90
        0
 40
-0.6
 41
-30.0
 62
     5
 63
     7
421
 16777215
 74
     1
 91
        4
 64
     7
 65
   257
 75
     1
175
     1
 42
1.0
 92
        9
 66
     7
 43
1.0
 76
     1
 77
     6
 78
     2
 67
     7
 79
     5
170
     0
171
     0
290
     0
174
     0
 93
        1
 44
0.0
173
     0
291
     1
 45
0.0
1001
ACAD
1000
AcDbSavedByObjectVersion
1070
     0
  0
VISUALSTYLE
  5
11D8
102
{ACAD_XDICTIONARY
360
2230
102
}
102
{ACAD_REACTORS
330
11B9
102
}
330
11B9
100
AcDbVisualStyle
  2

 70
     8
 71
     2
 72
     2
 73
     0
 90
        0
 40
-0.6
 41
-30.0
 62
     5
 63
     7
421
 16777215
 74
     1
 91
        0
 64
     7
 65
   257
 75
     1
175
     1
 42
1.0
 92
        8
 66
     8
424
  7895160
 43
1.0
 76
     1
 77
     6
 78
     2
 67
     7
 79
     5
170
     0
171
     0
290
     0
174
     0
 93
       13
 44
0.0
173
     0
291
     0
 45
0.0
1001
ACAD
1000
AcDbSavedByObjectVersion
1070
     0
  0
VISUALSTYLE
  5
1397
102
{ACAD_XDICTIONARY
360
2246
102
}
102
{ACAD_REACTORS
330
11B9
102
}
330
11B9
100
AcDbVisualStyle
  2

 70
    13
 71
     2
 72
     2
 73
     0
 90
        0
 40
-0.6
 41
-30.0
 62
     5
 63
     7
421
 16777215
 74
     1
 91
        4
 64
     7
 65
   257
 75
     1
175
     1
 42
1.0
 92
       12
 66
     7
 43
1.0
 76
     1
 77
     6
 78
     2
 67
     7
 79
     5
170
     0
171
     0
290
     0
174
     0
 93
        1
 44
0.0
173
     0
291
     1
 45
0.0
1001
ACAD
1000
AcDbSavedByObjectVersion
1070
     0
  0
DICTIONARYVAR
  5
137D
102
{ACAD_REACTORS
330
1379
102
}
330
1379
100
DictionaryVariables
280
     0
  1
1:1
  0
DICTIONARYVAR
  5
137B
102
{ACAD_REACTORS
330
1379
102
}
330
1379
100
DictionaryVariables
280
     0
  1
STANDARD
  0
DICTIONARYVAR
  5
137A
102
{ACAD_REACTORS
330
1379
102
}
330
1379
100
DictionaryVariables
280
     0
  1
STANDARD
  0
DICTIONARYVAR
  5
137F
102
{ACAD_REACTORS
330
1379
102
}
330
1379
100
DictionaryVariables
280
     0
  1
1
  0
DICTIONARYVAR
  5
1380
102
{ACAD_REACTORS
330
1379
102
}
330
1379
100
DictionaryVariables
280
     0
  1
15
  0
DICTIONARYVAR
  5
137E
102
{ACAD_REACTORS
330
1379
102
}
330
1379
100
DictionaryVariables
280
     0
  1
0
  0
DICTIONARYVAR
  5
137C
102
{ACAD_REACTORS
330
1379
102
}
330
1379
100
DictionaryVariables
280
     0
  1
0
  0
DICTIONARY
  5
11A8
330
11A7
100
AcDbDictionary
280
     1
281
     1
  3
ADSK_XREC_LAYOUTTHUMBNAIL
360
11A9
  0
DICTIONARY
  5
11CB
330
11CA
100
AcDbDictionary
280
     1
281
     1
  3
BUMPTILE
360
11CC
  3
DIFFUSETILE
360
11CD
  3
OPACITYTILE
360
11CE
  3
REFLECTIONTILE
360
11CF
  3
REFRACTIONTILE
360
11D0
  3
SPECULARTILE
360
11D1
  0
DICTIONARY
  5
11C3
330
11C2
100
AcDbDictionary
280
     1
281
     1
  3
BUMPTILE
360
11C4
  3
DIFFUSETILE
360
11C5
  3
OPACITYTILE
360
11C6
  3
REFLECTIONTILE
360
11C7
  3
REFRACTIONTILE
360
11C8
  3
SPECULARTILE
360
11C9
  0
DICTIONARY
  5
1199
330
1197
100
AcDbDictionary
280
     1
281
     1
  3
BUMPTILE
360
119A
  3
DIFFUSETILE
360
119B
  3
OPACITYTILE
360
119C
  3
REFLECTIONTILE
360
119D
  3
REFRACTIONTILE
360
119E
  3
SPECULARTILE
360
119F
  0
DICTIONARY
  5
1381
330
11D7
100
AcDbDictionary
280
     1
281
     1
  3
ACAD_ROUNDTRIP_2008_TABLESTYLE_CELLSTYLEMAP
360
222C
  0
DICTIONARY
  5
222E
330
11B8
100
AcDbDictionary
280
     1
281
     1
  3
ACAD_XREC_ROUNDTRIP
360
222F
  0
DICTIONARY
  5
223E
330
1393
100
AcDbDictionary
280
     1
281
     1
  3
ACAD_XREC_ROUNDTRIP
360
223F
  0
DICTIONARY
  5
2232
330
11D9
100
AcDbDictionary
280
     1
281
     1
  3
ACAD_XREC_ROUNDTRIP
360
2233
  0
DICTIONARY
  5
223C
330
1392
100
AcDbDictionary
280
     1
281
     1
  3
ACAD_XREC_ROUNDTRIP
360
223D
  0
DICTIONARY
  5
2244
330
1396
100
AcDbDictionary
280
     1
281
     1
  3
ACAD_XREC_ROUNDTRIP
360
2245
  0
DICTIONARY
  5
224C
330
139A
100
AcDbDictionary
280
     1
281
     1
  3
ACAD_XREC_ROUNDTRIP
360
224D
  0
DICTIONARY
  5
2240
330
1394
100
AcDbDictionary
280
     1
281
     1
  3
ACAD_XREC_ROUNDTRIP
360
2241
  0
DICTIONARY
  5
2242
330
1395
100
AcDbDictionary
280
     1
281
     1
  3
ACAD_XREC_ROUNDTRIP
360
2243
  0
DICTIONARY
  5
2252
330
139D
100
AcDbDictionary
280
     1
281
     1
  3
ACAD_XREC_ROUNDTRIP
360
2253
  0
DICTIONARY
  5
224A
330
1399
100
AcDbDictionary
280
     1
281
     1
  3
ACAD_XREC_ROUNDTRIP
360
224B
  0
DICTIONARY
  5
2234
330
138E
100
AcDbDictionary
280
     1
281
     1
  3
ACAD_XREC_ROUNDTRIP
360
2235
  0
DICTIONARY
  5
2236
330
138F
100
AcDbDictionary
280
     1
281
     1
  3
ACAD_XREC_ROUNDTRIP
360
2237
  0
DICTIONARY
  5
2238
330
1390
100
AcDbDictionary
280
     1
281
     1
  3
ACAD_XREC_ROUNDTRIP
360
2239
  0
DICTIONARY
  5
223A
330
1391
100
AcDbDictionary
280
     1
281
     1
  3
ACAD_XREC_ROUNDTRIP
360
223B
  0
DICTIONARY
  5
224E
330
139B
100
AcDbDictionary
280
     1
281
     1
  3
ACAD_XREC_ROUNDTRIP
360
224F
  0
DICTIONARY
  5
2248
330
1398
100
AcDbDictionary
280
     1
281
     1
  3
ACAD_XREC_ROUNDTRIP
360
2249
  0
DICTIONARY
  5
2250
330
139C
100
AcDbDictionary
280
     1
281
     1
  3
ACAD_XREC_ROUNDTRIP
360
2251
  0
DICTIONARY
  5
2230
330
11D8
100
AcDbDictionary
280
     1
281
     1
  3
ACAD_XREC_ROUNDTRIP
360
2231
  0
DICTIONARY
  5
2246
330
1397
100
AcDbDictionary
280
     1
281
     1
  3
ACAD_XREC_ROUNDTRIP
360
2247
  0
XRECORD
  5
11A9
102
{ACAD_REACTORS
330
11A8
102
}
330
11A8
100
AcDbXrecord
280
     1
310
28000000B40000008B0000000100080000000000BC61000000000000000000000001000000000000FFFFFF0000000000FFFFFF000000000000000000000000000000000000000000000000000000000000000000330000006600000099000000CC000000FF00000000330000333300006633000099330000CC330000FF3300
310
0000660000336600006666000099660000CC660000FF66000000990000339900006699000099990000CC990000FF99000000CC000033CC000066CC000099CC0000CCCC0000FFCC000000FF000033FF000066FF000099FF0000CCFF0000FFFF000000003300330033006600330099003300CC003300FF003300003333003333
310
33006633330099333300CC333300FF33330000663300336633006666330099663300CC663300FF66330000993300339933006699330099993300CC993300FF99330000CC330033CC330066CC330099CC3300CCCC3300FFCC330000FF330033FF330066FF330099FF3300CCFF3300FFFF330000006600330066006600660099
310
006600CC006600FF00660000336600333366006633660099336600CC336600FF33660000666600336666006666660099666600CC666600FF66660000996600339966006699660099996600CC996600FF99660000CC660033CC660066CC660099CC6600CCCC6600FFCC660000FF660033FF660066FF660099FF6600CCFF6600
310
FFFF660000009900330099006600990099009900CC009900FF00990000339900333399006633990099339900CC339900FF33990000669900336699006666990099669900CC669900FF66990000999900339999006699990099999900CC999900FF99990000CC990033CC990066CC990099CC9900CCCC9900FFCC990000FF99
310
0033FF990066FF990099FF9900CCFF9900FFFF99000000CC003300CC006600CC009900CC00CC00CC00FF00CC000033CC003333CC006633CC009933CC00CC33CC00FF33CC000066CC003366CC006666CC009966CC00CC66CC00FF66CC000099CC003399CC006699CC009999CC00CC99CC00FF99CC0000CCCC0033CCCC0066CC
310
CC0099CCCC00CCCCCC00FFCCCC0000FFCC0033FFCC0066FFCC0099FFCC00CCFFCC00FFFFCC000000FF003300FF006600FF009900FF00CC00FF00FF00FF000033FF003333FF006633FF009933FF00CC33FF00FF33FF000066FF003366FF006666FF009966FF00CC66FF00FF66FF000099FF003399FF006699FF009999FF00CC
310
99FF00FF99FF0000CCFF0033CCFF0066CCFF0099CCFF00CCCCFF00FFCCFF0000FFFF0033FFFF0066FFFF0099FFFF00CCFFFF00FFFFFF00000000000D0D0D001A1A1A00282828003535350043434300505050005D5D5D006B6B6B00787878008686860093939300A1A1A100AEAEAE00BBBBBB00C9C9C900D6D6D600E4E4E400
310
F1F1F100FFFFFF0000000000000000000000000000000000000000000000000000000000000000000000000000000000E2E2E2E2E2E2E2E2E2E2E2E2E2E2E2E2E2E2E2E2E2E2E2E2E2E2E2E2E2E2E2E2E2E2E2E2E2E2E2E2E2E2E2E2E2E2E2E2E2E2E2E2E2E2E2E2E2E2E2E2E2E2E2E2E2E2E2E2E2E2E2E2E2E2E2E2E2E2E2
310
E2E2E2E2E2E2E2E2E2E2E2E2E2E2E2E2E2E2E2E2E2E2E2E2E2E2E2E2E2E2E2E2E2E2E2E2E2E2E2E2E2E2E2E2E2E2E2E2E2E2E2E2E2E2E2E2E2E2E2E2E2E2E2E2E2E2E2E2E2E2E2E2E2E2E2E2E2E2E2E2E2E2E2E2E2E2E2E2E2E2E2E2E2E2E2E2E2E2E2E2EFF5F5F5F5F5F5F5F5F5F5F5F5F5F5F5F5F5F5F5F5F5F5F5F5F5F5
310
F5F5F5F5F5F5F5F5F5F5F5F5F5F5F5F5F5F5F5F5F5F5F5F5F5F5F5F5F5F5F5F5F5F5F5F5F5F5F5F5F5F5F5F5F5F5F5F5F5F5F5F5F5F5F5F5F5F5F5F5F5F5F5F5F5F5F5F5F5F5F5F5F5F5F5F5F5F5F5F5F5F5F5F5F5F5F5F5F5F5F5F5F5F5F5F5F5F5F5F5F5F5F5F5F5F5F5F5F5F5F5F5F5F5F5F5F5F5F5F5F5F5F5F5F5F5F5
310
F5F5F5F5F5F5F5F5F5F5F5F5F5F5F5F5F5F5F5F5F5F5F5F5E2E2EFF5F5F5F5F5F5F5F5F5F5F5F5F5F5F5F5F5F5F5F5F5F5F5F5F5F5F5F5F5F5F5F5F5F5F5F5F5F5F5F5F5F5F5F5F5F5F5F5F5F5F5F5F5F5F5F5F5F5F5F5F5F5F5F5F5F5F5F5F5F5F5F5F5F5F5F5F5F5F5F5F5F5F5F5F5F5F5F5F5F5F5F5F5F5F5F5F5F5F5F5
310
F5F5F5F5F5F5F5F5F5F5F5F5F5F5F5F5F5F5F5F5F5F5F5F5F5F5F5F5F5F5F5F5F5F5F5F5F5F5F5F5F5F5F5F5F5F5F5F5F5F5F5F5F5F5F5F5F5F5F5F5F5F5F5F5F5F5F5F5F5F5F5F5F5F5F5F5F5E2E2EFF5F5F5F5F5F5F5F5F5F5F5F5F5F5F5F5F5F5F5F5F5F5F5F5F5F5F5F5F5F5F5F5F5F5F5F5F5F5F5F5F5F5F5F5F5F5F5
310
F5F5F5F5F5F5F5F5F5F5F5F5F5F5F5F5F5F5F5F5F5F5F5F5F5F5F5F5F5F5F5F5F5F5F5F5F5F5F5F5F5F5F5F5F5F5F5F5F5F5F5F5F5F5F5F5F5F5F5F5F5F5F5F5F5F5F5F5F5F5F5F5F5F5F5F5F5F5F5F5F5F5F5F5F5F5F5F5F5F5F5F5F5F5F5F5F5F5F5F5F5F5F5F5F5F5F5F5F5F5F5F5F5F5F5F5F5F5F5F5F5F5F5F5F5F5F5
310
F5F5F5E2E2EFF5F5F5E2E2E2E2E2E2E2E2F5F5F5F5F5F5F5F5F5E2E2E2E2E2E2E2E2E2E2E2E2E2E2E2E2F5F5F5F5F5F5F5F5E2E2E2E2E2E2E2E2E2E2E2E2E2E2E2E2F5F5F5F5F5F5F5F5F5E2E2E2E2E2E2E2E2E2E2E2E2E2E2E2F5F5F5F5F5F5F5F5F5E2E2E2E2E2E2E2E2E2E2E2E2E2E2E2F5F5F5F5F5F5F5F5F5E2E2E2E2
310
E2E2E2E2E2E2E2E2E2E2E2E2F5F5F5F5F5F5F5F5E2E2E2E2E2E2E2E2E2E2E2E2E2E2E2E2F5F5F5F5F5F5F5F5F5E2E2E2E2E2E2E2E2F5F5F5E2E2EFF5F5F5E2F5F5F5F5F5F5F5F5F5F5F5F5F5F5F5F5F5F5F5F5F5F5F5F5F5F5F5F5F5F5F5F5F5F5F5F5F5F5F5F5F5F5F5F5F5F5F5F5F5F5F5F5F5F5F5F5F5F5F5F5F5F5F5F5
310
F5F5F5F5F5F5F5F5F5F5F5F5F5F5F5F5F5F5F5F5F5F5F5F5F5F5F5F5F5F5F5F5F5F5F5F5F5F5F5F5F5F5F5F5F5F5F5F5F5F5F5F5F5F5F5F5F5F5F5F5F5F5F5F5F5F5F5F5F5F5F5F5F5F5F5F5F5F5F5F5F5F5F5F5F5F5F5F5F5F5F5F5F5F5F5F5F5F5F5F5F5F5F5F5F5E2F5F5F5E2E2EFF5F5F5E2F5F5F5F5F5F5F5F5F5F5F5
310
F5F5F5F5F5F5F5F5F5F5F5F5F5F5F5F5F5F5F5F5F5F5F5F5F5F5F5F5F5F5F5F5F5F5F5F5F5F5F5F5F5F5F5F5F5F5F5F5F5F5F5F5F5F5F5F5F5F5F5F5F5F5F5F5F5F5F5F5F5F5F5F5F5F5F5F5F5F5F5F5F5F5F5F5F5F5F5F5F5F5F5F5F5F5F5F5F5F5F5F5F5F5F5F5F5F5F5F5F5F5F5F5F5F5F5F5F5F5F5F5F5F5F5F5F5F5F5
310
F5F5F5F5F5F5F5F5F5F5F5F5F5F5F5F5F5F5F5F5F5F5F5F5F5F5F5F5F5F5F5E2F5F5F5E2E2EFF5F5F5E2F5F5F5F5F5F5F5F5F5F5F5F5F5F5F5F5F5F5F5F5F5F5F5F5F5F5F5F5F5F5F5F5F5F5F5F5F5F5F5F5F5F5F5F5F5F5F5F5F5F5F5F5F5F5F5F5F5F5F5F5F5F5F5F5F5F5F5F5F5F5F5F5F5F5F5F5F5F5F5F5F5F5F5F5F5
310
F5F5F5F5F5F5F5F5F5F5F5F5F5F5F5F5F5F5F5F5F5F5F5F5F5F5F5F5F5F5F5F5F5F5F5F5F5F5F5F5F5F5F5F5F5F5F5F5F5F5F5F5F5F5F5F5F5F5F5F5F5F5F5F5F5F5F5F5F5F5F5F5F5F5F5F5F5F5F5F5F5F5F5F5E2F5F5F5E2E2EFF5F5F5E2F5F5F5F5F5F5F5F5F5F5F5F5F5F5F5F5F5F5F5F5F5F5F5F5F5F5F5F5F5F5F5F5
310
F5F5F5F5F5F5F5F5F5F5F5F5F5F5F5F5F5F5F5F5F5F5F5F5F5F5F5F5F5F5F5F5F5F5F5F5F5F5F5F5F5F5F5F5F5F5F5F5F5F5F5F5F5F5F5F5F5F5F5F5F5F5F5F5F5F5F5F5F5F5F5F5F5F5F5F5F5F5F5F5F5F5F5F5F5F5F5F5F5F5F5F5F5F5F5F5F5F5F5F5F5F5F5F5F5F5F5F5F5F5F5F5F5F5F5F5F5F5F5F5F5F5F5F5F5F5F5
310
F5F5F5F5F5F5F5F5F5F5E2F5F5F5E2E2EFF5F5F5E2F5F5F5F5F5F5F5F5F5F5F5F5F5F5F5F5F5F5F5F5F5F5F5F5F5F5F5F5F5F5F5F5F5F5F5F5F5F5F5F5F5F5F5F5F5F5F5F5F5F5F5F5F5F5F5F5F5F5F5F5F5F5F5F5F5F5F5F5F5F5F5F5F5F5F5F5F5F5F5F5F5F5F5F5F5F5F5F5F5F5F5F5F5F5F5F5F5F5F5F5F5F5F5F5F5F5
310
F5F5F5F5F5F5F5F5F5F5F5F5F5F5F5F5F5F5F5F5F5F5F5F5F5F5F5F5F5F5F5F5F5F5F5F5F5F5F5F5F5F5F5F5F5F5F5F5F5F5F5F5F5F5F5F5F5F5F5F5F5F5F5E2F5F5F5E2E2EFF5F5F5E2F5F5F5F5F5F5F5F5F5F5F5F5F5F5F5F5F5F5F5F5F5F5F5F5F5F5F5F5F5F5F5F5F5F5F5F5F5F5F5F5F5F5F5F5F5F5F5F5F5F5F5F5F5
310
F5F5F5F5F5F5F5F5F5F5F5F5F5F5F5F5F5F5F5F5F5F5F5F5F5F5F5F5F5F5F5F5F5F5F5F5F5F5F5F5F5F5F5F5F5F5F5F5F5F5F5F5F5F5F5F5F5F5F5F5F5F5F5F5F5F5F5F5F5F5F5F5F5F5F5F5F5F5F5F5F5F5F5F5F5F5F5F5F5F5F5F5F5F5F5F5F5F5F5F5F5F5F5F5F5F5F5F5F5F5F5F5F5F5F5F5E2F5F5F5E2E2EFF5F5F5E2
310
F5F5F5F5F5F5F5F5F5F5F5F5F5F5F5F5F5F5F5F5F5F5F5F5F5F5F5F5F5F5F5F5F5F5F5F5F5F5F5F5F5F5F5F5F5F5F5F5F5F5F5F5F5F5F5F5F5F5F5F5F5F5F5F5F5F5F5F5F5F5F5F5F5F5F5F5F5F5F5F5F5F5F5F5F5F5F5F5F5F5F5F5F5F5F5F5F5F5F5F5F5F5F5F5F5F5F5F5F5F5F5F5F5F5F5F5F5F5F5F5F5F5F5F5F5F5F5
310
F5F5F5F5F5F5F5F5F5F5F5F5F5F5F5F5F5F5F5F5F5F5F5F5F5F5F5F5F5F5F5F5F5F5F5F5F5F5F5F5F5F5E2F5F5F5E2E2EFF5F5F5E2F5F5F5F5F5F5F5F5F5F5F5F5F5F5F5F5F5F5F5F5F5F5F5F5F5F5F5F5F5F5F5F5F5F5F5F5F5F5F5F5F5F5F5F5F5F5F5F5F5F5F5F5F5F5F5F5F5F5F5F5F5F5F5F5F5F5F5F5F5F5F5F5F5F5
310
F5F5F5F5F5F5F5F5F5F5F5F5F5F5F5F5F5F5F5F5F5F5F5F5F5F5F5F5F5F5F5F5F5F5F5F5F5F5F5F5F5F5F5F5F5F5F5F5F5F5F5F5F5F5F5F5F5F5F5F5F5F5F5F5F5F5F5F5F5F5F5F5F5F5F5F5F5F5F5F5F5F5F5F5F5F5F5F5F5F5F5F5F5F5F5E2F5F5F5E2E2EFF5F5F5F5F5F5F5F5F5F5F5F5F5F5F5F5F5F5F5F5F5F5F5F5F5
310
F5F5F5F5F5F5F5F5F5F5F5F5F5F5F5F5F5F5F5F5F5F5F5F5F5F5F5F5F5F5F5F5F5F5F5F5F5F5F5F5F5F5F5F5F5F5F5F5F5F5F5F5F5F5F5F5F5F5F5F5F5F5F5F5F5F5F5F5F5F5F5F5F5F5F5F5F5F5F5F5F5F5F5F5F5F5F5F5F5F5F5F5F5F5F5F5F5F5F5F5F5F5F5F5F5F5F5F5F5F5F5F5F5F5F5F5F5F5F5F5F5F5F5F5F5F5F5
310
F5F5F5F5F5F5F5F5F5F5F5F5F5F5F5F5F5F5F5F5F5F5F5F5F5E2E2EFF5F5F5F5F5F5F5F5F5F5F5F5F5F5F5F5F5F5F5F5F5F5F5F5F5F5F5F5F5F5F5F5F5F5F5F5F5F5F5F5F5F5F5F5F5F5F5F5F5F5F5F5F5F5F5F5F5F5F5F5F5F5F5F5F5F5F5F5F5F5F5F5F5F5F5F5F5F5F5F5F5F5F5F5F5F5F5F5F5F5F5F5F5F5F5F5F5F5F5
310
F5F5F5F5F5F5F5F5F5F5F5F5F5F5F5F5F5F5F5F5F5F5F5F5F5F5F5F5F5F5F5F5F5F5F5F5F5F5F5F5F5F5F5F5F5F5F5F5F5F5F5F5F5F5F5F5F5F5F5F5F5F5F5F5F5F5F5F5F5F5F5F5F5F5F5F5F5F5E2E2EFF5F5F5F5F5F5F5F5F5F5F5F5F5F5F5F5F5F5F5F5F5F5F5F5F5F5F5F5F5F5F5F5F5F5F5F5F5F5F5F5F5F5F5F5F5F5
310
F5F5F5F5F5F5F5F5F5F5F5F5F5F5F5F5F5F5F5F5F5F5F5F5F5F5F5F5F5F5F5F5F5F5F5F5F5F5F5F5F5F5F5F5F5F5F5F5F5F5F5F5F5F5F5F5F5F5F5F5F5F5F5F5F5F5F5F5F5F5F5F5F5F5F5F5F5F5F5F5F5F5F5F5F5F5F5F5F5F5F5F5F5F5F5F5F5F5F5F5F5F5F5F5F5F5F5F5F5F5F5F5F5F5F5F5F5F5F5F5F5F5F5F5F5F5F5
310
F5F5F5F5E2E2EFF5F5F5F5F5F5F5F5F5F5F5F5F5F5F5F5F5F5F5F5F5F5F5F5F5F5F5F5F5F5F5F5F5F5F5F5F5F5F5F5F5F5F5F5F5F5F5F5F5F5F5F5F5F5F5F5F5F5F5F5F5F5F5F5F5F5F5F5F5F5F5F5F5F5F5F5F5F5F5F5F5F5F5F5F5F5F5F5F5F5F5F5F5F5F5F5F5F5F5F5F5F5F5F5F5F5F5F5F5F5F5F5F5F5F5F5F5F5F5F5
310
F5F5F5F5F5F5F5F5F5F5F5F5F5F5F5F5F5F5F5F5F5F5F5F5F5F5F5F5F5F5F5F5F5F5F5F5F5F5F5F5F5F5F5F5F5F5F5F5F5F5F5F5F5F5F5F5F5E2E2EFF5F5F5F5F5F5F5F5F5F5F5F5F5F5F5F5F5F5F5F5E2E2E2E2E2E2E2E2E2E2E2E2E2E2E2E2E2E2E2E2E2E2E2E2E2E2E2E2E2E2E2E2E2E2E2E2E2E2E2E2E2E2E2E2E2E2E2
310
E2E2E2E2E2E2E2E2E2E2E2E2E2E2E2E2E2E2E2E2E2E2E2E2E2E2E2E2E2E2E2E2E2E2E2E2E2E2E2E2E2E2E2E2E2E2E2E2E2E2E2E2E2E2E2E2E2E2E2E2E2E2E2E2E2E2E2E2E2E2E2E2E2E2E2E2E2E2E2E2E2E2E2E2E2E2E2E2E2E2F5F5F5F5F5F5F5F5F5F5F5F5F5F5F5F5F5F5F5F5E2E2EFF5F5F5F5F5F5F5F5F5F5F5F5F5F5
310
F5F5F5F5F5F5E2F5F5F5F5F5F5F5F5F5F5F5F5F5F5F5F5F5F5F5F5F5F5F5F5F5F5F5F5F5F5F5F5F5F5F5F5F5F5F5F5F5F5F5F5F5F5F5F5F5F5F5F5F5F5F5F5F5F5F5F5F5F5F5F5F5F5F5F5F5F5F5F5F5F5F5F5F5F5F5F5F5F5F5F5F5F5F5F5F5F5F5F5F5F5F5F5F5F5F5F5F5F5F5F5F5F5F5F5F5F5F5F5F5F5F5F5F5F5F5F5
310
F5F5F5F5F5F5F5F5F5F5F5F5F5F5F5E2F5F5F5F5F5F5F5F5F5F5F5F5F5F5F5F5F5F5F5F5E2E2EFF5F5F5F5F5F5F5F5F5F5F5F5F5F5F5F5F5F5F5F5E2F5F5F5F5F5F5F5F5F5F5F5F5F5F5F5F5F5F5F5F5F5F5F5F5F5F5F5F5F5F5F5F5F5F5F5F5F5F5F5F5F5F5F5F5F5F5F5F5F5F5F5F5F5F5F5F5F5F5F5F5F5F5F5F5F5F5F5
310
F5F5F5F5F5F5F5F5F5F5F5F5F5F5F5F5F5F5F5F5F5F5F5F5F5F5F5F5F5F5F5F5F5F5F5F5F5F5F5F5F5F5F5F5F5F5F5F5F5F5F5F5F5F5F5F5F5F5F5F5F5F5F5F5F5F5F5F5E2F5F5F5F5F5F5F5F5F5F5F5F5F5F5F5F5F5F5F5F5E2E2EFF5F5F5F5F5F5F5F5F5F5F5F5F5F5F5F5F5F5F5F5E2F5F5F5F5F5F5F5F5F5F5F5F5F5F5
310
F5F5F5F5F5F5F5F5F5F5F5F5F5F5F5F5F5F5F5F5F5F5F5F5F5F5F5F5F5F5F5F5F5F5F5F5F5F5F5F5F5F5F5F5F5F5F5F5F5F5F5F5F5F5F5F5F5F5F5F5F5F5F5F5F5F5F5F5F5F5F5F5F5F5F5F5F5F5F5F5F5F5F5F5F5F5F5F5F5F5F5F5F5F5F5F5F5F5F5F5F5F5F5F5F5F5F5F5F5F5F5F5F5F5F5F5F5F5F5F5F5E2F5F5F5F5F5
310
F5F5F5F5F5F5F5F5F5F5F5F5F5F5F5E2E2EFF5F5F5F5F5F5F5F5F5F5F5F5F5F5F5F5F5F5F5F5E2F5F5F5F5F5F5F5F5F5F5F5F5F5F5F5F5F5F5F5F5F5F5F5F5F5F5F5F5F5F5F5F5F5F5F5F5F5F5F5F5F5F5F5F5F5F5F5F5F5F5F5F5F5F5F5F5F5F5F5F5F5F5F5F5F5F5F5F5F5F5F5F5F5F5F5F5F5F5F5F5F5F5F5F5F5F5F5F5
310
F5F5F5F5F5F5F5F5F5F5F5F5F5F5F5F5F5F5F5F5F5F5F5F5F5F5F5F5F5F5F5F5F5F5F5F5F5F5F5F5F5F5F5F5F5F5F5E2F5F5F5F5F5F5F5F5F5F5F5F5F5F5F5F5F5F5F5F5E2E2EFF5F5F5E2F5F5F5F5F5F5F5F5F5F5F5F5F5F5F5F5E2F5F5F5F5F5F5F5F5F5F5F5F5F5F5F5F5F5F5F5F5F5F5F5F5F5F5F5F5F5F5F5F5F5F5F5
310
F5F5F5F5F5F5F5F5F5F5F5F5F5F5F5F5F5F5F5F5F5F5F5F5F5F5F5F5F5F5F5F5F5F5F5F5F5F5F5F5F5F5F5F5F5F5F5F5F5F5F5F5F5F5F5F5F5F5F5F5F5F5F5F5F5F5F5F5F5F5F5F5F5F5F5F5F5F5F5F5F5F5F5F5F5F5F5F5F5F5F5F5F5F5F5F5F5F5F5F5E2F5F5F5F5F5F5F5F5F5F5F5F5F5F5F5F5E2F5F5F5E2E2EFF5F5F5
310
E2F5F5F5F5F5F5F5F5F5F5F5F5F5F5F5F5E2F5F5F5F5F5F5F5F5F5F5F5F5F5F5F5F5F5F5F5F5F5F5F5F5F5F5F5F5F5F5F5F5F5F5F5F5F5F5F5F5F5F5F5F5F5F5F5F5F5F5F5F5F5F5F5F5F5F5F5F5F5F5F5F5F5F5F5F5F5F5F5F5F5F5F5F5F5F5F5F5F5F5F5F5F5F5F5F5F5F5F5F5F5F5F5F5F5F5F5F5F5F5F5F5F5F5F5F5F5
310
F5F5F5F5F5F5F5F5F5F5F5F5F5F5F5F5F5F5F5F5F5F5F5F5F5F5E2F5F5F5F5F5F5F5F5F5F5F5F5F5F5F5F5E2F5F5F5E2E2EFF5F5F5E2F5F5F5F5F5F5F5F5F5F5F5F5F5F5F5F5E2F5F5F5F5F5F5F5F5F5F5F5F5F5F5F5F5F5F5F5F5F5F5F5F5F5F5F5F5F5F5F5F5F5F5F5F5F5F5F5F5F5F5F5F5F5F5F5F5F5F5F5F5F5F5F5F5
310
F5F5F5F5F5F5F5F5F5F5F5F5F5F5F5F5F5F5F5F5F5F5F5F5F5F5F5F5F5F5F5F5F5F5F5F5F5F5F5F5F5F5F5F5F5F5F5F5F5F5F5F5F5F5F5F5F5F5F5F5F5F5F5F5F5F5F5F5F5F5F5F5F5F5F5F5F5F5F5E2F5F5F5F5F5F5F5F5F5F5F5F5F5F5F5F5E2F5F5F5E2E2EFF5F5F5E2F5F5F5F5F5F5F5F5F5F5F5F5F5F5F5F5E2F5F5F5
310
F5F5F5F5F5F5F5F5F5F5F5F5F5F5F5F5F5F5F5F5F5F5F5F5F5F5F5F5F5F5F5F5F5F5F5F5F5F5F5F5F5F5F5F5F5F5F5F5F5F5F5F5F5F5F5F5F5F5F5F5F5F5F5F5F5F5F5F5F5F5F5F5F5F5F5F5F5F5F5F5F5F5F5F5F5F5F5F5F5F5F5F5F5F5F5F5F5F5F5F5F5F5F5F5F5F5F5F5F5F5F5F5F5F5F5F5F5F5F5F5F5F5F5F5F5F5F5
310
F5F5F5F5F5E2F5F5F5F5F5F5F5F5F5F5F5F5F5F5F5F5E2F5F5F5E2E2EFF5F5F5E2F5F5F5F5F5F5F5F5F5F5F5F5F5F5F5F5E2F5F5F5F5F5F5F5F5F5F5F5F5F5F5F5F5F5F5F5F5F5F5F5F5F5F5F5F5F5F5F5F5F5F5F5F5F5F5F5F5F5F5F5F5F5F5F5F5F5F5F5F5F5F5F5F5F5F5F5F5F5F5F5F5F5F5F5F5F5F5F5F5F5F5F5F5F5
310
F5F5F5F5F5F5F5F5F5F5F5F5F5F5F5F5F5F5F5F5F5F5F5F5F5F5F5F5F5F5F5F5F5F5F5F5F5F5F5F5F5F5F5F5F5F5F5F5F5F5F5F5F5F5F5F5F5F5E2F5F5F5F5F5F5F5F5F5F5F5F5F5F5F5F5E2F5F5F5E2E2EFF5F5F5E2F5F5F5F5F5F5F5F5F5F5F5F5F5F5F5F5E2F5F5F5F5F5F5F5F5F5F5F5F5F5F5F5F5F5F5F5F5F5F5F5F5
310
F5F5F5F5F5F5F5F5F5F5F5F5F5F5F5F5F5F5F5F5F5F5F5F5F5F5F5F5F5F5F5F5F5F5F5F5F5F5F5F5F5F5F5F5F5F5F5F5F5F5F5F5F5F5F5F5F5F5F5F5F5F5F5F5F5F5F5F5F5F5F5F5F5F5F5F5F5F5F5F5F5F5F5F5F5F5F5F5F5F5F5F5F5F5F5F5F5F5F5F5F5F5F5F5F5F5F5F5F5F5F5E2F5F5F5F5F5F5F5F5F5F5F5F5F5F5F5
310
F5E2F5F5F5E2E2EFF5F5F5E2F5F5F5F5F5F5F5F5F5F5F5F5F5F5F5F5E2F5F5F5F5F5F5F5F5F5F5F5F5F5F5F5F5F5F5F5F5F5F5F5F5F5F5F5F5F5F5F5F5F5F5F5F5F5F5F5F5F5F5F5F5F5F5F5F5F5F5F5F5F5F5F5F5F5F5F5F5F5F5F5F5F5F5F5F5F5F5F5F5F5F5F5F5F5F5F5F5F5F5F5F5F5F5F5F5F5F5F5F5F5F5F5F5F5F5
310
F5F5F5F5F5F5F5F5F5F5F5F5F5F5F5F5F5F5F5F5F5F5F5F5F5F5F5F5F5F5F5F5F5F5F5F5F5E2F5F5F5F5F5F5F5F5F5F5F5F5F5F5F5F5E2F5F5F5E2E2EFF5F5F5E2F5F5F5F5F5F5F5F5F5F5F5F5F5F5F5F5E2F5F5F5F5F5F5F5F5F5F5F5F5F5F5F5F5F5F5F5F5F5F5F5F5F5F5F5F5F5F5F5F5F5F5F5F5F5F5F5F5F5F5F5F5F5
310
F5F5F5F5F5F5F5F5F5F5F5F5F5F5F5F5F5F5F5F5F5F5F5F5F5F5F5F5F5F5F5F5F5F5F5F5F5F5F5F5F5F5F5F5F5F5F5F5F5F5F5F5F5F5F5F5F5F5F5F5F5F5F5F5F5F5F5F5F5F5F5F5F5F5F5F5F5F5F5F5F5F5F5F5F5F5F5F5F5F5E2F5F5F5F5F5F5F5F5F5F5F5F5F5F5F5F5E2F5F5F5E2E2EFF5F5F5E2F5F5F5F5F5F5F5F5F5
310
F5F5F5F5F5F5F5E2F5F5F5F5F5F5F5F5F5F5F5F5F5F5F5F5F5F5F5F5F5F5F5F5F5F5F5F5F5F5F5F5F5F5F5F5F5F5F5F5F5F5F5F5F5F5F5F5F5F5F5F5F5F5F5F5F5F5F5F5F5F5F5F5F5F5F5F5F5F5F5F5F5F5F5F5F5F5F5F5F5F5F5F5F5F5F5F5F5F5F5F5F5F5F5F5F5F5F5F5F5F5F5F5F5F5F5F5F5F5F5F5F5F5F5F5F5F5F5
310
F5F5F5F5F5F5F5F5F5F5F5F5F5F5F5F5E2F5F5F5F5F5F5F5F5F5F5F5F5F5F5F5F5E2F5F5F5E2E2EFF5F5F5E2F5F5F5F5F5F5F5F5F5F5F5F5F5F5F5F5E2F5F5F5F5F5F5F5F5F5F5F5F5F5F5F5F5F5F5F5F5F5F5F5F5F5F5F5F5F5F5F5F5F5F5F5F5F5F5F5F5F5F5F5F5F5F5F5F5F5F5F5F5F5F5F5F5F5F5F5F5F5F5F5F5F5F5
310
F5F5F5F5F5F5F5F5F5F5F5F5F5F5F5F5F5F5F5F5F5F5F5F5F5F5F5F5F5F5F5F5F5F5F5F5F5F5F5F5F5F5F5F5F5F5F5F5F5F5F5F5F5F5F5F5F5F5F5F5F5F5F5F5F5F5F5F5F5E2F5F5F5F5F5F5F5F5F5F5F5F5F5F5F5F5E2F5F5F5E2E2EFF5F5F5E2F5F5F5F5F5F5F5F5F5F5F5F5F5F5F5F5E2F5F5F5F5F5F5F5F5F5F5F5F5F5
310
F5F5F5F5F5F5F5F5F5F5F5F5F5F5F5F5F5F5F5F5F5F5F5F5F5F5F5F5F5F5F5F5F5F5F5F5F5F5F5F5F5F5F5F5F5F5F5F5F5F5F5F5F5F5F5F5F5F5F5F5F5F5F5F5F5F5F5F5F5F5F5F5F5F5F5F5F5F5F5F5F5F5F5F5F5F5F5F5F5F5F5F5F5F5F5F5F5F5F5F5F5F5F5F5F5F5F5F5F5F5F5F5F5F5F5F5F5F5F5F5F5F5E2F5F5F5F5
310
F5F5F5F5F5F5F5F5F5F5F5F5E2F5F5F5E2E2EFF5F5F5E2F5F5F5F5F5F5F5F5F5F5F5F5F5F5F5F5E2F5F5F5F5F5F5F5F5F5F5F5F5F5F5F5F5F5F5F5F5F5F5F5F5F5F5F5F5F5F5F5F5F5F5F5F5F5F5F5F5F5F5F5F5F5F5F5F5F5F5F5F5F5F5F5F5F5F5F5F5F5F5F5F5F5F5F5F5F5F5F5F5F5F5F5F5F5F5F5F5F5F5F5F5F5F5F5
310
F5F5F5F5F5F5F5F5F5F5F5F5F5F5F5F5F5F5F5F5F5F5F5F5F5F5F5F5F5F5F5F5F5F5F5F5F5F5F5F5F5F5F5F5F5F5F5F5E2F5F5F5F5F5F5F5F5F5F5F5F5F5F5F5F5E2F5F5F5E2E2EFF5F5F5E2F5F5F5F5F5F5F5F5F5F5F5F5F5F5F5F5E2F5F5F5F5F5F5F5F5F5F5F5F5F5F5F5F5F5F5F5F5F5F5F5F5F5F5F5F5F5F5F5F5F5F5
310
F5F5F5F5F5F5F5F5F5F5F5F5F5F5F5F5F5F5F5F5F5F5F5F5F5F5F5F5F5F5F5F5F5F5F5F5F5F5F5F5F5F5F5F5F5F5F5F5F5F5F5F5F5F5F5F5F5F5F5F5F5F5F5F5F5F5F5F5F5F5F5F5F5F5F5F5F5F5F5F5F5F5F5F5F5F5F5F5F5F5F5F5F5F5F5F5F5F5F5F5F5E2F5F5F5F5F5F5F5F5F5F5F5F5F5F5F5F5E2F5F5F5E2E2EFF5F5
310
F5E2F5F5F5F5F5F5F5F5F5F5F5F5F5F5F5F5E2F5F5F5F5F5F5F5F5F5F5F5F5F5F5F5F5F5F5F5F5F5F5F5F5F5F5F5F5F5F5F5F5F5F5F5F5F5F5F5F5F5F5F5F5F5F5F5F5F5F5F5F5F5F5F5F5F5F5F5F5F5F5F5F5F5F5F5F5F5F5F5F5F5F5F5F5F5F5F5F5F5F5F5F5F5F5F5F5F5F5F5F5F5F5F5F5F5F5F5F5F5F5F5F5F5F5F5F5
310
F5F5F5F5F5F5F5F5F5F5F5F5F5F5F5F5F5F5F5F5F5F5F5F5F5F5F5E2F5F5F5F5F5F5F5F5F5F5F5F5F5F5F5F5E2F5F5F5E2E2EFF5F5F5E2F5F5F5F5F5F5F5F5F5F5F5F5F5F5F5F5E2F5F5F5F5F5F5F5F5F5F5F5F5F5F5F5F5F5F5F5F5F5F5F5F5F5F5F5F5F5F5F5F5F5F5F5F5F5F5F5F5F5F5F5F5F5F5F5F5F5F5F5F5F5F5F5
310
F5F5F5F5F5F5F5F5F5F5F5F5F5F5F5F5F5F5F5F5F5F5F5F5F5F5F5F5F5F5F5F5F5F5F5F5F5F5F5F5F5F5F5F5F5F5F5F5F5F5F5F5F5F5F5F5F5F5F5F5F5F5F5F5F5F5F5F5F5F5F5F5F5F5F5F5F5F5F5F5E2F5F5F5F5F5F5F5F5F5F5F5F5F5F5F5F5E2F5F5F5E2E2EFF5F5F5E2F5F5F5F5F5F5F5F5F5F5F5F5F5F5F5F5E2F5F5
310
F5F5F5F5F5F5F5F5F5F5F5F5F5F5F5F5F5F5F5F5F5F5F5F5F5F5F5F5F5F5F5F5F5F5F5F5F5F5F5F5F5F5F5F5F5F5F5F5F5F5F5F5F5F5F5F5F5F5F5F5F5F5F5F5F5F5F5F5F5F5F5F5F5F5F5F5F5F5F5F5F5F5F5F5F5F5F5F5F5F5F5F5F5F5F5F5F5F5F5F5F5F5F5F5F5F5F5F5F5F5F5F5F5F5F5F5F5F5F5F5F5F5F5F5F5F5F5
310
F5F5F5F5F5F5E2F5F5F5F5F5F5F5F5F5F5F5F5F5F5F5F5E2F5F5F5E2E2EFF5F5F5E2F5F5F5F5F5F5F5F5F5F5F5F5F5F5F5F5E2F5F5F5F5F5F5F5F5F5F5F5F5F5F5F5F5F5F5F5F5F5F5F5F5F5F5F5F5F5F5F5F5F5F5F5F5F5F5F5F5F5F5F5F5F5F5F5F5F5F5F5F5F5F5F5F5F5F5F5F5F5F5F5F5F5F5F5F5F5F5F5F5F5F5F5F5
310
F5F5F5F5F5F5F5F5F5F5F5F5F5F5F5F5F5F5F5F5F5F5F5F5F5F5F5F5F5F5F5F5F5F5F5F5F5F5F5F5F5F5F5F5F5F5F5F5F5F5F5F5F5F5F5F5F5F5F5E2F5F5F5F5F5F5F5F5F5F5F5F5F5F5F5F5E2F5F5F5E2E2EFF5F5F5F5F5F5F5F5F5F5F5F5F5F5F5F5F5F5F5F5E2F5F5F5F5F5F5F5F5F5F5F5F5F5F5F5F5F5F5F5F5F5F5F5
310
F5F5F5F5F5F5F5F5F5F5F5F5F5F5F5F5F5F5F5F5F5F5F5F5F5F5F5F5F5F5F5F5F5F5F5F5F5F5F5F5F5F5F5F5F5F5F5F5F5F5F5F5F5F5F5F5F5F5F5F5F5F5F5F5F5F5F5F5F5F5F5F5F5F5F5F5F5F5F5F5F5F5F5F5F5F5F5F5F5F5F5F5F5F5F5F5F5F5F5F5F5F5F5F5F5F5F5F5F5F5F5F5E2F5F5F5F5F5F5F5F5F5F5F5F5F5F5
310
F5F5F5F5F5F5E2E2EFF5F5F5F5F5F5F5F5F5F5F5F5F5F5F5F5F5F5F5F5E2F5F5F5F5F5F5F5F5F5F5F5F5F5F5F5F5F5F5F5F5F5F5F5F5F5F5F5F5F5F5F5F5F5F5F5F5F5F5F5F5F5F5F5F5F5F5F5F5F5F5F5F5F5F5F5F5F5F5F5F5F5F5F5F5F5F5F5F5F5F5F5F5F5F5F5F5F5F5F5F5F5F5F5F5F5F5F5F5F5F5F5F5F5F5F5F5F5
310
F5F5F5F5F5F5F5F5F5F5F5F5F5F5F5F5F5F5F5F5F5F5F5F5F5F5F5F5F5F5F5F5F5F5F5F5F5F5E2F5F5F5F5F5F5F5F5F5F5F5F5F5F5F5F5F5F5F5F5E2E2EFF5F5F5F5F5F5F5F5F5F5F5F5F5F5F5F5F5F5F5F5E2F5F5F5F5F5F5F5F5F5F5F5F5F5F5F5F5F5F5F5F5F5F5F5F5F5F5F5F5F5F5F5F5F5F5F5F5F5F5F5F5F5F5F5F5
310
F5F5F5F5F5F5F5F5F5F5F5F5F5F5F5F5F5F5F5F5F5F5F5F5F5F5F5F5F5F5F5F5F5F5F5F5F5F5F5F5F5F5F5F5F5F5F5F5F5F5F5F5F5F5F5F5F5F5F5F5F5F5F5F5F5F5F5F5F5F5F5F5F5F5F5F5F5F5F5F5F5F5F5F5F5F5F5F5F5F5F5E2F5F5F5F5F5F5F5F5F5F5F5F5F5F5F5F5F5F5F5F5E2E2EFF5F5F5F5F5F5F5F5F5F5F5F5
310
F5F5F5F5F5F5F5F5E2F5F5F5F5F5F5F5F5F5F5F5F5F5F5F5F5F5F5F5F5F5F5F5F5F5F5F5F5F5F5F5F5F5F5F5F5F5F5F5F5F5F5F5F5F5F5F5F5F5F5F5F5F5F5F5F5F5F5F5F5F5F5F5F5F5F5F5F5F5F5F5F5F5F5F5F5F5F5F5F5F5F5F5F5F5F5F5F5F5F5F5F5F5F5F5F5F5F5F5F5F5F5F5F5F5F5F5F5F5F5F5F5F5F5F5F5F5F5
310
F5F5F5F5F5F5F5F5F5F5F5F5F5F5F5F5F5E2F5F5F5F5F5F5F5F5F5F5F5F5F5F5F5F5F5F5F5F5E2E2EFF5F5F5F5F5F5F5F5F5F5F5F5F5F5F5F5F5F5F5F5E2F5F5F5F5F5F5F5F5F5F5F5F5F5F5F5F5F5F5F5F5F5F5F5F5F5F5F5F5F5F5F5F5F5F5F5F5F5F5F5F5F5F5F5F5F5F5F5F5F5F5F5F5F5F5F5F5F5F5F5F5F5F5F5F5F5
310
F5F5F5F5F5F5F5F5F5F5F5F5F5F5F5F5F5F5F5F5F5F5F5F5F5F5F5F5F5F5F5F5F5F5F5F5F5F5F5F5F5F5F5F5F5F5F5F5F5F5F5F5F5F5F5F5F5F5F5F5F5F5F5F5F5F5F5F5F5F5E2F5F5F5F5F5F5F5F5F5F5F5F5F5F5F5F5F5F5F5F5E2E2EFF5F5F5F5F5F5F5F5F5F5F5F5F5F5F5F5F5F5F5F5E2F5F5F5F5F5F5F5F5F5F5F5F5
310
F5F5F5F5F5F5F5F5F5F5F5F5F5F5F5F5F5F5F5F5F5F5F5F5F5F5F5F5F5F5F5F5F5F5F5F5F5F5F5F5F5F5F5F5F5F5F5F5F5F5F5F5F5F5F5F5F5F5F5F5F5F5F5F5F5F5F5F5F5F5F5F5F5F5F5F5F5F5F5F5F5F5F5F5F5F5F5F5F5F5F5F5F5F5F5F5F5F5F5F5F5F5F5F5F5F5F5F5F5F5F5F5F5F5F5F5F5F5F5F5F5F5F5E2F5F5F5
310
F5F5F5F5F5F5F5F5F5F5F5F5F5F5F5F5F5E2E2EFF5F5F5F5F5F5F5F5F5F5F5F5F5F5F5F5F5F5F5F5E2F5F5F5F5F5F5F5F5F5F5F5F5F5F5F5F5F5F5F5F5F5F5F5F5F5F5F5F5F5F5F5F5F5F5F5F5F5F5F5F5F5F5F5F5F5F5F5F5F5F5F5F5F5F5F5F5F5F5F5F5F5F5F5F5F5F5F5F5F5F5F5F5F5F5F5F5F5F5F5F5F5F5F5F5F5F5
310
F5F5F5F5F5F5F5F5F5F5F5F5F5F5F5F5F5F5F5F5F5F5F5F5F5F5F5F5F5F5F5F5F5F5F5F5F5F5F5F5F5F5F5F5F5F5F5F5F5E2F5F5F5F5F5F5F5F5F5F5F5F5F5F5F5F5F5F5F5F5E2E2EFF5F5F5F5F5F5F5F5F5F5F5F5F5F5F5F5F5F5F5F5E2F5F5F5F5F5F5F5F5F5F5F5F5F5F5F5F5F5F5F5F5F5F5F5F5F5F5F5F5F5F5F5F5F5
310
F5F5F5F5F5F5F5F5F5F5F5F5F5F5F5F5F5F5F5F5F5F5F5F5F5F5F5F5F5F5F5F5F5F5F5F5F5F5F5F5F5F5F5F5F5F5F5F5F5F5F5F5F5F5F5F5F5F5F5F5F5F5F5F5F5F5F5F5F5F5F5F5F5F5F5F5F5F5F5F5F5F5F5F5F5F5F5F5F5F5F5F5F5F5F5F5F5F5F5F5F5F5E2F5F5F5F5F5F5F5F5F5F5F5F5F5F5F5F5F5F5F5F5E2E2EFF5
310
F5F5F5F5F5F5F5F5F5F5F5F5F5F5F5F5F5F5F5E2F5F5F5F5F5F5F5F5F5F5F5F5F5F5F5F5F5F5F5F5F5F5F5F5F5F5F5F5F5F5F5F5F5F5F5F5F5F5F5F5F5F5F5F5F5F5F5F5F5F5F5F5F5F5F5F5F5F5F5F5F5F5F5F5F5F5F5F5F5F5F5F5F5F5F5F5F5F5F5F5F5F5F5F5F5F5F5F5F5F5F5F5F5F5F5F5F5F5F5F5F5F5F5F5F5F5F5
310
F5F5F5F5F5F5F5F5F5F5F5F5F5F5F5F5F5F5F5F5F5F5F5F5F5F5F5F5E2F5F5F5F5F5F5F5F5F5F5F5F5F5F5F5F5F5F5F5F5E2E2EFF5F5F5E2F5F5F5F5F5F5F5F5F5F5F5F5F5F5F5F5E2F5F5F5F5F5F5F5F5F5F5F5F5F5F5F5F5F5F5F5F5F5F5F5F5F5F5F5F5F5F5F5F5F5F5F5F5F5F5F5F5F5F5F5F5F5F5F5F5F5F5F5F5F5F5
310
F5F5F5F5F5F5F5F5F5F5F5F5F5F5F5F5F5F5F5F5F5F5F5F5F5F5F5F5F5F5F5F5F5F5F5F5F5F5F5F5F5F5F5F5F5F5F5F5F5F5F5F5F5F5F5F5F5F5F5F5F5F5F5F5F5F5F5F5F5F5F5F5F5F5F5F5F5F5F5F5F5E2F5F5F5F5F5F5F5F5F5F5F5F5F5F5F5F5E2F5F5F5E2E2EFF5F5F5E2F5F5F5F5F5F5F5F5F5F5F5F5F5F5F5F5E2F5
310
F5F5F5F5F5F5F5F5F5F5F5F5F5F5F5F5F5F5F5F5F5F5F5F5F5F5F5F5F5F5F5F5F5F5F5F5F5F5F5F5F5F5F5F5F5F5F5F5F5F5F5F5F5F5F5F5F5F5F5F5F5F5F5F5F5F5F5F5F5F5F5F5F5F5F5F5F5F5F5F5F5F5F5F5F5F5F5F5F5F5F5F5F5F5F5F5F5F5F5F5F5F5F5F5F5F5F5F5F5F5F5F5F5F5F5F5F5F5F5F5F5F5F5F5F5F5F5
310
F5F5F5F5F5F5F5E2F5F5F5F5F5F5F5F5F5F5F5F5F5F5F5F5E2F5F5F5E2E2EFF5F5F5E2F5F5F5F5F5F5F5F5F5F5F5F5F5F5F5F5E2F5F5F5F5F5F5F5F5F5F5F5F5F5F5F5F5F5F5F5F5F5F5F5F5F5F5F5F5F5F5F5F5F5F5F5F5F5F5F5F5F5F5F5F5F5F5F5F5F5F5F5F5F5F5F5F5F5F5F5F5F5F5F5F5F5F5F5F5F5F5F5F5F5F5F5
310
F5F5F5F5F5F5F5F5F5F5F5F5F5F5F5F5F5F5F5F5F5F5F5F5F5F5F5F5F5F5F5F5F5F5F5F5F5F5F5F5F5F5F5F5F5F5F5F5F5F5F5F5F5F5F5F5F5F5F5F5E2F5F5F5F5F5F5F5F5F5F5F5F5F5F5F5F5E2F5F5F5E2E2EFF5F5F5E2F5F5F5F5F5F5F5F5F5F5F5F5F5F5F5F5E2F5F5F5F5F5F5F5F5F5F5F5F5F5F5F5F5F5F5F5F5F5F5
310
F5F5F5F5F5F5F5F5F5F5F5F5F5F5F5F5F5F5F5F5F5F5F5F5F5F5F5F5F5F5F5F5F5F5F5F5F5F5F5F5F5F5F5F5F5F5F5F5F5F5F5F5F5F5F5F5F5F5F5F5F5F5F5F5F5F5F5F5F5F5F5F5F5F5F5F5F5F5F5F5F5F5F5F5F5F5F5F5F5F5F5F5F5F5F5F5F5F5F5F5F5F5F5F5F5F5F5F5F5F5F5F5F5E2F5F5F5F5F5F5F5F5F5F5F5F5F5
310
F5F5F5E2F5F5F5E2E2EFF5F5F5E2F5F5F5F5F5F5F5F5F5F5F5F5F5F5F5F5E2F5F5F5F5F5F5F5F5F5F5F5F5F5F5F5F5F5F5F5F5F5F5F5F5F5F5F5F5F5F5F5F5F5F5F5F5F5F5F5F5F5F5F5F5F5F5F5F5F5F5F5F5F5F5F5F5F5F5F5F5F5F5F5F5F5F5F5F5F5F5F5F5F5F5F5F5F5F5F5F5F5F5F5F5F5F5F5F5F5F5F5F5F5F5F5F5
310
F5F5F5F5F5F5F5F5F5F5F5F5F5F5F5F5F5F5F5F5F5F5F5F5F5F5F5F5F5F5F5F5F5F5F5F5F5F5F5E2F5F5F5F5F5F5F5F5F5F5F5F5F5F5F5F5E2F5F5F5E2E2EFF5F5F5E2F5F5F5F5F5F5F5F5F5F5F5F5F5F5F5F5E2F5F5F5F5F5F5F5F5F5F5F5F5F5F5F5F5F5F5F5F5F5F5F5F5F5F5F5F5F5F5F5F5F5F5F5F5F5F5F5F5F5F5F5
310
F5F5F5F5F5F5F5F5F5F5F5F5F5F5F5F5F5F5F5F5F5F5F5F5F5F5F5F5F5F5F5F5F5F5F5F5F5F5F5F5F5F5F5F5F5F5F5F5F5F5F5F5F5F5F5F5F5F5F5F5F5F5F5F5F5F5F5F5F5F5F5F5F5F5F5F5F5F5F5F5F5F5F5F5F5F5F5F5F5F5F5F5E2F5F5F5F5F5F5F5F5F5F5F5F5F5F5F5F5E2F5F5F5E2E2EFF5F5F5E2F5F5F5F5F5F5F5
310
F5F5F5F5F5F5F5F5F5E2F5F5F5F5F5F5F5F5F5F5F5F5F5F5F5F5F5F5F5F5F5F5F5F5F5F5F5F5F5F5F5F5F5F5F5F5F5F5F5F5F5F5F5F5F5F5F5F5F5F5F5F5F5F5F5F5F5F5F5F5F5F5F5F5F5F5F5F5F5F5F5F5F5F5F5F5F5F5F5F5F5F5F5F5F5F5F5F5F5F5F5F5F5F5F5F5F5F5F5F5F5F5F5F5F5F5F5F5F5F5F5F5F5F5F5F5F5
310
F5F5F5F5F5F5F5F5F5F5F5F5F5F5F5F5F5F5E2F5F5F5F5F5F5F5F5F5F5F5F5F5F5F5F5E2F5F5F5E2E2EFF5F5F5E2F5F5F5F5F5F5F5F5F5F5F5F5F5F5F5F5E2F5F5F5F5F5F5F5F5F5F5F5F5F5F5F5F5F5F5F5F5F5F5F5F5F5F5F5F5F5F5F5F5F5F5F5F5F5F5F5F5F5F5F5F5F5F5F5F5F5F5F5F5F5F5F5F5F5F5F5F5F5F5F5F5
310
F5F5F5F5F5F5F5F5F5F5F5F5F5F5F5F5F5F5F5F5F5F5F5F5F5F5F5F5F5F5F5F5F5F5F5F5F5F5F5F5F5F5F5F5F5F5F5F5F5F5F5F5F5F5F5F5F5F5F5F5F5F5F5F5F5F5F5F5F5F5F5E2F5F5F5F5F5F5F5F5F5F5F5F5F5F5F5F5E2F5F5F5E2E2EFF5F5F5E2F5F5F5F5F5F5F5F5F5F5F5F5F5F5F5F5E2F5F5F5F5F5F5F5F5F5F5F5
310
F5F5F5F5F5F5F5F5F5F5F5F5F5F5F5F5F5F5F5F5F5F5F5F5F5F5F5F5F5F5F5F5F5F5F5F5F5F5F5F5F5F5F5F5F5F5F5F5F5F5F5F5F5F5F5F5F5F5F5F5F5F5F5F5F5F5F5F5F5F5F5F5F5F5F5F5F5F5F5F5F5F5F5F5F5F5F5F5F5F5F5F5F5F5F5F5F5F5F5F5F5F5F5F5F5F5F5F5F5F5F5F5F5F5F5F5F5F5F5F5F5F5F5F5E2F5F5
310
F5F5F5F5F5F5F5F5F5F5F5F5F5F5E2F5F5F5E2E2EFF5F5F5E2F5F5F5F5F5F5F5F5F5F5F5F5F5F5F5F5E2F5F5F5F5F5F5F5F5F5F5F5F5F5F5F5F5F5F5F5F5F5F5F5F5F5F5F5F5F5F5F5F5F5F5F5F5F5F5F5F5F5F5F5F5F5F5F5F5F5F5F5F5F5F5F5F5F5F5F5F5F5F5F5F5F5F5F5F5F5F5F5F5F5F5F5F5F5F5F5F5F5F5F5F5F5
310
F5F5F5F5F5F5F5F5F5F5F5F5F5F5F5F5F5F5F5F5F5F5F5F5F5F5F5F5F5F5F5F5F5F5F5F5F5F5F5F5F5F5F5F5F5F5F5F5F5F5E2F5F5F5F5F5F5F5F5F5F5F5F5F5F5F5F5E2F5F5F5E2E2EFF5F5F5E2F5F5F5F5F5F5F5F5F5F5F5F5F5F5F5F5E2F5F5F5F5F5F5F5F5F5F5F5F5F5F5F5F5F5F5F5F5F5F5F5F5F5F5F5F5F5F5F5F5
310
F5F5F5F5F5F5F5F5F5F5F5F5F5F5F5F5F5F5F5F5F5F5F5F5F5F5F5F5F5F5F5F5F5F5F5F5F5F5F5F5F5F5F5F5F5F5F5F5F5F5F5F5F5F5F5F5F5F5F5F5F5F5F5F5F5F5F5F5F5F5F5F5F5F5F5F5F5F5F5F5F5F5F5F5F5F5F5F5F5F5F5F5F5F5F5F5F5F5F5F5F5F5F5E2F5F5F5F5F5F5F5F5F5F5F5F5F5F5F5F5E2F5F5F5E2E2EF
310
F5F5F5E2F5F5F5F5F5F5F5F5F5F5F5F5F5F5F5F5E2F5F5F5F5F5F5F5F5F5F5F5F5F5F5F5F5F5F5F5F5F5F5F5F5F5F5F5F5F5F5F5F5F5F5F5F5F5F5F5F5F5F5F5F5F5F5F5F5F5F5F5F5F5F5F5F5F5F5F5F5F5F5F5F5F5F5F5F5F5F5F5F5F5F5F5F5F5F5F5F5F5F5F5F5F5F5F5F5F5F5F5F5F5F5F5F5F5F5F5F5F5F5F5F5F5F5
310
F5F5F5F5F5F5F5F5F5F5F5F5F5F5F5F5F5F5F5F5F5F5F5F5F5F5F5F5F5E2F5F5F5F5F5F5F5F5F5F5F5F5F5F5F5F5E2F5F5F5E2E2EFF5F5F5E2F5F5F5F5F5F5F5F5F5F5F5F5F5F5F5F5E2F5F5F5F5F5F5F5F5F5F5F5F5F5F5F5F5F5F5F5F5F5F5F5F5F5F5F5F5F5F5F5F5F5F5F5F5F5F5F5F5F5F5F5F5F5F5F5F5F5F5F5F5F5
310
F5F5F5F5F5F5F5F5F5F5F5F5F5F5F5F5F5F5F5F5F5F5F5F5F5F5F5F5F5F5F5F5F5F5F5F5F5F5F5F5F5F5F5F5F5F5F5F5F5F5F5F5F5F5F5F5F5F5F5F5F5F5F5F5F5F5F5F5F5F5F5F5F5F5F5F5F5F5F5F5F5F5E2F5F5F5F5F5F5F5F5F5F5F5F5F5F5F5F5E2F5F5F5E2E2EFF5F5F5E2F5F5F5F5F5F5F5F5F5F5F5F5F5F5F5F5E2
310
F5F5F5F5F5F5F5F5F5F5F5F5F5F5F5F5F5F5F5F5F5F5F5F5F5F5F5F5F5F5F5F5F5F5F5F5F5F5F5F5F5F5F5F5F5F5F5F5F5F5F5F5F5F5F5F5F5F5F5F5F5F5F5F5F5F5F5F5F5F5F5F5F5F5F5F5F5F5F5F5F5F5F5F5F5F5F5F5F5F5F5F5F5F5F5F5F5F5F5F5F5F5F5F5F5F5F5F5F5F5F5F5F5F5F5F5F5F5F5F5F5F5F5F5F5F5F5
310
F5F5F5F5F5F5F5F5E2F5F5F5F5F5F5F5F5F5F5F5F5F5F5F5F5E2F5F5F5E2E2EFF5F5F5E2F5F5F5F5F5F5F5F5F5F5F5F5F5F5F5F5E2F5F5F5F5F5F5F5F5F5F5F5F5F5F5F5F5F5F5F5F5F5F5F5F5F5F5F5F5F5F5F5F5F5F5F5F5F5F5F5F5F5F5F5F5F5F5F5F5F5F5F5F5F5F5F5F5F5F5F5F5F5F5F5F5F5F5F5F5F5F5F5F5F5F5
310
F5F5F5F5F5F5F5F5F5F5F5F5F5F5F5F5F5F5F5F5F5F5F5F5F5F5F5F5F5F5F5F5F5F5F5F5F5F5F5F5F5F5F5F5F5F5F5F5F5F5F5F5F5F5F5F5F5F5F5F5F5E2F5F5F5F5F5F5F5F5F5F5F5F5F5F5F5F5E2F5F5F5E2E2EFF5F5F5E2F5F5F5F5F5F5F5F5F5F5F5F5F5F5F5F5E2F5F5F5F5F5F5F5F5F5F5F5F5F5F5F5F5F5F5F5F5F5
310
F5F5F5F5F5F5F5F5F5F5F5F5F5F5F5F5F5F5F5F5F5F5F5F5F5F5F5F5F5F5F5F5F5F5F5F5F5F5F5F5F5F5F5F5F5F5F5F5F5F5F5F5F5F5F5F5F5F5F5F5F5F5F5F5F5F5F5F5F5F5F5F5F5F5F5F5F5F5F5F5F5F5F5F5F5F5F5F5F5F5F5F5F5F5F5F5F5F5F5F5F5F5F5F5F5F5F5F5F5F5F5F5F5F5E2F5F5F5F5F5F5F5F5F5F5F5F5
310
F5F5F5F5E2F5F5F5E2E2EFF5F5F5E2F5F5F5F5F5F5F5F5F5F5F5F5F5F5F5F5E2F5F5F5F5F5F5F5F5F5F5F5F5F5F5F5F5F5F5F5F5F5F5F5F5F5F5F5F5F5F5F5F5F5F5F5F5F5F5F5F5F5F5F5F5F5F5F5F5F5F5F5F5F5F5F5F5F5F5F5F5F5F5F5F5F5F5F5F5F5F5F5F5F5F5F5F5F5F5F5F5F5F5F5F5F5F5F5F5F5F5F5F5F5F5F5
310
F5F5F5F5F5F5F5F5F5F5F5F5F5F5F5F5F5F5F5F5F5F5F5F5F5F5F5F5F5F5F5F5F5F5F5F5F5F5F5F5E2F5F5F5F5F5F5F5F5F5F5F5F5F5F5F5F5E2F5F5F5E2E2EFF5F5F5F5F5F5F5F5F5F5F5F5F5F5F5F5F5F5F5F5E2F5F5F5F5F5F5F5F5F5F5F5F5F5F5F5F5F5F5F5F5F5F5F5F5F5F5F5F5F5F5F5F5F5F5F5F5F5F5F5F5F5F5
310
F5F5F5F5F5F5F5F5F5F5F5F5F5F5F5F5F5F5F5F5F5F5F5F5F5F5F5F5F5F5F5F5F5F5F5F5F5F5F5F5F5F5F5F5F5F5F5F5F5F5F5F5F5F5F5F5F5F5F5F5F5F5F5F5F5F5F5F5F5F5F5F5F5F5F5F5F5F5F5F5F5F5F5F5F5F5F5F5F5F5F5F5F5E2F5F5F5F5F5F5F5F5F5F5F5F5F5F5F5F5F5F5F5F5E2E2EFF5F5F5F5F5F5F5F5F5F5
310
F5F5F5F5F5F5F5F5F5F5E2F5F5F5F5F5F5F5F5F5F5F5F5F5F5F5F5F5F5F5F5F5F5F5F5F5F5F5F5F5F5F5F5F5F5F5F5F5F5F5F5F5F5F5F5F5F5F5F5F5F5F5F5F5F5F5F5F5F5F5F5F5F5F5F5F5F5F5F5F5F5F5F5F5F5F5F5F5F5F5F5F5F5F5F5F5F5F5F5F5F5F5F5F5F5F5F5F5F5F5F5F5F5F5F5F5F5F5F5F5F5F5F5F5F5F5F5
310
F5F5F5F5F5F5F5F5F5F5F5F5F5F5F5F5F5F5F5E2F5F5F5F5F5F5F5F5F5F5F5F5F5F5F5F5F5F5F5F5E2E2EFF5F5F5F5F5F5F5F5F5F5F5F5F5F5F5F5F5F5F5F5E2F5F5F5F5F5F5F5F5F5F5F5F5F5F5F5F5F5F5F5F5F5F5F5F5F5F5F5F5F5F5F5F5F5F5F5F5F5F5F5F5F5F5F5F5F5F5F5F5F5F5F5F5F5F5F5F5F5F5F5F5F5F5F5
310
F5F5F5F5F5F5F5F5F5F5F5F5F5F5F5F5F5F5F5F5F5F5F5F5F5F5F5F5F5F5F5F5F5F5F5F5F5F5F5F5F5F5F5F5F5F5F5F5F5F5F5F5F5F5F5F5F5F5F5F5F5F5F5F5F5F5F5F5F5F5F5F5E2F5F5F5F5F5F5F5F5F5F5F5F5F5F5F5F5F5F5F5F5E2E2EFF5F5F5F5F5F5F5F5F5F5F5F5F5F5F5F5F5F5F5F5E2F5F5F5F5F5F5F5F5F5F5
310
F5F5F5F5F5F5F5F5F5F5F5F5F5F5F5F5F5F5F5F5F5F5F5F5F5F5F5F5F5F5F5F5F5F5F5F5F5F5F5F5F5F5F5F5F5F5F5F5F5F5F5F5F5F5F5F5F5F5F5F5F5F5F5F5F5F5F5F5F5F5F5F5F5F5F5F5F5F5F5F5F5F5F5F5F5F5F5F5F5F5F5F5F5F5F5F5F5F5F5F5F5F5F5F5F5F5F5F5F5F5F5F5F5F5F5F5F5F5F5F5F5F5F5F5F5E2F5
310
F5F5F5F5F5F5F5F5F5F5F5F5F5F5F5F5F5F5F5E2E2EFF5F5F5F5F5F5F5F5F5F5F5F5F5F5F5F5F5F5F5F5E2F5F5F5F5F5F5F5F5F5F5F5F5F5F5F5F5F5F5F5F5F5F5F5F5F5F5F5F5F5F5F5F5F5F5F5F5F5F5F5F5F5F5F5F5F5F5F5F5F5F5F5F5F5F5F5F5F5F5F5F5F5F5F5F5F5F5F5F5F5F5F5F5F5F5F5F5F5F5F5F5F5F5F5F5
310
F5F5F5F5F5F5F5F5F5F5F5F5F5F5F5F5F5F5F5F5F5F5F5F5F5F5F5F5F5F5F5F5F5F5F5F5F5F5F5F5F5F5F5F5F5F5F5F5F5F5F5E2F5F5F5F5F5F5F5F5F5F5F5F5F5F5F5F5F5F5F5F5E2E2EFF5F5F5F5F5F5F5F5F5F5F5F5F5F5F5F5F5F5F5F5E2F5F5F5F5F5F5F5F5F5F5F5F5F5F5F5F5F5F5F5F5F5F5F5F5F5F5F5F5F5F5F5
310
F5F5F5F5F5F5F5F5F5F5F5F5F5F5F5F5F5F5F5F5F5F5F5F5F5F5F5F5F5F5F5F5F5F5F5F5F5F5F5F5F5F5F5F5F5F5F5F5F5F5F5F5F5F5F5F5F5F5F5F5F5F5F5F5F5F5F5F5F5F5F5F5F5F5F5F5F5F5F5F5F5F5F5F5F5F5F5F5F5F5F5F5F5F5F5F5F5F5F5F5F5F5F5F5E2F5F5F5F5F5F5F5F5F5F5F5F5F5F5F5F5F5F5F5F5E2E2
310
EFF5F5F5F5F5F5F5F5F5F5F5F5F5F5F5F5F5F5F5F5E2F5F5F5F5F5F5F5F5F5F5F5F5F5F5F5F5F5F5F5F5F5F5F5F5F5F5F5F5F5F5F5F5F5F5F5F5F5F5F5F5F5F5F5F5F5F5F5F5F5F5F5F5F5F5F5F5F5F5F5F5F5F5F5F5F5F5F5F5F5F5F5F5F5F5F5F5F5F5F5F5F5F5F5F5F5F5F5F5F5F5F5F5F5F5F5F5F5F5F5F5F5F5F5F5F5
310
F5F5F5F5F5F5F5F5F5F5F5F5F5F5F5F5F5F5F5F5F5F5F5F5F5F5F5F5F5F5E2F5F5F5F5F5F5F5F5F5F5F5F5F5F5F5F5F5F5F5F5E2E2EFF5F5F5F5F5F5F5F5F5F5F5F5F5F5F5F5F5F5F5F5E2F5F5F5F5F5F5F5F5F5F5F5F5F5F5F5F5F5F5F5F5F5F5F5F5F5F5F5F5F5F5F5F5F5F5F5F5F5F5F5F5F5F5F5F5F5F5F5F5F5F5F5F5
310
F5F5F5F5F5F5F5F5F5F5F5F5F5F5F5F5F5F5F5F5F5F5F5F5F5F5F5F5F5F5F5F5F5F5F5F5F5F5F5F5F5F5F5F5F5F5F5F5F5F5F5F5F5F5F5F5F5F5F5F5F5F5F5F5F5F5F5F5F5F5F5F5F5F5F5F5F5F5F5F5F5F5F5E2F5F5F5F5F5F5F5F5F5F5F5F5F5F5F5F5F5F5F5F5E2E2EFF5F5F5F5F5F5F5F5F5F5F5F5F5F5F5F5F5F5F5F5
310
E2F5F5F5F5F5F5F5F5F5F5F5F5F5F5F5F5F5F5F5F5F5F5F5F5F5F5F5F5F5F5F5F5F5F5F5F5F5F5F5F5F5F5F5F5F5F5F5F5F5F5F5F5F5F5F5F5F5F5F5F5F5F5F5F5F5F5F5F5F5F5F5F5F5F5F5F5F5F5F5F5F5F5F5F5F5F5F5F5F5F5F5F5F5F5F5F5F5F5F5F5F5F5F5F5F5F5F5F5F5F5F5F5F5F5F5F5F5F5F5F5F5F5F5F5F5F5
310
F5F5F5F5F5F5F5F5F5E2F5F5F5F5F5F5F5F5F5F5F5F5F5F5F5F5F5F5F5F5E2E2EFF5F5F5E2F5F5F5F5F5F5F5F5F5F5F5F5F5F5F5F5E2F5F5F5F5F5F5F5F5F5F5F5F5F5F5F5F5F5F5F5F5F5F5F5F5F5F5F5F5F5F5F5F5F5F5F5F5F5F5F5F5F5F5F5F5F5F5F5F5F5F5F5F5F5F5F5F5F5F5F5F5F5F5F5F5F5F5F5F5F5F5F5F5F5
310
F5F5F5F5F5F5F5F5F5F5F5F5F5F5F5F5F5F5F5F5F5F5F5F5F5F5F5F5F5F5F5F5F5F5F5F5F5F5F5F5F5F5F5F5F5F5F5F5F5F5F5F5F5F5F5F5F5F5F5F5F5F5E2F5F5F5F5F5F5F5F5F5F5F5F5F5F5F5F5E2F5F5F5E2E2EFF5F5F5E2F5F5F5F5F5F5F5F5F5F5F5F5F5F5F5F5E2F5F5F5F5F5F5F5F5F5F5F5F5F5F5F5F5F5F5F5F5
310
F5F5F5F5F5F5F5F5F5F5F5F5F5F5F5F5F5F5F5F5F5F5F5F5F5F5F5F5F5F5F5F5F5F5F5F5F5F5F5F5F5F5F5F5F5F5F5F5F5F5F5F5F5F5F5F5F5F5F5F5F5F5F5F5F5F5F5F5F5F5F5F5F5F5F5F5F5F5F5F5F5F5F5F5F5F5F5F5F5F5F5F5F5F5F5F5F5F5F5F5F5F5F5F5F5F5F5F5F5F5F5F5F5F5F5E2F5F5F5F5F5F5F5F5F5F5F5
310
F5F5F5F5F5E2F5F5F5E2E2EFF5F5F5E2F5F5F5F5F5F5F5F5F5F5F5F5F5F5F5F5E2F5F5F5F5F5F5F5F5F5F5F5F5F5F5F5F5F5F5F5F5F5F5F5F5F5F5F5F5F5F5F5F5F5F5F5F5F5F5F5F5F5F5F5F5F5F5F5F5F5F5F5F5F5F5F5F5F5F5F5F5F5F5F5F5F5F5F5F5F5F5F5F5F5F5F5F5F5F5F5F5F5F5F5F5F5F5F5F5F5F5F5F5F5F5
310
F5F5F5F5F5F5F5F5F5F5F5F5F5F5F5F5F5F5F5F5F5F5F5F5F5F5F5F5F5F5F5F5F5F5F5F5F5F5F5F5F5E2F5F5F5F5F5F5F5F5F5F5F5F5F5F5F5F5E2F5F5F5E2E2EFF5F5F5E2F5F5F5F5F5F5F5F5F5F5F5F5F5F5F5F5E2F5F5F5F5F5F5F5F5F5F5F5F5F5F5F5F5F5F5F5F5F5F5F5F5F5F5F5F5F5F5F5F5F5F5F5F5F5F5F5F5F5
310
F5F5F5F5F5F5F5F5F5F5F5F5F5F5F5F5F5F5F5F5F5F5F5F5F5F5F5F5F5F5F5F5F5F5F5F5F5F5F5F5F5F5F5F5F5F5F5F5F5F5F5F5F5F5F5F5F5F5F5F5F5F5F5F5F5F5F5F5F5F5F5F5F5F5F5F5F5F5F5F5F5F5F5F5F5F5F5F5F5F5F5F5F5F5E2F5F5F5F5F5F5F5F5F5F5F5F5F5F5F5F5E2F5F5F5E2E2EFF5F5F5E2F5F5F5F5F5
310
F5F5F5F5F5F5F5F5F5F5F5E2F5F5F5F5F5F5F5F5F5F5F5F5F5F5F5F5F5F5F5F5F5F5F5F5F5F5F5F5F5F5F5F5F5F5F5F5F5F5F5F5F5F5F5F5F5F5F5F5F5F5F5F5F5F5F5F5F5F5F5F5F5F5F5F5F5F5F5F5F5F5F5F5F5F5F5F5F5F5F5F5F5F5F5F5F5F5F5F5F5F5F5F5F5F5F5F5F5F5F5F5F5F5F5F5F5F5F5F5F5F5F5F5F5F5F5
310
F5F5F5F5F5F5F5F5F5F5F5F5F5F5F5F5F5F5F5F5E2F5F5F5F5F5F5F5F5F5F5F5F5F5F5F5F5E2F5F5F5E2E2EFF5F5F5E2F5F5F5F5F5F5F5F5F5F5F5F5F5F5F5F5E2F5F5F5F5F5F5F5F5F5F5F5F5F5F5F5F5F5F5F5F5F5F5F5F5F5F5F5F5F5F5F5F5F5F5F5F5F5F5F5F5F5F5F5F5F5F5F5F5F5F5F5F5F5F5F5F5F5F5F5F5F5F5
310
F5F5F5F5F5F5F5F5F5F5F5F5F5F5F5F5F5F5F5F5F5F5F5F5F5F5F5F5F5F5F5F5F5F5F5F5F5F5F5F5F5F5F5F5F5F5F5F5F5F5F5F5F5F5F5F5F5F5F5F5F5F5F5F5F5F5F5F5F5F5F5F5F5E2F5F5F5F5F5F5F5F5F5F5F5F5F5F5F5F5E2F5F5F5E2E2EFF5F5F5E2F5F5F5F5F5F5F5F5F5F5F5F5F5F5F5F5E2F5F5F5F5F5F5F5F5F5
310
F5F5F5F5F5F5F5F5F5F5F5F5F5F5F5F5F5F5F5F5F5F5F5F5F5F5F5F5F5F5F5F5F5F5F5F5F5F5F5F5F5F5F5F5F5F5F5F5F5F5F5F5F5F5F5F5F5F5F5F5F5F5F5F5F5F5F5F5F5F5F5F5F5F5F5F5F5F5F5F5F5F5F5F5F5F5F5F5F5F5F5F5F5F5F5F5F5F5F5F5F5F5F5F5F5F5F5F5F5F5F5F5F5F5F5F5F5F5F5F5F5F5F5F5F5F5E2
310
F5F5F5F5F5F5F5F5F5F5F5F5F5F5F5F5E2F5F5F5E2E2EFF5F5F5E2F5F5F5F5F5F5F5F5F5F5F5F5F5F5F5F5E2F5F5F5F5F5F5F5F5F5F5F5F5F5F5F5F5F5F5F5F5F5F5F5F5F5F5F5F5F5F5F5F5F5F5F5F5F5F5F5F5F5F5F5F5F5F5F5F5F5F5F5F5F5F5F5F5F5F5F5F5F5F5F5F5F5F5F5F5F5F5F5F5F5F5F5F5F5F5F5F5F5F5F5
310
F5F5F5F5F5F5F5F5F5F5F5F5F5F5F5F5F5F5F5F5F5F5F5F5F5F5F5F5F5F5F5F5F5F5F5F5F5F5F5F5F5F5F5F5F5F5F5F5F5F5F5F5E2F5F5F5F5F5F5F5F5F5F5F5F5F5F5F5F5E2F5F5F5E2E2EFF5F5F5E2F5F5F5F5F5F5F5F5F5F5F5F5F5F5F5F5E2F5F5F5F5F5F5F5F5F5F5F5F5F5F5F5F5F5F5F5F5F5F5F5F5F5F5F5F5F5F5
310
F5F5F5F5F5F5F5F5F5F5F5F5F5F5F5F5F5F5F5F5F5F5F5F5F5F5F5F5F5F5F5F5F5F5F5F5F5F5F5F5F5F5F5F5F5F5F5F5F5F5F5F5F5F5F5F5F5F5F5F5F5F5F5F5F5F5F5F5F5F5F5F5F5F5F5F5F5F5F5F5F5F5F5F5F5F5F5F5F5F5F5F5F5F5F5F5F5F5F5F5F5F5F5F5F5E2F5F5F5F5F5F5F5F5F5F5F5F5F5F5F5F5E2F5F5F5E2
310
E2EFF5F5F5E2F5F5F5F5F5F5F5F5F5F5F5F5F5F5F5F5E2F5F5F5F5F5F5F5F5F5F5F5F5F5F5F5F5F5F5F5F5F5F5F5F5F5F5F5F5F5F5F5F5F5F5F5F5F5F5F5F5F5F5F5F5F5F5F5F5F5F5F5F5F5F5F5F5F5F5F5F5F5F5F5F5F5F5F5F5F5F5F5F5F5F5F5F5F5F5F5F5F5F5F5F5F5F5F5F5F5F5F5F5F5F5F5F5F5F5F5F5F5F5F5F5
310
F5F5F5F5F5F5F5F5F5F5F5F5F5F5F5F5F5F5F5F5F5F5F5F5F5F5F5F5F5F5F5E2F5F5F5F5F5F5F5F5F5F5F5F5F5F5F5F5E2F5F5F5E2E2EFF5F5F5E2F5F5F5F5F5F5F5F5F5F5F5F5F5F5F5F5E2F5F5F5F5F5F5F5F5F5F5F5F5F5F5F5F5F5F5F5F5F5F5F5F5F5F5F5F5F5F5F5F5F5F5F5F5F5F5F5F5F5F5F5F5F5F5F5F5F5F5F5
310
F5F5F5F5F5F5F5F5F5F5F5F5F5F5F5F5F5F5F5F5F5F5F5F5F5F5F5F5F5F5F5F5F5F5F5F5F5F5F5F5F5F5F5F5F5F5F5F5F5F5F5F5F5F5F5F5F5F5F5F5F5F5F5F5F5F5F5F5F5F5F5F5F5F5F5F5F5F5F5F5F5F5F5F5E2F5F5F5F5F5F5F5F5F5F5F5F5F5F5F5F5E2F5F5F5E2E2EFF5F5F5E2F5F5F5F5F5F5F5F5F5F5F5F5F5F5F5
310
F5E2F5F5F5F5F5F5F5F5F5F5F5F5F5F5F5F5F5F5F5F5F5F5F5F5F5F5F5F5F5F5F5F5F5F5F5F5F5F5F5F5F5F5F5F5F5F5F5F5F5F5F5F5F5F5F5F5F5F5F5F5F5F5F5F5F5F5F5F5F5F5F5F5F5F5F5F5F5F5F5F5F5F5F5F5F5F5F5F5F5F5F5F5F5F5F5F5F5F5F5F5F5F5F5F5F5F5F5F5F5F5F5F5F5F5F5F5F5F5F5F5F5F5F5F5F5
310
F5F5F5F5F5F5F5F5F5F5E2F5F5F5F5F5F5F5F5F5F5F5F5F5F5F5F5E2F5F5F5E2E2EFF5F5F5E2F5F5F5F5F5F5F5F5F5F5F5F5F5F5F5F5E2F5F5F5F5F5F5F5F5F5F5F5F5F5F5F5F5F5F5F5F5F5F5F5F5F5F5F5F5F5F5F5F5F5F5F5F5F5F5F5F5F5F5F5F5F5F5F5F5F5F5F5F5F5F5F5F5F5F5F5F5F5F5F5F5F5F5F5F5F5F5F5F5
310
F5F5F5F5F5F5F5F5F5F5F5F5F5F5F5F5F5F5F5F5F5F5F5F5F5F5F5F5F5F5F5F5F5F5F5F5F5F5F5F5F5F5F5F5F5F5F5F5F5F5F5F5F5F5F5F5F5F5F5F5F5F5F5E2F5F5F5F5F5F5F5F5F5F5F5F5F5F5F5F5E2F5F5F5E2E2EFF5F5F5E2F5F5F5F5F5F5F5F5F5F5F5F5F5F5F5F5E2F5F5F5F5F5F5F5F5F5F5F5F5F5F5F5F5F5F5F5
310
F5F5F5F5F5F5F5F5F5F5F5F5F5F5F5F5F5F5F5F5F5F5F5F5F5F5F5F5F5F5F5F5F5F5F5F5F5F5F5F5F5F5F5F5F5F5F5F5F5F5F5F5F5F5F5F5F5F5F5F5F5F5F5F5F5F5F5F5F5F5F5F5F5F5F5F5F5F5F5F5F5F5F5F5F5F5F5F5F5F5F5F5F5F5F5F5F5F5F5F5F5F5F5F5F5F5F5F5F5F5F5F5F5F5F5F5E2F5F5F5F5F5F5F5F5F5F5
310
F5F5F5F5F5F5E2F5F5F5E2E2EFF5F5F5E2F5F5F5F5F5F5F5F5F5F5F5F5F5F5F5F5E2F5F5F5F5F5F5F5F5F5F5F5F5F5F5F5F5F5F5F5F5F5F5F5F5F5F5F5F5F5F5F5F5F5F5F5F5F5F5F5F5F5F5F5F5F5F5F5F5F5F5F5F5F5F5F5F5F5F5F5F5F5F5F5F5F5F5F5F5F5F5F5F5F5F5F5F5F5F5F5F5F5F5F5F5F5F5F5F5F5F5F5F5F5
310
F5F5F5F5F5F5F5F5F5F5F5F5F5F5F5F5F5F5F5F5F5F5F5F5F5F5F5F5F5F5F5F5F5F5F5F5F5F5F5F5F5F5E2F5F5F5F5F5F5F5F5F5F5F5F5F5F5F5F5E2F5F5F5E2E2EFF5F5F5E2F5F5F5F5F5F5F5F5F5F5F5F5F5F5F5F5E2F5F5F5F5F5F5F5F5F5F5F5F5F5F5F5F5F5F5F5F5F5F5F5F5F5F5F5F5F5F5F5F5F5F5F5F5F5F5F5F5
310
F5F5F5F5F5F5F5F5F5F5F5F5F5F5F5F5F5F5F5F5F5F5F5F5F5F5F5F5F5F5F5F5F5F5F5F5F5F5F5F5F5F5F5F5F5F5F5F5F5F5F5F5F5F5F5F5F5F5F5F5F5F5F5F5F5F5F5F5F5F5F5F5F5F5F5F5F5F5F5F5F5F5F5F5F5F5F5F5F5F5F5F5F5F5F5E2F5F5F5F5F5F5F5F5F5F5F5F5F5F5F5F5E2F5F5F5E2E2EFF5F5F5E2F5F5F5F5
310
F5F5F5F5F5F5F5F5F5F5F5F5E2F5F5F5F5F5F5F5F5F5F5F5F5F5F5F5F5F5F5F5F5F5F5F5F5F5F5F5F5F5F5F5F5F5F5F5F5F5F5F5F5F5F5F5F5F5F5F5F5F5F5F5F5F5F5F5F5F5F5F5F5F5F5F5F5F5F5F5F5F5F5F5F5F5F5F5F5F5F5F5F5F5F5F5F5F5F5F5F5F5F5F5F5F5F5F5F5F5F5F5F5F5F5F5F5F5F5F5F5F5F5F5F5F5F5
310
F5F5F5F5F5F5F5F5F5F5F5F5F5F5F5F5F5F5F5F5F5E2F5F5F5F5F5F5F5F5F5F5F5F5F5F5F5F5E2F5F5F5E2E2EFF5F5F5F5F5F5F5F5F5F5F5F5F5F5F5F5F5F5F5F5E2F5F5F5F5F5F5F5F5F5F5F5F5F5F5F5F5F5F5F5F5F5F5F5F5F5F5F5F5F5F5F5F5F5F5F5F5F5F5F5F5F5F5F5F5F5F5F5F5F5F5F5F5F5F5F5F5F5F5F5F5F5
310
F5F5F5F5F5F5F5F5F5F5F5F5F5F5F5F5F5F5F5F5F5F5F5F5F5F5F5F5F5F5F5F5F5F5F5F5F5F5F5F5F5F5F5F5F5F5F5F5F5F5F5F5F5F5F5F5F5F5F5F5F5F5F5F5F5F5F5F5F5F5F5F5F5F5E2F5F5F5F5F5F5F5F5F5F5F5F5F5F5F5F5F5F5F5F5E2E2EFF5F5F5F5F5F5F5F5F5F5F5F5F5F5F5F5F5F5F5F5E2F5F5F5F5F5F5F5F5
310
F5F5F5F5F5F5F5F5F5F5F5F5F5F5F5F5F5F5F5F5F5F5F5F5F5F5F5F5F5F5F5F5F5F5F5F5F5F5F5F5F5F5F5F5F5F5F5F5F5F5F5F5F5F5F5F5F5F5F5F5F5F5F5F5F5F5F5F5F5F5F5F5F5F5F5F5F5F5F5F5F5F5F5F5F5F5F5F5F5F5F5F5F5F5F5F5F5F5F5F5F5F5F5F5F5F5F5F5F5F5F5F5F5F5F5F5F5F5F5F5F5F5F5F5F5F5F5
310
E2F5F5F5F5F5F5F5F5F5F5F5F5F5F5F5F5F5F5F5F5E2E2EFF5F5F5F5F5F5F5F5F5F5F5F5F5F5F5F5F5F5F5F5E2F5F5F5F5F5F5F5F5F5F5F5F5F5F5F5F5F5F5F5F5F5F5F5F5F5F5F5F5F5F5F5F5F5F5F5F5F5F5F5F5F5F5F5F5F5F5F5F5F5F5F5F5F5F5F5F5F5F5F5F5F5F5F5F5F5F5F5F5F5F5F5F5F5F5F5F5F5F5F5F5F5F5
310
F5F5F5F5F5F5F5F5F5F5F5F5F5F5F5F5F5F5F5F5F5F5F5F5F5F5F5F5F5F5F5F5F5F5F5F5F5F5F5F5F5F5F5F5F5F5F5F5F5F5F5F5F5E2F5F5F5F5F5F5F5F5F5F5F5F5F5F5F5F5F5F5F5F5E2E2EFF5F5F5F5F5F5F5F5F5F5F5F5F5F5F5F5F5F5F5F5E2F5F5F5F5F5F5F5F5F5F5F5F5F5F5F5F5F5F5F5F5F5F5F5F5F5F5F5F5F5
310
F5F5F5F5F5F5F5F5F5F5F5F5F5F5F5F5F5F5F5F5F5F5F5F5F5F5F5F5F5F5F5F5F5F5F5F5F5F5F5F5F5F5F5F5F5F5F5F5F5F5F5F5F5F5F5F5F5F5F5F5F5F5F5F5F5F5F5F5F5F5F5F5F5F5F5F5F5F5F5F5F5F5F5F5F5F5F5F5F5F5F5F5F5F5F5F5F5F5F5F5F5F5F5F5F5F5E2F5F5F5F5F5F5F5F5F5F5F5F5F5F5F5F5F5F5F5F5
310
E2E2EFF5F5F5F5F5F5F5F5F5F5F5F5F5F5F5F5F5F5F5F5E2F5F5F5F5F5F5F5F5F5F5F5F5F5F5F5F5F5F5F5F5F5F5F5F5F5F5F5F5F5F5F5F5F5F5F5F5F5F5F5F5F5F5F5F5F5F5F5F5F5F5F5F5F5F5F5F5F5F5F5F5F5F5F5F5F5F5F5F5F5F5F5F5F5F5F5F5F5F5F5F5F5F5F5F5F5F5F5F5F5F5F5F5F5F5F5F5F5F5F5F5F5F5F5
310
F5F5F5F5F5F5F5F5F5F5F5F5F5F5F5F5F5F5F5F5F5F5F5F5F5F5F5F5F5F5F5F5E2F5F5F5F5F5F5F5F5F5F5F5F5F5F5F5F5F5F5F5F5E2E2EFF5F5F5F5F5F5F5F5F5F5F5F5F5F5F5F5F5F5F5F5E2F5F5F5F5F5F5F5F5F5F5F5F5F5F5F5F5F5F5F5F5F5F5F5F5F5F5F5F5F5F5F5F5F5F5F5F5F5F5F5F5F5F5F5F5F5F5F5F5F5F5
310
F5F5F5F5F5F5F5F5F5F5F5F5F5F5F5F5F5F5F5F5F5F5F5F5F5F5F5F5F5F5F5F5F5F5F5F5F5F5F5F5F5F5F5F5F5F5F5F5F5F5F5F5F5F5F5F5F5F5F5F5F5F5F5F5F5F5F5F5F5F5F5F5F5F5F5F5F5F5F5F5F5F5F5F5F5E2F5F5F5F5F5F5F5F5F5F5F5F5F5F5F5F5F5F5F5F5E2E2EFF5F5F5F5F5F5F5F5F5F5F5F5F5F5F5F5F5F5
310
F5F5E2F5F5F5F5F5F5F5F5F5F5F5F5F5F5F5F5F5F5F5F5F5F5F5F5F5F5F5F5F5F5F5F5F5F5F5F5F5F5F5F5F5F5F5F5F5F5F5F5F5F5F5F5F5F5F5F5F5F5F5F5F5F5F5F5F5F5F5F5F5F5F5F5F5F5F5F5F5F5F5F5F5F5F5F5F5F5F5F5F5F5F5F5F5F5F5F5F5F5F5F5F5F5F5F5F5F5F5F5F5F5F5F5F5F5F5F5F5F5F5F5F5F5F5F5
310
F5F5F5F5F5F5F5F5F5F5F5E2F5F5F5F5F5F5F5F5F5F5F5F5F5F5F5F5F5F5F5F5E2E2EFF5F5F5F5F5F5F5F5F5F5F5F5F5F5F5F5F5F5F5F5E2F5F5F5F5F5F5F5F5F5F5F5F5F5F5F5F5F5F5F5F5F5F5F5F5F5F5F5F5F5F5F5F5F5F5F5F5F5F5F5F5F5F5F5F5F5F5F5F5F5F5F5F5F5F5F5F5F5F5F5F5F5F5F5F5F5F5F5F5F5F5F5
310
F5F5F5F5F5F5F5F5F5F5F5F5F5F5F5F5F5F5F5F5F5F5F5F5F5F5F5F5F5F5F5F5F5F5F5F5F5F5F5F5F5F5F5F5F5F5F5F5F5F5F5F5F5F5F5F5F5F5F5F5F5F5F5F5E2F5F5F5F5F5F5F5F5F5F5F5F5F5F5F5F5F5F5F5F5E2E2EFF5F5F5F5F5F5F5F5F5F5F5F5F5F5F5F5F5F5F5F5E2F5F5F5F5F5F5F5F5F5F5F5F5F5F5F5F5F5F5
310
F5F5F5F5F5F5F5F5F5F5F5F5F5F5F5F5F5F5F5F5F5F5F5F5F5F5F5F5F5F5F5F5F5F5F5F5F5F5F5F5F5F5F5F5F5F5F5F5F5F5F5F5F5F5F5F5F5F5F5F5F5F5F5F5F5F5F5F5F5F5F5F5F5F5F5F5F5F5F5F5F5F5F5F5F5F5F5F5F5F5F5F5F5F5F5F5F5F5F5F5F5F5F5F5F5F5F5F5F5F5F5F5F5F5F5F5F5E2F5F5F5F5F5F5F5F5F5
310
F5F5F5F5F5F5F5F5F5F5F5E2E2EFF5F5F5E2F5F5F5F5F5F5F5F5F5F5F5F5F5F5F5F5E2F5F5F5F5F5F5F5F5F5F5F5F5F5F5F5F5F5F5F5F5F5F5F5F5F5F5F5F5F5F5F5F5F5F5F5F5F5F5F5F5F5F5F5F5F5F5F5F5F5F5F5F5F5F5F5F5F5F5F5F5F5F5F5F5F5F5F5F5F5F5F5F5F5F5F5F5F5F5F5F5F5F5F5F5F5F5F5F5F5F5F5F5
310
F5F5F5F5F5F5F5F5F5F5F5F5F5F5F5F5F5F5F5F5F5F5F5F5F5F5F5F5F5F5F5F5F5F5F5F5F5F5F5F5F5F5F5E2F5F5F5F5F5F5F5F5F5F5F5F5F5F5F5F5E2F5F5F5E2E2EFF5F5F5E2F5F5F5F5F5F5F5F5F5F5F5F5F5F5F5F5E2F5F5F5F5F5F5F5F5F5F5F5F5F5F5F5F5F5F5F5F5F5F5F5F5F5F5F5F5F5F5F5F5F5F5F5F5F5F5F5
310
F5F5F5F5F5F5F5F5F5F5F5F5F5F5F5F5F5F5F5F5F5F5F5F5F5F5F5F5F5F5F5F5F5F5F5F5F5F5F5F5F5F5F5F5F5F5F5F5F5F5F5F5F5F5F5F5F5F5F5F5F5F5F5F5F5F5F5F5F5F5F5F5F5F5F5F5F5F5F5F5F5F5F5F5F5F5F5F5F5F5F5F5F5F5F5F5E2F5F5F5F5F5F5F5F5F5F5F5F5F5F5F5F5E2F5F5F5E2E2EFF5F5F5E2F5F5F5
310
F5F5F5F5F5F5F5F5F5F5F5F5F5E2F5F5F5F5F5F5F5F5F5F5F5F5F5F5F5F5F5F5F5F5F5F5F5F5F5F5F5F5F5F5F5F5F5F5F5F5F5F5F5F5F5F5F5F5F5F5F5F5F5F5F5F5F5F5F5F5F5F5F5F5F5F5F5F5F5F5F5F5F5F5F5F5F5F5F5F5F5F5F5F5F5F5F5F5F5F5F5F5F5F5F5F5F5F5F5F5F5F5F5F5F5F5F5F5F5F5F5F5F5F5F5F5F5
310
F5F5F5F5F5F5F5F5F5F5F5F5F5F5F5F5F5F5F5F5F5F5E2F5F5F5F5F5F5F5F5F5F5F5F5F5F5F5F5E2F5F5F5E2E2EFF5F5F5E2F5F5F5F5F5F5F5F5F5F5F5F5F5F5F5F5E2F5F5F5F5F5F5F5F5F5F5F5F5F5F5F5F5F5F5F5F5F5F5F5F5F5F5F5F5F5F5F5F5F5F5F5F5F5F5F5F5F5F5F5F5F5F5F5F5F5F5F5F5F5F5F5F5F5F5F5F5
310
F5F5F5F5F5F5F5F5F5F5F5F5F5F5F5F5F5F5F5F5F5F5F5F5F5F5F5F5F5F5F5F5F5F5F5F5F5F5F5F5F5F5F5F5F5F5F5F5F5F5F5F5F5F5F5F5F5F5F5F5F5F5F5F5F5F5F5F5F5F5F5F5F5F5F5E2F5F5F5F5F5F5F5F5F5F5F5F5F5F5F5F5E2F5F5F5E2E2EFF5F5F5E2F5F5F5F5F5F5F5F5F5F5F5F5F5F5F5F5E2F5F5F5F5F5F5F5
310
F5F5F5F5F5F5F5F5F5F5F5F5F5F5F5F5F5F5F5F5F5F5F5F5F5F5F5F5F5F5F5F5F5F5F5F5F5F5F5F5F5F5F5F5F5F5F5F5F5F5F5F5F5F5F5F5F5F5F5F5F5F5F5F5F5F5F5F5F5F5F5F5F5F5F5F5F5F5F5F5F5F5F5F5F5F5F5F5F5F5F5F5F5F5F5F5F5F5F5F5F5F5F5F5F5F5F5F5F5F5F5F5F5F5F5F5F5F5F5F5F5F5F5F5F5F5F5
310
F5E2F5F5F5F5F5F5F5F5F5F5F5F5F5F5F5F5E2F5F5F5E2E2EFF5F5F5E2F5F5F5F5F5F5F5F5F5F5F5F5F5F5F5F5E2F5F5F5F5F5F5F5F5F5F5F5F5F5F5F5F5F5F5F5F5F5F5F5F5F5F5F5F5F5F5F5F5F5F5F5F5F5F5F5F5F5F5F5F5F5F5F5F5F5F5F5F5F5F5F5F5F5F5F5F5F5F5F5F5F5F5F5F5F5F5F5F5F5F5F5F5F5F5F5F5F5
310
F5F5F5F5F5F5F5F5F5F5F5F5F5F5F5F5F5F5F5F5F5F5F5F5F5F5F5F5F5F5F5F5F5F5F5F5F5F5F5F5F5F5F5F5F5F5F5F5F5F5F5F5F5F5E2F5F5F5F5F5F5F5F5F5F5F5F5F5F5F5F5E2F5F5F5E2E2EFF5F5F5E2F5F5F5F5F5F5F5F5F5F5F5F5F5F5F5F5E2F5F5F5F5F5F5F5F5F5F5F5F5F5F5F5F5F5F5F5F5F5F5F5F5F5F5F5F5
310
F5F5F5F5F5F5F5F5F5F5F5F5F5F5F5F5F5F5F5F5F5F5F5F5F5F5F5F5F5F5F5F5F5F5F5F5F5F5F5F5F5F5F5F5F5F5F5F5F5F5F5F5F5F5F5F5F5F5F5F5F5F5F5F5F5F5F5F5F5F5F5F5F5F5F5F5F5F5F5F5F5F5F5F5F5F5F5F5F5F5F5F5F5F5F5F5F5F5F5F5F5F5F5F5F5F5F5E2F5F5F5F5F5F5F5F5F5F5F5F5F5F5F5F5E2F5F5
310
F5E2E2EFF5F5F5E2F5F5F5F5F5F5F5F5F5F5F5F5F5F5F5F5E2F5F5F5F5F5F5F5F5F5F5F5F5F5F5F5F5F5F5F5F5F5F5F5F5F5F5F5F5F5F5F5F5F5F5F5F5F5F5F5F5F5F5F5F5F5F5F5F5F5F5F5F5F5F5F5F5F5F5F5F5F5F5F5F5F5F5F5F5F5F5F5F5F5F5F5F5F5F5F5F5F5F5F5F5F5F5F5F5F5F5F5F5F5F5F5F5F5F5F5F5F5F5
310
F5F5F5F5F5F5F5F5F5F5F5F5F5F5F5F5F5F5F5F5F5F5F5F5F5F5F5F5F5F5F5F5F5E2F5F5F5F5F5F5F5F5F5F5F5F5F5F5F5F5E2F5F5F5E2E2EFF5F5F5E2F5F5F5F5F5F5F5F5F5F5F5F5F5F5F5F5E2F5F5F5F5F5F5F5F5F5F5F5F5F5F5F5F5F5F5F5F5F5F5F5F5F5F5F5F5F5F5F5F5F5F5F5F5F5F5F5F5F5F5F5F5F5F5F5F5F5
310
F5F5F5F5F5F5F5F5F5F5F5F5F5F5F5F5F5F5F5F5F5F5F5F5F5F5F5F5F5F5F5F5F5F5F5F5F5F5F5F5F5F5F5F5F5F5F5F5F5F5F5F5F5F5F5F5F5F5F5F5F5F5F5F5F5F5F5F5F5F5F5F5F5F5F5F5F5F5F5F5F5F5F5F5F5F5E2F5F5F5F5F5F5F5F5F5F5F5F5F5F5F5F5E2F5F5F5E2E2EFF5F5F5E2F5F5F5F5F5F5F5F5F5F5F5F5F5
310
F5F5F5E2F5F5F5F5F5F5F5F5F5F5F5F5F5F5F5F5F5F5F5F5F5F5F5F5F5F5F5F5F5F5F5F5F5F5F5F5F5F5F5F5F5F5F5F5F5F5F5F5F5F5F5F5F5F5F5F5F5F5F5F5F5F5F5F5F5F5F5F5F5F5F5F5F5F5F5F5F5F5F5F5F5F5F5F5F5F5F5F5F5F5F5F5F5F5F5F5F5F5F5F5F5F5F5F5F5F5F5F5F5F5F5F5F5F5F5F5F5F5F5F5F5F5F5
310
F5F5F5F5F5F5F5F5F5F5F5F5E2F5F5F5F5F5F5F5F5F5F5F5F5F5F5F5F5E2F5F5F5E2E2EFF5F5F5E2F5F5F5F5F5F5F5F5F5F5F5F5F5F5F5F5E2F5F5F5F5F5F5F5F5F5F5F5F5F5F5F5F5F5F5F5F5F5F5F5F5F5F5F5F5F5F5F5F5F5F5F5F5F5F5F5F5F5F5F5F5F5F5F5F5F5F5F5F5F5F5F5F5F5F5F5F5F5F5F5F5F5F5F5F5F5F5
310
F5F5F5F5F5F5F5F5F5F5F5F5F5F5F5F5F5F5F5F5F5F5F5F5F5F5F5F5F5F5F5F5F5F5F5F5F5F5F5F5F5F5F5F5F5F5F5F5F5F5F5F5F5F5F5F5F5F5F5F5F5F5F5F5F5E2F5F5F5F5F5F5F5F5F5F5F5F5F5F5F5F5E2F5F5F5E2E2EFF5F5F5E2F5F5F5F5F5F5F5F5F5F5F5F5F5F5F5F5E2F5F5F5F5F5F5F5F5F5F5F5F5F5F5F5F5F5
310
F5F5F5F5F5F5F5F5F5F5F5F5F5F5F5F5F5F5F5F5F5F5F5F5F5F5F5F5F5F5F5F5F5F5F5F5F5F5F5F5F5F5F5F5F5F5F5F5F5F5F5F5F5F5F5F5F5F5F5F5F5F5F5F5F5F5F5F5F5F5F5F5F5F5F5F5F5F5F5F5F5F5F5F5F5F5F5F5F5F5F5F5F5F5F5F5F5F5F5F5F5F5F5F5F5F5F5F5F5F5F5F5F5F5F5F5F5F5E2F5F5F5F5F5F5F5F5
310
F5F5F5F5F5F5F5F5E2F5F5F5E2E2EFF5F5F5E2F5F5F5F5F5F5F5F5F5F5F5F5F5F5F5F5E2F5F5F5F5F5F5F5F5F5F5F5F5F5F5F5F5F5F5F5F5F5F5F5F5F5F5F5F5F5F5F5F5F5F5F5F5F5F5F5F5F5F5F5F5F5F5F5F5F5F5F5F5F5F5F5F5F5F5F5F5F5F5F5F5F5F5F5F5F5F5F5F5F5F5F5F5F5F5F5F5F5F5F5F5F5F5F5F5F5F5F5
310
F5F5F5F5F5F5F5F5F5F5F5F5F5F5F5F5F5F5F5F5F5F5F5F5F5F5F5F5F5F5F5F5F5F5F5F5F5F5F5F5F5F5F5F5E2F5F5F5F5F5F5F5F5F5F5F5F5F5F5F5F5E2F5F5F5E2E2EFF5F5F5E2F5F5F5F5F5F5F5F5F5F5F5F5F5F5F5F5E2F5F5F5F5F5F5F5F5F5F5F5F5F5F5F5F5F5F5F5F5F5F5F5F5F5F5F5F5F5F5F5F5F5F5F5F5F5F5
310
F5F5F5F5F5F5F5F5F5F5F5F5F5F5F5F5F5F5F5F5F5F5F5F5F5F5F5F5F5F5F5F5F5F5F5F5F5F5F5F5F5F5F5F5F5F5F5F5F5F5F5F5F5F5F5F5F5F5F5F5F5F5F5F5F5F5F5F5F5F5F5F5F5F5F5F5F5F5F5F5F5F5F5F5F5F5F5F5F5F5F5F5F5F5F5F5F5E2F5F5F5F5F5F5F5F5F5F5F5F5F5F5F5F5E2F5F5F5E2E2EFF5F5F5E2F5F5
310
F5F5F5F5F5F5F5F5F5F5F5F5F5F5E2F5F5F5F5F5F5F5F5F5F5F5F5F5F5F5F5F5F5F5F5F5F5F5F5F5F5F5F5F5F5F5F5F5F5F5F5F5F5F5F5F5F5F5F5F5F5F5F5F5F5F5F5F5F5F5F5F5F5F5F5F5F5F5F5F5F5F5F5F5F5F5F5F5F5F5F5F5F5F5F5F5F5F5F5F5F5F5F5F5F5F5F5F5F5F5F5F5F5F5F5F5F5F5F5F5F5F5F5F5F5F5F5
310
F5F5F5F5F5F5F5F5F5F5F5F5F5F5F5F5F5F5F5F5F5F5F5E2F5F5F5F5F5F5F5F5F5F5F5F5F5F5F5F5E2F5F5F5E2E2EFF5F5F5E2F5F5F5F5F5F5F5F5F5F5F5F5F5F5F5F5E2F5F5F5F5F5F5F5F5F5F5F5F5F5F5F5F5F5F5F5F5F5F5F5F5F5F5F5F5F5F5F5F5F5F5F5F5F5F5F5F5F5F5F5F5F5F5F5F5F5F5F5F5F5F5F5F5F5F5F5
310
F5F5F5F5F5F5F5F5F5F5F5F5F5F5F5F5F5F5F5F5F5F5F5F5F5F5F5F5F5F5F5F5F5F5F5F5F5F5F5F5F5F5F5F5F5F5F5F5F5F5F5F5F5F5F5F5F5F5F5F5F5F5F5F5F5F5F5F5F5F5F5F5F5F5F5F5E2F5F5F5F5F5F5F5F5F5F5F5F5F5F5F5F5E2F5F5F5E2E2EFF5F5F5E2F5F5F5F5F5F5F5F5F5F5F5F5F5F5F5F5E2F5F5F5F5F5F5
310
F5F5F5F5F5F5F5F5F5F5F5F5F5F5F5F5F5F5F5F5F5F5F5F5F5F5F5F5F5F5F5F5F5F5F5F5F5F5F5F5F5F5F5F5F5F5F5F5F5F5F5F5F5F5F5F5F5F5F5F5F5F5F5F5F5F5F5F5F5F5F5F5F5F5F5F5F5F5F5F5F5F5F5F5F5F5F5F5F5F5F5F5F5F5F5F5F5F5F5F5F5F5F5F5F5F5F5F5F5F5F5F5F5F5F5F5F5F5F5F5F5F5F5F5F5F5F5
310
F5F5E2F5F5F5F5F5F5F5F5F5F5F5F5F5F5F5F5E2F5F5F5E2E2EFF5F5F5F5F5F5F5F5F5F5F5F5F5F5F5F5F5F5F5F5E2F5F5F5F5F5F5F5F5F5F5F5F5F5F5F5F5F5F5F5F5F5F5F5F5F5F5F5F5F5F5F5F5F5F5F5F5F5F5F5F5F5F5F5F5F5F5F5F5F5F5F5F5F5F5F5F5F5F5F5F5F5F5F5F5F5F5F5F5F5F5F5F5F5F5F5F5F5F5F5F5
310
F5F5F5F5F5F5F5F5F5F5F5F5F5F5F5F5F5F5F5F5F5F5F5F5F5F5F5F5F5F5F5F5F5F5F5F5F5F5F5F5F5F5F5F5F5F5F5F5F5F5F5F5F5F5F5E2F5F5F5F5F5F5F5F5F5F5F5F5F5F5F5F5F5F5F5F5E2E2EFF5F5F5F5F5F5F5F5F5F5F5F5F5F5F5F5F5F5F5F5E2F5F5F5F5F5F5F5F5F5F5F5F5F5F5F5F5F5F5F5F5F5F5F5F5F5F5F5
310
F5F5F5F5F5F5F5F5F5F5F5F5F5F5F5F5F5F5F5F5F5F5F5F5F5F5F5F5F5F5F5F5F5F5F5F5F5F5F5F5F5F5F5F5F5F5F5F5F5F5F5F5F5F5F5F5F5F5F5F5F5F5F5F5F5F5F5F5F5F5F5F5F5F5F5F5F5F5F5F5F5F5F5F5F5F5F5F5F5F5F5F5F5F5F5F5F5F5F5F5F5F5F5F5F5F5F5F5E2F5F5F5F5F5F5F5F5F5F5F5F5F5F5F5F5F5F5
310
F5F5E2E2EFF5F5F5F5F5F5F5F5F5F5F5F5F5F5F5F5F5F5F5F5E2F5F5F5F5F5F5F5F5F5F5F5F5F5F5F5F5F5F5F5F5F5F5F5F5F5F5F5F5F5F5F5F5F5F5F5F5F5F5F5F5F5F5F5F5F5F5F5F5F5F5F5F5F5F5F5F5F5F5F5F5F5F5F5F5F5F5F5F5F5F5F5F5F5F5F5F5F5F5F5F5F5F5F5F5F5F5F5F5F5F5F5F5F5F5F5F5F5F5F5F5F5
310
F5F5F5F5F5F5F5F5F5F5F5F5F5F5F5F5F5F5F5F5F5F5F5F5F5F5F5F5F5F5F5F5F5F5E2F5F5F5F5F5F5F5F5F5F5F5F5F5F5F5F5F5F5F5F5E2E2EFF5F5F5F5F5F5F5F5F5F5F5F5F5F5F5F5F5F5F5F5E2F5F5F5F5F5F5F5F5F5F5F5F5F5F5F5F5F5F5F5F5F5F5F5F5F5F5F5F5F5F5F5F5F5F5F5F5F5F5F5F5F5F5F5F5F5F5F5F5
310
F5F5F5F5F5F5F5F5F5F5F5F5F5F5F5F5F5F5F5F5F5F5F5F5F5F5F5F5F5F5F5F5F5F5F5F5F5F5F5F5F5F5F5F5F5F5F5F5F5F5F5F5F5F5F5F5F5F5F5F5F5F5F5F5F5F5F5F5F5F5F5F5F5F5F5F5F5F5F5F5F5F5F5F5F5F5F5E2F5F5F5F5F5F5F5F5F5F5F5F5F5F5F5F5F5F5F5F5E2E2EFF5F5F5F5F5F5F5F5F5F5F5F5F5F5F5F5
310
F5F5F5F5E2E2E2E2E2E2E2E2E2E2E2E2E2E2E2E2E2E2E2E2E2E2E2E2E2E2E2E2E2E2E2E2E2E2E2E2E2E2E2E2E2E2E2E2E2E2E2E2E2E2E2E2E2E2E2E2E2E2E2E2E2E2E2E2E2E2E2E2E2E2E2E2E2E2E2E2E2E2E2E2E2E2E2E2E2E2E2E2E2E2E2E2E2E2E2E2E2E2E2E2E2E2E2E2E2E2E2E2E2E2E2E2E2E2E2E2E2E2E2E2E2E2E2
310
E2E2E2E2E2E2E2E2E2E2E2E2E2E2F5F5F5F5F5F5F5F5F5F5F5F5F5F5F5F5F5F5F5F5E2E2EFF5F5F5F5F5F5F5F5F5F5F5F5F5F5F5F5F5F5F5F5F5F5F5F5F5F5F5F5F5F5F5F5F5F5F5F5F5F5F5F5F5F5F5F5F5F5F5F5F5F5F5F5F5F5F5F5F5F5F5F5F5F5F5F5F5F5F5F5F5F5F5F5F5F5F5F5F5F5F5F5F5F5F5F5F5F5F5F5F5F5
310
F5F5F5F5F5F5F5F5F5F5F5F5F5F5F5F5F5F5F5F5F5F5F5F5F5F5F5F5F5F5F5F5F5F5F5F5F5F5F5F5F5F5F5F5F5F5F5F5F5F5F5F5F5F5F5F5F5F5F5F5F5F5F5F5F5F5F5F5F5F5F5F5F5F5F5F5F5F5F5F5F5F5F5F5F5F5F5E2E2EFF5F5F5F5F5F5F5F5F5F5F5F5F5F5F5F5F5F5F5F5F5F5F5F5F5F5F5F5F5F5F5F5F5F5F5F5F5
310
F5F5F5F5F5F5F5F5F5F5F5F5F5F5F5F5F5F5F5F5F5F5F5F5F5F5F5F5F5F5F5F5F5F5F5F5F5F5F5F5F5F5F5F5F5F5F5F5F5F5F5F5F5F5F5F5F5F5F5F5F5F5F5F5F5F5F5F5F5F5F5F5F5F5F5F5F5F5F5F5F5F5F5F5F5F5F5F5F5F5F5F5F5F5F5F5F5F5F5F5F5F5F5F5F5F5F5F5F5F5F5F5F5F5F5F5F5F5F5F5F5F5F5F5F5F5F5
310
F5F5F5F5F5F5F5F5F5F5F5F5F5E2E2EFF5F5F5F5F5F5F5F5F5F5F5F5F5F5F5F5F5F5F5F5F5F5F5F5F5F5F5F5F5F5F5F5F5F5F5F5F5F5F5F5F5F5F5F5F5F5F5F5F5F5F5F5F5F5F5F5F5F5F5F5F5F5F5F5F5F5F5F5F5F5F5F5F5F5F5F5F5F5F5F5F5F5F5F5F5F5F5F5F5F5F5F5F5F5F5F5F5F5F5F5F5F5F5F5F5F5F5F5F5F5F5
310
F5F5F5F5F5F5F5F5F5F5F5F5F5F5F5F5F5F5F5F5F5F5F5F5F5F5F5F5F5F5F5F5F5F5F5F5F5F5F5F5F5F5F5F5F5F5F5F5F5F5F5F5F5F5F5F5F5F5F5F5F5F5F5F5F5F5E2E2EFF5F5F5F5F5F5F5F5F5F5F5F5F5F5F5F5F5F5F5F5F5F5F5F5F5F5F5F5F5F5F5F5F5F5F5F5F5F5F5F5F5F5F5F5F5F5F5F5F5F5F5F5F5F5F5F5F5F5
310
F5F5F5F5F5F5F5F5F5F5F5F5F5F5F5F5F5F5F5F5F5F5F5F5F5F5F5F5F5F5F5F5F5F5F5F5F5F5F5F5F5F5F5F5F5F5F5F5F5F5F5F5F5F5F5F5F5F5F5F5F5F5F5F5F5F5F5F5F5F5F5F5F5F5F5F5F5F5F5F5F5F5F5F5F5F5F5F5F5F5F5F5F5F5F5F5F5F5F5F5F5F5F5F5F5F5F5F5F5F5F5F5F5F5F5F5F5F5F5E2E2EFF5F5F5E2F5
310
F5F5F5F5F5F5F5F5F5F5F5F5F5F5F5F5F5F5F5F5F5F5F5F5F5F5F5F5F5F5F5F5F5F5F5F5F5F5F5F5F5F5F5F5F5F5F5F5F5F5F5F5F5F5F5F5F5F5F5F5F5F5F5F5F5F5F5F5F5F5F5F5F5F5F5F5F5F5F5F5F5F5F5F5F5F5F5F5F5F5F5F5F5F5F5F5F5F5F5F5F5F5F5F5F5F5F5F5F5F5F5F5F5F5F5F5F5F5F5F5F5F5F5F5F5F5F5
310
F5F5F5F5F5F5F5F5F5F5F5F5F5F5F5F5F5F5F5F5F5F5F5F5F5F5F5F5F5F5F5F5F5F5F5F5F5F5F5F5F5E2F5F5F5E2E2EFF5F5F5E2F5F5F5F5F5F5F5F5F5F5F5F5F5F5F5F5F5F5F5F5F5F5F5F5F5F5F5F5F5F5F5F5F5F5F5F5F5F5F5F5F5F5F5F5F5F5F5F5F5F5F5F5F5F5F5F5F5F5F5F5F5F5F5F5F5F5F5F5F5F5F5F5F5F5F5
310
F5F5F5F5F5F5F5F5F5F5F5F5F5F5F5F5F5F5F5F5F5F5F5F5F5F5F5F5F5F5F5F5F5F5F5F5F5F5F5F5F5F5F5F5F5F5F5F5F5F5F5F5F5F5F5F5F5F5F5F5F5F5F5F5F5F5F5F5F5F5F5F5F5F5F5F5F5F5F5F5F5F5F5F5F5F5F5F5F5F5F5F5F5F5E2F5F5F5E2E2EFF5F5F5E2F5F5F5F5F5F5F5F5F5F5F5F5F5F5F5F5F5F5F5F5F5F5
310
F5F5F5F5F5F5F5F5F5F5F5F5F5F5F5F5F5F5F5F5F5F5F5F5F5F5F5F5F5F5F5F5F5F5F5F5F5F5F5F5F5F5F5F5F5F5F5F5F5F5F5F5F5F5F5F5F5F5F5F5F5F5F5F5F5F5F5F5F5F5F5F5F5F5F5F5F5F5F5F5F5F5F5F5F5F5F5F5F5F5F5F5F5F5F5F5F5F5F5F5F5F5F5F5F5F5F5F5F5F5F5F5F5F5F5F5F5F5F5F5F5F5F5F5F5F5F5
310
F5F5F5F5F5F5F5F5F5F5F5F5F5F5F5F5F5F5F5F5E2F5F5F5E2E2EFF5F5F5E2F5F5F5F5F5F5F5F5F5F5F5F5F5F5F5F5F5F5F5F5F5F5F5F5F5F5F5F5F5F5F5F5F5F5F5F5F5F5F5F5F5F5F5F5F5F5F5F5F5F5F5F5F5F5F5F5F5F5F5F5F5F5F5F5F5F5F5F5F5F5F5F5F5F5F5F5F5F5F5F5F5F5F5F5F5F5F5F5F5F5F5F5F5F5F5F5
310
F5F5F5F5F5F5F5F5F5F5F5F5F5F5F5F5F5F5F5F5F5F5F5F5F5F5F5F5F5F5F5F5F5F5F5F5F5F5F5F5F5F5F5F5F5F5F5F5F5F5F5F5F5F5F5F5F5F5F5F5F5F5F5F5F5F5F5F5F5F5F5F5F5E2F5F5F5E2E2EFF5F5F5E2F5F5F5F5F5F5F5F5F5F5F5F5F5F5F5F5F5F5F5F5F5F5F5F5F5F5F5F5F5F5F5F5F5F5F5F5F5F5F5F5F5F5F5
310
F5F5F5F5F5F5F5F5F5F5F5F5F5F5F5F5F5F5F5F5F5F5F5F5F5F5F5F5F5F5F5F5F5F5F5F5F5F5F5F5F5F5F5F5F5F5F5F5F5F5F5F5F5F5F5F5F5F5F5F5F5F5F5F5F5F5F5F5F5F5F5F5F5F5F5F5F5F5F5F5F5F5F5F5F5F5F5F5F5F5F5F5F5F5F5F5F5F5F5F5F5F5F5F5F5F5F5F5F5F5F5F5F5F5F5F5F5F5F5F5F5F5F5F5F5F5E2
310
F5F5F5E2E2EFF5F5F5E2F5F5F5F5F5F5F5F5F5F5F5F5F5F5F5F5F5F5F5F5F5F5F5F5F5F5F5F5F5F5F5F5F5F5F5F5F5F5F5F5F5F5F5F5F5F5F5F5F5F5F5F5F5F5F5F5F5F5F5F5F5F5F5F5F5F5F5F5F5F5F5F5F5F5F5F5F5F5F5F5F5F5F5F5F5F5F5F5F5F5F5F5F5F5F5F5F5F5F5F5F5F5F5F5F5F5F5F5F5F5F5F5F5F5F5F5F5
310
F5F5F5F5F5F5F5F5F5F5F5F5F5F5F5F5F5F5F5F5F5F5F5F5F5F5F5F5F5F5F5F5F5F5F5F5F5F5F5F5F5F5F5F5F5F5F5F5F5F5F5F5E2F5F5F5E2E2EFF5F5F5E2F5F5F5F5F5F5F5F5F5F5F5F5F5F5F5F5F5F5F5F5F5F5F5F5F5F5F5F5F5F5F5F5F5F5F5F5F5F5F5F5F5F5F5F5F5F5F5F5F5F5F5F5F5F5F5F5F5F5F5F5F5F5F5F5
310
F5F5F5F5F5F5F5F5F5F5F5F5F5F5F5F5F5F5F5F5F5F5F5F5F5F5F5F5F5F5F5F5F5F5F5F5F5F5F5F5F5F5F5F5F5F5F5F5F5F5F5F5F5F5F5F5F5F5F5F5F5F5F5F5F5F5F5F5F5F5F5F5F5F5F5F5F5F5F5F5F5F5F5F5F5F5F5F5F5F5F5F5F5F5F5F5F5F5F5F5F5F5F5F5F5E2F5F5F5E2E2EFF5F5F5E2F5F5F5F5F5F5F5F5F5F5F5
310
F5F5F5F5F5F5F5F5F5F5F5F5F5F5F5F5F5F5F5F5F5F5F5F5F5F5F5F5F5F5F5F5F5F5F5F5F5F5F5F5F5F5F5F5F5F5F5F5F5F5F5F5F5F5F5F5F5F5F5F5F5F5F5F5F5F5F5F5F5F5F5F5F5F5F5F5F5F5F5F5F5F5F5F5F5F5F5F5F5F5F5F5F5F5F5F5F5F5F5F5F5F5F5F5F5F5F5F5F5F5F5F5F5F5F5F5F5F5F5F5F5F5F5F5F5F5F5
310
F5F5F5F5F5F5F5F5F5F5F5F5F5F5F5F5F5F5F5F5F5F5F5F5F5F5F5F5F5F5F5E2F5F5F5E2E2EFF5F5F5E2E2E2E2E2E2E2E2F5F5F5F5F5F5F5F5F5E2E2E2E2E2E2E2E2E2E2E2E2E2E2E2E2F5F5F5F5F5F5F5F5E2E2E2E2E2E2E2E2E2E2E2E2E2E2E2E2F5F5F5F5F5F5F5F5F5E2E2E2E2E2E2E2E2E2E2E2E2E2E2E2F5F5F5F5F5
310
F5F5F5F5E2E2E2E2E2E2E2E2E2E2E2E2E2E2E2F5F5F5F5F5F5F5F5F5E2E2E2E2E2E2E2E2E2E2E2E2E2E2E2E2F5F5F5F5F5F5F5F5E2E2E2E2E2E2E2E2E2E2E2E2E2E2E2E2F5F5F5F5F5F5F5F5F5E2E2E2E2E2E2E2E2F5F5F5E2E2EFF5F5F5F5F5F5F5F5F5F5F5F5F5F5F5F5F5F5F5F5F5F5F5F5F5F5F5F5F5F5F5F5F5F5F5F5
310
F5F5F5F5F5F5F5F5F5F5F5F5F5F5F5F5F5F5F5F5F5F5F5F5F5F5F5F5F5F5F5F5F5F5F5F5F5F5F5F5F5F5F5F5F5F5F5F5F5F5F5F5F5F5F5F5F5F5F5F5F5F5F5F5F5F5F5F5F5F5F5F5F5F5F5F5F5F5F5F5F5F5F5F5F5F5F5F5F5F5F5F5F5F5F5F5F5F5F5F5F5F5F5F5F5F5F5F5F5F5F5F5F5F5F5F5F5F5F5F5F5F5F5F5F5F5F5
310
F5F5F5F5F5F5F5F5F5F5F5F5F5F5E2E2EFF5F5F5F5F5F5F5F5F5F5F5F5F5F5F5F5F5F5F5F5F5F5F5F5F5F5F5F5F5F5F5F5F5F5F5F5F5F5F5F5F5F5F5F5F5F5F5F5F5F5F5F5F5F5F5F5F5F5F5F5F5F5F5F5F5F5F5F5F5F5F5F5F5F5F5F5F5F5F5F5F5F5F5F5F5F5F5F5F5F5F5F5F5F5F5F5F5F5F5F5F5F5F5F5F5F5F5F5F5F5
310
F5F5F5F5F5F5F5F5F5F5F5F5F5F5F5F5F5F5F5F5F5F5F5F5F5F5F5F5F5F5F5F5F5F5F5F5F5F5F5F5F5F5F5F5F5F5F5F5F5F5F5F5F5F5F5F5F5F5F5F5F5F5F5F5F5F5F5E2EFEFF5F5F5F5F5F5F5F5F5F5F5F5F5F5F5F5F5F5F5F5F5F5F5F5F5F5F5F5F5F5F5F5F5F5F5F5F5F5F5F5F5F5F5F5F5F5F5F5F5F5F5F5F5F5F5F5F5
310
F5F5F5F5F5F5F5F5F5F5F5F5F5F5F5F5F5F5F5F5F5F5F5F5F5F5F5F5F5F5F5F5F5F5F5F5F5F5F5F5F5F5F5F5F5F5F5F5F5F5F5F5F5F5F5F5F5F5F5F5F5F5F5F5F5F5F5F5F5F5F5F5F5F5F5F5F5F5F5F5F5F5F5F5F5F5F5F5F5F5F5F5F5F5F5F5F5F5F5F5F5F5F5F5F5F5F5F5F5F5F5F5F5F5F5F5F5F5F5F5E2EFEFE2E2E2E2
310
E2E2E2E2E2E2E2E2E2E2E2E2E2E2E2E2E2E2E2E2E2E2E2E2E2E2E2E2E2E2E2E2E2E2E2E2E2E2E2E2E2E2E2E2E2E2E2E2E2E2E2E2E2E2E2E2E2E2E2E2E2E2E2E2E2E2E2E2E2E2E2E2E2E2E2E2E2E2E2E2E2E2E2E2E2E2E2E2E2E2E2E2E2E2E2E2E2E2E2E2E2E2E2E2E2E2E2E2E2E2E2E2E2E2E2E2E2E2E2E2E2E2E2E2E2E2E2
310
E2E2E2E2E2E2E2E2E2E2E2E2E2E2E2E2E2E2E2E2E2E2E2E2E2E2E2E2E2E2E2E2E2E2E2E2E2E2E2E2E2E2E2E2E2E2E2EFEF
  0
XRECORD
  5
11CC
102
{ACAD_REACTORS
330
11CB
102
}
330
11CB
100
AcDbXrecord
280
     1
270
     1
271
     1
  0
XRECORD
  5
11CD
102
{ACAD_REACTORS
330
11CB
102
}
330
11CB
100
AcDbXrecord
280
     1
270
     1
271
     1
  0
XRECORD
  5
11CE
102
{ACAD_REACTORS
330
11CB
102
}
330
11CB
100
AcDbXrecord
280
     1
270
     1
271
     1
  0
XRECORD
  5
11CF
102
{ACAD_REACTORS
330
11CB
102
}
330
11CB
100
AcDbXrecord
280
     1
270
     1
271
     1
  0
XRECORD
  5
11D0
102
{ACAD_REACTORS
330
11CB
102
}
330
11CB
100
AcDbXrecord
280
     1
270
     1
271
     1
  0
XRECORD
  5
11D1
102
{ACAD_REACTORS
330
11CB
102
}
330
11CB
100
AcDbXrecord
280
     1
270
     1
271
     1
  0
XRECORD
  5
11C4
102
{ACAD_REACTORS
330
11C3
102
}
330
11C3
100
AcDbXrecord
280
     1
270
     1
271
     1
  0
XRECORD
  5
11C5
102
{ACAD_REACTORS
330
11C3
102
}
330
11C3
100
AcDbXrecord
280
     1
270
     1
271
     1
  0
XRECORD
  5
11C6
102
{ACAD_REACTORS
330
11C3
102
}
330
11C3
100
AcDbXrecord
280
     1
270
     1
271
     1
  0
XRECORD
  5
11C7
102
{ACAD_REACTORS
330
11C3
102
}
330
11C3
100
AcDbXrecord
280
     1
270
     1
271
     1
  0
XRECORD
  5
11C8
102
{ACAD_REACTORS
330
11C3
102
}
330
11C3
100
AcDbXrecord
280
     1
270
     1
271
     1
  0
XRECORD
  5
11C9
102
{ACAD_REACTORS
330
11C3
102
}
330
11C3
100
AcDbXrecord
280
     1
270
     1
271
     1
  0
XRECORD
  5
119A
102
{ACAD_REACTORS
330
1199
102
}
330
1199
100
AcDbXrecord
280
     1
270
     1
271
     1
  0
XRECORD
  5
119B
102
{ACAD_REACTORS
330
1199
102
}
330
1199
100
AcDbXrecord
280
     1
270
     1
271
     1
  0
XRECORD
  5
119C
102
{ACAD_REACTORS
330
1199
102
}
330
1199
100
AcDbXrecord
280
     1
270
     1
271
     1
  0
XRECORD
  5
119D
102
{ACAD_REACTORS
330
1199
102
}
330
1199
100
AcDbXrecord
280
     1
270
     1
271
     1
  0
XRECORD
  5
119E
102
{ACAD_REACTORS
330
1199
102
}
330
1199
100
AcDbXrecord
280
     1
270
     1
271
     1
  0
XRECORD
  5
119F
102
{ACAD_REACTORS
330
1199
102
}
330
1199
100
AcDbXrecord
280
     1
270
     1
271
     1
  0
CELLSTYLEMAP
  5
222C
102
{ACAD_REACTORS
330
1381
102
}
330
1381
100
AcDbCellStyleMap
 90
        3
300
CELLSTYLE
  1
TABLEFORMAT_BEGIN
 90
        5
170
     1
 91
        0
 92
    32768
 62
   257
 93
        1
300
CONTENTFORMAT
  1
CONTENTFORMAT_BEGIN
 90
        0
 91
        0
 92
        4
 93
        0
300

 40
0.0
140
1.0
 94
        5
 62
     0
340
11AF
144
0.25
309
CONTENTFORMAT_END
171
     1
301
MARGIN
  1
CELLMARGIN_BEGIN
 40
0.06
 40
0.06
 40
0.06
 40
0.06
 40
0.18
 40
0.18
309
CELLMARGIN_END
 94
        6
 95
        1
302
GRIDFORMAT
  1
GRIDFORMAT_BEGIN
 90
        0
 91
        1
 62
     0
 92
       -2
340
0
 93
        0
 40
0.045
309
GRIDFORMAT_END
 95
        2
302
GRIDFORMAT
  1
GRIDFORMAT_BEGIN
 90
        0
 91
        1
 62
     0
 92
       -2
340
0
 93
        0
 40
0.045
309
GRIDFORMAT_END
 95
        4
302
GRIDFORMAT
  1
GRIDFORMAT_BEGIN
 90
        0
 91
        1
 62
     0
 92
       -2
340
0
 93
        0
 40
0.045
309
GRIDFORMAT_END
 95
        8
302
GRIDFORMAT
  1
GRIDFORMAT_BEGIN
 90
        0
 91
        1
 62
     0
 92
       -2
340
0
 93
        0
 40
0.045
309
GRIDFORMAT_END
 95
       16
302
GRIDFORMAT
  1
GRIDFORMAT_BEGIN
 90
        0
 91
        1
 62
     0
 92
       -2
340
0
 93
        0
 40
0.045
309
GRIDFORMAT_END
 95
       32
302
GRIDFORMAT
  1
GRIDFORMAT_BEGIN
 90
        0
 91
        1
 62
     0
 92
       -2
340
0
 93
        0
 40
0.045
309
GRIDFORMAT_END
309
TABLEFORMAT_END
  1
CELLSTYLE_BEGIN
 90
        1
 91
        1
300
_TITLE
309
CELLSTYLE_END
300
CELLSTYLE
  1
TABLEFORMAT_BEGIN
 90
        5
170
     1
 91
        0
 92
        0
 62
   257
 93
        1
300
CONTENTFORMAT
  1
CONTENTFORMAT_BEGIN
 90
        0
 91
        0
 92
        4
 93
        0
300

 40
0.0
140
1.0
 94
        5
 62
     0
340
11AF
144
0.18
309
CONTENTFORMAT_END
171
     1
301
MARGIN
  1
CELLMARGIN_BEGIN
 40
0.06
 40
0.06
 40
0.06
 40
0.06
 40
0.18
 40
0.18
309
CELLMARGIN_END
 94
        6
 95
        1
302
GRIDFORMAT
  1
GRIDFORMAT_BEGIN
 90
        0
 91
        1
 62
     0
 92
       -2
340
0
 93
        0
 40
0.045
309
GRIDFORMAT_END
 95
        2
302
GRIDFORMAT
  1
GRIDFORMAT_BEGIN
 90
        0
 91
        1
 62
     0
 92
       -2
340
0
 93
        0
 40
0.045
309
GRIDFORMAT_END
 95
        4
302
GRIDFORMAT
  1
GRIDFORMAT_BEGIN
 90
        0
 91
        1
 62
     0
 92
       -2
340
0
 93
        0
 40
0.045
309
GRIDFORMAT_END
 95
        8
302
GRIDFORMAT
  1
GRIDFORMAT_BEGIN
 90
        0
 91
        1
 62
     0
 92
       -2
340
0
 93
        0
 40
0.045
309
GRIDFORMAT_END
 95
       16
302
GRIDFORMAT
  1
GRIDFORMAT_BEGIN
 90
        0
 91
        1
 62
     0
 92
       -2
340
0
 93
        0
 40
0.045
309
GRIDFORMAT_END
 95
       32
302
GRIDFORMAT
  1
GRIDFORMAT_BEGIN
 90
        0
 91
        1
 62
     0
 92
       -2
340
0
 93
        0
 40
0.045
309
GRIDFORMAT_END
309
TABLEFORMAT_END
  1
CELLSTYLE_BEGIN
 90
        2
 91
        1
300
_HEADER
309
CELLSTYLE_END
300
CELLSTYLE
  1
TABLEFORMAT_BEGIN
 90
        5
170
     1
 91
        0
 92
        0
 62
   257
 93
        1
300
CONTENTFORMAT
  1
CONTENTFORMAT_BEGIN
 90
        0
 91
        0
 92
        4
 93
        0
300

 40
0.0
140
1.0
 94
        2
 62
     0
340
11AF
144
0.18
309
CONTENTFORMAT_END
171
     1
301
MARGIN
  1
CELLMARGIN_BEGIN
 40
0.06
 40
0.06
 40
0.06
 40
0.06
 40
0.18
 40
0.18
309
CELLMARGIN_END
 94
        6
 95
        1
302
GRIDFORMAT
  1
GRIDFORMAT_BEGIN
 90
        0
 91
        1
 62
     0
 92
       -2
340
0
 93
        0
 40
0.045
309
GRIDFORMAT_END
 95
        2
302
GRIDFORMAT
  1
GRIDFORMAT_BEGIN
 90
        0
 91
        1
 62
     0
 92
       -2
340
0
 93
        0
 40
0.045
309
GRIDFORMAT_END
 95
        4
302
GRIDFORMAT
  1
GRIDFORMAT_BEGIN
 90
        0
 91
        1
 62
     0
 92
       -2
340
0
 93
        0
 40
0.045
309
GRIDFORMAT_END
 95
        8
302
GRIDFORMAT
  1
GRIDFORMAT_BEGIN
 90
        0
 91
        1
 62
     0
 92
       -2
340
0
 93
        0
 40
0.045
309
GRIDFORMAT_END
 95
       16
302
GRIDFORMAT
  1
GRIDFORMAT_BEGIN
 90
        0
 91
        1
 62
     0
 92
       -2
340
0
 93
        0
 40
0.045
309
GRIDFORMAT_END
 95
       32
302
GRIDFORMAT
  1
GRIDFORMAT_BEGIN
 90
        0
 91
        1
 62
     0
 92
       -2
340
0
 93
        0
 40
0.045
309
GRIDFORMAT_END
309
TABLEFORMAT_END
  1
CELLSTYLE_BEGIN
 90
        3
 91
        2
300
_DATA
309
CELLSTYLE_END
  0
XRECORD
  5
222F
102
{ACAD_REACTORS
330
222E
102
}
330
222E
100
AcDbXrecord
280
     1
102
RTVSPropertyOp0
 70
     1
102
RTVSPropertyOp1
 70
     1
102
RTVSPropertyOp2
 70
     1
102
RTVSPropertyOp3
 70
     1
102
RTVSPropertyOp4
 70
     1
102
RTVSPropertyOp5
 70
     1
102
RTVSPropertyOp6
 70
     1
102
RTVSPropertyOp7
 70
     1
102
RTVSPropertyOp8
 70
     1
102
RTVSPropertyOp9
 70
     1
102
RTVSPropertyOp10
 70
     1
102
RTVSPropertyOp11
 70
     1
102
RTVSPropertyOp12
 70
     1
102
RTVSPropertyOp13
 70
     1
102
RTVSPropertyOp14
 70
     1
102
RTVSPropertyOp15
 70
     1
102
RTVSPropertyOp16
 70
     1
102
RTVSPropertyOp17
 70
     1
102
RTVSPropertyOp18
 70
     1
102
RTVSPropertyOp19
 70
     1
102
RTVSPropertyOp20
 70
     1
102
RTVSPropertyOp21
 70
     1
102
RTVSPropertyOp22
 70
     1
102
RTVSPropertyOp23
 70
     1
102
RTVSPropertyOp24
 70
     1
102
RTVSPropertyOp25
 70
     1
102
RTVSPropertyOp26
 70
     1
102
RTVSPropertyOp27
 70
     1
  0
XRECORD
  5
223F
102
{ACAD_REACTORS
330
223E
102
}
330
223E
100
AcDbXrecord
280
     1
102
RTVSPropertyOp0
 70
     1
102
RTVSPropertyOp1
 70
     1
102
RTVSPropertyOp2
 70
     1
102
RTVSPropertyOp3
 70
     1
102
RTVSPropertyOp4
 70
     1
102
RTVSPropertyOp5
 70
     1
102
RTVSPropertyOp6
 70
     1
102
RTVSPropertyOp7
 70
     1
102
RTVSPropertyOp8
 70
     1
102
RTVSPropertyOp9
 70
     1
102
RTVSPropertyOp10
 70
     1
102
RTVSPropertyOp11
 70
     1
102
RTVSPropertyOp12
 70
     1
102
RTVSPropertyOp13
 70
     1
102
RTVSPropertyOp14
 70
     1
102
RTVSPropertyOp15
 70
     1
102
RTVSPropertyOp16
 70
     1
102
RTVSPropertyOp17
 70
     1
102
RTVSPropertyOp18
 70
     1
102
RTVSPropertyOp19
 70
     1
102
RTVSPropertyOp20
 70
     1
102
RTVSPropertyOp21
 70
     1
102
RTVSPropertyOp22
 70
     1
102
RTVSPropertyOp23
 70
     1
102
RTVSPropertyOp24
 70
     1
102
RTVSPropertyOp25
 70
     1
102
RTVSPropertyOp26
 70
     1
102
RTVSPropertyOp27
 70
     1
  0
XRECORD
  5
2233
102
{ACAD_REACTORS
330
2232
102
}
330
2232
100
AcDbXrecord
280
     1
102
RTVSPropertyOp0
 70
     1
102
RTVSPropertyOp1
 70
     1
102
RTVSPropertyOp2
 70
     1
102
RTVSPropertyOp3
 70
     1
102
RTVSPropertyOp4
 70
     1
102
RTVSPropertyOp5
 70
     1
102
RTVSPropertyOp6
 70
     1
102
RTVSPropertyOp7
 70
     1
102
RTVSPropertyOp8
 70
     1
102
RTVSPropertyOp9
 70
     1
102
RTVSPropertyOp10
 70
     1
102
RTVSPropertyOp11
 70
     1
102
RTVSPropertyOp12
 70
     1
102
RTVSPropertyOp13
 70
     1
102
RTVSPropertyOp14
 70
     1
102
RTVSPropertyOp15
 70
     1
102
RTVSPropertyOp16
 70
     1
102
RTVSPropertyOp17
 70
     1
102
RTVSPropertyOp18
 70
     1
102
RTVSPropertyOp19
 70
     1
102
RTVSPropertyOp20
 70
     1
102
RTVSPropertyOp21
 70
     1
102
RTVSPropertyOp22
 70
     1
102
RTVSPropertyOp23
 70
     1
102
RTVSPropertyOp24
 70
     1
102
RTVSPropertyOp25
 70
     1
102
RTVSPropertyOp26
 70
     1
102
RTVSPropertyOp27
 70
     1
  0
XRECORD
  5
223D
102
{ACAD_REACTORS
330
223C
102
}
330
223C
100
AcDbXrecord
280
     1
102
RTVSPropertyOp0
 70
     1
102
RTVSPropertyOp1
 70
     1
102
RTVSPropertyOp2
 70
     1
102
RTVSPropertyOp3
 70
     1
102
RTVSPropertyOp4
 70
     1
102
RTVSPropertyOp5
 70
     1
102
RTVSPropertyOp6
 70
     1
102
RTVSPropertyOp7
 70
     1
102
RTVSPropertyOp8
 70
     1
102
RTVSPropertyOp9
 70
     1
102
RTVSPropertyOp10
 70
     1
102
RTVSPropertyOp11
 70
     1
102
RTVSPropertyOp12
 70
     1
102
RTVSPropertyOp13
 70
     1
102
RTVSPropertyOp14
 70
     1
102
RTVSPropertyOp15
 70
     1
102
RTVSPropertyOp16
 70
     1
102
RTVSPropertyOp17
 70
     1
102
RTVSPropertyOp18
 70
     1
102
RTVSPropertyOp19
 70
     1
102
RTVSPropertyOp20
 70
     1
102
RTVSPropertyOp21
 70
     1
102
RTVSPropertyOp22
 70
     1
102
RTVSPropertyOp23
 70
     1
102
RTVSPropertyOp24
 70
     1
102
RTVSPropertyOp25
 70
     1
102
RTVSPropertyOp26
 70
     1
102
RTVSPropertyOp27
 70
     1
  0
XRECORD
  5
2245
102
{ACAD_REACTORS
330
2244
102
}
330
2244
100
AcDbXrecord
280
     1
102
RTVSPropertyOp0
 70
     1
102
RTVSPropertyOp1
 70
     1
102
RTVSPropertyOp2
 70
     1
102
RTVSPropertyOp3
 70
     1
102
RTVSPropertyOp4
 70
     1
102
RTVSPropertyOp5
 70
     1
102
RTVSPropertyOp6
 70
     1
102
RTVSPropertyOp7
 70
     1
102
RTVSPropertyOp8
 70
     1
102
RTVSPropertyOp9
 70
     1
102
RTVSPropertyOp10
 70
     1
102
RTVSPropertyOp11
 70
     1
102
RTVSPropertyOp12
 70
     1
102
RTVSPropertyOp13
 70
     1
102
RTVSPropertyOp14
 70
     1
102
RTVSPropertyOp15
 70
     1
102
RTVSPropertyOp16
 70
     1
102
RTVSPropertyOp17
 70
     1
102
RTVSPropertyOp18
 70
     1
102
RTVSPropertyOp19
 70
     1
102
RTVSPropertyOp20
 70
     1
102
RTVSPropertyOp21
 70
     1
102
RTVSPropertyOp22
 70
     1
102
RTVSPropertyOp23
 70
     1
102
RTVSPropertyOp24
 70
     1
102
RTVSPropertyOp25
 70
     1
102
RTVSPropertyOp26
 70
     1
102
RTVSPropertyOp27
 70
     1
  0
XRECORD
  5
224D
102
{ACAD_REACTORS
330
224C
102
}
330
224C
100
AcDbXrecord
280
     1
102
RTVSPropertyOp0
 70
     1
102
RTVSPropertyOp1
 70
     1
102
RTVSPropertyOp2
 70
     1
102
RTVSPropertyOp3
 70
     1
102
RTVSPropertyOp4
 70
     1
102
RTVSPropertyOp5
 70
     1
102
RTVSPropertyOp6
 70
     1
102
RTVSPropertyOp7
 70
     1
102
RTVSPropertyOp8
 70
     1
102
RTVSPropertyOp9
 70
     1
102
RTVSPropertyOp10
 70
     1
102
RTVSPropertyOp11
 70
     1
102
RTVSPropertyOp12
 70
     1
102
RTVSPropertyOp13
 70
     1
102
RTVSPropertyOp14
 70
     1
102
RTVSPropertyOp15
 70
     1
102
RTVSPropertyOp16
 70
     1
102
RTVSPropertyOp17
 70
     1
102
RTVSPropertyOp18
 70
     1
102
RTVSPropertyOp19
 70
     1
102
RTVSPropertyOp20
 70
     1
102
RTVSPropertyOp21
 70
     1
102
RTVSPropertyOp22
 70
     1
102
RTVSPropertyOp23
 70
     1
102
RTVSPropertyOp24
 70
     1
102
RTVSPropertyOp25
 70
     1
102
RTVSPropertyOp26
 70
     1
102
RTVSPropertyOp27
 70
     1
  0
XRECORD
  5
2241
102
{ACAD_REACTORS
330
2240
102
}
330
2240
100
AcDbXrecord
280
     1
102
RTVSPropertyOp0
 70
     1
102
RTVSPropertyOp1
 70
     1
102
RTVSPropertyOp2
 70
     1
102
RTVSPropertyOp3
 70
     1
102
RTVSPropertyOp4
 70
     1
102
RTVSPropertyOp5
 70
     1
102
RTVSPropertyOp6
 70
     1
102
RTVSPropertyOp7
 70
     1
102
RTVSPropertyOp8
 70
     1
102
RTVSPropertyOp9
 70
     1
102
RTVSPropertyOp10
 70
     1
102
RTVSPropertyOp11
 70
     1
102
RTVSPropertyOp12
 70
     1
102
RTVSPropertyOp13
 70
     1
102
RTVSPropertyOp14
 70
     1
102
RTVSPropertyOp15
 70
     1
102
RTVSPropertyOp16
 70
     1
102
RTVSPropertyOp17
 70
     1
102
RTVSPropertyOp18
 70
     1
102
RTVSPropertyOp19
 70
     1
102
RTVSPropertyOp20
 70
     1
102
RTVSPropertyOp21
 70
     1
102
RTVSPropertyOp22
 70
     1
102
RTVSPropertyOp23
 70
     1
102
RTVSPropertyOp24
 70
     1
102
RTVSPropertyOp25
 70
     1
102
RTVSPropertyOp26
 70
     1
102
RTVSPropertyOp27
 70
     1
  0
XRECORD
  5
2243
102
{ACAD_REACTORS
330
2242
102
}
330
2242
100
AcDbXrecord
280
     1
102
RTVSPropertyOp0
 70
     1
102
RTVSPropertyOp1
 70
     1
102
RTVSPropertyOp2
 70
     1
102
RTVSPropertyOp3
 70
     1
102
RTVSPropertyOp4
 70
     1
102
RTVSPropertyOp5
 70
     1
102
RTVSPropertyOp6
 70
     1
102
RTVSPropertyOp7
 70
     1
102
RTVSPropertyOp8
 70
     1
102
RTVSPropertyOp9
 70
     1
102
RTVSPropertyOp10
 70
     1
102
RTVSPropertyOp11
 70
     1
102
RTVSPropertyOp12
 70
     1
102
RTVSPropertyOp13
 70
     1
102
RTVSPropertyOp14
 70
     1
102
RTVSPropertyOp15
 70
     1
102
RTVSPropertyOp16
 70
     1
102
RTVSPropertyOp17
 70
     1
102
RTVSPropertyOp18
 70
     1
102
RTVSPropertyOp19
 70
     1
102
RTVSPropertyOp20
 70
     1
102
RTVSPropertyOp21
 70
     1
102
RTVSPropertyOp22
 70
     1
102
RTVSPropertyOp23
 70
     1
102
RTVSPropertyOp24
 70
     1
102
RTVSPropertyOp25
 70
     1
102
RTVSPropertyOp26
 70
     1
102
RTVSPropertyOp27
 70
     1
  0
XRECORD
  5
2253
102
{ACAD_REACTORS
330
2252
102
}
330
2252
100
AcDbXrecord
280
     1
102
RTVSPropertyOp0
 70
     0
102
RTVSPropertyOp1
 70
     0
102
RTVSPropertyOp2
 70
     0
102
RTVSPropertyOp3
 70
     0
102
RTVSPropertyOp4
 70
     0
102
RTVSPropertyOp5
 70
     0
102
RTVSPropertyOp6
 70
     0
102
RTVSPropertyOp7
 70
     0
102
RTVSPropertyOp8
 70
     0
102
RTVSPropertyOp9
 70
     0
102
RTVSPropertyOp10
 70
     0
102
RTVSPropertyOp11
 70
     0
102
RTVSPropertyOp12
 70
     0
102
RTVSPropertyOp13
 70
     0
102
RTVSPropertyOp14
 70
     2
102
RTVSPropertyOp15
 70
     0
102
RTVSPropertyOp16
 70
     0
102
RTVSPropertyOp17
 70
     0
102
RTVSPropertyOp18
 70
     0
102
RTVSPropertyOp19
 70
     0
102
RTVSPropertyOp20
 70
     0
102
RTVSPropertyOp21
 70
     0
102
RTVSPropertyOp22
 70
     0
102
RTVSPropertyOp23
 70
     0
102
RTVSPropertyOp24
 70
     0
102
RTVSPropertyOp25
 70
     0
102
RTVSPropertyOp26
 70
     0
102
RTVSPropertyOp27
 70
     0
  0
XRECORD
  5
224B
102
{ACAD_REACTORS
330
224A
102
}
330
224A
100
AcDbXrecord
280
     1
102
RTVSPropertyOp0
 70
     1
102
RTVSPropertyOp1
 70
     1
102
RTVSPropertyOp2
 70
     1
102
RTVSPropertyOp3
 70
     1
102
RTVSPropertyOp4
 70
     1
102
RTVSPropertyOp5
 70
     1
102
RTVSPropertyOp6
 70
     1
102
RTVSPropertyOp7
 70
     1
102
RTVSPropertyOp8
 70
     1
102
RTVSPropertyOp9
 70
     1
102
RTVSPropertyOp10
 70
     1
102
RTVSPropertyOp11
 70
     1
102
RTVSPropertyOp12
 70
     1
102
RTVSPropertyOp13
 70
     1
102
RTVSPropertyOp14
 70
     1
102
RTVSPropertyOp15
 70
     1
102
RTVSPropertyOp16
 70
     1
102
RTVSPropertyOp17
 70
     1
102
RTVSPropertyOp18
 70
     1
102
RTVSPropertyOp19
 70
     1
102
RTVSPropertyOp20
 70
     1
102
RTVSPropertyOp21
 70
     1
102
RTVSPropertyOp22
 70
     1
102
RTVSPropertyOp23
 70
     1
102
RTVSPropertyOp24
 70
     1
102
RTVSPropertyOp25
 70
     1
102
RTVSPropertyOp26
 70
     1
102
RTVSPropertyOp27
 70
     1
  0
XRECORD
  5
2235
102
{ACAD_REACTORS
330
2234
102
}
330
2234
100
AcDbXrecord
280
     1
102
RTVSPropertyOp0
 70
     1
102
RTVSPropertyOp1
 70
     1
102
RTVSPropertyOp2
 70
     1
102
RTVSPropertyOp3
 70
     1
102
RTVSPropertyOp4
 70
     1
102
RTVSPropertyOp5
 70
     1
102
RTVSPropertyOp6
 70
     1
102
RTVSPropertyOp7
 70
     1
102
RTVSPropertyOp8
 70
     1
102
RTVSPropertyOp9
 70
     1
102
RTVSPropertyOp10
 70
     1
102
RTVSPropertyOp11
 70
     1
102
RTVSPropertyOp12
 70
     1
102
RTVSPropertyOp13
 70
     1
102
RTVSPropertyOp14
 70
     1
102
RTVSPropertyOp15
 70
     1
102
RTVSPropertyOp16
 70
     1
102
RTVSPropertyOp17
 70
     1
102
RTVSPropertyOp18
 70
     1
102
RTVSPropertyOp19
 70
     1
102
RTVSPropertyOp20
 70
     1
102
RTVSPropertyOp21
 70
     1
102
RTVSPropertyOp22
 70
     1
102
RTVSPropertyOp23
 70
     1
102
RTVSPropertyOp24
 70
     1
102
RTVSPropertyOp25
 70
     1
102
RTVSPropertyOp26
 70
     1
102
RTVSPropertyOp27
 70
     1
  0
XRECORD
  5
2237
102
{ACAD_REACTORS
330
2236
102
}
330
2236
100
AcDbXrecord
280
     1
102
RTVSPropertyOp0
 70
     1
102
RTVSPropertyOp1
 70
     1
102
RTVSPropertyOp2
 70
     1
102
RTVSPropertyOp3
 70
     1
102
RTVSPropertyOp4
 70
     1
102
RTVSPropertyOp5
 70
     1
102
RTVSPropertyOp6
 70
     1
102
RTVSPropertyOp7
 70
     1
102
RTVSPropertyOp8
 70
     1
102
RTVSPropertyOp9
 70
     1
102
RTVSPropertyOp10
 70
     1
102
RTVSPropertyOp11
 70
     1
102
RTVSPropertyOp12
 70
     1
102
RTVSPropertyOp13
 70
     1
102
RTVSPropertyOp14
 70
     1
102
RTVSPropertyOp15
 70
     1
102
RTVSPropertyOp16
 70
     1
102
RTVSPropertyOp17
 70
     1
102
RTVSPropertyOp18
 70
     1
102
RTVSPropertyOp19
 70
     1
102
RTVSPropertyOp20
 70
     1
102
RTVSPropertyOp21
 70
     1
102
RTVSPropertyOp22
 70
     1
102
RTVSPropertyOp23
 70
     1
102
RTVSPropertyOp24
 70
     1
102
RTVSPropertyOp25
 70
     1
102
RTVSPropertyOp26
 70
     1
102
RTVSPropertyOp27
 70
     1
  0
XRECORD
  5
2239
102
{ACAD_REACTORS
330
2238
102
}
330
2238
100
AcDbXrecord
280
     1
102
RTVSPropertyOp0
 70
     1
102
RTVSPropertyOp1
 70
     1
102
RTVSPropertyOp2
 70
     1
102
RTVSPropertyOp3
 70
     1
102
RTVSPropertyOp4
 70
     1
102
RTVSPropertyOp5
 70
     1
102
RTVSPropertyOp6
 70
     1
102
RTVSPropertyOp7
 70
     1
102
RTVSPropertyOp8
 70
     1
102
RTVSPropertyOp9
 70
     1
102
RTVSPropertyOp10
 70
     1
102
RTVSPropertyOp11
 70
     1
102
RTVSPropertyOp12
 70
     1
102
RTVSPropertyOp13
 70
     1
102
RTVSPropertyOp14
 70
     1
102
RTVSPropertyOp15
 70
     1
102
RTVSPropertyOp16
 70
     1
102
RTVSPropertyOp17
 70
     1
102
RTVSPropertyOp18
 70
     1
102
RTVSPropertyOp19
 70
     1
102
RTVSPropertyOp20
 70
     1
102
RTVSPropertyOp21
 70
     1
102
RTVSPropertyOp22
 70
     1
102
RTVSPropertyOp23
 70
     1
102
RTVSPropertyOp24
 70
     1
102
RTVSPropertyOp25
 70
     1
102
RTVSPropertyOp26
 70
     1
102
RTVSPropertyOp27
 70
     1
  0
XRECORD
  5
223B
102
{ACAD_REACTORS
330
223A
102
}
330
223A
100
AcDbXrecord
280
     1
102
RTVSPropertyOp0
 70
     1
102
RTVSPropertyOp1
 70
     1
102
RTVSPropertyOp2
 70
     1
102
RTVSPropertyOp3
 70
     1
102
RTVSPropertyOp4
 70
     1
102
RTVSPropertyOp5
 70
     1
102
RTVSPropertyOp6
 70
     1
102
RTVSPropertyOp7
 70
     1
102
RTVSPropertyOp8
 70
     1
102
RTVSPropertyOp9
 70
     1
102
RTVSPropertyOp10
 70
     1
102
RTVSPropertyOp11
 70
     1
102
RTVSPropertyOp12
 70
     1
102
RTVSPropertyOp13
 70
     1
102
RTVSPropertyOp14
 70
     1
102
RTVSPropertyOp15
 70
     1
102
RTVSPropertyOp16
 70
     1
102
RTVSPropertyOp17
 70
     1
102
RTVSPropertyOp18
 70
     1
102
RTVSPropertyOp19
 70
     1
102
RTVSPropertyOp20
 70
     1
102
RTVSPropertyOp21
 70
     1
102
RTVSPropertyOp22
 70
     1
102
RTVSPropertyOp23
 70
     1
102
RTVSPropertyOp24
 70
     1
102
RTVSPropertyOp25
 70
     1
102
RTVSPropertyOp26
 70
     1
102
RTVSPropertyOp27
 70
     1
  0
XRECORD
  5
224F
102
{ACAD_REACTORS
330
224E
102
}
330
224E
100
AcDbXrecord
280
     1
102
RTVSPropertyOp0
 70
     0
102
RTVSPropertyOp1
 70
     0
102
RTVSPropertyOp2
 70
     0
102
RTVSPropertyOp3
 70
     0
102
RTVSPropertyOp4
 70
     0
102
RTVSPropertyOp5
 70
     0
102
RTVSPropertyOp6
 70
     0
102
RTVSPropertyOp7
 70
     0
102
RTVSPropertyOp8
 70
     0
102
RTVSPropertyOp9
 70
     0
102
RTVSPropertyOp10
 70
     0
102
RTVSPropertyOp11
 70
     0
102
RTVSPropertyOp12
 70
     0
102
RTVSPropertyOp13
 70
     0
102
RTVSPropertyOp14
 70
     2
102
RTVSPropertyOp15
 70
     0
102
RTVSPropertyOp16
 70
     0
102
RTVSPropertyOp17
 70
     0
102
RTVSPropertyOp18
 70
     0
102
RTVSPropertyOp19
 70
     0
102
RTVSPropertyOp20
 70
     0
102
RTVSPropertyOp21
 70
     0
102
RTVSPropertyOp22
 70
     0
102
RTVSPropertyOp23
 70
     0
102
RTVSPropertyOp24
 70
     0
102
RTVSPropertyOp25
 70
     0
102
RTVSPropertyOp26
 70
     0
102
RTVSPropertyOp27
 70
     0
  0
XRECORD
  5
2249
102
{ACAD_REACTORS
330
2248
102
}
330
2248
100
AcDbXrecord
280
     1
102
RTVSPropertyOp0
 70
     1
102
RTVSPropertyOp1
 70
     1
102
RTVSPropertyOp2
 70
     1
102
RTVSPropertyOp3
 70
     1
102
RTVSPropertyOp4
 70
     1
102
RTVSPropertyOp5
 70
     1
102
RTVSPropertyOp6
 70
     1
102
RTVSPropertyOp7
 70
     1
102
RTVSPropertyOp8
 70
     1
102
RTVSPropertyOp9
 70
     1
102
RTVSPropertyOp10
 70
     1
102
RTVSPropertyOp11
 70
     1
102
RTVSPropertyOp12
 70
     1
102
RTVSPropertyOp13
 70
     1
102
RTVSPropertyOp14
 70
     1
102
RTVSPropertyOp15
 70
     1
102
RTVSPropertyOp16
 70
     1
102
RTVSPropertyOp17
 70
     1
102
RTVSPropertyOp18
 70
     1
102
RTVSPropertyOp19
 70
     1
102
RTVSPropertyOp20
 70
     1
102
RTVSPropertyOp21
 70
     1
102
RTVSPropertyOp22
 70
     1
102
RTVSPropertyOp23
 70
     1
102
RTVSPropertyOp24
 70
     1
102
RTVSPropertyOp25
 70
     1
102
RTVSPropertyOp26
 70
     1
102
RTVSPropertyOp27
 70
     1
  0
XRECORD
  5
2251
102
{ACAD_REACTORS
330
2250
102
}
330
2250
100
AcDbXrecord
280
     1
102
RTVSPropertyOp0
 70
     0
102
RTVSPropertyOp1
 70
     0
102
RTVSPropertyOp2
 70
     0
102
RTVSPropertyOp3
 70
     0
102
RTVSPropertyOp4
 70
     0
102
RTVSPropertyOp5
 70
     0
102
RTVSPropertyOp6
 70
     0
102
RTVSPropertyOp7
 70
     0
102
RTVSPropertyOp8
 70
     0
102
RTVSPropertyOp9
 70
     0
102
RTVSPropertyOp10
 70
     0
102
RTVSPropertyOp11
 70
     0
102
RTVSPropertyOp12
 70
     0
102
RTVSPropertyOp13
 70
     0
102
RTVSPropertyOp14
 70
     2
102
RTVSPropertyOp15
 70
     0
102
RTVSPropertyOp16
 70
     0
102
RTVSPropertyOp17
 70
     0
102
RTVSPropertyOp18
 70
     0
102
RTVSPropertyOp19
 70
     0
102
RTVSPropertyOp20
 70
     0
102
RTVSPropertyOp21
 70
     0
102
RTVSPropertyOp22
 70
     0
102
RTVSPropertyOp23
 70
     0
102
RTVSPropertyOp24
 70
     0
102
RTVSPropertyOp25
 70
     0
102
RTVSPropertyOp26
 70
     0
102
RTVSPropertyOp27
 70
     0
  0
XRECORD
  5
2231
102
{ACAD_REACTORS
330
2230
102
}
330
2230
100
AcDbXrecord
280
     1
102
RTVSPropertyOp0
 70
     1
102
RTVSPropertyOp1
 70
     1
102
RTVSPropertyOp2
 70
     1
102
RTVSPropertyOp3
 70
     1
102
RTVSPropertyOp4
 70
     1
102
RTVSPropertyOp5
 70
     1
102
RTVSPropertyOp6
 70
     1
102
RTVSPropertyOp7
 70
     1
102
RTVSPropertyOp8
 70
     1
102
RTVSPropertyOp9
 70
     1
102
RTVSPropertyOp10
 70
     1
102
RTVSPropertyOp11
 70
     1
102
RTVSPropertyOp12
 70
     1
102
RTVSPropertyOp13
 70
     1
102
RTVSPropertyOp14
 70
     1
102
RTVSPropertyOp15
 70
     1
102
RTVSPropertyOp16
 70
     1
102
RTVSPropertyOp17
 70
     1
102
RTVSPropertyOp18
 70
     1
102
RTVSPropertyOp19
 70
     1
102
RTVSPropertyOp20
 70
     1
102
RTVSPropertyOp21
 70
     1
102
RTVSPropertyOp22
 70
     1
102
RTVSPropertyOp23
 70
     1
102
RTVSPropertyOp24
 70
     1
102
RTVSPropertyOp25
 70
     1
102
RTVSPropertyOp26
 70
     1
102
RTVSPropertyOp27
 70
     1
  0
XRECORD
  5
2247
102
{ACAD_REACTORS
330
2246
102
}
330
2246
100
AcDbXrecord
280
     1
102
RTVSPropertyOp0
 70
     1
102
RTVSPropertyOp1
 70
     1
102
RTVSPropertyOp2
 70
     1
102
RTVSPropertyOp3
 70
     1
102
RTVSPropertyOp4
 70
     1
102
RTVSPropertyOp5
 70
     1
102
RTVSPropertyOp6
 70
     1
102
RTVSPropertyOp7
 70
     1
102
RTVSPropertyOp8
 70
     1
102
RTVSPropertyOp9
 70
     1
102
RTVSPropertyOp10
 70
     1
102
RTVSPropertyOp11
 70
     1
102
RTVSPropertyOp12
 70
     1
102
RTVSPropertyOp13
 70
     1
102
RTVSPropertyOp14
 70
     1
102
RTVSPropertyOp15
 70
     1
102
RTVSPropertyOp16
 70
     1
102
RTVSPropertyOp17
 70
     1
102
RTVSPropertyOp18
 70
     1
102
RTVSPropertyOp19
 70
     1
102
RTVSPropertyOp20
 70
     1
102
RTVSPropertyOp21
 70
     1
102
RTVSPropertyOp22
 70
     1
102
RTVSPropertyOp23
 70
     1
102
RTVSPropertyOp24
 70
     1
102
RTVSPropertyOp25
 70
     1
102
RTVSPropertyOp26
 70
     1
102
RTVSPropertyOp27
 70
     1
  0
ENDSEC
  0
EOF
