  0
SECTION
  2
HEADER
  9
$ACADVER
  1
AC1021
  9
$ACADMAINTVER
 70
    50
  9
$DWGCODEPAGE
  3
ANSI_1252
  9
$AUTHOR
  1
dworden
  9
$LASTSAVEDBY
  1
dworden
  9
$INSBASE
 10
0.0
 20
0.0
 30
0.0
  9
$EXTMIN
 10
-26.429807
 20
-7.909748
 30
-0.000146
  9
$EXTMAX
 10
9.130161
 20
16.499799
 30
0.000004
  9
$LIMMIN
 10
-94.913079
 20
-81.968231
  9
$LIMMAX
 10
77.613434
 20
90.558282
  9
$ORTHOMODE
 70
     0
  9
$REGENMODE
 70
     1
  9
$FILLMODE
 70
     1
  9
$QTEXTMODE
 70
     0
  9
$MIRRTEXT
 70
     0
  9
$LTSCALE
 40
1.0
  9
$ATTMODE
 70
     1
  9
$TEXTSIZE
 40
0.03
  9
$TRACEWID
 40
0.05
  9
$TEXTSTYLE
  7
Standard
  9
$CLAYER
  8
Level 1
  9
$CELTYPE
  6
Continuous
  9
$CECOLOR
 62
     7
  9
$CELTSCALE
 40
1.0
  9
$DISPSILH
 70
     0
  9
$DIMSCALE
 40
1.0
  9
$DIMASZ
 40
0.045
  9
$DIMEXO
 40
0.018
  9
$DIMDLI
 40
0.0
  9
$DIMRND
 40
0.0
  9
$DIMDLE
 40
0.0
  9
$DIMEXE
 40
0.015
  9
$DIMTP
 40
0.002
  9
$DIMTM
 40
0.002
  9
$DIMTXT
 40
0.03
  9
$DIMCEN
 40
0.09
  9
$DIMTSZ
 40
0.0
  9
$DIMTOL
 70
     0
  9
$DIMLIM
 70
     0
  9
$DIMTIH
 70
     1
  9
$DIMTOH
 70
     1
  9
$DIMSE1
 70
     0
  9
$DIMSE2
 70
     0
  9
$DIMTAD
 70
     0
  9
$DIMZIN
 70
     7
  9
$DIMBLK
  1

  9
$DIMASO
 70
     1
  9
$DIMSHO
 70
     1
  9
$DIMPOST
  1
\X
  9
$DIMAPOST
  1

  9
$DIMALT
 70
     1
  9
$DIMALTD
 70
     2
  9
$DIMALTF
 40
25.4
  9
$DIMLFAC
 40
1.0
  9
$DIMTOFL
 70
     0
  9
$DIMTVP
 40
0.0
  9
$DIMTIX
 70
     0
  9
$DIMSOXD
 70
     0
  9
$DIMSAH
 70
     0
  9
$DIMBLK1
  1

  9
$DIMBLK2
  1

  9
$DIMSTYLE
  2
Standard
  9
$DIMCLRD
 70
     0
  9
$DIMCLRE
 70
     0
  9
$DIMCLRT
 70
     0
  9
$DIMTFAC
 40
1.0
  9
$DIMGAP
 40
0.009
  9
$DIMJUST
 70
     0
  9
$DIMSD1
 70
     0
  9
$DIMSD2
 70
     0
  9
$DIMTOLJ
 70
     0
  9
$DIMTZIN
 70
     7
  9
$DIMALTZ
 70
    15
  9
$DIMALTTZ
 70
    15
  9
$DIMUPT
 70
     1
  9
$DIMDEC
 70
     3
  9
$DIMTDEC
 70
     3
  9
$DIMALTU
 70
     2
  9
$DIMALTTD
 70
     2
  9
$DIMTXSTY
  7
Style-WORKING
  9
$DIMAUNIT
 70
     0
  9
$DIMADEC
 70
     0
  9
$DIMALTRND
 40
0.0
  9
$DIMAZIN
 70
     3
  9
$DIMDSEP
 70
    46
  9
$DIMATFIT
 70
     1
  9
$DIMFRAC
 70
     2
  9
$DIMLDRBLK
  1

  9
$DIMLUNIT
 70
     2
  9
$DIMLWD
 70
    -2
  9
$DIMLWE
 70
    -2
  9
$DIMTMOVE
 70
     0
  9
$DIMFXL
 40
1.0
  9
$DIMFXLON
 70
     0
  9
$DIMJOGANG
 40
0.785398
  9
$DIMTFILL
 70
     0
  9
$DIMTFILLCLR
 70
     0
  9
$DIMARCSYM
 70
     0
  9
$DIMLTYPE
  6

  9
$DIMLTEX1
  6

  9
$DIMLTEX2
  6

  9
$LUNITS
 70
     2
  9
$LUPREC
 70
     4
  9
$SKETCHINC
 40
0.1
  9
$FILLETRAD
 40
0.0
  9
$AUNITS
 70
     0
  9
$AUPREC
 70
     4
  9
$MENU
  1
.
  9
$ELEVATION
 40
0.0
  9
$PELEVATION
 40
0.0
  9
$THICKNESS
 40
0.0
  9
$LIMCHECK
 70
     0
  9
$CHAMFERA
 40
0.0
  9
$CHAMFERB
 40
0.0
  9
$CHAMFERC
 40
0.0
  9
$CHAMFERD
 40
0.0
  9
$SKPOLY
 70
     0
  9
$TDCREATE
 40
2454144.486357349
  9
$TDUCREATE
 40
2454144.778024017
  9
$TDUPDATE
 40
2454144.487020359
  9
$TDUUPDATE
 40
2454144.778687026
  9
$TDINDWG
 40
0.0040865509
  9
$TDUSRTIMER
 40
0.0040861921
  9
$USRTIMER
 70
     1
  9
$ANGBASE
 50
0.0
  9
$ANGDIR
 70
     0
  9
$PDMODE
 70
     0
  9
$PDSIZE
 40
0.0
  9
$PLINEWID
 40
0.0
  9
$SPLFRAME
 70
     0
  9
$SPLINETYPE
 70
     6
  9
$SPLINESEGS
 70
     8
  9
$HANDSEED
  5
18D6
  9
$SURFTAB1
 70
     6
  9
$SURFTAB2
 70
     6
  9
$SURFTYPE
 70
     6
  9
$SURFU
 70
     6
  9
$SURFV
 70
     6
  9
$UCSBASE
  2

  9
$UCSNAME
  2

  9
$UCSORG
 10
0.0
 20
0.0
 30
0.0
  9
$UCSXDIR
 10
1.0
 20
0.0
 30
0.0
  9
$UCSYDIR
 10
0.0
 20
1.0
 30
0.0
  9
$UCSORTHOREF
  2

  9
$UCSORTHOVIEW
 70
     0
  9
$UCSORGTOP
 10
0.0
 20
0.0
 30
0.0
  9
$UCSORGBOTTOM
 10
0.0
 20
0.0
 30
0.0
  9
$UCSORGLEFT
 10
0.0
 20
0.0
 30
0.0
  9
$UCSORGRIGHT
 10
0.0
 20
0.0
 30
0.0
  9
$UCSORGFRONT
 10
0.0
 20
0.0
 30
0.0
  9
$UCSORGBACK
 10
0.0
 20
0.0
 30
0.0
  9
$PUCSBASE
  2

  9
$PUCSNAME
  2

  9
$PUCSORG
 10
0.0
 20
0.0
 30
0.0
  9
$PUCSXDIR
 10
1.0
 20
0.0
 30
0.0
  9
$PUCSYDIR
 10
0.0
 20
1.0
 30
0.0
  9
$PUCSORTHOREF
  2

  9
$PUCSORTHOVIEW
 70
     0
  9
$PUCSORGTOP
 10
0.0
 20
0.0
 30
0.0
  9
$PUCSORGBOTTOM
 10
0.0
 20
0.0
 30
0.0
  9
$PUCSORGLEFT
 10
0.0
 20
0.0
 30
0.0
  9
$PUCSORGRIGHT
 10
0.0
 20
0.0
 30
0.0
  9
$PUCSORGFRONT
 10
0.0
 20
0.0
 30
0.0
  9
$PUCSORGBACK
 10
0.0
 20
0.0
 30
0.0
  9
$USERI1
 70
     0
  9
$USERI2
 70
     0
  9
$USERI3
 70
     0
  9
$USERI4
 70
     0
  9
$USERI5
 70
     0
  9
$USERR1
 40
0.0
  9
$USERR2
 40
0.0
  9
$USERR3
 40
0.0
  9
$USERR4
 40
0.0
  9
$USERR5
 40
0.0
  9
$WORLDVIEW
 70
     1
  9
$SHADEDGE
 70
     3
  9
$SHADEDIF
 70
    70
  9
$TILEMODE
 70
     1
  9
$MAXACTVP
 70
    64
  9
$PINSBASE
 10
0.0
 20
0.0
 30
0.0
  9
$PLIMCHECK
 70
     0
  9
$PEXTMIN
 10
1.049744
 20
0.799667
 30
-0.001526
  9
$PEXTMAX
 10
9.450623
 20
7.200577
 30
0.0
  9
$PLIMMIN
 10
-0.25
 20
-0.25
  9
$PLIMMAX
 10
10.75
 20
8.25
  9
$UNITMODE
 70
     0
  9
$VISRETAIN
 70
     1
  9
$PLINEGEN
 70
     0
  9
$PSLTSCALE
 70
     0
  9
$TREEDEPTH
 70
  3020
  9
$CMLSTYLE
  2
Standard
  9
$CMLJUST
 70
     0
  9
$CMLSCALE
 40
1.0
  9
$PROXYGRAPHICS
 70
     1
  9
$MEASUREMENT
 70
     0
  9
$CELWEIGHT
370
     0
  9
$ENDCAPS
280
     0
  9
$JOINSTYLE
280
     0
  9
$LWDISPLAY
290
     1
  9
$INSUNITS
 70
     1
  9
$HYPERLINKBASE
  1

  9
$STYLESHEET
  1

  9
$XEDIT
290
     1
  9
$CEPSNTYPE
380
     0
  9
$PSTYLEMODE
290
     1
  9
$FINGERPRINTGUID
  2
{F707D5D9-4916-4927-A558-D6B483D082DF}
  9
$VERSIONGUID
  2
{82C521FC-BF81-46B3-825E-420B6BD93A99}
  9
$EXTNAMES
290
     1
  9
$PSVPSCALE
 40
0.0
  9
$OLESTARTUP
290
     0
  9
$SORTENTS
280
   127
  9
$INDEXCTL
280
     0
  9
$HIDETEXT
280
     1
  9
$XCLIPFRAME
290
     0
  9
$HALOGAP
280
     0
  9
$OBSCOLOR
 70
   257
  9
$OBSLTYPE
280
     0
  9
$INTERSECTIONDISPLAY
280
     0
  9
$INTERSECTIONCOLOR
 70
   257
  9
$DIMASSOC
280
     1
  9
$PROJECTNAME
  1

  9
$CAMERADISPLAY
290
     0
  9
$LENSLENGTH
 40
50.0
  9
$CAMERAHEIGHT
 40
0.0
  9
$STEPSPERSEC
 40
2.0
  9
$STEPSIZE
 40
6.0
  9
$3DDWFPREC
 40
2.0
  9
$PSOLWIDTH
 40
0.25
  9
$PSOLHEIGHT
 40
4.0
  9
$LOFTANG1
 40
1.570796
  9
$LOFTANG2
 40
1.570796
  9
$LOFTMAG1
 40
0.0
  9
$LOFTMAG2
 40
0.0
  9
$LOFTPARAM
 70
     7
  9
$LOFTNORMALS
280
     1
  9
$LATITUDE
 40
37.795
  9
$LONGITUDE
 40
-122.394
  9
$NORTHDIRECTION
 40
0.0
  9
$TIMEZONE
 70
 -8000
  9
$LIGHTGLYPHDISPLAY
280
     1
  9
$TILEMODELIGHTSYNCH
280
     1
  9
$CMATERIAL
347
11C2
  9
$SOLIDHIST
280
     1
  9
$SHOWHIST
280
     1
  9
$DWFFRAME
280
     2
  9
$DGNFRAME
280
     0
  9
$REALWORLDSCALE
290
     1
  9
$INTERFERECOLOR
 62
     1
  9
$INTERFEREOBJVS
345
11D8
  9
$INTERFEREVPVS
346
11D9
  9
$CSHADOW
280
     0
  9
$SHADOWPLANELOCATION
 40
0.0
  0
ENDSEC
  0
SECTION
  2
CLASSES
  0
CLASS
  1
ACDBDICTIONARYWDFLT
  2
AcDbDictionaryWithDefault
  3
ObjectDBX Classes
 90
        0
 91
        1
280
     0
281
     0
  0
CLASS
  1
DICTIONARYVAR
  2
AcDbDictionaryVar
  3
ObjectDBX Classes
 90
        0
 91
        7
280
     0
281
     0
  0
CLASS
  1
TABLESTYLE
  2
AcDbTableStyle
  3
ObjectDBX Classes
 90
     4095
 91
        1
280
     0
281
     0
  0
CLASS
  1
MATERIAL
  2
AcDbMaterial
  3
ObjectDBX Classes
 90
     1153
 91
        3
280
     0
281
     0
  0
CLASS
  1
VISUALSTYLE
  2
AcDbVisualStyle
  3
ObjectDBX Classes
 90
     4095
 91
       19
280
     0
281
     0
  0
CLASS
  1
SCALE
  2
AcDbScale
  3
ObjectDBX Classes
 90
     1153
 91
       33
280
     0
281
     0
  0
CLASS
  1
MLEADERSTYLE
  2
AcDbMLeaderStyle
  3
ACDB_MLEADERSTYLE_CLASS
 90
     4095
 91
        1
280
     0
281
     0
  0
CLASS
  1
SORTENTSTABLE
  2
AcDbSortentsTable
  3
ObjectDBX Classes
 90
        0
 91
        2
280
     0
281
     0
  0
CLASS
  1
CELLSTYLEMAP
  2
AcDbCellStyleMap
  3
ObjectDBX Classes
 90
     1152
 91
        2
280
     0
281
     0
  0
ENDSEC
  0
SECTION
  2
TABLES
  0
TABLE
  2
VPORT
  5
11B6
330
0
100
AcDbSymbolTable
 70
     1
  0
VPORT
  5
102
330
11B6
100
AcDbSymbolTableRecord
100
AcDbViewportTableRecord
  2
*ACTIVE
 70
     0
 10
0.0
 20
0.0
 11
1.0
 21
1.0
 12
1.437956
 22
-6.1111
 13
0.0
 23
0.0
 14
0.001
 24
0.001
 15
0.001
 25
0.001
 16
0.0
 26
0.0
 36
1.0
 17
0.0
 27
0.0
 37
0.0
 40
1.399686
 41
2.025496
 42
50.0
 43
0.0
 44
0.0
 50
0.0
 51
0.0
 71
     0
 72
   100
 73
     1
 74
     0
 75
     0
 76
     0
 77
     0
 78
     1
281
     0
 65
     1
110
0.0
120
0.0
130
0.0
111
1.0
121
0.0
131
0.0
112
0.0
122
1.0
132
0.0
 79
     0
146
0.0
348
11B8
 60
     3
 61
  1000
292
     1
282
     1
141
0.0
142
0.0
 63
   250
421
  3355443
  0
ENDTAB
  0
TABLE
  2
LTYPE
  5
11B1
330
0
100
AcDbSymbolTable
 70
     2
  0
LTYPE
  5
11B2
330
11B1
100
AcDbSymbolTableRecord
100
AcDbLinetypeTableRecord
  2
ByBlock
 70
     0
  3

 72
    65
 73
     0
 40
0.0
  0
LTYPE
  5
11B3
330
11B1
100
AcDbSymbolTableRecord
100
AcDbLinetypeTableRecord
  2
ByLayer
 70
     0
  3

 72
    65
 73
     0
 40
0.0
  0
LTYPE
  5
11A0
330
11B1
100
AcDbSymbolTableRecord
100
AcDbLinetypeTableRecord
  2
Continuous
 70
     0
  3
Solid line
 72
    65
 73
     0
 40
0.0
  0
LTYPE
  5
1288
330
11B1
100
AcDbSymbolTableRecord
100
AcDbLinetypeTableRecord
  2
DGN Style 4
 70
     0
  3
Dgn Style 4
 72
    65
 73
     4
 40
0.044049
 49
0.022011
 74
     0
 49
-0.011005
 74
     0
 49
0.000028
 74
     0
 49
-0.011005
 74
     0
  0
ENDTAB
  0
TABLE
  2
LAYER
  5
11AB
102
{ACAD_XDICTIONARY
360
11AC
102
}
330
0
100
AcDbSymbolTable
 70
   191
  0
LAYER
  5
1193
330
11AB
100
AcDbSymbolTableRecord
100
AcDbLayerTableRecord
  2
0
 70
     0
 62
     7
  6
Continuous
370
    -3
390
1194
347
1197
  0
LAYER
  5
3C
330
11AB
100
AcDbSymbolTableRecord
100
AcDbLayerTableRecord
  2
Level 1
 70
     0
 62
     7
  6
Continuous
370
     0
390
1194
347
1197
  0
LAYER
  5
3D
330
11AB
100
AcDbSymbolTableRecord
100
AcDbLayerTableRecord
  2
Level 2
 70
     0
 62
     7
  6
Continuous
370
     0
390
1194
347
1197
  0
LAYER
  5
3E
330
11AB
100
AcDbSymbolTableRecord
100
AcDbLayerTableRecord
  2
Level 3
 70
     0
 62
     7
  6
Continuous
370
     0
390
1194
347
1197
  0
LAYER
  5
3F
330
11AB
100
AcDbSymbolTableRecord
100
AcDbLayerTableRecord
  2
Level 4
 70
     0
 62
     7
  6
Continuous
370
     0
390
1194
347
1197
  0
LAYER
  5
40
330
11AB
100
AcDbSymbolTableRecord
100
AcDbLayerTableRecord
  2
Level 5
 70
     0
 62
     7
  6
Continuous
370
     0
390
1194
347
1197
  0
LAYER
  5
41
330
11AB
100
AcDbSymbolTableRecord
100
AcDbLayerTableRecord
  2
Level 6
 70
     0
 62
     7
  6
Continuous
370
     0
390
1194
347
1197
  0
LAYER
  5
42
330
11AB
100
AcDbSymbolTableRecord
100
AcDbLayerTableRecord
  2
Level 7
 70
     0
 62
     7
  6
Continuous
370
     0
390
1194
347
1197
  0
LAYER
  5
43
330
11AB
100
AcDbSymbolTableRecord
100
AcDbLayerTableRecord
  2
Level 8
 70
     0
 62
     7
  6
Continuous
370
     0
390
1194
347
1197
  0
LAYER
  5
44
330
11AB
100
AcDbSymbolTableRecord
100
AcDbLayerTableRecord
  2
Level 9
 70
     0
 62
     7
  6
Continuous
370
     0
390
1194
347
1197
  0
LAYER
  5
45
330
11AB
100
AcDbSymbolTableRecord
100
AcDbLayerTableRecord
  2
Level 10
 70
     0
 62
     7
  6
Continuous
370
     0
390
1194
347
1197
  0
LAYER
  5
46
330
11AB
100
AcDbSymbolTableRecord
100
AcDbLayerTableRecord
  2
Level 11
 70
     0
 62
     7
  6
Continuous
370
     0
390
1194
347
1197
  0
LAYER
  5
47
330
11AB
100
AcDbSymbolTableRecord
100
AcDbLayerTableRecord
  2
Level 12
 70
     0
 62
     7
  6
Continuous
370
     0
390
1194
347
1197
  0
LAYER
  5
48
330
11AB
100
AcDbSymbolTableRecord
100
AcDbLayerTableRecord
  2
Level 13
 70
     0
 62
     7
  6
Continuous
370
     0
390
1194
347
1197
  0
LAYER
  5
49
330
11AB
100
AcDbSymbolTableRecord
100
AcDbLayerTableRecord
  2
Level 14
 70
     0
 62
     7
  6
Continuous
370
     0
390
1194
347
1197
  0
LAYER
  5
4A
330
11AB
100
AcDbSymbolTableRecord
100
AcDbLayerTableRecord
  2
Level 15
 70
     0
 62
     7
  6
Continuous
370
     0
390
1194
347
1197
  0
LAYER
  5
4B
330
11AB
100
AcDbSymbolTableRecord
100
AcDbLayerTableRecord
  2
Level 16
 70
     0
 62
     7
  6
Continuous
370
     0
390
1194
347
1197
  0
LAYER
  5
4C
330
11AB
100
AcDbSymbolTableRecord
100
AcDbLayerTableRecord
  2
Level 17
 70
     0
 62
     7
  6
Continuous
370
     0
390
1194
347
1197
  0
LAYER
  5
4D
330
11AB
100
AcDbSymbolTableRecord
100
AcDbLayerTableRecord
  2
Level 18
 70
     0
 62
     7
  6
Continuous
370
     0
390
1194
347
1197
  0
LAYER
  5
4E
330
11AB
100
AcDbSymbolTableRecord
100
AcDbLayerTableRecord
  2
Level 19
 70
     0
 62
     7
  6
Continuous
370
     0
390
1194
347
1197
  0
LAYER
  5
4F
330
11AB
100
AcDbSymbolTableRecord
100
AcDbLayerTableRecord
  2
Level 20
 70
     0
 62
     7
  6
Continuous
370
     0
390
1194
347
1197
  0
LAYER
  5
50
330
11AB
100
AcDbSymbolTableRecord
100
AcDbLayerTableRecord
  2
Level 21
 70
     0
 62
     7
  6
Continuous
370
     0
390
1194
347
1197
  0
LAYER
  5
51
330
11AB
100
AcDbSymbolTableRecord
100
AcDbLayerTableRecord
  2
Level 22
 70
     0
 62
     7
  6
Continuous
370
     0
390
1194
347
1197
  0
LAYER
  5
52
330
11AB
100
AcDbSymbolTableRecord
100
AcDbLayerTableRecord
  2
Level 23
 70
     0
 62
     7
  6
Continuous
370
     0
390
1194
347
1197
  0
LAYER
  5
53
330
11AB
100
AcDbSymbolTableRecord
100
AcDbLayerTableRecord
  2
Level 24
 70
     0
 62
     7
  6
Continuous
370
     0
390
1194
347
1197
  0
LAYER
  5
54
330
11AB
100
AcDbSymbolTableRecord
100
AcDbLayerTableRecord
  2
Level 25
 70
     0
 62
     7
  6
Continuous
370
     0
390
1194
347
1197
  0
LAYER
  5
55
330
11AB
100
AcDbSymbolTableRecord
100
AcDbLayerTableRecord
  2
Level 26
 70
     0
 62
     7
  6
Continuous
370
     0
390
1194
347
1197
  0
LAYER
  5
56
330
11AB
100
AcDbSymbolTableRecord
100
AcDbLayerTableRecord
  2
Level 27
 70
     0
 62
     7
  6
Continuous
370
     0
390
1194
347
1197
  0
LAYER
  5
57
330
11AB
100
AcDbSymbolTableRecord
100
AcDbLayerTableRecord
  2
Level 28
 70
     0
 62
     7
  6
Continuous
370
     0
390
1194
347
1197
  0
LAYER
  5
58
330
11AB
100
AcDbSymbolTableRecord
100
AcDbLayerTableRecord
  2
Level 29
 70
     0
 62
     7
  6
Continuous
370
     0
390
1194
347
1197
  0
LAYER
  5
59
330
11AB
100
AcDbSymbolTableRecord
100
AcDbLayerTableRecord
  2
Level 30
 70
     0
 62
     7
  6
Continuous
370
     0
390
1194
347
1197
  0
LAYER
  5
5A
330
11AB
100
AcDbSymbolTableRecord
100
AcDbLayerTableRecord
  2
Level 31
 70
     0
 62
     7
  6
Continuous
370
     0
390
1194
347
1197
  0
LAYER
  5
5B
330
11AB
100
AcDbSymbolTableRecord
100
AcDbLayerTableRecord
  2
Level 32
 70
     0
 62
     7
  6
Continuous
370
     0
390
1194
347
1197
  0
LAYER
  5
5C
330
11AB
100
AcDbSymbolTableRecord
100
AcDbLayerTableRecord
  2
Level 33
 70
     0
 62
     7
  6
Continuous
370
     0
390
1194
347
1197
  0
LAYER
  5
5D
330
11AB
100
AcDbSymbolTableRecord
100
AcDbLayerTableRecord
  2
Level 34
 70
     0
 62
     7
  6
Continuous
370
     0
390
1194
347
1197
  0
LAYER
  5
5E
330
11AB
100
AcDbSymbolTableRecord
100
AcDbLayerTableRecord
  2
Level 35
 70
     0
 62
     7
  6
Continuous
370
     0
390
1194
347
1197
  0
LAYER
  5
5F
330
11AB
100
AcDbSymbolTableRecord
100
AcDbLayerTableRecord
  2
Level 36
 70
     0
 62
     7
  6
Continuous
370
     0
390
1194
347
1197
  0
LAYER
  5
60
330
11AB
100
AcDbSymbolTableRecord
100
AcDbLayerTableRecord
  2
Level 37
 70
     0
 62
     7
  6
Continuous
370
     0
390
1194
347
1197
  0
LAYER
  5
61
330
11AB
100
AcDbSymbolTableRecord
100
AcDbLayerTableRecord
  2
Level 38
 70
     0
 62
     7
  6
Continuous
370
     0
390
1194
347
1197
  0
LAYER
  5
62
330
11AB
100
AcDbSymbolTableRecord
100
AcDbLayerTableRecord
  2
Level 39
 70
     0
 62
     7
  6
Continuous
370
     0
390
1194
347
1197
  0
LAYER
  5
63
330
11AB
100
AcDbSymbolTableRecord
100
AcDbLayerTableRecord
  2
Level 40
 70
     0
 62
     7
  6
Continuous
370
     0
390
1194
347
1197
  0
LAYER
  5
64
330
11AB
100
AcDbSymbolTableRecord
100
AcDbLayerTableRecord
  2
Level 41
 70
     0
 62
     7
  6
Continuous
370
     0
390
1194
347
1197
  0
LAYER
  5
65
330
11AB
100
AcDbSymbolTableRecord
100
AcDbLayerTableRecord
  2
Level 42
 70
     0
 62
     7
  6
Continuous
370
     0
390
1194
347
1197
  0
LAYER
  5
66
330
11AB
100
AcDbSymbolTableRecord
100
AcDbLayerTableRecord
  2
Level 43
 70
     0
 62
     7
  6
Continuous
370
     0
390
1194
347
1197
  0
LAYER
  5
67
330
11AB
100
AcDbSymbolTableRecord
100
AcDbLayerTableRecord
  2
Level 44
 70
     0
 62
     7
  6
Continuous
370
     0
390
1194
347
1197
  0
LAYER
  5
68
330
11AB
100
AcDbSymbolTableRecord
100
AcDbLayerTableRecord
  2
Level 45
 70
     0
 62
     7
  6
Continuous
370
     0
390
1194
347
1197
  0
LAYER
  5
69
330
11AB
100
AcDbSymbolTableRecord
100
AcDbLayerTableRecord
  2
Level 46
 70
     0
 62
     7
  6
Continuous
370
     0
390
1194
347
1197
  0
LAYER
  5
6A
330
11AB
100
AcDbSymbolTableRecord
100
AcDbLayerTableRecord
  2
Level 47
 70
     0
 62
     7
  6
Continuous
370
     0
390
1194
347
1197
  0
LAYER
  5
6B
330
11AB
100
AcDbSymbolTableRecord
100
AcDbLayerTableRecord
  2
Level 48
 70
     0
 62
     7
  6
Continuous
370
     0
390
1194
347
1197
  0
LAYER
  5
6C
330
11AB
100
AcDbSymbolTableRecord
100
AcDbLayerTableRecord
  2
Level 49
 70
     0
 62
     7
  6
Continuous
370
     0
390
1194
347
1197
  0
LAYER
  5
6D
330
11AB
100
AcDbSymbolTableRecord
100
AcDbLayerTableRecord
  2
Level 50
 70
     0
 62
     7
  6
Continuous
370
     0
390
1194
347
1197
  0
LAYER
  5
6E
330
11AB
100
AcDbSymbolTableRecord
100
AcDbLayerTableRecord
  2
Level 51
 70
     0
 62
     7
  6
Continuous
370
     0
390
1194
347
1197
  0
LAYER
  5
6F
330
11AB
100
AcDbSymbolTableRecord
100
AcDbLayerTableRecord
  2
Level 52
 70
     0
 62
     7
  6
Continuous
370
     0
390
1194
347
1197
  0
LAYER
  5
70
330
11AB
100
AcDbSymbolTableRecord
100
AcDbLayerTableRecord
  2
Level 53
 70
     0
 62
     7
  6
Continuous
370
     0
390
1194
347
1197
  0
LAYER
  5
71
330
11AB
100
AcDbSymbolTableRecord
100
AcDbLayerTableRecord
  2
Level 54
 70
     0
 62
     7
  6
Continuous
370
     0
390
1194
347
1197
  0
LAYER
  5
72
330
11AB
100
AcDbSymbolTableRecord
100
AcDbLayerTableRecord
  2
Level 55
 70
     0
 62
     7
  6
Continuous
370
     0
390
1194
347
1197
  0
LAYER
  5
73
330
11AB
100
AcDbSymbolTableRecord
100
AcDbLayerTableRecord
  2
Level 56
 70
     0
 62
     7
  6
Continuous
370
     0
390
1194
347
1197
  0
LAYER
  5
74
330
11AB
100
AcDbSymbolTableRecord
100
AcDbLayerTableRecord
  2
Level 57
 70
     0
 62
     7
  6
Continuous
370
     0
390
1194
347
1197
  0
LAYER
  5
75
330
11AB
100
AcDbSymbolTableRecord
100
AcDbLayerTableRecord
  2
Level 58
 70
     0
 62
     7
  6
Continuous
370
     0
390
1194
347
1197
  0
LAYER
  5
76
330
11AB
100
AcDbSymbolTableRecord
100
AcDbLayerTableRecord
  2
Level 59
 70
     0
 62
     7
  6
Continuous
370
     0
390
1194
347
1197
  0
LAYER
  5
77
330
11AB
100
AcDbSymbolTableRecord
100
AcDbLayerTableRecord
  2
Level 60
 70
     0
 62
     7
  6
Continuous
370
     0
390
1194
347
1197
  0
LAYER
  5
78
330
11AB
100
AcDbSymbolTableRecord
100
AcDbLayerTableRecord
  2
Level 61
 70
     0
 62
     7
  6
Continuous
370
     0
390
1194
347
1197
  0
LAYER
  5
79
330
11AB
100
AcDbSymbolTableRecord
100
AcDbLayerTableRecord
  2
Level 62
 70
     0
 62
     7
  6
Continuous
370
     0
390
1194
347
1197
  0
LAYER
  5
7A
330
11AB
100
AcDbSymbolTableRecord
100
AcDbLayerTableRecord
  2
Level 63
 70
     0
 62
     7
  6
Continuous
370
     0
390
1194
347
1197
  0
LAYER
  5
1200
330
11AB
100
AcDbSymbolTableRecord
100
AcDbLayerTableRecord
  2
umiborder|Level 1
 70
    16
 62
     7
  6
Continuous
370
     0
390
1194
347
1197
  0
LAYER
  5
1201
330
11AB
100
AcDbSymbolTableRecord
100
AcDbLayerTableRecord
  2
umiborder|Level 2
 70
    16
 62
     7
  6
Continuous
370
     0
390
1194
347
1197
  0
LAYER
  5
1202
330
11AB
100
AcDbSymbolTableRecord
100
AcDbLayerTableRecord
  2
umiborder|Level 3
 70
    16
 62
     7
  6
Continuous
370
     0
390
1194
347
1197
  0
LAYER
  5
1203
330
11AB
100
AcDbSymbolTableRecord
100
AcDbLayerTableRecord
  2
umiborder|Level 4
 70
    16
 62
     7
  6
Continuous
370
     0
390
1194
347
1197
  0
LAYER
  5
1204
330
11AB
100
AcDbSymbolTableRecord
100
AcDbLayerTableRecord
  2
umiborder|Level 5
 70
    16
 62
     7
  6
Continuous
370
     0
390
1194
347
1197
  0
LAYER
  5
1205
330
11AB
100
AcDbSymbolTableRecord
100
AcDbLayerTableRecord
  2
umiborder|Level 6
 70
    16
 62
     7
  6
Continuous
370
     0
390
1194
347
1197
  0
LAYER
  5
1206
330
11AB
100
AcDbSymbolTableRecord
100
AcDbLayerTableRecord
  2
umiborder|Level 7
 70
    16
 62
     7
  6
Continuous
370
     0
390
1194
347
1197
  0
LAYER
  5
1207
330
11AB
100
AcDbSymbolTableRecord
100
AcDbLayerTableRecord
  2
umiborder|Level 8
 70
    16
 62
     7
  6
Continuous
370
     0
390
1194
347
1197
  0
LAYER
  5
1208
330
11AB
100
AcDbSymbolTableRecord
100
AcDbLayerTableRecord
  2
umiborder|Level 9
 70
    16
 62
     7
  6
Continuous
370
     0
390
1194
347
1197
  0
LAYER
  5
1209
330
11AB
100
AcDbSymbolTableRecord
100
AcDbLayerTableRecord
  2
umiborder|Level 10
 70
    16
 62
     7
  6
Continuous
370
     0
390
1194
347
1197
  0
LAYER
  5
120A
330
11AB
100
AcDbSymbolTableRecord
100
AcDbLayerTableRecord
  2
umiborder|Level 11
 70
    16
 62
     7
  6
Continuous
370
     0
390
1194
347
1197
  0
LAYER
  5
120B
330
11AB
100
AcDbSymbolTableRecord
100
AcDbLayerTableRecord
  2
umiborder|Level 12
 70
    16
 62
     7
  6
Continuous
370
     0
390
1194
347
1197
  0
LAYER
  5
120C
330
11AB
100
AcDbSymbolTableRecord
100
AcDbLayerTableRecord
  2
umiborder|Level 13
 70
    16
 62
     7
  6
Continuous
370
     0
390
1194
347
1197
  0
LAYER
  5
120D
330
11AB
100
AcDbSymbolTableRecord
100
AcDbLayerTableRecord
  2
umiborder|Level 14
 70
    16
 62
     7
  6
Continuous
370
     0
390
1194
347
1197
  0
LAYER
  5
120E
330
11AB
100
AcDbSymbolTableRecord
100
AcDbLayerTableRecord
  2
umiborder|Level 15
 70
    16
 62
     7
  6
Continuous
370
     0
390
1194
347
1197
  0
LAYER
  5
120F
330
11AB
100
AcDbSymbolTableRecord
100
AcDbLayerTableRecord
  2
umiborder|Level 16
 70
    16
 62
     7
  6
Continuous
370
     0
390
1194
347
1197
  0
LAYER
  5
1210
330
11AB
100
AcDbSymbolTableRecord
100
AcDbLayerTableRecord
  2
umiborder|Level 17
 70
    16
 62
     7
  6
Continuous
370
     0
390
1194
347
1197
  0
LAYER
  5
1211
330
11AB
100
AcDbSymbolTableRecord
100
AcDbLayerTableRecord
  2
umiborder|Level 18
 70
    16
 62
     7
  6
Continuous
370
     0
390
1194
347
1197
  0
LAYER
  5
1212
330
11AB
100
AcDbSymbolTableRecord
100
AcDbLayerTableRecord
  2
umiborder|Level 19
 70
    16
 62
     7
  6
Continuous
370
     0
390
1194
347
1197
  0
LAYER
  5
1213
330
11AB
100
AcDbSymbolTableRecord
100
AcDbLayerTableRecord
  2
umiborder|Level 20
 70
    16
 62
     7
  6
Continuous
370
     0
390
1194
347
1197
  0
LAYER
  5
1214
330
11AB
100
AcDbSymbolTableRecord
100
AcDbLayerTableRecord
  2
umiborder|Level 21
 70
    16
 62
     7
  6
Continuous
370
     0
390
1194
347
1197
  0
LAYER
  5
1215
330
11AB
100
AcDbSymbolTableRecord
100
AcDbLayerTableRecord
  2
umiborder|Level 22
 70
    16
 62
     7
  6
Continuous
370
     0
390
1194
347
1197
  0
LAYER
  5
1216
330
11AB
100
AcDbSymbolTableRecord
100
AcDbLayerTableRecord
  2
umiborder|Level 23
 70
    16
 62
     7
  6
Continuous
370
     0
390
1194
347
1197
  0
LAYER
  5
1217
330
11AB
100
AcDbSymbolTableRecord
100
AcDbLayerTableRecord
  2
umiborder|Level 24
 70
    16
 62
     7
  6
Continuous
370
     0
390
1194
347
1197
  0
LAYER
  5
1218
330
11AB
100
AcDbSymbolTableRecord
100
AcDbLayerTableRecord
  2
umiborder|Level 25
 70
    16
 62
     7
  6
Continuous
370
     0
390
1194
347
1197
  0
LAYER
  5
1219
330
11AB
100
AcDbSymbolTableRecord
100
AcDbLayerTableRecord
  2
umiborder|Level 26
 70
    16
 62
     7
  6
Continuous
370
     0
390
1194
347
1197
  0
LAYER
  5
121A
330
11AB
100
AcDbSymbolTableRecord
100
AcDbLayerTableRecord
  2
umiborder|Level 27
 70
    16
 62
     7
  6
Continuous
370
     0
390
1194
347
1197
  0
LAYER
  5
121B
330
11AB
100
AcDbSymbolTableRecord
100
AcDbLayerTableRecord
  2
umiborder|Level 28
 70
    16
 62
     7
  6
Continuous
370
     0
390
1194
347
1197
  0
LAYER
  5
121C
330
11AB
100
AcDbSymbolTableRecord
100
AcDbLayerTableRecord
  2
umiborder|Level 29
 70
    16
 62
     7
  6
Continuous
370
     0
390
1194
347
1197
  0
LAYER
  5
121D
330
11AB
100
AcDbSymbolTableRecord
100
AcDbLayerTableRecord
  2
umiborder|Level 30
 70
    16
 62
     7
  6
Continuous
370
     0
390
1194
347
1197
  0
LAYER
  5
121E
330
11AB
100
AcDbSymbolTableRecord
100
AcDbLayerTableRecord
  2
umiborder|Level 31
 70
    16
 62
     7
  6
Continuous
370
     0
390
1194
347
1197
  0
LAYER
  5
121F
330
11AB
100
AcDbSymbolTableRecord
100
AcDbLayerTableRecord
  2
umiborder|Level 32
 70
    16
 62
     7
  6
Continuous
370
     0
390
1194
347
1197
  0
LAYER
  5
1220
330
11AB
100
AcDbSymbolTableRecord
100
AcDbLayerTableRecord
  2
umiborder|Level 33
 70
    16
 62
     7
  6
Continuous
370
     0
390
1194
347
1197
  0
LAYER
  5
1221
330
11AB
100
AcDbSymbolTableRecord
100
AcDbLayerTableRecord
  2
umiborder|Level 34
 70
    16
 62
     7
  6
Continuous
370
     0
390
1194
347
1197
  0
LAYER
  5
1222
330
11AB
100
AcDbSymbolTableRecord
100
AcDbLayerTableRecord
  2
umiborder|Level 35
 70
    16
 62
     7
  6
Continuous
370
     0
390
1194
347
1197
  0
LAYER
  5
1223
330
11AB
100
AcDbSymbolTableRecord
100
AcDbLayerTableRecord
  2
umiborder|Level 36
 70
    16
 62
     7
  6
Continuous
370
     0
390
1194
347
1197
  0
LAYER
  5
1224
330
11AB
100
AcDbSymbolTableRecord
100
AcDbLayerTableRecord
  2
umiborder|Level 37
 70
    16
 62
     7
  6
Continuous
370
     0
390
1194
347
1197
  0
LAYER
  5
1225
330
11AB
100
AcDbSymbolTableRecord
100
AcDbLayerTableRecord
  2
umiborder|Level 38
 70
    16
 62
     7
  6
Continuous
370
     0
390
1194
347
1197
  0
LAYER
  5
1226
330
11AB
100
AcDbSymbolTableRecord
100
AcDbLayerTableRecord
  2
umiborder|Level 39
 70
    16
 62
     7
  6
Continuous
370
     0
390
1194
347
1197
  0
LAYER
  5
1227
330
11AB
100
AcDbSymbolTableRecord
100
AcDbLayerTableRecord
  2
umiborder|Level 40
 70
    16
 62
     7
  6
Continuous
370
     0
390
1194
347
1197
  0
LAYER
  5
1228
330
11AB
100
AcDbSymbolTableRecord
100
AcDbLayerTableRecord
  2
umiborder|Level 41
 70
    16
 62
     7
  6
Continuous
370
     0
390
1194
347
1197
  0
LAYER
  5
1229
330
11AB
100
AcDbSymbolTableRecord
100
AcDbLayerTableRecord
  2
umiborder|Level 42
 70
    16
 62
     7
  6
Continuous
370
     0
390
1194
347
1197
  0
LAYER
  5
122A
330
11AB
100
AcDbSymbolTableRecord
100
AcDbLayerTableRecord
  2
umiborder|Level 43
 70
    16
 62
     7
  6
Continuous
370
     0
390
1194
347
1197
  0
LAYER
  5
122B
330
11AB
100
AcDbSymbolTableRecord
100
AcDbLayerTableRecord
  2
umiborder|Level 44
 70
    16
 62
     7
  6
Continuous
370
     0
390
1194
347
1197
  0
LAYER
  5
122C
330
11AB
100
AcDbSymbolTableRecord
100
AcDbLayerTableRecord
  2
umiborder|Level 45
 70
    16
 62
     7
  6
Continuous
370
     0
390
1194
347
1197
  0
LAYER
  5
122D
330
11AB
100
AcDbSymbolTableRecord
100
AcDbLayerTableRecord
  2
umiborder|Level 46
 70
    16
 62
     7
  6
Continuous
370
     0
390
1194
347
1197
  0
LAYER
  5
122E
330
11AB
100
AcDbSymbolTableRecord
100
AcDbLayerTableRecord
  2
umiborder|Level 47
 70
    16
 62
     7
  6
Continuous
370
     0
390
1194
347
1197
  0
LAYER
  5
122F
330
11AB
100
AcDbSymbolTableRecord
100
AcDbLayerTableRecord
  2
umiborder|Level 48
 70
    16
 62
     7
  6
Continuous
370
     0
390
1194
347
1197
  0
LAYER
  5
1230
330
11AB
100
AcDbSymbolTableRecord
100
AcDbLayerTableRecord
  2
umiborder|Level 49
 70
    16
 62
     7
  6
Continuous
370
     0
390
1194
347
1197
  0
LAYER
  5
1231
330
11AB
100
AcDbSymbolTableRecord
100
AcDbLayerTableRecord
  2
umiborder|Level 50
 70
    16
 62
     7
  6
Continuous
370
     0
390
1194
347
1197
  0
LAYER
  5
1232
330
11AB
100
AcDbSymbolTableRecord
100
AcDbLayerTableRecord
  2
umiborder|Level 51
 70
    16
 62
     7
  6
Continuous
370
     0
390
1194
347
1197
  0
LAYER
  5
1233
330
11AB
100
AcDbSymbolTableRecord
100
AcDbLayerTableRecord
  2
umiborder|Level 52
 70
    16
 62
     7
  6
Continuous
370
     0
390
1194
347
1197
  0
LAYER
  5
1234
330
11AB
100
AcDbSymbolTableRecord
100
AcDbLayerTableRecord
  2
umiborder|Level 53
 70
    16
 62
     7
  6
Continuous
370
     0
390
1194
347
1197
  0
LAYER
  5
1235
330
11AB
100
AcDbSymbolTableRecord
100
AcDbLayerTableRecord
  2
umiborder|Level 54
 70
    16
 62
     7
  6
Continuous
370
     0
390
1194
347
1197
  0
LAYER
  5
1236
330
11AB
100
AcDbSymbolTableRecord
100
AcDbLayerTableRecord
  2
umiborder|Level 55
 70
    16
 62
     7
  6
Continuous
370
     0
390
1194
347
1197
  0
LAYER
  5
1237
330
11AB
100
AcDbSymbolTableRecord
100
AcDbLayerTableRecord
  2
umiborder|Level 56
 70
    16
 62
     7
  6
Continuous
370
     0
390
1194
347
1197
  0
LAYER
  5
1238
330
11AB
100
AcDbSymbolTableRecord
100
AcDbLayerTableRecord
  2
umiborder|Level 57
 70
    16
 62
     7
  6
Continuous
370
     0
390
1194
347
1197
  0
LAYER
  5
1239
330
11AB
100
AcDbSymbolTableRecord
100
AcDbLayerTableRecord
  2
umiborder|Level 58
 70
    16
 62
     7
  6
Continuous
370
     0
390
1194
347
1197
  0
LAYER
  5
123A
330
11AB
100
AcDbSymbolTableRecord
100
AcDbLayerTableRecord
  2
umiborder|Level 59
 70
    16
 62
     7
  6
Continuous
370
     0
390
1194
347
1197
  0
LAYER
  5
123B
330
11AB
100
AcDbSymbolTableRecord
100
AcDbLayerTableRecord
  2
umiborder|Level 60
 70
    16
 62
     7
  6
Continuous
370
     0
390
1194
347
1197
  0
LAYER
  5
123C
330
11AB
100
AcDbSymbolTableRecord
100
AcDbLayerTableRecord
  2
umiborder|Level 61
 70
    16
 62
     7
  6
Continuous
370
     0
390
1194
347
1197
  0
LAYER
  5
123D
330
11AB
100
AcDbSymbolTableRecord
100
AcDbLayerTableRecord
  2
umiborder|Level 62
 70
    16
 62
     7
  6
Continuous
370
     0
390
1194
347
1197
  0
LAYER
  5
123E
330
11AB
100
AcDbSymbolTableRecord
100
AcDbLayerTableRecord
  2
umiborder|Level 63
 70
    16
 62
     7
  6
Continuous
370
     0
390
1194
347
1197
  0
LAYER
  5
1242
330
11AB
100
AcDbSymbolTableRecord
100
AcDbLayerTableRecord
  2
Style 1  PCB layouts|Level 1
 70
    16
 62
     7
  6
Continuous
370
     0
390
1194
347
1197
  0
LAYER
  5
1243
330
11AB
100
AcDbSymbolTableRecord
100
AcDbLayerTableRecord
  2
Style 1  PCB layouts|Level 2
 70
    16
 62
     7
  6
Continuous
370
     0
390
1194
347
1197
  0
LAYER
  5
1244
330
11AB
100
AcDbSymbolTableRecord
100
AcDbLayerTableRecord
  2
Style 1  PCB layouts|Level 3
 70
    16
 62
     7
  6
Continuous
370
     0
390
1194
347
1197
  0
LAYER
  5
1245
330
11AB
100
AcDbSymbolTableRecord
100
AcDbLayerTableRecord
  2
Style 1  PCB layouts|Level 4
 70
    16
 62
     7
  6
Continuous
370
     0
390
1194
347
1197
  0
LAYER
  5
1246
330
11AB
100
AcDbSymbolTableRecord
100
AcDbLayerTableRecord
  2
Style 1  PCB layouts|Level 5
 70
    16
 62
     7
  6
Continuous
370
     0
390
1194
347
1197
  0
LAYER
  5
1247
330
11AB
100
AcDbSymbolTableRecord
100
AcDbLayerTableRecord
  2
Style 1  PCB layouts|Level 6
 70
    16
 62
     7
  6
Continuous
370
     0
390
1194
347
1197
  0
LAYER
  5
1248
330
11AB
100
AcDbSymbolTableRecord
100
AcDbLayerTableRecord
  2
Style 1  PCB layouts|Level 7
 70
    16
 62
     7
  6
Continuous
370
     0
390
1194
347
1197
  0
LAYER
  5
1249
330
11AB
100
AcDbSymbolTableRecord
100
AcDbLayerTableRecord
  2
Style 1  PCB layouts|Level 8
 70
    16
 62
     7
  6
Continuous
370
     0
390
1194
347
1197
  0
LAYER
  5
124A
330
11AB
100
AcDbSymbolTableRecord
100
AcDbLayerTableRecord
  2
Style 1  PCB layouts|Level 9
 70
    16
 62
     7
  6
Continuous
370
     0
390
1194
347
1197
  0
LAYER
  5
124B
330
11AB
100
AcDbSymbolTableRecord
100
AcDbLayerTableRecord
  2
Style 1  PCB layouts|Level 10
 70
    16
 62
     7
  6
Continuous
370
     0
390
1194
347
1197
  0
LAYER
  5
124C
330
11AB
100
AcDbSymbolTableRecord
100
AcDbLayerTableRecord
  2
Style 1  PCB layouts|Level 11
 70
    16
 62
     7
  6
Continuous
370
     0
390
1194
347
1197
  0
LAYER
  5
124D
330
11AB
100
AcDbSymbolTableRecord
100
AcDbLayerTableRecord
  2
Style 1  PCB layouts|Level 12
 70
    16
 62
     7
  6
Continuous
370
     0
390
1194
347
1197
  0
LAYER
  5
124E
330
11AB
100
AcDbSymbolTableRecord
100
AcDbLayerTableRecord
  2
Style 1  PCB layouts|Level 13
 70
    16
 62
     7
  6
Continuous
370
     0
390
1194
347
1197
  0
LAYER
  5
124F
330
11AB
100
AcDbSymbolTableRecord
100
AcDbLayerTableRecord
  2
Style 1  PCB layouts|Level 14
 70
    16
 62
     7
  6
Continuous
370
     0
390
1194
347
1197
  0
LAYER
  5
1250
330
11AB
100
AcDbSymbolTableRecord
100
AcDbLayerTableRecord
  2
Style 1  PCB layouts|Level 15
 70
    16
 62
     7
  6
Continuous
370
     0
390
1194
347
1197
  0
LAYER
  5
1251
330
11AB
100
AcDbSymbolTableRecord
100
AcDbLayerTableRecord
  2
Style 1  PCB layouts|Level 16
 70
    16
 62
     7
  6
Continuous
370
     0
390
1194
347
1197
  0
LAYER
  5
1252
330
11AB
100
AcDbSymbolTableRecord
100
AcDbLayerTableRecord
  2
Style 1  PCB layouts|Level 17
 70
    16
 62
     7
  6
Continuous
370
     0
390
1194
347
1197
  0
LAYER
  5
1253
330
11AB
100
AcDbSymbolTableRecord
100
AcDbLayerTableRecord
  2
Style 1  PCB layouts|Level 18
 70
    16
 62
     7
  6
Continuous
370
     0
390
1194
347
1197
  0
LAYER
  5
1254
330
11AB
100
AcDbSymbolTableRecord
100
AcDbLayerTableRecord
  2
Style 1  PCB layouts|Level 19
 70
    16
 62
     7
  6
Continuous
370
     0
390
1194
347
1197
  0
LAYER
  5
1255
330
11AB
100
AcDbSymbolTableRecord
100
AcDbLayerTableRecord
  2
Style 1  PCB layouts|Level 20
 70
    16
 62
     7
  6
Continuous
370
     0
390
1194
347
1197
  0
LAYER
  5
1256
330
11AB
100
AcDbSymbolTableRecord
100
AcDbLayerTableRecord
  2
Style 1  PCB layouts|Level 21
 70
    16
 62
     7
  6
Continuous
370
     0
390
1194
347
1197
  0
LAYER
  5
1257
330
11AB
100
AcDbSymbolTableRecord
100
AcDbLayerTableRecord
  2
Style 1  PCB layouts|Level 22
 70
    16
 62
     7
  6
Continuous
370
     0
390
1194
347
1197
  0
LAYER
  5
1258
330
11AB
100
AcDbSymbolTableRecord
100
AcDbLayerTableRecord
  2
Style 1  PCB layouts|Level 23
 70
    16
 62
     7
  6
Continuous
370
     0
390
1194
347
1197
  0
LAYER
  5
1259
330
11AB
100
AcDbSymbolTableRecord
100
AcDbLayerTableRecord
  2
Style 1  PCB layouts|Level 24
 70
    16
 62
     7
  6
Continuous
370
     0
390
1194
347
1197
  0
LAYER
  5
125A
330
11AB
100
AcDbSymbolTableRecord
100
AcDbLayerTableRecord
  2
Style 1  PCB layouts|Level 25
 70
    16
 62
     7
  6
Continuous
370
     0
390
1194
347
1197
  0
LAYER
  5
125B
330
11AB
100
AcDbSymbolTableRecord
100
AcDbLayerTableRecord
  2
Style 1  PCB layouts|Level 26
 70
    16
 62
     7
  6
Continuous
370
     0
390
1194
347
1197
  0
LAYER
  5
125C
330
11AB
100
AcDbSymbolTableRecord
100
AcDbLayerTableRecord
  2
Style 1  PCB layouts|Level 27
 70
    16
 62
     7
  6
Continuous
370
     0
390
1194
347
1197
  0
LAYER
  5
125D
330
11AB
100
AcDbSymbolTableRecord
100
AcDbLayerTableRecord
  2
Style 1  PCB layouts|Level 28
 70
    16
 62
     7
  6
Continuous
370
     0
390
1194
347
1197
  0
LAYER
  5
125E
330
11AB
100
AcDbSymbolTableRecord
100
AcDbLayerTableRecord
  2
Style 1  PCB layouts|Level 29
 70
    16
 62
     7
  6
Continuous
370
     0
390
1194
347
1197
  0
LAYER
  5
125F
330
11AB
100
AcDbSymbolTableRecord
100
AcDbLayerTableRecord
  2
Style 1  PCB layouts|Level 30
 70
    16
 62
     7
  6
Continuous
370
     0
390
1194
347
1197
  0
LAYER
  5
1260
330
11AB
100
AcDbSymbolTableRecord
100
AcDbLayerTableRecord
  2
Style 1  PCB layouts|Level 31
 70
    16
 62
     7
  6
Continuous
370
     0
390
1194
347
1197
  0
LAYER
  5
1261
330
11AB
100
AcDbSymbolTableRecord
100
AcDbLayerTableRecord
  2
Style 1  PCB layouts|Level 32
 70
    16
 62
     7
  6
Continuous
370
     0
390
1194
347
1197
  0
LAYER
  5
1262
330
11AB
100
AcDbSymbolTableRecord
100
AcDbLayerTableRecord
  2
Style 1  PCB layouts|Level 33
 70
    16
 62
     7
  6
Continuous
370
     0
390
1194
347
1197
  0
LAYER
  5
1263
330
11AB
100
AcDbSymbolTableRecord
100
AcDbLayerTableRecord
  2
Style 1  PCB layouts|Level 34
 70
    16
 62
     7
  6
Continuous
370
     0
390
1194
347
1197
  0
LAYER
  5
1264
330
11AB
100
AcDbSymbolTableRecord
100
AcDbLayerTableRecord
  2
Style 1  PCB layouts|Level 35
 70
    16
 62
     7
  6
Continuous
370
     0
390
1194
347
1197
  0
LAYER
  5
1265
330
11AB
100
AcDbSymbolTableRecord
100
AcDbLayerTableRecord
  2
Style 1  PCB layouts|Level 36
 70
    16
 62
     7
  6
Continuous
370
     0
390
1194
347
1197
  0
LAYER
  5
1266
330
11AB
100
AcDbSymbolTableRecord
100
AcDbLayerTableRecord
  2
Style 1  PCB layouts|Level 37
 70
    16
 62
     7
  6
Continuous
370
     0
390
1194
347
1197
  0
LAYER
  5
1267
330
11AB
100
AcDbSymbolTableRecord
100
AcDbLayerTableRecord
  2
Style 1  PCB layouts|Level 38
 70
    16
 62
     7
  6
Continuous
370
     0
390
1194
347
1197
  0
LAYER
  5
1268
330
11AB
100
AcDbSymbolTableRecord
100
AcDbLayerTableRecord
  2
Style 1  PCB layouts|Level 39
 70
    16
 62
     7
  6
Continuous
370
     0
390
1194
347
1197
  0
LAYER
  5
1269
330
11AB
100
AcDbSymbolTableRecord
100
AcDbLayerTableRecord
  2
Style 1  PCB layouts|Level 40
 70
    16
 62
     7
  6
Continuous
370
     0
390
1194
347
1197
  0
LAYER
  5
126A
330
11AB
100
AcDbSymbolTableRecord
100
AcDbLayerTableRecord
  2
Style 1  PCB layouts|Level 41
 70
    16
 62
     7
  6
Continuous
370
     0
390
1194
347
1197
  0
LAYER
  5
126B
330
11AB
100
AcDbSymbolTableRecord
100
AcDbLayerTableRecord
  2
Style 1  PCB layouts|Level 42
 70
    16
 62
     7
  6
Continuous
370
     0
390
1194
347
1197
  0
LAYER
  5
126C
330
11AB
100
AcDbSymbolTableRecord
100
AcDbLayerTableRecord
  2
Style 1  PCB layouts|Level 43
 70
    16
 62
     7
  6
Continuous
370
     0
390
1194
347
1197
  0
LAYER
  5
126D
330
11AB
100
AcDbSymbolTableRecord
100
AcDbLayerTableRecord
  2
Style 1  PCB layouts|Level 44
 70
    16
 62
     7
  6
Continuous
370
     0
390
1194
347
1197
  0
LAYER
  5
126E
330
11AB
100
AcDbSymbolTableRecord
100
AcDbLayerTableRecord
  2
Style 1  PCB layouts|Level 45
 70
    16
 62
     7
  6
Continuous
370
     0
390
1194
347
1197
  0
LAYER
  5
126F
330
11AB
100
AcDbSymbolTableRecord
100
AcDbLayerTableRecord
  2
Style 1  PCB layouts|Level 46
 70
    16
 62
     7
  6
Continuous
370
     0
390
1194
347
1197
  0
LAYER
  5
1270
330
11AB
100
AcDbSymbolTableRecord
100
AcDbLayerTableRecord
  2
Style 1  PCB layouts|Level 47
 70
    16
 62
     7
  6
Continuous
370
     0
390
1194
347
1197
  0
LAYER
  5
1271
330
11AB
100
AcDbSymbolTableRecord
100
AcDbLayerTableRecord
  2
Style 1  PCB layouts|Level 48
 70
    16
 62
     7
  6
Continuous
370
     0
390
1194
347
1197
  0
LAYER
  5
1272
330
11AB
100
AcDbSymbolTableRecord
100
AcDbLayerTableRecord
  2
Style 1  PCB layouts|Level 49
 70
    16
 62
     7
  6
Continuous
370
     0
390
1194
347
1197
  0
LAYER
  5
1273
330
11AB
100
AcDbSymbolTableRecord
100
AcDbLayerTableRecord
  2
Style 1  PCB layouts|Level 50
 70
    16
 62
     7
  6
Continuous
370
     0
390
1194
347
1197
  0
LAYER
  5
1274
330
11AB
100
AcDbSymbolTableRecord
100
AcDbLayerTableRecord
  2
Style 1  PCB layouts|Level 51
 70
    16
 62
     7
  6
Continuous
370
     0
390
1194
347
1197
  0
LAYER
  5
1275
330
11AB
100
AcDbSymbolTableRecord
100
AcDbLayerTableRecord
  2
Style 1  PCB layouts|Level 52
 70
    16
 62
     7
  6
Continuous
370
     0
390
1194
347
1197
  0
LAYER
  5
1276
330
11AB
100
AcDbSymbolTableRecord
100
AcDbLayerTableRecord
  2
Style 1  PCB layouts|Level 53
 70
    16
 62
     7
  6
Continuous
370
     0
390
1194
347
1197
  0
LAYER
  5
1277
330
11AB
100
AcDbSymbolTableRecord
100
AcDbLayerTableRecord
  2
Style 1  PCB layouts|Level 54
 70
    16
 62
     7
  6
Continuous
370
     0
390
1194
347
1197
  0
LAYER
  5
1278
330
11AB
100
AcDbSymbolTableRecord
100
AcDbLayerTableRecord
  2
Style 1  PCB layouts|Level 55
 70
    16
 62
     7
  6
Continuous
370
     0
390
1194
347
1197
  0
LAYER
  5
1279
330
11AB
100
AcDbSymbolTableRecord
100
AcDbLayerTableRecord
  2
Style 1  PCB layouts|Level 56
 70
    16
 62
     7
  6
Continuous
370
     0
390
1194
347
1197
  0
LAYER
  5
127A
330
11AB
100
AcDbSymbolTableRecord
100
AcDbLayerTableRecord
  2
Style 1  PCB layouts|Level 57
 70
    16
 62
     7
  6
Continuous
370
     0
390
1194
347
1197
  0
LAYER
  5
127B
330
11AB
100
AcDbSymbolTableRecord
100
AcDbLayerTableRecord
  2
Style 1  PCB layouts|Level 58
 70
    16
 62
     7
  6
Continuous
370
     0
390
1194
347
1197
  0
LAYER
  5
127C
330
11AB
100
AcDbSymbolTableRecord
100
AcDbLayerTableRecord
  2
Style 1  PCB layouts|Level 59
 70
    16
 62
     7
  6
Continuous
370
     0
390
1194
347
1197
  0
LAYER
  5
127D
330
11AB
100
AcDbSymbolTableRecord
100
AcDbLayerTableRecord
  2
Style 1  PCB layouts|Level 60
 70
    16
 62
     7
  6
Continuous
370
     0
390
1194
347
1197
  0
LAYER
  5
127E
330
11AB
100
AcDbSymbolTableRecord
100
AcDbLayerTableRecord
  2
Style 1  PCB layouts|Level 61
 70
    16
 62
     7
  6
Continuous
370
     0
390
1194
347
1197
  0
LAYER
  5
127F
330
11AB
100
AcDbSymbolTableRecord
100
AcDbLayerTableRecord
  2
Style 1  PCB layouts|Level 62
 70
    16
 62
     7
  6
Continuous
370
     0
390
1194
347
1197
  0
LAYER
  5
1280
330
11AB
100
AcDbSymbolTableRecord
100
AcDbLayerTableRecord
  2
Style 1  PCB layouts|Level 63
 70
    16
 62
     7
  6
Continuous
370
     0
390
1194
347
1197
  0
LAYER
  5
1297
330
11AB
100
AcDbSymbolTableRecord
100
AcDbLayerTableRecord
  2
Defpoints
 70
     0
 62
     7
  6
Continuous
290
     0
370
    -3
390
1194
347
1197
  0
ENDTAB
  0
TABLE
  2
STYLE
  5
11AE
330
0
100
AcDbSymbolTable
 70
     3
  0
STYLE
  5
11AF
330
11AE
100
AcDbSymbolTableRecord
100
AcDbTextStyleTableRecord
  2
Standard
 70
     0
 40
0.0
 41
1.0
 50
0.0
 71
     0
 42
0.03
  3
txt.shx
  4

  0
STYLE
  5
1286
330
11AE
100
AcDbSymbolTableRecord
100
AcDbTextStyleTableRecord
  2
Style-WORKING
 70
     0
 40
0.0
 41
1.0
 50
0.0
 71
     0
 42
0.03
  3
WORKING.shx
  4

  0
STYLE
  5
1289
330
11AE
100
AcDbSymbolTableRecord
100
AcDbTextStyleTableRecord
  2
Style-ANSI_SYMBOLS
 70
     0
 40
0.0
 41
1.0
 50
0.0
 71
     0
 42
0.03
  3
ANSI_SYMBOLS.shx
  4

  0
ENDTAB
  0
TABLE
  2
VIEW
  5
11B4
330
0
100
AcDbSymbolTable
 70
     2
  0
VIEW
  5
110
102
{ACAD_XDICTIONARY
360
1282
102
}
330
11B4
100
AcDbSymbolTableRecord
100
AcDbViewTableRecord
  2
VIEW 5
 70
     0
 40
11.630165
 10
-7.758911
 20
5.32565
 41
18.974736
 11
0.0
 21
0.0
 31
1.0
 12
0.0
 22
0.0
 32
0.0
 42
50.0
 43
0.001969
 44
-0.001969
 50
0.0
 71
    16
281
     0
 72
     0
 73
     0
348
11B8
  0
VIEW
  5
112
102
{ACAD_XDICTIONARY
360
1284
102
}
330
11B4
100
AcDbSymbolTableRecord
100
AcDbViewTableRecord
  2
V2
 70
     0
 40
13.786559
 10
9.249309
 20
6.341453
 41
18.16465
 11
0.0
 21
0.0
 31
1.0
 12
0.0
 22
0.0
 32
0.0
 42
50.0
 43
0.001969
 44
-0.001969
 50
0.0
 71
    16
281
     0
 72
     0
 73
     0
348
11B8
  0
ENDTAB
  0
TABLE
  2
UCS
  5
11B5
330
0
100
AcDbSymbolTable
 70
     0
  0
ENDTAB
  0
TABLE
  2
APPID
  5
11BA
330
0
100
AcDbSymbolTable
 70
     3
  0
APPID
  5
11BB
330
11BA
100
AcDbSymbolTableRecord
100
AcDbRegAppTableRecord
  2
ACAD
 70
     0
  0
APPID
  5
11AA
330
11BA
100
AcDbSymbolTableRecord
100
AcDbRegAppTableRecord
  2
ACAD_PSEXT
 70
     0
  0
APPID
  5
150A
330
11BA
100
AcDbSymbolTableRecord
100
AcDbRegAppTableRecord
  2
ACAD_MLEADERVER
 70
     0
  0
ENDTAB
  0
TABLE
  2
DIMSTYLE
  5
11BC
330
0
100
AcDbSymbolTable
 70
     1
100
AcDbDimStyleTable
 71
     1
340
11BD
  0
DIMSTYLE
105
11BD
102
{ACAD_REACTORS
330
1142
330
1143
330
1176
330
115C
330
115D
330
1147
330
114A
102
}
330
11BC
100
AcDbSymbolTableRecord
100
AcDbDimStyleTableRecord
  2
Standard
 70
     0
 42
0.0625
 44
0.18
147
0.09
340
11AF
  0
ENDTAB
  0
TABLE
  2
BLOCK_RECORD
  5
1190
330
0
100
AcDbSymbolTable
 70
    18
  0
BLOCK_RECORD
  5
1191
102
{ACAD_XDICTIONARY
360
133B
102
}
330
1190
100
AcDbSymbolTableRecord
100
AcDbBlockTableRecord
  2
*Model_Space
340
11A2
 70
     0
280
     1
281
     0
  0
BLOCK_RECORD
  5
11A4
102
{ACAD_XDICTIONARY
360
179A
102
}
330
1190
100
AcDbSymbolTableRecord
100
AcDbBlockTableRecord
  2
*Paper_Space
340
11A7
 70
     0
280
     1
281
     0
  0
BLOCK_RECORD
  5
11FD
330
1190
100
AcDbSymbolTableRecord
100
AcDbBlockTableRecord
  2
umiborder
340
0
102
{BLKREFS
331
6F0
102
}
 70
     0
280
     1
281
     0
  0
BLOCK_RECORD
  5
123F
330
1190
100
AcDbSymbolTableRecord
100
AcDbBlockTableRecord
  2
Style 1  PCB layouts
340
0
102
{BLKREFS
331
73A
102
}
 70
     0
280
     1
281
     0
  0
BLOCK_RECORD
  5
128B
330
1190
100
AcDbSymbolTableRecord
100
AcDbBlockTableRecord
  2
*D2
340
0
 70
     0
280
     1
281
     0
  0
BLOCK_RECORD
  5
129C
330
1190
100
AcDbSymbolTableRecord
100
AcDbBlockTableRecord
  2
*D3
340
0
 70
     0
280
     1
281
     0
  0
BLOCK_RECORD
  5
12A9
330
1190
100
AcDbSymbolTableRecord
100
AcDbBlockTableRecord
  2
*D4
340
0
 70
     0
280
     1
281
     0
  0
BLOCK_RECORD
  5
12B8
330
1190
100
AcDbSymbolTableRecord
100
AcDbBlockTableRecord
  2
*D5
340
0
 70
     0
280
     1
281
     0
  0
BLOCK_RECORD
  5
12C5
330
1190
100
AcDbSymbolTableRecord
100
AcDbBlockTableRecord
  2
*D6
340
0
 70
     0
280
     1
281
     0
  0
BLOCK_RECORD
  5
12D5
330
1190
100
AcDbSymbolTableRecord
100
AcDbBlockTableRecord
  2
*D7
340
0
 70
     0
280
     1
281
     0
  0
BLOCK_RECORD
  5
12E3
330
1190
100
AcDbSymbolTableRecord
100
AcDbBlockTableRecord
  2
*D8
340
0
 70
     0
280
     1
281
     0
  0
BLOCK_RECORD
  5
12F3
330
1190
100
AcDbSymbolTableRecord
100
AcDbBlockTableRecord
  2
*D9
340
0
 70
     0
280
     1
281
     0
  0
BLOCK_RECORD
  5
1301
330
1190
100
AcDbSymbolTableRecord
100
AcDbBlockTableRecord
  2
*D10
340
0
 70
     0
280
     1
281
     0
  0
BLOCK_RECORD
  5
1311
330
1190
100
AcDbSymbolTableRecord
100
AcDbBlockTableRecord
  2
*D11
340
0
 70
     0
280
     1
281
     0
  0
BLOCK_RECORD
  5
131E
330
1190
100
AcDbSymbolTableRecord
100
AcDbBlockTableRecord
  2
*D12
340
0
 70
     0
280
     1
281
     0
  0
BLOCK_RECORD
  5
132E
330
1190
100
AcDbSymbolTableRecord
100
AcDbBlockTableRecord
  2
*D13
340
0
 70
     0
280
     1
281
     0
  0
BLOCK_RECORD
  5
1440
330
1190
100
AcDbSymbolTableRecord
100
AcDbBlockTableRecord
  2
*D14
340
0
 70
     0
280
     1
281
     0
  0
BLOCK_RECORD
  5
145B
330
1190
100
AcDbSymbolTableRecord
100
AcDbBlockTableRecord
  2
*D15
340
0
 70
     0
280
     1
281
     0
  0
BLOCK_RECORD
  5
1700
330
1190
100
AcDbSymbolTableRecord
100
AcDbBlockTableRecord
  2
*D16
340
0
 70
     0
280
     1
281
     0
  0
BLOCK_RECORD
  5
171A
330
1190
100
AcDbSymbolTableRecord
100
AcDbBlockTableRecord
  2
*D17
340
0
 70
     0
280
     1
281
     0
  0
ENDTAB
  0
ENDSEC
  0
SECTION
  2
BLOCKS
  0
BLOCK
  5
1192
330
1191
100
AcDbEntity
  8
0
100
AcDbBlockBegin
  2
*Model_Space
 70
     0
 10
0.0
 20
0.0
 30
0.0
  3
*Model_Space
  1

  0
ENDBLK
  5
11A1
330
1191
100
AcDbEntity
  8
0
100
AcDbBlockEnd
  0
BLOCK
  5
11A5
330
11A4
100
AcDbEntity
 67
     1
  8
0
100
AcDbBlockBegin
  2
*Paper_Space
 70
     0
 10
0.0
 20
0.0
 30
0.0
  3
*Paper_Space
  1

  0
ENDBLK
  5
11A6
330
11A4
100
AcDbEntity
 67
     1
  8
0
100
AcDbBlockEnd
  0
BLOCK
  5
11FE
330
11FD
100
AcDbEntity
  8
0
100
AcDbBlockBegin
  2
umiborder
 70
     4
 71
     1
 10
0.0
 20
0.0
 30
0.0
  3
umiborder
  1
C:\D DRIVE\MSTRDWG\umiborder.dwg
  0
ENDBLK
  5
11FF
330
11FD
100
AcDbEntity
  8
0
100
AcDbBlockEnd
  0
BLOCK
  5
1240
330
123F
100
AcDbEntity
  8
0
100
AcDbBlockBegin
  2
Style 1  PCB layouts
 70
     4
 71
     1
 10
0.0
 20
0.0
 30
0.0
  3
Style 1  PCB layouts
  1
C:\D drive\mstrdwg\pdf catalog drawings\cad files\Style 1  PCB layouts.dwg
  0
ENDBLK
  5
1241
330
123F
100
AcDbEntity
  8
0
100
AcDbBlockEnd
  0
BLOCK
  5
1295
330
128B
100
AcDbEntity
  8
0
 62
     7
370
     0
100
AcDbBlockBegin
  2
*D2
 70
     1
 10
0.0
 20
0.0
 30
0.0
  3
*D2
  1

  0
TEXT
  5
128C
330
128B
100
AcDbEntity
  8
Level 55
  6
Continuous
 62
     7
370
     0
100
AcDbText
 10
1.344148
 20
-5.655049
 30
0.0
 40
0.03
  1
1.800
 41
0.916667
  7
Style-WORKING
 11
1.344148
 21
-5.640049
 31
0.0
100
AcDbText
 73
     2
  0
TEXT
  5
128E
330
128B
100
AcDbEntity
  8
Level 55
  6
Continuous
 62
     7
370
     0
100
AcDbText
 10
1.337219
 20
-5.715049
 30
0.0
 40
0.03
  1
45.72
 41
0.916667
  7
Style-WORKING
 11
1.337219
 21
-5.700049
 31
0.0
100
AcDbText
 73
     2
  0
LINE
  5
128F
330
128B
100
AcDbEntity
  8
Level 55
  6
Continuous
 62
     7
370
     0
100
AcDbLine
 10
1.337219
 20
-5.670049
 30
0.0
 11
1.453476
 21
-5.670049
 31
0.0
  0
LINE
  5
1290
330
128B
100
AcDbEntity
  8
Level 55
  6
Continuous
 62
     7
370
     0
100
AcDbLine
 10
0.528726
 20
-5.670049
 30
0.0
 11
2.328726
 21
-5.670049
 31
0.0
  0
SOLID
  5
1291
330
128B
100
AcDbEntity
  8
Level 55
  6
Continuous
 62
     7
370
     0
100
AcDbTrace
 10
0.573726
 20
-5.677549
 30
0.0
 11
0.528726
 21
-5.670049
 31
0.0
 12
0.573726
 22
-5.662549
 32
0.0
 13
0.573726
 23
-5.662549
 33
0.0
  0
SOLID
  5
1292
330
128B
100
AcDbEntity
  8
Level 55
  6
Continuous
 62
     7
370
     0
100
AcDbTrace
 10
-2.283726
 20
-5.662549
 30
0.0
 11
-2.328726
 21
-5.670049
 31
0.0
 12
-2.283726
 22
-5.677549
 32
0.0
 13
-2.283726
 23
-5.677549
 33
0.0
210
0.0
220
0.0
230
-1.0
  0
LINE
  5
1293
330
128B
100
AcDbEntity
  8
Level 55
  6
Continuous
 62
     7
370
     0
100
AcDbLine
 10
0.528726
 20
-5.936366
 30
0.0
 11
0.528726
 21
-5.655049
 31
0.0
  0
LINE
  5
1294
330
128B
100
AcDbEntity
  8
Level 55
  6
Continuous
 62
     7
370
     0
100
AcDbLine
 10
2.328726
 20
-5.936366
 30
0.0
 11
2.328726
 21
-5.655049
 31
0.0
  0
POINT
  5
1298
330
128B
100
AcDbEntity
  8
Defpoints
  6
Continuous
 62
     7
370
     0
100
AcDbPoint
 10
2.328726
 20
-5.670049
 30
0.0
  0
POINT
  5
1299
330
128B
100
AcDbEntity
  8
Defpoints
  6
Continuous
 62
     7
370
     0
100
AcDbPoint
 10
0.528726
 20
-5.954366
 30
0.0
  0
POINT
  5
129A
330
128B
100
AcDbEntity
  8
Defpoints
  6
Continuous
 62
     7
370
     0
100
AcDbPoint
 10
2.328726
 20
-5.954366
 30
0.0
  0
POINT
  5
129B
330
128B
100
AcDbEntity
  8
Defpoints
  6
Continuous
 62
     7
370
     0
100
AcDbPoint
 10
1.395348
 20
-5.670049
 30
0.0
  0
ENDBLK
  5
1296
330
128B
100
AcDbEntity
  8
0
 62
     7
370
     0
100
AcDbBlockEnd
  0
BLOCK
  5
129D
330
129C
100
AcDbEntity
  8
0
 62
     7
370
     0
100
AcDbBlockBegin
  2
*D3
 70
     1
 10
0.0
 20
0.0
 30
0.0
  3
*D3
  1

  0
LINE
  5
1870
330
129C
100
AcDbEntity
  8
Level 55
  6
Continuous
 62
     0
370
    -2
100
AcDbLine
 10
0.528726
 20
-5.936366
 30
0.0
 11
0.528726
 21
-5.655049
 31
0.0
  0
LINE
  5
1871
330
129C
100
AcDbEntity
  8
Level 55
  6
Continuous
 62
     0
370
    -2
100
AcDbLine
 10
2.328726
 20
-5.936366
 30
0.0
 11
2.328726
 21
-5.655049
 31
0.0
  0
LINE
  5
1872
330
129C
100
AcDbEntity
  8
Level 55
  6
Continuous
 62
     0
370
    -2
100
AcDbLine
 10
0.573726
 20
-5.670049
 30
0.0
 11
1.2961
 21
-5.670049
 31
0.0
  0
LINE
  5
1873
330
129C
100
AcDbEntity
  8
Level 55
  6
Continuous
 62
     0
370
    -2
100
AcDbLine
 10
2.283726
 20
-5.670049
 30
0.0
 11
1.494596
 21
-5.670049
 31
0.0
  0
SOLID
  5
1874
330
129C
100
AcDbEntity
  8
Level 55
  6
Continuous
 62
     0
370
     0
100
AcDbTrace
 10
0.573726
 20
-5.662549
 30
0.0
 11
0.573726
 21
-5.677549
 31
0.0
 12
0.528726
 22
-5.670049
 32
0.0
 13
0.528726
 23
-5.670049
 33
0.0
  0
SOLID
  5
1875
330
129C
100
AcDbEntity
  8
Level 55
  6
Continuous
 62
     0
370
     0
100
AcDbTrace
 10
2.283726
 20
-5.662549
 30
0.0
 11
2.283726
 21
-5.677549
 31
0.0
 12
2.328726
 22
-5.670049
 32
0.0
 13
2.328726
 23
-5.670049
 33
0.0
  0
MTEXT
  5
1876
330
129C
100
AcDbEntity
  8
Level 55
  6
Continuous
 62
     0
370
     0
100
AcDbMText
 10
1.395348
 20
-5.670049
 30
0.0
 40
0.03
 41
0.0
 46
0.0
 71
     5
 72
     1
  1
\H1x;\W0.916667;1.800\P [45.72]\H1x;\W0.916667;
  7
Style-WORKING
 73
     1
 44
1.0
  0
POINT
  5
1877
330
129C
100
AcDbEntity
  8
Defpoints
  6
Continuous
 62
     0
370
     0
100
AcDbPoint
 10
0.528726
 20
-5.954366
 30
0.0
  0
POINT
  5
1878
330
129C
100
AcDbEntity
  8
Defpoints
  6
Continuous
 62
     0
370
     0
100
AcDbPoint
 10
2.328726
 20
-5.954366
 30
0.0
  0
POINT
  5
1879
330
129C
100
AcDbEntity
  8
Defpoints
  6
Continuous
 62
     0
370
     0
100
AcDbPoint
 10
2.328726
 20
-5.670049
 30
0.0
  0
ENDBLK
  5
129E
330
129C
100
AcDbEntity
  8
0
 62
     7
370
     0
100
AcDbBlockEnd
  0
BLOCK
  5
12B2
330
12A9
100
AcDbEntity
  8
0
 62
     7
370
     0
100
AcDbBlockBegin
  2
*D4
 70
     1
 10
0.0
 20
0.0
 30
0.0
  3
*D4
  1

  0
TEXT
  5
12AA
330
12A9
100
AcDbEntity
  8
Level 55
  6
Continuous
 62
     7
370
     0
100
AcDbText
 10
2.147132
 20
-5.739753
 30
0.0
 40
0.03
  1
.280
 41
0.916667
  7
Style-WORKING
 11
2.147132
 21
-5.724753
 31
0.0
100
AcDbText
 73
     2
  0
TEXT
  5
12AB
330
12A9
100
AcDbEntity
  8
Level 55
  6
Continuous
 62
     7
370
     0
100
AcDbText
 10
2.158831
 20
-5.799753
 30
0.0
 40
0.03
  1
7.11
 41
0.916667
  7
Style-WORKING
 11
2.158831
 21
-5.784753
 31
0.0
100
AcDbText
 73
     2
  0
LINE
  5
12AC
330
12A9
100
AcDbEntity
  8
Level 55
  6
Continuous
 62
     7
370
     0
100
AcDbLine
 10
2.147132
 20
-5.754753
 30
0.0
 11
2.234167
 21
-5.754753
 31
0.0
  0
LINE
  5
12AD
330
12A9
100
AcDbEntity
  8
Level 55
  6
Continuous
 62
     7
370
     0
100
AcDbLine
 10
2.328726
 20
-5.754753
 30
0.0
 11
2.048726
 21
-5.754753
 31
0.0
  0
SOLID
  5
12AE
330
12A9
100
AcDbEntity
  8
Level 55
  6
Continuous
 62
     7
370
     0
100
AcDbTrace
 10
-2.283726
 20
-5.747253
 30
0.0
 11
-2.328726
 21
-5.754753
 31
0.0
 12
-2.283726
 22
-5.762253
 32
0.0
 13
-2.283726
 23
-5.762253
 33
0.0
210
0.0
220
0.0
230
-1.0
  0
SOLID
  5
12AF
330
12A9
100
AcDbEntity
  8
Level 55
  6
Continuous
 62
     7
370
     0
100
AcDbTrace
 10
2.093726
 20
-5.762253
 30
0.0
 11
2.048726
 21
-5.754753
 31
0.0
 12
2.093726
 22
-5.747253
 32
0.0
 13
2.093726
 23
-5.747253
 33
0.0
  0
LINE
  5
12B0
330
12A9
100
AcDbEntity
  8
Level 55
  6
Continuous
 62
     7
370
     0
100
AcDbLine
 10
2.328726
 20
-5.936366
 30
0.0
 11
2.328726
 21
-5.739753
 31
0.0
  0
LINE
  5
12B1
330
12A9
100
AcDbEntity
  8
Level 55
  6
Continuous
 62
     7
370
     0
100
AcDbLine
 10
2.048726
 20
-5.883642
 30
0.0
 11
2.048726
 21
-5.739753
 31
0.0
  0
POINT
  5
12B4
330
12A9
100
AcDbEntity
  8
Defpoints
  6
Continuous
 62
     7
370
     0
100
AcDbPoint
 10
2.048726
 20
-5.754753
 30
0.0
  0
POINT
  5
12B5
330
12A9
100
AcDbEntity
  8
Defpoints
  6
Continuous
 62
     7
370
     0
100
AcDbPoint
 10
2.328726
 20
-5.954366
 30
0.0
  0
POINT
  5
12B6
330
12A9
100
AcDbEntity
  8
Defpoints
  6
Continuous
 62
     7
370
     0
100
AcDbPoint
 10
2.048726
 20
-5.901642
 30
0.0
  0
POINT
  5
12B7
330
12A9
100
AcDbEntity
  8
Defpoints
  6
Continuous
 62
     7
370
     0
100
AcDbPoint
 10
2.190649
 20
-5.754753
 30
0.0
  0
ENDBLK
  5
12B3
330
12A9
100
AcDbEntity
  8
0
 62
     7
370
     0
100
AcDbBlockEnd
  0
BLOCK
  5
12B9
330
12B8
100
AcDbEntity
  8
0
 62
     7
370
     0
100
AcDbBlockBegin
  2
*D5
 70
     1
 10
0.0
 20
0.0
 30
0.0
  3
*D5
  1

  0
LINE
  5
187A
330
12B8
100
AcDbEntity
  8
Level 55
  6
Continuous
 62
     0
370
    -2
100
AcDbLine
 10
2.328726
 20
-5.936366
 30
0.0
 11
2.328726
 21
-5.739753
 31
0.0
  0
LINE
  5
187B
330
12B8
100
AcDbEntity
  8
Level 55
  6
Continuous
 62
     0
370
    -2
100
AcDbLine
 10
2.048726
 20
-5.883642
 30
0.0
 11
2.048726
 21
-5.739753
 31
0.0
  0
LINE
  5
187C
330
12B8
100
AcDbEntity
  8
Level 55
  6
Continuous
 62
     0
370
    -2
100
AcDbLine
 10
2.283726
 20
-5.754753
 30
0.0
 11
2.263488
 21
-5.754753
 31
0.0
  0
LINE
  5
187D
330
12B8
100
AcDbEntity
  8
Level 55
  6
Continuous
 62
     0
370
    -2
100
AcDbLine
 10
2.093726
 20
-5.754753
 30
0.0
 11
2.11781
 21
-5.754753
 31
0.0
  0
SOLID
  5
187E
330
12B8
100
AcDbEntity
  8
Level 55
  6
Continuous
 62
     0
370
     0
100
AcDbTrace
 10
2.283726
 20
-5.747253
 30
0.0
 11
2.283726
 21
-5.762253
 31
0.0
 12
2.328726
 22
-5.754753
 32
0.0
 13
2.328726
 23
-5.754753
 33
0.0
  0
SOLID
  5
187F
330
12B8
100
AcDbEntity
  8
Level 55
  6
Continuous
 62
     0
370
     0
100
AcDbTrace
 10
2.093726
 20
-5.747253
 30
0.0
 11
2.093726
 21
-5.762253
 31
0.0
 12
2.048726
 22
-5.754753
 32
0.0
 13
2.048726
 23
-5.754753
 33
0.0
  0
MTEXT
  5
1880
330
12B8
100
AcDbEntity
  8
Level 55
  6
Continuous
 62
     0
370
     0
100
AcDbMText
 10
2.190649
 20
-5.754753
 30
0.0
 40
0.03
 41
0.0
 46
0.0
 71
     5
 72
     1
  1
\H1x;\W0.916667;.280\P [7.11]\H1x;\W0.916667;
  7
Style-WORKING
 73
     1
 44
1.0
  0
POINT
  5
1881
330
12B8
100
AcDbEntity
  8
Defpoints
  6
Continuous
 62
     0
370
     0
100
AcDbPoint
 10
2.328726
 20
-5.954366
 30
0.0
  0
POINT
  5
1882
330
12B8
100
AcDbEntity
  8
Defpoints
  6
Continuous
 62
     0
370
     0
100
AcDbPoint
 10
2.048726
 20
-5.901642
 30
0.0
  0
POINT
  5
1883
330
12B8
100
AcDbEntity
  8
Defpoints
  6
Continuous
 62
     0
370
     0
100
AcDbPoint
 10
2.048726
 20
-5.754753
 30
0.0
  0
ENDBLK
  5
12BA
330
12B8
100
AcDbEntity
  8
0
 62
     7
370
     0
100
AcDbBlockEnd
  0
BLOCK
  5
12CF
330
12C5
100
AcDbEntity
  8
0
 62
     7
370
     0
100
AcDbBlockBegin
  2
*D6
 70
     1
 10
0.0
 20
0.0
 30
0.0
  3
*D6
  1

  0
TEXT
  5
12C6
330
12C5
100
AcDbEntity
  8
Level 55
  6
Continuous
 62
     7
370
     0
100
AcDbText
 10
2.441488
 20
-5.802725
 30
0.0
 40
0.03
  1
.038
 41
0.916667
  7
Style-WORKING
 11
2.441488
 21
-5.787725
 31
0.0
100
AcDbText
 73
     2
  0
TEXT
  5
12C7
330
12C5
100
AcDbEntity
  8
Level 55
  6
Continuous
 62
     7
370
     0
100
AcDbText
 10
2.455781
 20
-5.862725
 30
0.0
 40
0.03
  1
.95
 41
0.916667
  7
Style-WORKING
 11
2.455781
 21
-5.847725
 31
0.0
100
AcDbText
 73
     2
  0
LINE
  5
12C8
330
12C5
100
AcDbEntity
  8
Level 55
  6
Continuous
 62
     7
370
     0
100
AcDbLine
 10
2.441488
 20
-5.817725
 30
0.0
 11
2.528519
 21
-5.817725
 31
0.0
  0
LINE
  5
12C9
330
12C5
100
AcDbEntity
  8
Level 55
  6
Continuous
 62
     7
370
     0
100
AcDbLine
 10
2.485003
 20
-6.082893
 30
0.0
 11
2.485003
 21
-6.014143
 31
0.0
  0
LINE
  5
12CA
330
12C5
100
AcDbEntity
  8
Level 55
  6
Continuous
 62
     7
370
     0
100
AcDbLine
 10
2.485003
 20
-5.871725
 30
0.0
 11
2.485003
 21
-5.976642
 31
0.0
  0
SOLID
  5
12CB
330
12C5
100
AcDbEntity
  8
Level 55
  6
Continuous
 62
     7
370
     0
100
AcDbTrace
 10
-2.477503
 20
-6.059143
 30
0.0
 11
-2.485003
 21
-6.014143
 31
0.0
 12
-2.492503
 22
-6.059143
 32
0.0
 13
-2.492503
 23
-6.059143
 33
0.0
210
0.0
220
0.0
230
-1.0
  0
SOLID
  5
12CC
330
12C5
100
AcDbEntity
  8
Level 55
  6
Continuous
 62
     7
370
     0
100
AcDbTrace
 10
2.492503
 20
-5.931642
 30
0.0
 11
2.485003
 21
-5.976642
 31
0.0
 12
2.477503
 22
-5.931642
 32
0.0
 13
2.477503
 23
-5.931642
 33
0.0
  0
LINE
  5
12CD
330
12C5
100
AcDbEntity
  8
Level 55
  6
Continuous
 62
     7
370
     0
100
AcDbLine
 10
2.405266
 20
-6.014143
 30
0.0
 11
2.500003
 21
-6.014143
 31
0.0
  0
LINE
  5
12CE
330
12C5
100
AcDbEntity
  8
Level 55
  6
Continuous
 62
     7
370
     0
100
AcDbLine
 10
2.029226
 20
-5.976642
 30
0.0
 11
2.500003
 21
-5.976642
 31
0.0
  0
POINT
  5
12D1
330
12C5
100
AcDbEntity
  8
Defpoints
  6
Continuous
 62
     7
370
     0
100
AcDbPoint
 10
2.485003
 20
-5.976642
 30
0.0
  0
POINT
  5
12D2
330
12C5
100
AcDbEntity
  8
Defpoints
  6
Continuous
 62
     7
370
     0
100
AcDbPoint
 10
2.387266
 20
-6.014143
 30
0.0
  0
POINT
  5
12D3
330
12C5
100
AcDbEntity
  8
Defpoints
  6
Continuous
 62
     7
370
     0
100
AcDbPoint
 10
2.011226
 20
-5.976642
 30
0.0
  0
POINT
  5
12D4
330
12C5
100
AcDbEntity
  8
Defpoints
  6
Continuous
 62
     7
370
     0
100
AcDbPoint
 10
2.485003
 20
-5.817725
 30
0.0
  0
ENDBLK
  5
12D0
330
12C5
100
AcDbEntity
  8
0
 62
     7
370
     0
100
AcDbBlockEnd
  0
BLOCK
  5
12D6
330
12D5
100
AcDbEntity
  8
0
 62
     7
370
     0
100
AcDbBlockBegin
  2
*D7
 70
     1
 10
0.0
 20
0.0
 30
0.0
  3
*D7
  1

  0
LINE
  5
1415
330
12D5
100
AcDbEntity
  8
Level 55
  6
Continuous
 62
     0
370
    -2
100
AcDbLine
 10
2.369266
 20
-6.014143
 30
0.0
 11
2.354674
 21
-6.014143
 31
0.0
  0
LINE
  5
1416
330
12D5
100
AcDbEntity
  8
Level 55
  6
Continuous
 62
     0
370
    -2
100
AcDbLine
 10
2.029226
 20
-5.976642
 30
0.0
 11
2.384674
 21
-5.976642
 31
0.0
  0
LINE
  5
1417
330
12D5
100
AcDbEntity
  8
Level 55
  6
Continuous
 62
     0
370
    -2
100
AcDbLine
 10
2.369674
 20
-6.059143
 30
0.0
 11
2.369674
 21
-6.104143
 31
0.0
  0
LINE
  5
1418
330
12D5
100
AcDbEntity
  8
Level 55
  6
Continuous
 62
     0
370
    -2
100
AcDbLine
 10
2.369674
 20
-5.931642
 30
0.0
 11
2.369674
 21
-5.817725
 31
0.0
  0
LINE
  5
1419
330
12D5
100
AcDbEntity
  8
Level 55
  6
Continuous
 62
     0
370
    -2
100
AcDbLine
 10
2.369674
 20
-5.817725
 30
0.0
 11
2.414674
 21
-5.817725
 31
0.0
  0
SOLID
  5
141A
330
12D5
100
AcDbEntity
  8
Level 55
  6
Continuous
 62
     0
370
     0
100
AcDbTrace
 10
2.362174
 20
-6.059143
 30
0.0
 11
2.377174
 21
-6.059143
 31
0.0
 12
2.369674
 22
-6.014143
 32
0.0
 13
2.369674
 23
-6.014143
 33
0.0
  0
SOLID
  5
141B
330
12D5
100
AcDbEntity
  8
Level 55
  6
Continuous
 62
     0
370
     0
100
AcDbTrace
 10
2.362174
 20
-5.931642
 30
0.0
 11
2.377174
 21
-5.931642
 31
0.0
 12
2.369674
 22
-5.976642
 32
0.0
 13
2.369674
 23
-5.976642
 33
0.0
  0
MTEXT
  5
141C
330
12D5
100
AcDbEntity
  8
Level 55
  6
Continuous
 62
     0
370
     0
100
AcDbMText
 10
2.485003
 20
-5.817725
 30
0.0
 40
0.03
 41
0.0
 46
0.0
 71
     5
 72
     1
  1
\H1x;\W0.916667;.038\P [.95]\H1x;\W0.916667;
  7
Style-WORKING
 73
     1
 44
1.0
  0
POINT
  5
141D
330
12D5
100
AcDbEntity
  8
Defpoints
  6
Continuous
 62
     0
370
     0
100
AcDbPoint
 10
2.387266
 20
-6.014143
 30
0.0
  0
POINT
  5
141E
330
12D5
100
AcDbEntity
  8
Defpoints
  6
Continuous
 62
     0
370
     0
100
AcDbPoint
 10
2.011226
 20
-5.976642
 30
0.0
  0
POINT
  5
141F
330
12D5
100
AcDbEntity
  8
Defpoints
  6
Continuous
 62
     0
370
     0
100
AcDbPoint
 10
2.369674
 20
-5.976642
 30
0.0
  0
ENDBLK
  5
12D7
330
12D5
100
AcDbEntity
  8
0
 62
     7
370
     0
100
AcDbBlockEnd
  0
BLOCK
  5
12ED
330
12E3
100
AcDbEntity
  8
0
 62
     7
370
     0
100
AcDbBlockBegin
  2
*D8
 70
     1
 10
0.0
 20
0.0
 30
0.0
  3
*D8
  1

  0
TEXT
  5
12E4
330
12E3
100
AcDbEntity
  8
Level 55
  6
Continuous
 62
     7
370
     0
100
AcDbText
 10
2.54631
 20
-6.229373
 30
0.0
 40
0.03
  1
.075 TYP
 41
0.916667
  7
Style-WORKING
 11
2.54631
 21
-6.214373
 31
0.0
100
AcDbText
 73
     2
  0
TEXT
  5
12E5
330
12E3
100
AcDbEntity
  8
Level 55
  6
Continuous
 62
     7
370
     0
100
AcDbText
 10
2.622957
 20
-6.289373
 30
0.0
 40
0.03
  1
1.9
 41
0.916667
  7
Style-WORKING
 11
2.622957
 21
-6.274373
 31
0.0
100
AcDbText
 73
     2
  0
LINE
  5
12E6
330
12E3
100
AcDbEntity
  8
Level 55
  6
Continuous
 62
     7
370
     0
100
AcDbLine
 10
2.54631
 20
-6.244373
 30
0.0
 11
2.746145
 21
-6.244373
 31
0.0
  0
LINE
  5
12E7
330
12E3
100
AcDbEntity
  8
Level 55
  6
Continuous
 62
     7
370
     0
100
AcDbLine
 10
2.646228
 20
-5.907892
 30
0.0
 11
2.646228
 21
-5.976642
 31
0.0
  0
LINE
  5
12E8
330
12E3
100
AcDbEntity
  8
Level 55
  6
Continuous
 62
     7
370
     0
100
AcDbLine
 10
2.646228
 20
-6.190373
 30
0.0
 11
2.646228
 21
-6.051642
 31
0.0
  0
SOLID
  5
12E9
330
12E3
100
AcDbEntity
  8
Level 55
  6
Continuous
 62
     7
370
     0
100
AcDbTrace
 10
2.653728
 20
-5.931642
 30
0.0
 11
2.646228
 21
-5.976642
 31
0.0
 12
2.638728
 22
-5.931642
 32
0.0
 13
2.638728
 23
-5.931642
 33
0.0
  0
SOLID
  5
12EA
330
12E3
100
AcDbEntity
  8
Level 55
  6
Continuous
 62
     7
370
     0
100
AcDbTrace
 10
-2.638728
 20
-6.096642
 30
0.0
 11
-2.646228
 21
-6.051642
 31
0.0
 12
-2.653728
 22
-6.096642
 32
0.0
 13
-2.653728
 23
-6.096642
 33
0.0
210
0.0
220
0.0
230
-1.0
  0
LINE
  5
12EB
330
12E3
100
AcDbEntity
  8
Level 55
  6
Continuous
 62
     7
370
     0
100
AcDbLine
 10
2.029226
 20
-5.976642
 30
0.0
 11
2.661228
 21
-5.976642
 31
0.0
  0
LINE
  5
12EC
330
12E3
100
AcDbEntity
  8
Level 55
  6
Continuous
 62
     7
370
     0
100
AcDbLine
 10
2.066726
 20
-6.051642
 30
0.0
 11
2.661228
 21
-6.051642
 31
0.0
  0
POINT
  5
12EF
330
12E3
100
AcDbEntity
  8
Defpoints
  6
Continuous
 62
     7
370
     0
100
AcDbPoint
 10
2.646228
 20
-6.051642
 30
0.0
  0
POINT
  5
12F0
330
12E3
100
AcDbEntity
  8
Defpoints
  6
Continuous
 62
     7
370
     0
100
AcDbPoint
 10
2.011226
 20
-5.976642
 30
0.0
  0
POINT
  5
12F1
330
12E3
100
AcDbEntity
  8
Defpoints
  6
Continuous
 62
     7
370
     0
100
AcDbPoint
 10
2.048726
 20
-6.051642
 30
0.0
  0
POINT
  5
12F2
330
12E3
100
AcDbEntity
  8
Defpoints
  6
Continuous
 62
     7
370
     0
100
AcDbPoint
 10
2.646228
 20
-6.244373
 30
0.0
  0
ENDBLK
  5
12EE
330
12E3
100
AcDbEntity
  8
0
 62
     7
370
     0
100
AcDbBlockEnd
  0
BLOCK
  5
12F4
330
12F3
100
AcDbEntity
  8
0
 62
     7
370
     0
100
AcDbBlockBegin
  2
*D9
 70
     1
 10
0.0
 20
0.0
 30
0.0
  3
*D9
  1

  0
LINE
  5
1420
330
12F3
100
AcDbEntity
  8
Level 55
  6
Continuous
 62
     0
370
    -2
100
AcDbLine
 10
2.029226
 20
-5.976642
 30
0.0
 11
2.834504
 21
-5.976642
 31
0.0
  0
LINE
  5
1421
330
12F3
100
AcDbEntity
  8
Level 55
  6
Continuous
 62
     0
370
    -2
100
AcDbLine
 10
2.066726
 20
-6.051642
 30
0.0
 11
2.834504
 21
-6.051642
 31
0.0
  0
LINE
  5
1422
330
12F3
100
AcDbEntity
  8
Level 55
  6
Continuous
 62
     0
370
    -2
100
AcDbLine
 10
2.819504
 20
-5.931642
 30
0.0
 11
2.819504
 21
-5.886642
 31
0.0
  0
LINE
  5
1423
330
12F3
100
AcDbEntity
  8
Level 55
  6
Continuous
 62
     0
370
    -2
100
AcDbLine
 10
2.819504
 20
-6.096642
 30
0.0
 11
2.819504
 21
-6.244373
 31
0.0
  0
LINE
  5
1424
330
12F3
100
AcDbEntity
  8
Level 55
  6
Continuous
 62
     0
370
    -2
100
AcDbLine
 10
2.819504
 20
-6.244373
 30
0.0
 11
2.774504
 21
-6.244373
 31
0.0
  0
SOLID
  5
1425
330
12F3
100
AcDbEntity
  8
Level 55
  6
Continuous
 62
     0
370
     0
100
AcDbTrace
 10
2.812004
 20
-5.931642
 30
0.0
 11
2.827004
 21
-5.931642
 31
0.0
 12
2.819504
 22
-5.976642
 32
0.0
 13
2.819504
 23
-5.976642
 33
0.0
  0
SOLID
  5
1426
330
12F3
100
AcDbEntity
  8
Level 55
  6
Continuous
 62
     0
370
     0
100
AcDbTrace
 10
2.812004
 20
-6.096642
 30
0.0
 11
2.827004
 21
-6.096642
 31
0.0
 12
2.819504
 22
-6.051642
 32
0.0
 13
2.819504
 23
-6.051642
 33
0.0
  0
MTEXT
  5
1427
330
12F3
100
AcDbEntity
  8
Level 55
  6
Continuous
 62
     0
370
     0
100
AcDbMText
 10
2.646228
 20
-6.244373
 30
0.0
 40
0.03
 41
0.0
 46
0.0
 71
     5
 72
     1
  1
\H1x;\W0.916667;.075\P [1.91] TYP\H1x;\W0.916667;
  7
Style-WORKING
 73
     1
 44
1.0
  0
POINT
  5
1428
330
12F3
100
AcDbEntity
  8
Defpoints
  6
Continuous
 62
     0
370
     0
100
AcDbPoint
 10
2.011226
 20
-5.976642
 30
0.0
  0
POINT
  5
1429
330
12F3
100
AcDbEntity
  8
Defpoints
  6
Continuous
 62
     0
370
     0
100
AcDbPoint
 10
2.048726
 20
-6.051642
 30
0.0
  0
POINT
  5
142A
330
12F3
100
AcDbEntity
  8
Defpoints
  6
Continuous
 62
     0
370
     0
100
AcDbPoint
 10
2.819504
 20
-6.051642
 30
0.0
  0
ENDBLK
  5
12F5
330
12F3
100
AcDbEntity
  8
0
 62
     7
370
     0
100
AcDbBlockEnd
  0
BLOCK
  5
130B
330
1301
100
AcDbEntity
  8
0
 62
     7
370
     0
100
AcDbBlockBegin
  2
*D10
 70
     1
 10
0.0
 20
0.0
 30
0.0
  3
*D10
  1

  0
TEXT
  5
1302
330
1301
100
AcDbEntity
  8
Level 55
  6
Continuous
 62
     7
370
     0
100
AcDbText
 10
2.159227
 20
-6.272177
 30
0.0
 40
0.03
  1
.038
 41
0.916667
  7
Style-WORKING
 11
2.159227
 21
-6.257177
 31
0.0
100
AcDbText
 73
     2
  0
TEXT
  5
1303
330
1301
100
AcDbEntity
  8
Level 55
  6
Continuous
 62
     7
370
     0
100
AcDbText
 10
2.173521
 20
-6.332177
 30
0.0
 40
0.03
  1
.95
 41
0.916667
  7
Style-WORKING
 11
2.173521
 21
-6.317177
 31
0.0
100
AcDbText
 73
     2
  0
LINE
  5
1304
330
1301
100
AcDbEntity
  8
Level 55
  6
Continuous
 62
     7
370
     0
100
AcDbLine
 10
2.159227
 20
-6.287177
 30
0.0
 11
2.246259
 21
-6.287177
 31
0.0
  0
LINE
  5
1305
330
1301
100
AcDbEntity
  8
Level 55
  6
Continuous
 62
     7
370
     0
100
AcDbLine
 10
2.150227
 20
-6.287177
 30
0.0
 11
2.048726
 21
-6.287177
 31
0.0
  0
LINE
  5
1306
330
1301
100
AcDbEntity
  8
Level 55
  6
Continuous
 62
     7
370
     0
100
AcDbLine
 10
1.942476
 20
-6.287177
 30
0.0
 11
2.011226
 21
-6.287177
 31
0.0
  0
SOLID
  5
1307
330
1301
100
AcDbEntity
  8
Level 55
  6
Continuous
 62
     7
370
     0
100
AcDbTrace
 10
2.093726
 20
-6.294677
 30
0.0
 11
2.048726
 21
-6.287177
 31
0.0
 12
2.093726
 22
-6.279677
 32
0.0
 13
2.093726
 23
-6.279677
 33
0.0
  0
SOLID
  5
1308
330
1301
100
AcDbEntity
  8
Level 55
  6
Continuous
 62
     7
370
     0
100
AcDbTrace
 10
-1.966226
 20
-6.279677
 30
0.0
 11
-2.011226
 21
-6.287177
 31
0.0
 12
-1.966226
 22
-6.294677
 32
0.0
 13
-1.966226
 23
-6.294677
 33
0.0
210
0.0
220
0.0
230
-1.0
  0
LINE
  5
1309
330
1301
100
AcDbEntity
  8
Level 55
  6
Continuous
 62
     7
370
     0
100
AcDbLine
 10
2.048726
 20
-6.069642
 30
0.0
 11
2.048726
 21
-6.302177
 31
0.0
  0
LINE
  5
130A
330
1301
100
AcDbEntity
  8
Level 55
  6
Continuous
 62
     7
370
     0
100
AcDbLine
 10
2.011226
 20
-6.144642
 30
0.0
 11
2.011226
 21
-6.302177
 31
0.0
  0
POINT
  5
130D
330
1301
100
AcDbEntity
  8
Defpoints
  6
Continuous
 62
     7
370
     0
100
AcDbPoint
 10
2.011226
 20
-6.287177
 30
0.0
  0
POINT
  5
130E
330
1301
100
AcDbEntity
  8
Defpoints
  6
Continuous
 62
     7
370
     0
100
AcDbPoint
 10
2.048726
 20
-6.051642
 30
0.0
  0
POINT
  5
130F
330
1301
100
AcDbEntity
  8
Defpoints
  6
Continuous
 62
     7
370
     0
100
AcDbPoint
 10
2.011226
 20
-6.126642
 30
0.0
  0
POINT
  5
1310
330
1301
100
AcDbEntity
  8
Defpoints
  6
Continuous
 62
     7
370
     0
100
AcDbPoint
 10
2.202743
 20
-6.287177
 30
0.0
  0
ENDBLK
  5
130C
330
1301
100
AcDbEntity
  8
0
 62
     7
370
     0
100
AcDbBlockEnd
  0
BLOCK
  5
1312
330
1311
100
AcDbEntity
  8
0
 62
     7
370
     0
100
AcDbBlockBegin
  2
*D11
 70
     1
 10
0.0
 20
0.0
 30
0.0
  3
*D11
  1

  0
LINE
  5
16D6
330
1311
100
AcDbEntity
  8
Level 55
  6
Continuous
 62
     0
370
    -2
100
AcDbLine
 10
2.048726
 20
-6.069642
 30
0.0
 11
2.048726
 21
-6.302177
 31
0.0
  0
LINE
  5
16D7
330
1311
100
AcDbEntity
  8
Level 55
  6
Continuous
 62
     0
370
    -2
100
AcDbLine
 10
2.011226
 20
-6.144642
 30
0.0
 11
2.011226
 21
-6.302177
 31
0.0
  0
LINE
  5
16D8
330
1311
100
AcDbEntity
  8
Level 55
  6
Continuous
 62
     0
370
    -2
100
AcDbLine
 10
1.966226
 20
-6.287177
 30
0.0
 11
1.921226
 21
-6.287177
 31
0.0
  0
LINE
  5
16D9
330
1311
100
AcDbEntity
  8
Level 55
  6
Continuous
 62
     0
370
    -2
100
AcDbLine
 10
2.093726
 20
-6.287177
 30
0.0
 11
2.138727
 21
-6.287177
 31
0.0
  0
SOLID
  5
16DA
330
1311
100
AcDbEntity
  8
Level 55
  6
Continuous
 62
     0
370
     0
100
AcDbTrace
 10
1.966226
 20
-6.279677
 30
0.0
 11
1.966226
 21
-6.294677
 31
0.0
 12
2.011226
 22
-6.287177
 32
0.0
 13
2.011226
 23
-6.287177
 33
0.0
  0
SOLID
  5
16DB
330
1311
100
AcDbEntity
  8
Level 55
  6
Continuous
 62
     0
370
     0
100
AcDbTrace
 10
2.093726
 20
-6.279677
 30
0.0
 11
2.093726
 21
-6.294677
 31
0.0
 12
2.048726
 22
-6.287177
 32
0.0
 13
2.048726
 23
-6.287177
 33
0.0
  0
MTEXT
  5
16DC
330
1311
100
AcDbEntity
  8
Level 55
  6
Continuous
 62
     0
370
     0
100
AcDbMText
 10
2.209056
 20
-6.287177
 30
0.0
 40
0.03
 41
0.0
 46
0.0
 71
     5
 72
     1
  1
\H1x;\W0.916667;.038\P [.95]\H1x;\W0.916667;
  7
Style-WORKING
 73
     1
 44
1.0
  0
POINT
  5
16DD
330
1311
100
AcDbEntity
  8
Defpoints
  6
Continuous
 62
     0
370
     0
100
AcDbPoint
 10
2.048726
 20
-6.051642
 30
0.0
  0
POINT
  5
16DE
330
1311
100
AcDbEntity
  8
Defpoints
  6
Continuous
 62
     0
370
     0
100
AcDbPoint
 10
2.011226
 20
-6.126642
 30
0.0
  0
POINT
  5
16DF
330
1311
100
AcDbEntity
  8
Defpoints
  6
Continuous
 62
     0
370
     0
100
AcDbPoint
 10
2.011226
 20
-6.287177
 30
0.0
  0
ENDBLK
  5
1313
330
1311
100
AcDbEntity
  8
0
 62
     7
370
     0
100
AcDbBlockEnd
  0
BLOCK
  5
1328
330
131E
100
AcDbEntity
  8
0
 62
     7
370
     0
100
AcDbBlockBegin
  2
*D12
 70
     1
 10
0.0
 20
0.0
 30
0.0
  3
*D12
  1

  0
TEXT
  5
131F
330
131E
100
AcDbEntity
  8
Level 55
  6
Continuous
 62
     7
370
     0
100
AcDbText
 10
1.675608
 20
-6.381082
 30
0.0
 40
0.03
  1
.075 TYP
 41
0.916667
  7
Style-WORKING
 11
1.675608
 21
-6.366082
 31
0.0
100
AcDbText
 73
     2
  0
TEXT
  5
1320
330
131E
100
AcDbEntity
  8
Level 55
  6
Continuous
 62
     7
370
     0
100
AcDbText
 10
1.744465
 20
-6.441082
 30
0.0
 40
0.03
  1
1.91
 41
0.916667
  7
Style-WORKING
 11
1.744465
 21
-6.426082
 31
0.0
100
AcDbText
 73
     2
  0
LINE
  5
1321
330
131E
100
AcDbEntity
  8
Level 55
  6
Continuous
 62
     7
370
     0
100
AcDbLine
 10
1.675608
 20
-6.396082
 30
0.0
 11
1.875443
 21
-6.396082
 31
0.0
  0
LINE
  5
1322
330
131E
100
AcDbEntity
  8
Level 55
  6
Continuous
 62
     7
370
     0
100
AcDbLine
 10
2.117476
 20
-6.396082
 30
0.0
 11
2.048726
 21
-6.396082
 31
0.0
  0
LINE
  5
1323
330
131E
100
AcDbEntity
  8
Level 55
  6
Continuous
 62
     7
370
     0
100
AcDbLine
 10
1.884443
 20
-6.396082
 30
0.0
 11
1.973726
 21
-6.396082
 31
0.0
  0
SOLID
  5
1324
330
131E
100
AcDbEntity
  8
Level 55
  6
Continuous
 62
     7
370
     0
100
AcDbTrace
 10
2.093726
 20
-6.403582
 30
0.0
 11
2.048726
 21
-6.396082
 31
0.0
 12
2.093726
 22
-6.388582
 32
0.0
 13
2.093726
 23
-6.388582
 33
0.0
  0
SOLID
  5
1325
330
131E
100
AcDbEntity
  8
Level 55
  6
Continuous
 62
     7
370
     0
100
AcDbTrace
 10
-1.928726
 20
-6.388582
 30
0.0
 11
-1.973726
 21
-6.396082
 31
0.0
 12
-1.928726
 22
-6.403582
 32
0.0
 13
-1.928726
 23
-6.403582
 33
0.0
210
0.0
220
0.0
230
-1.0
  0
LINE
  5
1326
330
131E
100
AcDbEntity
  8
Level 55
  6
Continuous
 62
     7
370
     0
100
AcDbLine
 10
2.048726
 20
-6.069642
 30
0.0
 11
2.048726
 21
-6.411082
 31
0.0
  0
LINE
  5
1327
330
131E
100
AcDbEntity
  8
Level 55
  6
Continuous
 62
     7
370
     0
100
AcDbLine
 10
1.973726
 20
-6.219642
 30
0.0
 11
1.973726
 21
-6.411082
 31
0.0
  0
POINT
  5
132A
330
131E
100
AcDbEntity
  8
Defpoints
  6
Continuous
 62
     7
370
     0
100
AcDbPoint
 10
1.973726
 20
-6.396082
 30
0.0
  0
POINT
  5
132B
330
131E
100
AcDbEntity
  8
Defpoints
  6
Continuous
 62
     7
370
     0
100
AcDbPoint
 10
2.048726
 20
-6.051642
 30
0.0
  0
POINT
  5
132C
330
131E
100
AcDbEntity
  8
Defpoints
  6
Continuous
 62
     7
370
     0
100
AcDbPoint
 10
1.973726
 20
-6.201642
 30
0.0
  0
POINT
  5
132D
330
131E
100
AcDbEntity
  8
Defpoints
  6
Continuous
 62
     7
370
     0
100
AcDbPoint
 10
1.775525
 20
-6.396082
 30
0.0
  0
ENDBLK
  5
1329
330
131E
100
AcDbEntity
  8
0
 62
     7
370
     0
100
AcDbBlockEnd
  0
BLOCK
  5
132F
330
132E
100
AcDbEntity
  8
0
 62
     7
370
     0
100
AcDbBlockBegin
  2
*D13
 70
     1
 10
0.0
 20
0.0
 30
0.0
  3
*D13
  1

  0
LINE
  5
16E0
330
132E
100
AcDbEntity
  8
Level 55
  6
Continuous
 62
     0
370
    -2
100
AcDbLine
 10
2.048726
 20
-6.069642
 30
0.0
 11
2.048726
 21
-6.411082
 31
0.0
  0
LINE
  5
16E1
330
132E
100
AcDbEntity
  8
Level 55
  6
Continuous
 62
     0
370
    -2
100
AcDbLine
 10
1.973726
 20
-6.219642
 30
0.0
 11
1.973726
 21
-6.411082
 31
0.0
  0
LINE
  5
16E2
330
132E
100
AcDbEntity
  8
Level 55
  6
Continuous
 62
     0
370
    -2
100
AcDbLine
 10
2.093726
 20
-6.396082
 30
0.0
 11
2.138726
 21
-6.396082
 31
0.0
  0
LINE
  5
16E3
330
132E
100
AcDbEntity
  8
Level 55
  6
Continuous
 62
     0
370
    -2
100
AcDbLine
 10
1.928726
 20
-6.396082
 30
0.0
 11
1.883726
 21
-6.396082
 31
0.0
  0
SOLID
  5
16E4
330
132E
100
AcDbEntity
  8
Level 55
  6
Continuous
 62
     0
370
     0
100
AcDbTrace
 10
2.093726
 20
-6.388582
 30
0.0
 11
2.093726
 21
-6.403582
 31
0.0
 12
2.048726
 22
-6.396082
 32
0.0
 13
2.048726
 23
-6.396082
 33
0.0
  0
SOLID
  5
16E5
330
132E
100
AcDbEntity
  8
Level 55
  6
Continuous
 62
     0
370
     0
100
AcDbTrace
 10
1.928726
 20
-6.388582
 30
0.0
 11
1.928726
 21
-6.403582
 31
0.0
 12
1.973726
 22
-6.396082
 32
0.0
 13
1.973726
 23
-6.396082
 33
0.0
  0
MTEXT
  5
16E6
330
132E
100
AcDbEntity
  8
Level 55
  6
Continuous
 62
     0
370
     0
100
AcDbMText
 10
1.75545
 20
-6.396082
 30
0.0
 40
0.03
 41
0.0
 46
0.0
 71
     5
 72
     1
  1
\H1x;\W0.916667;.075\P [1.91] TYP\H1x;\W0.916667;
  7
Style-WORKING
 73
     1
 44
1.0
  0
POINT
  5
16E7
330
132E
100
AcDbEntity
  8
Defpoints
  6
Continuous
 62
     0
370
     0
100
AcDbPoint
 10
2.048726
 20
-6.051642
 30
0.0
  0
POINT
  5
16E8
330
132E
100
AcDbEntity
  8
Defpoints
  6
Continuous
 62
     0
370
     0
100
AcDbPoint
 10
1.973726
 20
-6.201642
 30
0.0
  0
POINT
  5
16E9
330
132E
100
AcDbEntity
  8
Defpoints
  6
Continuous
 62
     0
370
     0
100
AcDbPoint
 10
1.973726
 20
-6.396082
 30
0.0
  0
ENDBLK
  5
1330
330
132E
100
AcDbEntity
  8
0
 62
     7
370
     0
100
AcDbBlockEnd
  0
BLOCK
  5
144A
330
1440
100
AcDbEntity
  8
0
 62
     7
370
     0
100
AcDbBlockBegin
  2
*D14
 70
     1
 10
0.0
 20
0.0
 30
0.0
  3
*D14
  1

  0
LINE
  5
1884
330
1440
100
AcDbEntity
  8
Level 55
  6
Continuous
 62
     0
370
    -2
100
AcDbLine
 10
2.405266
 20
-6.014143
 30
0.0
 11
2.453596
 21
-6.014143
 31
0.0
  0
LINE
  5
1885
330
1440
100
AcDbEntity
  8
Level 55
  6
Continuous
 62
     0
370
    -2
100
AcDbLine
 10
2.029226
 20
-5.976642
 30
0.0
 11
2.453596
 21
-5.976642
 31
0.0
  0
LINE
  5
1886
330
1440
100
AcDbEntity
  8
Level 55
  6
Continuous
 62
     0
370
    -2
100
AcDbLine
 10
2.438596
 20
-6.059143
 30
0.0
 11
2.438596
 21
-6.104143
 31
0.0
  0
LINE
  5
1887
330
1440
100
AcDbEntity
  8
Level 55
  6
Continuous
 62
     0
370
    -2
100
AcDbLine
 10
2.438596
 20
-5.931642
 30
0.0
 11
2.438596
 21
-5.817725
 31
0.0
  0
LINE
  5
1888
330
1440
100
AcDbEntity
  8
Level 55
  6
Continuous
 62
     0
370
    -2
100
AcDbLine
 10
2.438596
 20
-5.817725
 30
0.0
 11
2.483596
 21
-5.817725
 31
0.0
  0
SOLID
  5
1889
330
1440
100
AcDbEntity
  8
Level 55
  6
Continuous
 62
     0
370
     0
100
AcDbTrace
 10
2.431096
 20
-6.059143
 30
0.0
 11
2.446096
 21
-6.059143
 31
0.0
 12
2.438596
 22
-6.014143
 32
0.0
 13
2.438596
 23
-6.014143
 33
0.0
  0
SOLID
  5
188A
330
1440
100
AcDbEntity
  8
Level 55
  6
Continuous
 62
     0
370
     0
100
AcDbTrace
 10
2.431096
 20
-5.931642
 30
0.0
 11
2.446096
 21
-5.931642
 31
0.0
 12
2.438596
 22
-5.976642
 32
0.0
 13
2.438596
 23
-5.976642
 33
0.0
  0
MTEXT
  5
188B
330
1440
100
AcDbEntity
  8
Level 55
  6
Continuous
 62
     0
370
     0
100
AcDbMText
 10
2.553925
 20
-5.817725
 30
0.0
 40
0.03
 41
0.0
 46
0.0
 71
     5
 72
     1
  1
\H1x;\W0.916667;.038\P [.95]\H1x;\W0.916667;
  7
Style-WORKING
 73
     1
 44
1.0
  0
POINT
  5
188C
330
1440
100
AcDbEntity
  8
Defpoints
  6
Continuous
 62
     0
370
     0
100
AcDbPoint
 10
2.387266
 20
-6.014143
 30
0.0
  0
POINT
  5
188D
330
1440
100
AcDbEntity
  8
Defpoints
  6
Continuous
 62
     0
370
     0
100
AcDbPoint
 10
2.011226
 20
-5.976642
 30
0.0
  0
POINT
  5
188E
330
1440
100
AcDbEntity
  8
Defpoints
  6
Continuous
 62
     0
370
     0
100
AcDbPoint
 10
2.438596
 20
-5.976642
 30
0.0
  0
ENDBLK
  5
144B
330
1440
100
AcDbEntity
  8
0
 62
     7
370
     0
100
AcDbBlockEnd
  0
BLOCK
  5
1465
330
145B
100
AcDbEntity
  8
0
 62
     7
370
     0
100
AcDbBlockBegin
  2
*D15
 70
     1
 10
0.0
 20
0.0
 30
0.0
  3
*D15
  1

  0
LINE
  5
188F
330
145B
100
AcDbEntity
  8
Level 55
  6
Continuous
 62
     0
370
    -2
100
AcDbLine
 10
2.029226
 20
-5.976642
 30
0.0
 11
2.85727
 21
-5.976642
 31
0.0
  0
LINE
  5
1890
330
145B
100
AcDbEntity
  8
Level 55
  6
Continuous
 62
     0
370
    -2
100
AcDbLine
 10
2.066726
 20
-6.051642
 30
0.0
 11
2.85727
 21
-6.051642
 31
0.0
  0
LINE
  5
1891
330
145B
100
AcDbEntity
  8
Level 55
  6
Continuous
 62
     0
370
    -2
100
AcDbLine
 10
2.84227
 20
-5.931642
 30
0.0
 11
2.84227
 21
-5.886642
 31
0.0
  0
LINE
  5
1892
330
145B
100
AcDbEntity
  8
Level 55
  6
Continuous
 62
     0
370
    -2
100
AcDbLine
 10
2.84227
 20
-6.096642
 30
0.0
 11
2.84227
 21
-6.244373
 31
0.0
  0
LINE
  5
1893
330
145B
100
AcDbEntity
  8
Level 55
  6
Continuous
 62
     0
370
    -2
100
AcDbLine
 10
2.84227
 20
-6.244373
 30
0.0
 11
2.79727
 21
-6.244373
 31
0.0
  0
SOLID
  5
1894
330
145B
100
AcDbEntity
  8
Level 55
  6
Continuous
 62
     0
370
     0
100
AcDbTrace
 10
2.83477
 20
-5.931642
 30
0.0
 11
2.84977
 21
-5.931642
 31
0.0
 12
2.84227
 22
-5.976642
 32
0.0
 13
2.84227
 23
-5.976642
 33
0.0
  0
SOLID
  5
1895
330
145B
100
AcDbEntity
  8
Level 55
  6
Continuous
 62
     0
370
     0
100
AcDbTrace
 10
2.83477
 20
-6.096642
 30
0.0
 11
2.84977
 21
-6.096642
 31
0.0
 12
2.84227
 22
-6.051642
 32
0.0
 13
2.84227
 23
-6.051642
 33
0.0
  0
MTEXT
  5
1896
330
145B
100
AcDbEntity
  8
Level 55
  6
Continuous
 62
     0
370
     0
100
AcDbMText
 10
2.668994
 20
-6.244373
 30
0.0
 40
0.03
 41
0.0
 46
0.0
 71
     5
 72
     1
  1
\H1x;\W0.916667;.075\P [1.91] TYP\H1x;\W0.916667;
  7
Style-WORKING
 73
     1
 44
1.0
  0
POINT
  5
1897
330
145B
100
AcDbEntity
  8
Defpoints
  6
Continuous
 62
     0
370
     0
100
AcDbPoint
 10
2.011226
 20
-5.976642
 30
0.0
  0
POINT
  5
1898
330
145B
100
AcDbEntity
  8
Defpoints
  6
Continuous
 62
     0
370
     0
100
AcDbPoint
 10
2.048726
 20
-6.051642
 30
0.0
  0
POINT
  5
1899
330
145B
100
AcDbEntity
  8
Defpoints
  6
Continuous
 62
     0
370
     0
100
AcDbPoint
 10
2.84227
 20
-6.051642
 30
0.0
  0
ENDBLK
  5
1466
330
145B
100
AcDbEntity
  8
0
 62
     7
370
     0
100
AcDbBlockEnd
  0
BLOCK
  5
170A
330
1700
100
AcDbEntity
  8
0
 62
     7
370
     0
100
AcDbBlockBegin
  2
*D16
 70
     1
 10
0.0
 20
0.0
 30
0.0
  3
*D16
  1

  0
LINE
  5
189A
330
1700
100
AcDbEntity
  8
Level 55
  6
Continuous
 62
     0
370
    -2
100
AcDbLine
 10
2.048726
 20
-6.069642
 30
0.0
 11
2.048726
 21
-6.347469
 31
0.0
  0
LINE
  5
189B
330
1700
100
AcDbEntity
  8
Level 55
  6
Continuous
 62
     0
370
    -2
100
AcDbLine
 10
2.011226
 20
-6.144642
 30
0.0
 11
2.011226
 21
-6.347469
 31
0.0
  0
LINE
  5
189C
330
1700
100
AcDbEntity
  8
Level 55
  6
Continuous
 62
     0
370
    -2
100
AcDbLine
 10
2.093726
 20
-6.332469
 30
0.0
 11
2.138726
 21
-6.332469
 31
0.0
  0
LINE
  5
189D
330
1700
100
AcDbEntity
  8
Level 55
  6
Continuous
 62
     0
370
    -2
100
AcDbLine
 10
1.966226
 20
-6.332469
 30
0.0
 11
1.880275
 21
-6.332469
 31
0.0
  0
SOLID
  5
189E
330
1700
100
AcDbEntity
  8
Level 55
  6
Continuous
 62
     0
370
     0
100
AcDbTrace
 10
2.093726
 20
-6.324969
 30
0.0
 11
2.093726
 21
-6.339969
 31
0.0
 12
2.048726
 22
-6.332469
 32
0.0
 13
2.048726
 23
-6.332469
 33
0.0
  0
SOLID
  5
189F
330
1700
100
AcDbEntity
  8
Level 55
  6
Continuous
 62
     0
370
     0
100
AcDbTrace
 10
1.966226
 20
-6.324969
 30
0.0
 11
1.966226
 21
-6.339969
 31
0.0
 12
2.011226
 22
-6.332469
 32
0.0
 13
2.011226
 23
-6.332469
 33
0.0
  0
MTEXT
  5
18A0
330
1700
100
AcDbEntity
  8
Level 55
  6
Continuous
 62
     0
370
     0
100
AcDbMText
 10
1.809946
 20
-6.332469
 30
0.0
 40
0.03
 41
0.0
 46
0.0
 71
     5
 72
     1
  1
\H1x;\W0.916667;.038\P [.95]\H1x;\W0.916667;
  7
Style-WORKING
 73
     1
 44
1.0
  0
POINT
  5
18A1
330
1700
100
AcDbEntity
  8
Defpoints
  6
Continuous
 62
     0
370
     0
100
AcDbPoint
 10
2.048726
 20
-6.051642
 30
0.0
  0
POINT
  5
18A2
330
1700
100
AcDbEntity
  8
Defpoints
  6
Continuous
 62
     0
370
     0
100
AcDbPoint
 10
2.011226
 20
-6.126642
 30
0.0
  0
POINT
  5
18A3
330
1700
100
AcDbEntity
  8
Defpoints
  6
Continuous
 62
     0
370
     0
100
AcDbPoint
 10
2.011226
 20
-6.332469
 30
0.0
  0
ENDBLK
  5
170B
330
1700
100
AcDbEntity
  8
0
 62
     7
370
     0
100
AcDbBlockEnd
  0
BLOCK
  5
1724
330
171A
100
AcDbEntity
  8
0
 62
     7
370
     0
100
AcDbBlockBegin
  2
*D17
 70
     1
 10
0.0
 20
0.0
 30
0.0
  3
*D17
  1

  0
LINE
  5
18A4
330
171A
100
AcDbEntity
  8
Level 55
  6
Continuous
 62
     0
370
    -2
100
AcDbLine
 10
2.048726
 20
-6.069642
 30
0.0
 11
2.048726
 21
-6.430854
 31
0.0
  0
LINE
  5
18A5
330
171A
100
AcDbEntity
  8
Level 55
  6
Continuous
 62
     0
370
    -2
100
AcDbLine
 10
1.973726
 20
-6.219642
 30
0.0
 11
1.973726
 21
-6.430854
 31
0.0
  0
LINE
  5
18A6
330
171A
100
AcDbEntity
  8
Level 55
  6
Continuous
 62
     0
370
    -2
100
AcDbLine
 10
1.928726
 20
-6.415854
 30
0.0
 11
1.883726
 21
-6.415854
 31
0.0
  0
LINE
  5
18A7
330
171A
100
AcDbEntity
  8
Level 55
  6
Continuous
 62
     0
370
    -2
100
AcDbLine
 10
2.093726
 20
-6.415854
 30
0.0
 11
2.138726
 21
-6.415854
 31
0.0
  0
SOLID
  5
18A8
330
171A
100
AcDbEntity
  8
Level 55
  6
Continuous
 62
     0
370
     0
100
AcDbTrace
 10
1.928726
 20
-6.408354
 30
0.0
 11
1.928726
 21
-6.423354
 31
0.0
 12
1.973726
 22
-6.415854
 32
0.0
 13
1.973726
 23
-6.415854
 33
0.0
  0
SOLID
  5
18A9
330
171A
100
AcDbEntity
  8
Level 55
  6
Continuous
 62
     0
370
     0
100
AcDbTrace
 10
2.093726
 20
-6.408354
 30
0.0
 11
2.093726
 21
-6.423354
 31
0.0
 12
2.048726
 22
-6.415854
 32
0.0
 13
2.048726
 23
-6.415854
 33
0.0
  0
MTEXT
  5
18AA
330
171A
100
AcDbEntity
  8
Level 55
  6
Continuous
 62
     0
370
     0
100
AcDbMText
 10
2.267002
 20
-6.415854
 30
0.0
 40
0.03
 41
0.0
 46
0.0
 71
     5
 72
     1
  1
\H1x;\W0.916667;.075\P [1.91] TYP\H1x;\W0.916667;
  7
Style-WORKING
 73
     1
 44
1.0
  0
POINT
  5
18AB
330
171A
100
AcDbEntity
  8
Defpoints
  6
Continuous
 62
     0
370
     0
100
AcDbPoint
 10
2.048726
 20
-6.051642
 30
0.0
  0
POINT
  5
18AC
330
171A
100
AcDbEntity
  8
Defpoints
  6
Continuous
 62
     0
370
     0
100
AcDbPoint
 10
1.973726
 20
-6.201642
 30
0.0
  0
POINT
  5
18AD
330
171A
100
AcDbEntity
  8
Defpoints
  6
Continuous
 62
     0
370
     0
100
AcDbPoint
 10
1.973726
 20
-6.415854
 30
0.0
  0
ENDBLK
  5
1725
330
171A
100
AcDbEntity
  8
0
 62
     7
370
     0
100
AcDbBlockEnd
  0
ENDSEC
  0
SECTION
  2
ENTITIES
  0
LINE
  5
F9C
330
1191
100
AcDbEntity
  8
Level 1
  6
DGN Style 4
 62
     7
370
     0
100
AcDbLine
 10
2.328726
 20
-5.954366
 30
0.0
 11
2.328726
 21
-6.075324
 31
0.0
  0
CIRCLE
  5
F9D
330
1191
100
AcDbEntity
  8
Level 1
  6
Continuous
 62
     7
370
     0
100
AcDbCircle
 10
-2.328727
 20
-6.014142
 30
0.0
 40
0.04649999256
210
0.0
220
0.0
230
-1.0
  0
LINE
  5
F9E
330
1191
100
AcDbEntity
  8
Level 1
  6
DGN Style 4
 62
     7
370
     0
100
AcDbLine
 10
2.387266
 20
-6.014143
 30
0.0
 11
2.265385
 21
-6.014143
 31
0.0
  0
LINE
  5
F9F
330
1191
100
AcDbEntity
  8
Level 1
  6
DGN Style 4
 62
     7
370
     0
100
AcDbLine
 10
0.528726
 20
-5.954366
 30
0.0
 11
0.528726
 21
-6.075324
 31
0.0
  0
CIRCLE
  5
FA0
330
1191
100
AcDbEntity
  8
Level 1
  6
Continuous
 62
     7
370
     0
100
AcDbCircle
 10
-0.528727
 20
-6.014142
 30
0.0
 40
0.04649999256
210
0.0
220
0.0
230
-1.0
  0
LINE
  5
FA1
330
1191
100
AcDbEntity
  8
Level 1
  6
DGN Style 4
 62
     7
370
     0
100
AcDbLine
 10
0.587266
 20
-6.014143
 30
0.0
 11
0.465385
 21
-6.014143
 31
0.0
  0
CIRCLE
  5
FA2
330
1191
100
AcDbEntity
  8
Level 1
  6
Continuous
 62
     7
370
     0
100
AcDbCircle
 10
-0.848726
 20
-6.201642
 30
0.0
 40
0.0099999952
210
0.0
220
0.0
230
-1.0
  0
CIRCLE
  5
FA3
330
1191
100
AcDbEntity
  8
Level 1
  6
Continuous
 62
     7
370
     0
100
AcDbCircle
 10
-0.886226
 20
-6.126642
 30
0.0
 40
0.0099999952
210
0.0
220
0.0
230
-1.0
  0
CIRCLE
  5
FA4
330
1191
100
AcDbEntity
  8
Level 1
  6
Continuous
 62
     7
370
     0
100
AcDbCircle
 10
-0.848726
 20
-6.051642
 30
0.0
 40
0.0099999952
210
0.0
220
0.0
230
-1.0
  0
CIRCLE
  5
FA5
330
1191
100
AcDbEntity
  8
Level 1
  6
Continuous
 62
     7
370
     0
100
AcDbCircle
 10
-0.811226
 20
-5.976642
 30
0.0
 40
0.0099999952
210
0.0
220
0.0
230
-1.0
  0
CIRCLE
  5
FA6
330
1191
100
AcDbEntity
  8
Level 1
  6
Continuous
 62
     7
370
     0
100
AcDbCircle
 10
-0.848726
 20
-5.901642
 30
0.0
 40
0.0099999952
210
0.0
220
0.0
230
-1.0
  0
CIRCLE
  5
FA7
330
1191
100
AcDbEntity
  8
Level 1
  6
Continuous
 62
     7
370
     0
100
AcDbCircle
 10
-0.811226
 20
-5.826642
 30
0.0
 40
0.0099999952
210
0.0
220
0.0
230
-1.0
  0
CIRCLE
  5
10E4
330
1191
100
AcDbEntity
  8
Level 1
  6
Continuous
 62
     7
370
     0
100
AcDbCircle
 10
-0.923726
 20
-6.201642
 30
0.0
 40
0.0099999952
210
0.0
220
0.0
230
-1.0
  0
CIRCLE
  5
10E5
330
1191
100
AcDbEntity
  8
Level 1
  6
Continuous
 62
     7
370
     0
100
AcDbCircle
 10
-0.961226
 20
-6.126642
 30
0.0
 40
0.0099999952
210
0.0
220
0.0
230
-1.0
  0
CIRCLE
  5
10E6
330
1191
100
AcDbEntity
  8
Level 1
  6
Continuous
 62
     7
370
     0
100
AcDbCircle
 10
-0.923726
 20
-6.051642
 30
0.0
 40
0.0099999952
210
0.0
220
0.0
230
-1.0
  0
CIRCLE
  5
10E7
330
1191
100
AcDbEntity
  8
Level 1
  6
Continuous
 62
     7
370
     0
100
AcDbCircle
 10
-0.886226
 20
-5.976642
 30
0.0
 40
0.0099999952
210
0.0
220
0.0
230
-1.0
  0
CIRCLE
  5
10E8
330
1191
100
AcDbEntity
  8
Level 1
  6
Continuous
 62
     7
370
     0
100
AcDbCircle
 10
-0.923726
 20
-5.901642
 30
0.0
 40
0.0099999952
210
0.0
220
0.0
230
-1.0
  0
CIRCLE
  5
10E9
330
1191
100
AcDbEntity
  8
Level 1
  6
Continuous
 62
     7
370
     0
100
AcDbCircle
 10
-0.886226
 20
-5.826642
 30
0.0
 40
0.0099999952
210
0.0
220
0.0
230
-1.0
  0
CIRCLE
  5
10EA
330
1191
100
AcDbEntity
  8
Level 1
  6
Continuous
 62
     7
370
     0
100
AcDbCircle
 10
-0.998726
 20
-6.201642
 30
0.0
 40
0.0099999952
210
0.0
220
0.0
230
-1.0
  0
CIRCLE
  5
10EB
330
1191
100
AcDbEntity
  8
Level 1
  6
Continuous
 62
     7
370
     0
100
AcDbCircle
 10
-1.036226
 20
-6.126642
 30
0.0
 40
0.0099999952
210
0.0
220
0.0
230
-1.0
  0
CIRCLE
  5
10EC
330
1191
100
AcDbEntity
  8
Level 1
  6
Continuous
 62
     7
370
     0
100
AcDbCircle
 10
-0.998726
 20
-6.051642
 30
0.0
 40
0.0099999952
210
0.0
220
0.0
230
-1.0
  0
CIRCLE
  5
10ED
330
1191
100
AcDbEntity
  8
Level 1
  6
Continuous
 62
     7
370
     0
100
AcDbCircle
 10
-0.961226
 20
-5.976642
 30
0.0
 40
0.0099999952
210
0.0
220
0.0
230
-1.0
  0
CIRCLE
  5
10EE
330
1191
100
AcDbEntity
  8
Level 1
  6
Continuous
 62
     7
370
     0
100
AcDbCircle
 10
-0.998726
 20
-5.901642
 30
0.0
 40
0.0099999952
210
0.0
220
0.0
230
-1.0
  0
CIRCLE
  5
10EF
330
1191
100
AcDbEntity
  8
Level 1
  6
Continuous
 62
     7
370
     0
100
AcDbCircle
 10
-0.961226
 20
-5.826642
 30
0.0
 40
0.0099999952
210
0.0
220
0.0
230
-1.0
  0
CIRCLE
  5
10F0
330
1191
100
AcDbEntity
  8
Level 1
  6
Continuous
 62
     7
370
     0
100
AcDbCircle
 10
-1.073726
 20
-6.201642
 30
0.0
 40
0.0099999952
210
0.0
220
0.0
230
-1.0
  0
CIRCLE
  5
10F1
330
1191
100
AcDbEntity
  8
Level 1
  6
Continuous
 62
     7
370
     0
100
AcDbCircle
 10
-1.111226
 20
-6.126642
 30
0.0
 40
0.0099999952
210
0.0
220
0.0
230
-1.0
  0
CIRCLE
  5
10F2
330
1191
100
AcDbEntity
  8
Level 1
  6
Continuous
 62
     7
370
     0
100
AcDbCircle
 10
-1.073726
 20
-6.051642
 30
0.0
 40
0.0099999952
210
0.0
220
0.0
230
-1.0
  0
CIRCLE
  5
10F3
330
1191
100
AcDbEntity
  8
Level 1
  6
Continuous
 62
     7
370
     0
100
AcDbCircle
 10
-1.036226
 20
-5.976642
 30
0.0
 40
0.0099999952
210
0.0
220
0.0
230
-1.0
  0
CIRCLE
  5
10F4
330
1191
100
AcDbEntity
  8
Level 1
  6
Continuous
 62
     7
370
     0
100
AcDbCircle
 10
-1.073726
 20
-5.901642
 30
0.0
 40
0.0099999952
210
0.0
220
0.0
230
-1.0
  0
CIRCLE
  5
10F5
330
1191
100
AcDbEntity
  8
Level 1
  6
Continuous
 62
     7
370
     0
100
AcDbCircle
 10
-1.036226
 20
-5.826642
 30
0.0
 40
0.0099999952
210
0.0
220
0.0
230
-1.0
  0
CIRCLE
  5
10F6
330
1191
100
AcDbEntity
  8
Level 1
  6
Continuous
 62
     7
370
     0
100
AcDbCircle
 10
-1.148726
 20
-6.201642
 30
0.0
 40
0.0099999952
210
0.0
220
0.0
230
-1.0
  0
CIRCLE
  5
10F7
330
1191
100
AcDbEntity
  8
Level 1
  6
Continuous
 62
     7
370
     0
100
AcDbCircle
 10
-1.186226
 20
-6.126642
 30
0.0
 40
0.0099999952
210
0.0
220
0.0
230
-1.0
  0
CIRCLE
  5
10F8
330
1191
100
AcDbEntity
  8
Level 1
  6
Continuous
 62
     7
370
     0
100
AcDbCircle
 10
-1.148726
 20
-6.051642
 30
0.0
 40
0.0099999952
210
0.0
220
0.0
230
-1.0
  0
CIRCLE
  5
10F9
330
1191
100
AcDbEntity
  8
Level 1
  6
Continuous
 62
     7
370
     0
100
AcDbCircle
 10
-1.111226
 20
-5.976642
 30
0.0
 40
0.0099999952
210
0.0
220
0.0
230
-1.0
  0
CIRCLE
  5
10FA
330
1191
100
AcDbEntity
  8
Level 1
  6
Continuous
 62
     7
370
     0
100
AcDbCircle
 10
-1.148726
 20
-5.901642
 30
0.0
 40
0.0099999952
210
0.0
220
0.0
230
-1.0
  0
CIRCLE
  5
10FB
330
1191
100
AcDbEntity
  8
Level 1
  6
Continuous
 62
     7
370
     0
100
AcDbCircle
 10
-1.111226
 20
-5.826642
 30
0.0
 40
0.0099999952
210
0.0
220
0.0
230
-1.0
  0
CIRCLE
  5
10FC
330
1191
100
AcDbEntity
  8
Level 1
  6
Continuous
 62
     7
370
     0
100
AcDbCircle
 10
-1.223726
 20
-6.201642
 30
0.0
 40
0.0099999952
210
0.0
220
0.0
230
-1.0
  0
CIRCLE
  5
10FD
330
1191
100
AcDbEntity
  8
Level 1
  6
Continuous
 62
     7
370
     0
100
AcDbCircle
 10
-1.261226
 20
-6.126642
 30
0.0
 40
0.0099999952
210
0.0
220
0.0
230
-1.0
  0
CIRCLE
  5
10FE
330
1191
100
AcDbEntity
  8
Level 1
  6
Continuous
 62
     7
370
     0
100
AcDbCircle
 10
-1.223726
 20
-6.051642
 30
0.0
 40
0.0099999952
210
0.0
220
0.0
230
-1.0
  0
CIRCLE
  5
10FF
330
1191
100
AcDbEntity
  8
Level 1
  6
Continuous
 62
     7
370
     0
100
AcDbCircle
 10
-1.186226
 20
-5.976642
 30
0.0
 40
0.0099999952
210
0.0
220
0.0
230
-1.0
  0
CIRCLE
  5
1100
330
1191
100
AcDbEntity
  8
Level 1
  6
Continuous
 62
     7
370
     0
100
AcDbCircle
 10
-1.223726
 20
-5.901642
 30
0.0
 40
0.0099999952
210
0.0
220
0.0
230
-1.0
  0
CIRCLE
  5
1101
330
1191
100
AcDbEntity
  8
Level 1
  6
Continuous
 62
     7
370
     0
100
AcDbCircle
 10
-1.186226
 20
-5.826642
 30
0.0
 40
0.0099999952
210
0.0
220
0.0
230
-1.0
  0
CIRCLE
  5
1102
330
1191
100
AcDbEntity
  8
Level 1
  6
Continuous
 62
     7
370
     0
100
AcDbCircle
 10
-1.298726
 20
-6.201642
 30
0.0
 40
0.0099999952
210
0.0
220
0.0
230
-1.0
  0
CIRCLE
  5
1103
330
1191
100
AcDbEntity
  8
Level 1
  6
Continuous
 62
     7
370
     0
100
AcDbCircle
 10
-1.336226
 20
-6.126642
 30
0.0
 40
0.0099999952
210
0.0
220
0.0
230
-1.0
  0
CIRCLE
  5
1104
330
1191
100
AcDbEntity
  8
Level 1
  6
Continuous
 62
     7
370
     0
100
AcDbCircle
 10
-1.298726
 20
-6.051642
 30
0.0
 40
0.0099999952
210
0.0
220
0.0
230
-1.0
  0
CIRCLE
  5
1105
330
1191
100
AcDbEntity
  8
Level 1
  6
Continuous
 62
     7
370
     0
100
AcDbCircle
 10
-1.261226
 20
-5.976642
 30
0.0
 40
0.0099999952
210
0.0
220
0.0
230
-1.0
  0
CIRCLE
  5
1106
330
1191
100
AcDbEntity
  8
Level 1
  6
Continuous
 62
     7
370
     0
100
AcDbCircle
 10
-1.298726
 20
-5.901642
 30
0.0
 40
0.0099999952
210
0.0
220
0.0
230
-1.0
  0
CIRCLE
  5
1107
330
1191
100
AcDbEntity
  8
Level 1
  6
Continuous
 62
     7
370
     0
100
AcDbCircle
 10
-1.261226
 20
-5.826642
 30
0.0
 40
0.0099999952
210
0.0
220
0.0
230
-1.0
  0
CIRCLE
  5
1108
330
1191
100
AcDbEntity
  8
Level 1
  6
Continuous
 62
     7
370
     0
100
AcDbCircle
 10
-1.373726
 20
-6.201642
 30
0.0
 40
0.0099999952
210
0.0
220
0.0
230
-1.0
  0
CIRCLE
  5
1109
330
1191
100
AcDbEntity
  8
Level 1
  6
Continuous
 62
     7
370
     0
100
AcDbCircle
 10
-1.411226
 20
-6.126642
 30
0.0
 40
0.0099999952
210
0.0
220
0.0
230
-1.0
  0
CIRCLE
  5
110A
330
1191
100
AcDbEntity
  8
Level 1
  6
Continuous
 62
     7
370
     0
100
AcDbCircle
 10
-1.373726
 20
-6.051642
 30
0.0
 40
0.0099999952
210
0.0
220
0.0
230
-1.0
  0
CIRCLE
  5
110B
330
1191
100
AcDbEntity
  8
Level 1
  6
Continuous
 62
     7
370
     0
100
AcDbCircle
 10
-1.336226
 20
-5.976642
 30
0.0
 40
0.0099999952
210
0.0
220
0.0
230
-1.0
  0
CIRCLE
  5
110C
330
1191
100
AcDbEntity
  8
Level 1
  6
Continuous
 62
     7
370
     0
100
AcDbCircle
 10
-1.373726
 20
-5.901642
 30
0.0
 40
0.0099999952
210
0.0
220
0.0
230
-1.0
  0
CIRCLE
  5
110D
330
1191
100
AcDbEntity
  8
Level 1
  6
Continuous
 62
     7
370
     0
100
AcDbCircle
 10
-1.336226
 20
-5.826642
 30
0.0
 40
0.0099999952
210
0.0
220
0.0
230
-1.0
  0
CIRCLE
  5
110E
330
1191
100
AcDbEntity
  8
Level 1
  6
Continuous
 62
     7
370
     0
100
AcDbCircle
 10
-1.448726
 20
-6.201642
 30
0.0
 40
0.0099999952
210
0.0
220
0.0
230
-1.0
  0
CIRCLE
  5
110F
330
1191
100
AcDbEntity
  8
Level 1
  6
Continuous
 62
     7
370
     0
100
AcDbCircle
 10
-1.486226
 20
-6.126642
 30
0.0
 40
0.0099999952
210
0.0
220
0.0
230
-1.0
  0
CIRCLE
  5
1110
330
1191
100
AcDbEntity
  8
Level 1
  6
Continuous
 62
     7
370
     0
100
AcDbCircle
 10
-1.448726
 20
-6.051642
 30
0.0
 40
0.0099999952
210
0.0
220
0.0
230
-1.0
  0
CIRCLE
  5
1111
330
1191
100
AcDbEntity
  8
Level 1
  6
Continuous
 62
     7
370
     0
100
AcDbCircle
 10
-1.411226
 20
-5.976642
 30
0.0
 40
0.0099999952
210
0.0
220
0.0
230
-1.0
  0
CIRCLE
  5
1112
330
1191
100
AcDbEntity
  8
Level 1
  6
Continuous
 62
     7
370
     0
100
AcDbCircle
 10
-1.448726
 20
-5.901642
 30
0.0
 40
0.0099999952
210
0.0
220
0.0
230
-1.0
  0
CIRCLE
  5
1113
330
1191
100
AcDbEntity
  8
Level 1
  6
Continuous
 62
     7
370
     0
100
AcDbCircle
 10
-1.411226
 20
-5.826642
 30
0.0
 40
0.0099999952
210
0.0
220
0.0
230
-1.0
  0
CIRCLE
  5
1114
330
1191
100
AcDbEntity
  8
Level 1
  6
Continuous
 62
     7
370
     0
100
AcDbCircle
 10
-1.523726
 20
-6.201642
 30
0.0
 40
0.0099999952
210
0.0
220
0.0
230
-1.0
  0
CIRCLE
  5
1115
330
1191
100
AcDbEntity
  8
Level 1
  6
Continuous
 62
     7
370
     0
100
AcDbCircle
 10
-1.561226
 20
-6.126642
 30
0.0
 40
0.0099999952
210
0.0
220
0.0
230
-1.0
  0
CIRCLE
  5
1116
330
1191
100
AcDbEntity
  8
Level 1
  6
Continuous
 62
     7
370
     0
100
AcDbCircle
 10
-1.523726
 20
-6.051642
 30
0.0
 40
0.0099999952
210
0.0
220
0.0
230
-1.0
  0
CIRCLE
  5
1117
330
1191
100
AcDbEntity
  8
Level 1
  6
Continuous
 62
     7
370
     0
100
AcDbCircle
 10
-1.486226
 20
-5.976642
 30
0.0
 40
0.0099999952
210
0.0
220
0.0
230
-1.0
  0
CIRCLE
  5
1118
330
1191
100
AcDbEntity
  8
Level 1
  6
Continuous
 62
     7
370
     0
100
AcDbCircle
 10
-1.523726
 20
-5.901642
 30
0.0
 40
0.0099999952
210
0.0
220
0.0
230
-1.0
  0
CIRCLE
  5
1119
330
1191
100
AcDbEntity
  8
Level 1
  6
Continuous
 62
     7
370
     0
100
AcDbCircle
 10
-1.486226
 20
-5.826642
 30
0.0
 40
0.0099999952
210
0.0
220
0.0
230
-1.0
  0
CIRCLE
  5
111A
330
1191
100
AcDbEntity
  8
Level 1
  6
Continuous
 62
     7
370
     0
100
AcDbCircle
 10
-1.598726
 20
-6.201642
 30
0.0
 40
0.0099999952
210
0.0
220
0.0
230
-1.0
  0
CIRCLE
  5
111B
330
1191
100
AcDbEntity
  8
Level 1
  6
Continuous
 62
     7
370
     0
100
AcDbCircle
 10
-1.636226
 20
-6.126642
 30
0.0
 40
0.0099999952
210
0.0
220
0.0
230
-1.0
  0
CIRCLE
  5
111C
330
1191
100
AcDbEntity
  8
Level 1
  6
Continuous
 62
     7
370
     0
100
AcDbCircle
 10
-1.598726
 20
-6.051642
 30
0.0
 40
0.0099999952
210
0.0
220
0.0
230
-1.0
  0
CIRCLE
  5
111D
330
1191
100
AcDbEntity
  8
Level 1
  6
Continuous
 62
     7
370
     0
100
AcDbCircle
 10
-1.561226
 20
-5.976642
 30
0.0
 40
0.0099999952
210
0.0
220
0.0
230
-1.0
  0
CIRCLE
  5
111E
330
1191
100
AcDbEntity
  8
Level 1
  6
Continuous
 62
     7
370
     0
100
AcDbCircle
 10
-1.598726
 20
-5.901642
 30
0.0
 40
0.0099999952
210
0.0
220
0.0
230
-1.0
  0
CIRCLE
  5
111F
330
1191
100
AcDbEntity
  8
Level 1
  6
Continuous
 62
     7
370
     0
100
AcDbCircle
 10
-1.561226
 20
-5.826642
 30
0.0
 40
0.0099999952
210
0.0
220
0.0
230
-1.0
  0
CIRCLE
  5
1120
330
1191
100
AcDbEntity
  8
Level 1
  6
Continuous
 62
     7
370
     0
100
AcDbCircle
 10
-1.673726
 20
-6.201642
 30
0.0
 40
0.0099999952
210
0.0
220
0.0
230
-1.0
  0
CIRCLE
  5
1121
330
1191
100
AcDbEntity
  8
Level 1
  6
Continuous
 62
     7
370
     0
100
AcDbCircle
 10
-1.711226
 20
-6.126642
 30
0.0
 40
0.0099999952
210
0.0
220
0.0
230
-1.0
  0
CIRCLE
  5
1122
330
1191
100
AcDbEntity
  8
Level 1
  6
Continuous
 62
     7
370
     0
100
AcDbCircle
 10
-1.673726
 20
-6.051642
 30
0.0
 40
0.0099999952
210
0.0
220
0.0
230
-1.0
  0
CIRCLE
  5
1123
330
1191
100
AcDbEntity
  8
Level 1
  6
Continuous
 62
     7
370
     0
100
AcDbCircle
 10
-1.636226
 20
-5.976642
 30
0.0
 40
0.0099999952
210
0.0
220
0.0
230
-1.0
  0
CIRCLE
  5
1124
330
1191
100
AcDbEntity
  8
Level 1
  6
Continuous
 62
     7
370
     0
100
AcDbCircle
 10
-1.673726
 20
-5.901642
 30
0.0
 40
0.0099999952
210
0.0
220
0.0
230
-1.0
  0
CIRCLE
  5
1125
330
1191
100
AcDbEntity
  8
Level 1
  6
Continuous
 62
     7
370
     0
100
AcDbCircle
 10
-1.636226
 20
-5.826642
 30
0.0
 40
0.0099999952
210
0.0
220
0.0
230
-1.0
  0
CIRCLE
  5
1126
330
1191
100
AcDbEntity
  8
Level 1
  6
Continuous
 62
     7
370
     0
100
AcDbCircle
 10
-1.748726
 20
-6.201642
 30
0.0
 40
0.0099999952
210
0.0
220
0.0
230
-1.0
  0
CIRCLE
  5
1127
330
1191
100
AcDbEntity
  8
Level 1
  6
Continuous
 62
     7
370
     0
100
AcDbCircle
 10
-1.786226
 20
-6.126642
 30
0.0
 40
0.0099999952
210
0.0
220
0.0
230
-1.0
  0
CIRCLE
  5
1128
330
1191
100
AcDbEntity
  8
Level 1
  6
Continuous
 62
     7
370
     0
100
AcDbCircle
 10
-1.748726
 20
-6.051642
 30
0.0
 40
0.0099999952
210
0.0
220
0.0
230
-1.0
  0
CIRCLE
  5
1129
330
1191
100
AcDbEntity
  8
Level 1
  6
Continuous
 62
     7
370
     0
100
AcDbCircle
 10
-1.711226
 20
-5.976642
 30
0.0
 40
0.0099999952
210
0.0
220
0.0
230
-1.0
  0
CIRCLE
  5
112A
330
1191
100
AcDbEntity
  8
Level 1
  6
Continuous
 62
     7
370
     0
100
AcDbCircle
 10
-1.748726
 20
-5.901642
 30
0.0
 40
0.0099999952
210
0.0
220
0.0
230
-1.0
  0
CIRCLE
  5
112B
330
1191
100
AcDbEntity
  8
Level 1
  6
Continuous
 62
     7
370
     0
100
AcDbCircle
 10
-1.711226
 20
-5.826642
 30
0.0
 40
0.0099999952
210
0.0
220
0.0
230
-1.0
  0
CIRCLE
  5
112C
330
1191
100
AcDbEntity
  8
Level 1
  6
Continuous
 62
     7
370
     0
100
AcDbCircle
 10
-1.823726
 20
-6.201642
 30
0.0
 40
0.0099999952
210
0.0
220
0.0
230
-1.0
  0
CIRCLE
  5
112D
330
1191
100
AcDbEntity
  8
Level 1
  6
Continuous
 62
     7
370
     0
100
AcDbCircle
 10
-1.861226
 20
-6.126642
 30
0.0
 40
0.0099999952
210
0.0
220
0.0
230
-1.0
  0
CIRCLE
  5
112E
330
1191
100
AcDbEntity
  8
Level 1
  6
Continuous
 62
     7
370
     0
100
AcDbCircle
 10
-1.823726
 20
-6.051642
 30
0.0
 40
0.0099999952
210
0.0
220
0.0
230
-1.0
  0
CIRCLE
  5
112F
330
1191
100
AcDbEntity
  8
Level 1
  6
Continuous
 62
     7
370
     0
100
AcDbCircle
 10
-1.786226
 20
-5.976642
 30
0.0
 40
0.0099999952
210
0.0
220
0.0
230
-1.0
  0
CIRCLE
  5
1130
330
1191
100
AcDbEntity
  8
Level 1
  6
Continuous
 62
     7
370
     0
100
AcDbCircle
 10
-1.823726
 20
-5.901642
 30
0.0
 40
0.0099999952
210
0.0
220
0.0
230
-1.0
  0
CIRCLE
  5
1131
330
1191
100
AcDbEntity
  8
Level 1
  6
Continuous
 62
     7
370
     0
100
AcDbCircle
 10
-1.786226
 20
-5.826642
 30
0.0
 40
0.0099999952
210
0.0
220
0.0
230
-1.0
  0
CIRCLE
  5
1132
330
1191
100
AcDbEntity
  8
Level 1
  6
Continuous
 62
     7
370
     0
100
AcDbCircle
 10
-1.898726
 20
-6.201642
 30
0.0
 40
0.0099999952
210
0.0
220
0.0
230
-1.0
  0
CIRCLE
  5
1133
330
1191
100
AcDbEntity
  8
Level 1
  6
Continuous
 62
     7
370
     0
100
AcDbCircle
 10
-1.936226
 20
-6.126642
 30
0.0
 40
0.0099999952
210
0.0
220
0.0
230
-1.0
  0
CIRCLE
  5
1134
330
1191
100
AcDbEntity
  8
Level 1
  6
Continuous
 62
     7
370
     0
100
AcDbCircle
 10
-1.898726
 20
-6.051642
 30
0.0
 40
0.0099999952
210
0.0
220
0.0
230
-1.0
  0
CIRCLE
  5
1135
330
1191
100
AcDbEntity
  8
Level 1
  6
Continuous
 62
     7
370
     0
100
AcDbCircle
 10
-1.861226
 20
-5.976642
 30
0.0
 40
0.0099999952
210
0.0
220
0.0
230
-1.0
  0
CIRCLE
  5
1136
330
1191
100
AcDbEntity
  8
Level 1
  6
Continuous
 62
     7
370
     0
100
AcDbCircle
 10
-1.898726
 20
-5.901642
 30
0.0
 40
0.0099999952
210
0.0
220
0.0
230
-1.0
  0
CIRCLE
  5
1137
330
1191
100
AcDbEntity
  8
Level 1
  6
Continuous
 62
     7
370
     0
100
AcDbCircle
 10
-1.861226
 20
-5.826642
 30
0.0
 40
0.0099999952
210
0.0
220
0.0
230
-1.0
  0
CIRCLE
  5
1138
330
1191
100
AcDbEntity
  8
Level 1
  6
Continuous
 62
     7
370
     0
100
AcDbCircle
 10
-1.973726
 20
-6.201642
 30
0.0
 40
0.0099999952
210
0.0
220
0.0
230
-1.0
  0
CIRCLE
  5
1139
330
1191
100
AcDbEntity
  8
Level 1
  6
Continuous
 62
     7
370
     0
100
AcDbCircle
 10
-2.011226
 20
-6.126642
 30
0.0
 40
0.0099999952
210
0.0
220
0.0
230
-1.0
  0
CIRCLE
  5
113A
330
1191
100
AcDbEntity
  8
Level 1
  6
Continuous
 62
     7
370
     0
100
AcDbCircle
 10
-1.973726
 20
-6.051642
 30
0.0
 40
0.0099999952
210
0.0
220
0.0
230
-1.0
  0
CIRCLE
  5
113B
330
1191
100
AcDbEntity
  8
Level 1
  6
Continuous
 62
     7
370
     0
100
AcDbCircle
 10
-1.936226
 20
-5.976642
 30
0.0
 40
0.0099999952
210
0.0
220
0.0
230
-1.0
  0
CIRCLE
  5
113C
330
1191
100
AcDbEntity
  8
Level 1
  6
Continuous
 62
     7
370
     0
100
AcDbCircle
 10
-1.973726
 20
-5.901642
 30
0.0
 40
0.0099999952
210
0.0
220
0.0
230
-1.0
  0
CIRCLE
  5
113D
330
1191
100
AcDbEntity
  8
Level 1
  6
Continuous
 62
     7
370
     0
100
AcDbCircle
 10
-1.936226
 20
-5.826642
 30
0.0
 40
0.0099999952
210
0.0
220
0.0
230
-1.0
  0
CIRCLE
  5
113E
330
1191
100
AcDbEntity
  8
Level 1
  6
Continuous
 62
     7
370
     0
100
AcDbCircle
 10
-2.048726
 20
-6.051642
 30
0.0
 40
0.0099999952
210
0.0
220
0.0
230
-1.0
  0
CIRCLE
  5
113F
330
1191
100
AcDbEntity
  8
Level 1
  6
Continuous
 62
     7
370
     0
100
AcDbCircle
 10
-2.011226
 20
-5.976642
 30
0.0
 40
0.0099999952
210
0.0
220
0.0
230
-1.0
  0
CIRCLE
  5
1140
330
1191
100
AcDbEntity
  8
Level 1
  6
Continuous
 62
     7
370
     0
100
AcDbCircle
 10
-2.048726
 20
-5.901642
 30
0.0
 40
0.0099999952
210
0.0
220
0.0
230
-1.0
  0
CIRCLE
  5
1141
330
1191
100
AcDbEntity
  8
Level 1
  6
Continuous
 62
     7
370
     0
100
AcDbCircle
 10
-2.011226
 20
-5.826642
 30
0.0
 40
0.0099999952
210
0.0
220
0.0
230
-1.0
  0
LINE
  5
1144
330
1191
100
AcDbEntity
  8
Level 1
  6
Continuous
 62
     7
370
     0
100
AcDbLine
 10
2.048726
 20
-5.95289
 30
0.0
 11
2.048726
 21
-6.03245
 31
0.0
  0
LINE
  5
1145
330
1191
100
AcDbEntity
  8
Level 1
  6
Continuous
 62
     7
370
     0
100
AcDbLine
 10
2.011226
 20
-5.879297
 30
0.0
 11
2.011226
 21
-5.958857
 31
0.0
  0
LINE
  5
1146
330
1191
100
AcDbEntity
  8
Level 1
  6
Continuous
 62
     7
370
     0
100
AcDbLine
 10
2.011226
 20
-6.102065
 30
0.0
 11
2.011226
 21
-6.036428
 31
0.0
  0
LINE
  5
1148
330
1191
100
AcDbEntity
  8
Level 1
  6
Continuous
 62
     7
370
     0
100
AcDbLine
 10
1.973726
 20
-6.181624
 30
0.0
 11
1.973726
 21
-6.108031
 31
0.0
  0
LINE
  5
1149
330
1191
100
AcDbEntity
  8
Level 1
  6
Continuous
 62
     7
370
     0
100
AcDbLine
 10
1.973726
 20
-6.030461
 30
0.0
 11
1.973726
 21
-5.956868
 31
0.0
  0
TEXT
  5
1027
330
1191
100
AcDbEntity
  8
Level 1
  6
Continuous
 62
     7
370
     0
100
AcDbText
 10
2.030641
 20
-5.944711
 30
0.0
 40
0.0275
  1
26
 41
0.818182
  7
Style-ANSI_SYMBOLS
 72
     1
 11
2.049212
 21
-5.930961
 31
0.0
100
AcDbText
 73
     2
  0
TEXT
  5
1017
330
1191
100
AcDbEntity
  8
Level 1
  6
Continuous
 62
     7
370
     0
100
AcDbText
 10
0.84111
 20
-5.948743
 30
0.0
 40
0.0275
  1
2
 41
0.818182
  7
Style-ANSI_SYMBOLS
 72
     1
 11
0.848431
 21
-5.934993
 31
0.0
100
AcDbText
 73
     2
  0
TEXT
  5
1018
330
1191
100
AcDbEntity
  8
Level 1
  6
Continuous
 62
     7
370
     0
100
AcDbText
 10
0.881404
 20
-5.872128
 30
0.0
 40
0.0275
  1
3
 41
0.818182
  7
Style-ANSI_SYMBOLS
 72
     1
 11
0.888725
 21
-5.858378
 31
0.0
100
AcDbText
 73
     2
  0
TEXT
  5
1019
330
1191
100
AcDbEntity
  8
Level 1
  6
Continuous
 62
     7
370
     0
100
AcDbText
 10
0.992215
 20
-5.948743
 30
0.0
 40
0.0275
  1
5
 41
0.818182
  7
Style-ANSI_SYMBOLS
 72
     1
 11
0.999536
 21
-5.934993
 31
0.0
100
AcDbText
 73
     2
  0
TEXT
  5
101A
330
1191
100
AcDbEntity
  8
Level 1
  6
Continuous
 62
     7
370
     0
100
AcDbText
 10
1.027774
 20
-5.870975
 30
0.0
 40
0.0275
  1
6
 41
0.818182
  7
Style-ANSI_SYMBOLS
 72
     1
 11
1.035095
 21
-5.857225
 31
0.0
100
AcDbText
 73
     2
  0
TEXT
  5
101B
330
1191
100
AcDbEntity
  8
Level 1
  6
Continuous
 62
     7
370
     0
100
AcDbText
 10
1.141305
 20
-5.948743
 30
0.0
 40
0.0275
  1
8
 41
0.818182
  7
Style-ANSI_SYMBOLS
 72
     1
 11
1.148626
 21
-5.934993
 31
0.0
100
AcDbText
 73
     2
  0
TEXT
  5
101C
330
1191
100
AcDbEntity
  8
Level 1
  6
Continuous
 62
     7
370
     0
100
AcDbText
 10
1.179585
 20
-5.872128
 30
0.0
 40
0.0275
  1
9
 41
0.818182
  7
Style-ANSI_SYMBOLS
 72
     1
 11
1.186906
 21
-5.858378
 31
0.0
100
AcDbText
 73
     2
  0
TEXT
  5
101D
330
1191
100
AcDbEntity
  8
Level 1
  6
Continuous
 62
     7
370
     0
100
AcDbText
 10
1.283585
 20
-5.945574
 30
0.0
 40
0.0275
  1
11
 41
0.818182
  7
Style-ANSI_SYMBOLS
 72
     1
 11
1.298406
 21
-5.931824
 31
0.0
100
AcDbText
 73
     2
  0
TEXT
  5
101E
330
1191
100
AcDbEntity
  8
Level 1
  6
Continuous
 62
     7
370
     0
100
AcDbText
 10
1.31944
 20
-5.868096
 30
0.0
 40
0.0275
  1
12
 41
0.818182
  7
Style-ANSI_SYMBOLS
 72
     1
 11
1.338011
 21
-5.854346
 31
0.0
100
AcDbText
 73
     2
  0
TEXT
  5
101F
330
1191
100
AcDbEntity
  8
Level 1
  6
Continuous
 62
     7
370
     0
100
AcDbText
 10
1.42978
 20
-5.945574
 30
0.0
 40
0.0275
  1
14
 41
0.818182
  7
Style-ANSI_SYMBOLS
 72
     1
 11
1.448351
 21
-5.931824
 31
0.0
100
AcDbText
 73
     2
  0
TEXT
  5
1020
330
1191
100
AcDbEntity
  8
Level 1
  6
Continuous
 62
     7
370
     0
100
AcDbText
 10
1.470545
 20
-5.870112
 30
0.0
 40
0.0275
  1
15
 41
0.818182
  7
Style-ANSI_SYMBOLS
 72
     1
 11
1.489116
 21
-5.856362
 31
0.0
100
AcDbText
 73
     2
  0
TEXT
  5
1021
330
1191
100
AcDbEntity
  8
Level 1
  6
Continuous
 62
     7
370
     0
100
AcDbText
 10
1.580885
 20
-5.94759
 30
0.0
 40
0.0275
  1
17
 41
0.818182
  7
Style-ANSI_SYMBOLS
 72
     1
 11
1.599456
 21
-5.93384
 31
0.0
100
AcDbText
 73
     2
  0
TEXT
  5
1022
330
1191
100
AcDbEntity
  8
Level 1
  6
Continuous
 62
     7
370
     0
100
AcDbText
 10
1.62118
 20
-5.870975
 30
0.0
 40
0.0275
  1
18
 41
0.818182
  7
Style-ANSI_SYMBOLS
 72
     1
 11
1.639751
 21
-5.857225
 31
0.0
100
AcDbText
 73
     2
  0
TEXT
  5
1023
330
1191
100
AcDbEntity
  8
Level 1
  6
Continuous
 62
     7
370
     0
100
AcDbText
 10
1.73293
 20
-5.945574
 30
0.0
 40
0.0275
  1
20
 41
0.818182
  7
Style-ANSI_SYMBOLS
 72
     1
 11
1.751501
 21
-5.931824
 31
0.0
100
AcDbText
 73
     2
  0
TEXT
  5
1024
330
1191
100
AcDbEntity
  8
Level 1
  6
Continuous
 62
     7
370
     0
100
AcDbText
 10
1.769605
 20
-5.872492
 30
0.0
 40
0.0275
  1
21
 41
0.818182
  7
Style-ANSI_SYMBOLS
 72
     1
 11
1.784426
 21
-5.858742
 31
0.0
100
AcDbText
 73
     2
  0
TEXT
  5
1025
330
1191
100
AcDbEntity
  8
Level 1
  6
Continuous
 62
     7
370
     0
100
AcDbText
 10
1.88155
 20
-5.946727
 30
0.0
 40
0.0275
  1
23
 41
0.818182
  7
Style-ANSI_SYMBOLS
 72
     1
 11
1.900121
 21
-5.932977
 31
0.0
100
AcDbText
 73
     2
  0
TEXT
  5
1026
330
1191
100
AcDbEntity
  8
Level 1
  6
Continuous
 62
     7
370
     0
100
AcDbText
 10
1.917816
 20
-5.874144
 30
0.0
 40
0.0275
  1
24
 41
0.818182
  7
Style-ANSI_SYMBOLS
 72
     1
 11
1.936387
 21
-5.860394
 31
0.0
100
AcDbText
 73
     2
  0
TEXT
  5
1028
330
1191
100
AcDbEntity
  8
Level 1
  6
Continuous
 62
     7
370
     0
100
AcDbText
 10
0.808595
 20
-5.872128
 30
0.0
 40
0.0275
  1
1
 41
0.818182
  7
Style-ANSI_SYMBOLS
 72
     1
 11
0.812166
 21
-5.858378
 31
0.0
100
AcDbText
 73
     2
  0
TEXT
  5
1029
330
1191
100
AcDbEntity
  8
Level 1
  6
Continuous
 62
     7
370
     0
100
AcDbText
 10
0.866125
 20
-6.01931
 30
0.0
 40
0.0275
  1
28
 41
0.818182
  7
Style-ANSI_SYMBOLS
 72
     1
 11
0.884696
 21
-6.00556
 31
0.0
100
AcDbText
 73
     2
  0
TEXT
  5
102A
330
1191
100
AcDbEntity
  8
Level 1
  6
Continuous
 62
     7
370
     0
100
AcDbText
 10
0.95595
 20
-5.872128
 30
0.0
 40
0.0275
  1
4
 41
0.818182
  7
Style-ANSI_SYMBOLS
 72
     1
 11
0.963271
 21
-5.858378
 31
0.0
100
AcDbText
 73
     2
  0
TEXT
  5
102B
330
1191
100
AcDbEntity
  8
Level 1
  6
Continuous
 62
     7
370
     0
100
AcDbText
 10
1.016951
 20
-6.01931
 30
0.0
 40
0.0275
  1
31
 41
0.818182
  7
Style-ANSI_SYMBOLS
 72
     1
 11
1.031772
 21
-6.00556
 31
0.0
100
AcDbText
 73
     2
  0
TEXT
  5
102C
330
1191
100
AcDbEntity
  8
Level 1
  6
Continuous
 62
     7
370
     0
100
AcDbText
 10
1.103025
 20
-5.872128
 30
0.0
 40
0.0275
  1
7
 41
0.818182
  7
Style-ANSI_SYMBOLS
 72
     1
 11
1.110346
 21
-5.858378
 31
0.0
100
AcDbText
 73
     2
  0
TEXT
  5
102D
330
1191
100
AcDbEntity
  8
Level 1
  6
Continuous
 62
     7
370
     0
100
AcDbText
 10
1.168335
 20
-6.021326
 30
0.0
 40
0.0275
  1
34
 41
0.818182
  7
Style-ANSI_SYMBOLS
 72
     1
 11
1.186906
 21
-6.007576
 31
0.0
100
AcDbText
 73
     2
  0
TEXT
  5
102E
330
1191
100
AcDbEntity
  8
Level 1
  6
Continuous
 62
     7
370
     0
100
AcDbText
 10
1.244895
 20
-5.872128
 30
0.0
 40
0.0275
  1
10
 41
0.818182
  7
Style-ANSI_SYMBOLS
 72
     1
 11
1.263466
 21
-5.858378
 31
0.0
100
AcDbText
 73
     2
  0
TEXT
  5
102F
330
1191
100
AcDbEntity
  8
Level 1
  6
Continuous
 62
     7
370
     0
100
AcDbText
 10
1.31897
 20
-6.021752
 30
0.0
 40
0.0275
  1
37
 41
0.818182
  7
Style-ANSI_SYMBOLS
 72
     1
 11
1.337541
 21
-6.008002
 31
0.0
100
AcDbText
 73
     2
  0
TEXT
  5
1030
330
1191
100
AcDbEntity
  8
Level 1
  6
Continuous
 62
     7
370
     0
100
AcDbText
 10
1.396
 20
-5.872128
 30
0.0
 40
0.0275
  1
13
 41
0.818182
  7
Style-ANSI_SYMBOLS
 72
     1
 11
1.414571
 21
-5.858378
 31
0.0
100
AcDbText
 73
     2
  0
TEXT
  5
1031
330
1191
100
AcDbEntity
  8
Level 1
  6
Continuous
 62
     7
370
     0
100
AcDbText
 10
1.46806
 20
-6.021752
 30
0.0
 40
0.0275
  1
40
 41
0.818182
  7
Style-ANSI_SYMBOLS
 72
     1
 11
1.486631
 21
-6.008002
 31
0.0
100
AcDbText
 73
     2
  0
TEXT
  5
1032
330
1191
100
AcDbEntity
  8
Level 1
  6
Continuous
 62
     7
370
     0
100
AcDbText
 10
1.54509
 20
-5.872128
 30
0.0
 40
0.0275
  1
16
 41
0.818182
  7
Style-ANSI_SYMBOLS
 72
     1
 11
1.563661
 21
-5.858378
 31
0.0
100
AcDbText
 73
     2
  0
TEXT
  5
1033
330
1191
100
AcDbEntity
  8
Level 1
  6
Continuous
 62
     7
370
     0
100
AcDbText
 10
1.616555
 20
-6.020963
 30
0.0
 40
0.0275
  1
43
 41
0.818182
  7
Style-ANSI_SYMBOLS
 72
     1
 11
1.635126
 21
-6.007213
 31
0.0
100
AcDbText
 73
     2
  0
TEXT
  5
1034
330
1191
100
AcDbEntity
  8
Level 1
  6
Continuous
 62
     7
370
     0
100
AcDbText
 10
1.692166
 20
-5.872128
 30
0.0
 40
0.0275
  1
19
 41
0.818182
  7
Style-ANSI_SYMBOLS
 72
     1
 11
1.710737
 21
-5.858378
 31
0.0
100
AcDbText
 73
     2
  0
TEXT
  5
1035
330
1191
100
AcDbEntity
  8
Level 1
  6
Continuous
 62
     7
370
     0
100
AcDbText
 10
1.768255
 20
-6.021752
 30
0.0
 40
0.0275
  1
46
 41
0.818182
  7
Style-ANSI_SYMBOLS
 72
     1
 11
1.786826
 21
-6.008002
 31
0.0
100
AcDbText
 73
     2
  0
TEXT
  5
1036
330
1191
100
AcDbEntity
  8
Level 1
  6
Continuous
 62
     7
370
     0
100
AcDbText
 10
1.841256
 20
-5.874144
 30
0.0
 40
0.0275
  1
22
 41
0.818182
  7
Style-ANSI_SYMBOLS
 72
     1
 11
1.859827
 21
-5.860394
 31
0.0
100
AcDbText
 73
     2
  0
TEXT
  5
1037
330
1191
100
AcDbEntity
  8
Level 1
  6
Continuous
 62
     7
370
     0
100
AcDbText
 10
1.91983
 20
-6.021326
 30
0.0
 40
0.0275
  1
49
 41
0.818182
  7
Style-ANSI_SYMBOLS
 72
     1
 11
1.938401
 21
-6.007576
 31
0.0
100
AcDbText
 73
     2
  0
TEXT
  5
1038
330
1191
100
AcDbEntity
  8
Level 1
  6
Continuous
 62
     7
370
     0
100
AcDbText
 10
1.994376
 20
-5.872128
 30
0.0
 40
0.0275
  1
25
 41
0.818182
  7
Style-ANSI_SYMBOLS
 72
     1
 11
2.012947
 21
-5.858378
 31
0.0
100
AcDbText
 73
     2
  0
TEXT
  5
1039
330
1191
100
AcDbEntity
  8
Level 1
  6
Continuous
 62
     7
370
     0
100
AcDbText
 10
0.793595
 20
-6.023342
 30
0.0
 40
0.0275
  1
27
 41
0.818182
  7
Style-ANSI_SYMBOLS
 72
     1
 11
0.812166
 21
-6.009592
 31
0.0
100
AcDbText
 73
     2
  0
TEXT
  5
103A
330
1191
100
AcDbEntity
  8
Level 1
  6
Continuous
 62
     7
370
     0
100
AcDbText
 10
0.90642
 20
-5.946727
 30
0.0
 40
0.0275
  1
29
 41
0.818182
  7
Style-ANSI_SYMBOLS
 72
     1
 11
0.924991
 21
-5.932977
 31
0.0
100
AcDbText
 73
     2
  0
TEXT
  5
103B
330
1191
100
AcDbEntity
  8
Level 1
  6
Continuous
 62
     7
370
     0
100
AcDbText
 10
0.94114
 20
-6.020323
 30
0.0
 40
0.0275
  1
30
 41
0.818182
  7
Style-ANSI_SYMBOLS
 72
     1
 11
0.959711
 21
-6.006573
 31
0.0
100
AcDbText
 73
     2
  0
TEXT
  5
103C
330
1191
100
AcDbEntity
  8
Level 1
  6
Continuous
 62
     7
370
     0
100
AcDbText
 10
1.05504
 20
-5.947741
 30
0.0
 40
0.0275
  1
32
 41
0.818182
  7
Style-ANSI_SYMBOLS
 72
     1
 11
1.073611
 21
-5.933991
 31
0.0
100
AcDbText
 73
     2
  0
TEXT
  5
103D
330
1191
100
AcDbEntity
  8
Level 1
  6
Continuous
 62
     7
370
     0
100
AcDbText
 10
1.091775
 20
-6.023342
 30
0.0
 40
0.0275
  1
33
 41
0.818182
  7
Style-ANSI_SYMBOLS
 72
     1
 11
1.110346
 21
-6.009592
 31
0.0
100
AcDbText
 73
     2
  0
TEXT
  5
103E
330
1191
100
AcDbEntity
  8
Level 1
  6
Continuous
 62
     7
370
     0
100
AcDbText
 10
1.206615
 20
-5.948743
 30
0.0
 40
0.0275
  1
35
 41
0.818182
  7
Style-ANSI_SYMBOLS
 72
     1
 11
1.225186
 21
-5.934993
 31
0.0
100
AcDbText
 73
     2
  0
TEXT
  5
103F
330
1191
100
AcDbEntity
  8
Level 1
  6
Continuous
 62
     7
370
     0
100
AcDbText
 10
1.245224
 20
-6.020963
 30
0.0
 40
0.0275
  1
36
 41
0.818182
  7
Style-ANSI_SYMBOLS
 72
     1
 11
1.263795
 21
-6.007213
 31
0.0
100
AcDbText
 73
     2
  0
TEXT
  5
1040
330
1191
100
AcDbEntity
  8
Level 1
  6
Continuous
 62
     7
370
     0
100
AcDbText
 10
1.355705
 20
-5.944711
 30
0.0
 40
0.0275
  1
38
 41
0.818182
  7
Style-ANSI_SYMBOLS
 72
     1
 11
1.374276
 21
-5.930961
 31
0.0
100
AcDbText
 73
     2
  0
TEXT
  5
1041
330
1191
100
AcDbEntity
  8
Level 1
  6
Continuous
 62
     7
370
     0
100
AcDbText
 10
1.393985
 20
-6.021326
 30
0.0
 40
0.0275
  1
39
 41
0.818182
  7
Style-ANSI_SYMBOLS
 72
     1
 11
1.412556
 21
-6.007576
 31
0.0
100
AcDbText
 73
     2
  0
TEXT
  5
1042
330
1191
100
AcDbEntity
  8
Level 1
  6
Continuous
 62
     7
370
     0
100
AcDbText
 10
1.506531
 20
-5.946727
 30
0.0
 40
0.0275
  1
41
 41
0.818182
  7
Style-ANSI_SYMBOLS
 72
     1
 11
1.521352
 21
-5.932977
 31
0.0
100
AcDbText
 73
     2
  0
TEXT
  5
1043
330
1191
100
AcDbEntity
  8
Level 1
  6
Continuous
 62
     7
370
     0
100
AcDbText
 10
1.53957
 20
-6.021689
 30
0.0
 40
0.0275
  1
42
 41
0.818182
  7
Style-ANSI_SYMBOLS
 72
     1
 11
1.558141
 21
-6.007939
 31
0.0
100
AcDbText
 73
     2
  0
TEXT
  5
1044
330
1191
100
AcDbEntity
  8
Level 1
  6
Continuous
 62
     7
370
     0
100
AcDbText
 10
1.654356
 20
-5.945724
 30
0.0
 40
0.0275
  1
44
 41
0.818182
  7
Style-ANSI_SYMBOLS
 72
     1
 11
1.672927
 21
-5.931974
 31
0.0
100
AcDbText
 73
     2
  0
TEXT
  5
1045
330
1191
100
AcDbEntity
  8
Level 1
  6
Continuous
 62
     7
370
     0
100
AcDbText
 10
1.693795
 20
-6.020963
 30
0.0
 40
0.0275
  1
45
 41
0.818182
  7
Style-ANSI_SYMBOLS
 72
     1
 11
1.712366
 21
-6.007213
 31
0.0
100
AcDbText
 73
     2
  0
TEXT
  5
1046
330
1191
100
AcDbEntity
  8
Level 1
  6
Continuous
 62
     7
370
     0
100
AcDbText
 10
1.804991
 20
-5.946727
 30
0.0
 40
0.0275
  1
47
 41
0.818182
  7
Style-ANSI_SYMBOLS
 72
     1
 11
1.823562
 21
-5.932977
 31
0.0
100
AcDbText
 73
     2
  0
TEXT
  5
1047
330
1191
100
AcDbEntity
  8
Level 1
  6
Continuous
 62
     7
370
     0
100
AcDbText
 10
1.843271
 20
-6.021326
 30
0.0
 40
0.0275
  1
48
 41
0.818182
  7
Style-ANSI_SYMBOLS
 72
     1
 11
1.861842
 21
-6.007576
 31
0.0
100
AcDbText
 73
     2
  0
TEXT
  5
1048
330
1191
100
AcDbEntity
  8
Level 1
  6
Continuous
 62
     7
370
     0
100
AcDbText
 10
1.95811
 20
-5.946727
 30
0.0
 40
0.0275
  1
50
 41
0.818182
  7
Style-ANSI_SYMBOLS
 72
     1
 11
1.976681
 21
-5.932977
 31
0.0
100
AcDbText
 73
     2
  0
TEXT
  5
1049
330
1191
100
AcDbEntity
  8
Level 1
  6
Continuous
 62
     7
370
     0
100
AcDbText
 10
1.996801
 20
-6.020323
 30
0.0
 40
0.0275
  1
51
 41
0.818182
  7
Style-ANSI_SYMBOLS
 72
     1
 11
2.011622
 21
-6.006573
 31
0.0
100
AcDbText
 73
     2
  0
TEXT
  5
104A
330
1191
100
AcDbEntity
  8
Level 1
  6
Continuous
 62
     7
370
     0
100
AcDbText
 10
0.829286
 20
-6.246776
 30
0.0
 40
0.0275
  1
76
 41
0.818182
  7
Style-ANSI_SYMBOLS
 72
     1
 11
0.847857
 21
-6.233026
 31
0.0
100
AcDbText
 73
     2
  0
TEXT
  5
104B
330
1191
100
AcDbEntity
  8
Level 1
  6
Continuous
 62
     7
370
     0
100
AcDbText
 10
0.90642
 20
-6.095925
 30
0.0
 40
0.0275
  1
53
 41
0.818182
  7
Style-ANSI_SYMBOLS
 72
     1
 11
0.924991
 21
-6.082175
 31
0.0
100
AcDbText
 73
     2
  0
TEXT
  5
104C
330
1191
100
AcDbEntity
  8
Level 1
  6
Continuous
 62
     7
370
     0
100
AcDbText
 10
0.942685
 20
-6.170524
 30
0.0
 40
0.0275
  1
54
 41
0.818182
  7
Style-ANSI_SYMBOLS
 72
     1
 11
0.961256
 21
-6.156774
 31
0.0
100
AcDbText
 73
     2
  0
TEXT
  5
104D
330
1191
100
AcDbEntity
  8
Level 1
  6
Continuous
 62
     7
370
     0
100
AcDbText
 10
1.05551
 20
-6.095925
 30
0.0
 40
0.0275
  1
56
 41
0.818182
  7
Style-ANSI_SYMBOLS
 72
     1
 11
1.074081
 21
-6.082175
 31
0.0
100
AcDbText
 73
     2
  0
TEXT
  5
104E
330
1191
100
AcDbEntity
  8
Level 1
  6
Continuous
 62
     7
370
     0
100
AcDbText
 10
1.093411
 20
-6.176209
 30
0.0
 40
0.0275
  1
57
 41
0.818182
  7
Style-ANSI_SYMBOLS
 72
     1
 11
1.111982
 21
-6.162459
 31
0.0
100
AcDbText
 73
     2
  0
TEXT
  5
104F
330
1191
100
AcDbEntity
  8
Level 1
  6
Continuous
 62
     7
370
     0
100
AcDbText
 10
1.207796
 20
-6.094272
 30
0.0
 40
0.0275
  1
59
 41
0.818182
  7
Style-ANSI_SYMBOLS
 72
     1
 11
1.226367
 21
-6.080522
 31
0.0
100
AcDbText
 73
     2
  0
TEXT
  5
1050
330
1191
100
AcDbEntity
  8
Level 1
  6
Continuous
 62
     7
370
     0
100
AcDbText
 10
1.244895
 20
-6.17254
 30
0.0
 40
0.0275
  1
60
 41
0.818182
  7
Style-ANSI_SYMBOLS
 72
     1
 11
1.263466
 21
-6.15879
 31
0.0
100
AcDbText
 73
     2
  0
TEXT
  5
1051
330
1191
100
AcDbEntity
  8
Level 1
  6
Continuous
 62
     7
370
     0
100
AcDbText
 10
1.35772
 20
-6.097941
 30
0.0
 40
0.0275
  1
62
 41
0.818182
  7
Style-ANSI_SYMBOLS
 72
     1
 11
1.376291
 21
-6.084191
 31
0.0
100
AcDbText
 73
     2
  0
TEXT
  5
1052
330
1191
100
AcDbEntity
  8
Level 1
  6
Continuous
 62
     7
370
     0
100
AcDbText
 10
1.393985
 20
-6.170524
 30
0.0
 40
0.0275
  1
63
 41
0.818182
  7
Style-ANSI_SYMBOLS
 72
     1
 11
1.412556
 21
-6.156774
 31
0.0
100
AcDbText
 73
     2
  0
TEXT
  5
1053
330
1191
100
AcDbEntity
  8
Level 1
  6
Continuous
 62
     7
370
     0
100
AcDbText
 10
1.508825
 20
-6.097941
 30
0.0
 40
0.0275
  1
65
 41
0.818182
  7
Style-ANSI_SYMBOLS
 72
     1
 11
1.527396
 21
-6.084191
 31
0.0
100
AcDbText
 73
     2
  0
TEXT
  5
1054
330
1191
100
AcDbEntity
  8
Level 1
  6
Continuous
 62
     7
370
     0
100
AcDbText
 10
1.543997
 20
-6.172177
 30
0.0
 40
0.0275
  1
66
 41
0.818182
  7
Style-ANSI_SYMBOLS
 72
     1
 11
1.562568
 21
-6.158427
 31
0.0
100
AcDbText
 73
     2
  0
TEXT
  5
1055
330
1191
100
AcDbEntity
  8
Level 1
  6
Continuous
 62
     7
370
     0
100
AcDbText
 10
1.653886
 20
-6.097941
 30
0.0
 40
0.0275
  1
68
 41
0.818182
  7
Style-ANSI_SYMBOLS
 72
     1
 11
1.672457
 21
-6.084191
 31
0.0
100
AcDbText
 73
     2
  0
TEXT
  5
1056
330
1191
100
AcDbEntity
  8
Level 1
  6
Continuous
 62
     7
370
     0
100
AcDbText
 10
1.69418
 20
-6.170524
 30
0.0
 40
0.0275
  1
69
 41
0.818182
  7
Style-ANSI_SYMBOLS
 72
     1
 11
1.712751
 21
-6.156774
 31
0.0
100
AcDbText
 73
     2
  0
TEXT
  5
1057
330
1191
100
AcDbEntity
  8
Level 1
  6
Continuous
 62
     7
370
     0
100
AcDbText
 10
1.808741
 20
-6.097941
 30
0.0
 40
0.0275
  1
71
 41
0.818182
  7
Style-ANSI_SYMBOLS
 72
     1
 11
1.823562
 21
-6.084191
 31
0.0
100
AcDbText
 73
     2
  0
TEXT
  5
1058
330
1191
100
AcDbEntity
  8
Level 1
  6
Continuous
 62
     7
370
     0
100
AcDbText
 10
1.843271
 20
-6.17254
 30
0.0
 40
0.0275
  1
72
 41
0.818182
  7
Style-ANSI_SYMBOLS
 72
     1
 11
1.861842
 21
-6.15879
 31
0.0
100
AcDbText
 73
     2
  0
TEXT
  5
1059
330
1191
100
AcDbEntity
  8
Level 1
  6
Continuous
 62
     7
370
     0
100
AcDbText
 10
1.954081
 20
-6.099958
 30
0.0
 40
0.0275
  1
74
 41
0.818182
  7
Style-ANSI_SYMBOLS
 72
     1
 11
1.972652
 21
-6.086208
 31
0.0
100
AcDbText
 73
     2
  0
TEXT
  5
105A
330
1191
100
AcDbEntity
  8
Level 1
  6
Continuous
 62
     7
370
     0
100
AcDbText
 10
1.992361
 20
-6.17254
 30
0.0
 40
0.0275
  1
75
 41
0.818182
  7
Style-ANSI_SYMBOLS
 72
     1
 11
2.010932
 21
-6.15879
 31
0.0
100
AcDbText
 73
     2
  0
TEXT
  5
105B
330
1191
100
AcDbEntity
  8
Level 1
  6
Continuous
 62
     7
370
     0
100
AcDbText
 10
0.82986
 20
-6.095925
 30
0.0
 40
0.0275
  1
52
 41
0.818182
  7
Style-ANSI_SYMBOLS
 72
     1
 11
0.848431
 21
-6.082175
 31
0.0
100
AcDbText
 73
     2
  0
TEXT
  5
105C
330
1191
100
AcDbEntity
  8
Level 1
  6
Continuous
 62
     7
370
     0
100
AcDbText
 10
0.904405
 20
-6.247139
 30
0.0
 40
0.0275
  1
78
 41
0.818182
  7
Style-ANSI_SYMBOLS
 72
     1
 11
0.922976
 21
-6.233389
 31
0.0
100
AcDbText
 73
     2
  0
TEXT
  5
105D
330
1191
100
AcDbEntity
  8
Level 1
  6
Continuous
 62
     7
370
     0
100
AcDbText
 10
0.980495
 20
-6.094848
 30
0.0
 40
0.0275
  1
55
 41
0.818182
  7
Style-ANSI_SYMBOLS
 72
     1
 11
0.999066
 21
-6.081098
 31
0.0
100
AcDbText
 73
     2
  0
TEXT
  5
105E
330
1191
100
AcDbEntity
  8
Level 1
  6
Continuous
 62
     7
370
     0
100
AcDbText
 10
1.05926
 20
-6.247139
 30
0.0
 40
0.0275
  1
81
 41
0.818182
  7
Style-ANSI_SYMBOLS
 72
     1
 11
1.074081
 21
-6.233389
 31
0.0
100
AcDbText
 73
     2
  0
TEXT
  5
105F
330
1191
100
AcDbEntity
  8
Level 1
  6
Continuous
 62
     7
370
     0
100
AcDbText
 10
1.130055
 20
-6.095925
 30
0.0
 40
0.0275
  1
58
 41
0.818182
  7
Style-ANSI_SYMBOLS
 72
     1
 11
1.148626
 21
-6.082175
 31
0.0
100
AcDbText
 73
     2
  0
TEXT
  5
1060
330
1191
100
AcDbEntity
  8
Level 1
  6
Continuous
 62
     7
370
     0
100
AcDbText
 10
1.202585
 20
-6.247139
 30
0.0
 40
0.0275
  1
84
 41
0.818182
  7
Style-ANSI_SYMBOLS
 72
     1
 11
1.221156
 21
-6.233389
 31
0.0
100
AcDbText
 73
     2
  0
TEXT
  5
1061
330
1191
100
AcDbEntity
  8
Level 1
  6
Continuous
 62
     7
370
     0
100
AcDbText
 10
1.28491
 20
-6.095925
 30
0.0
 40
0.0275
  1
61
 41
0.818182
  7
Style-ANSI_SYMBOLS
 72
     1
 11
1.299731
 21
-6.082175
 31
0.0
100
AcDbText
 73
     2
  0
TEXT
  5
1062
330
1191
100
AcDbEntity
  8
Level 1
  6
Continuous
 62
     7
370
     0
100
AcDbText
 10
1.353577
 20
-6.248792
 30
0.0
 40
0.0275
  1
87
 41
0.818182
  7
Style-ANSI_SYMBOLS
 72
     1
 11
1.372148
 21
-6.235042
 31
0.0
100
AcDbText
 73
     2
  0
TEXT
  5
1063
330
1191
100
AcDbEntity
  8
Level 1
  6
Continuous
 62
     7
370
     0
100
AcDbText
 10
1.43025
 20
-6.097941
 30
0.0
 40
0.0275
  1
64
 41
0.818182
  7
Style-ANSI_SYMBOLS
 72
     1
 11
1.448821
 21
-6.084191
 31
0.0
100
AcDbText
 73
     2
  0
TEXT
  5
1064
330
1191
100
AcDbEntity
  8
Level 1
  6
Continuous
 62
     7
370
     0
100
AcDbText
 10
1.504795
 20
-6.251172
 30
0.0
 40
0.0275
  1
90
 41
0.818182
  7
Style-ANSI_SYMBOLS
 72
     1
 11
1.523366
 21
-6.237422
 31
0.0
100
AcDbText
 73
     2
  0
TEXT
  5
1065
330
1191
100
AcDbEntity
  8
Level 1
  6
Continuous
 62
     7
370
     0
100
AcDbText
 10
1.58337
 20
-6.097941
 30
0.0
 40
0.0275
  1
67
 41
0.818182
  7
Style-ANSI_SYMBOLS
 72
     1
 11
1.601941
 21
-6.084191
 31
0.0
100
AcDbText
 73
     2
  0
TEXT
  5
1066
330
1191
100
AcDbEntity
  8
Level 1
  6
Continuous
 62
     7
370
     0
100
AcDbText
 10
1.6559
 20
-6.249155
 30
0.0
 40
0.0275
  1
93
 41
0.818182
  7
Style-ANSI_SYMBOLS
 72
     1
 11
1.674471
 21
-6.235405
 31
0.0
100
AcDbText
 73
     2
  0
TEXT
  5
1067
330
1191
100
AcDbEntity
  8
Level 1
  6
Continuous
 62
     7
370
     0
100
AcDbText
 10
1.730446
 20
-6.097941
 30
0.0
 40
0.0275
  1
70
 41
0.818182
  7
Style-ANSI_SYMBOLS
 72
     1
 11
1.749017
 21
-6.084191
 31
0.0
100
AcDbText
 73
     2
  0
TEXT
  5
1068
330
1191
100
AcDbEntity
  8
Level 1
  6
Continuous
 62
     7
370
     0
100
AcDbText
 10
1.807005
 20
-6.247139
 30
0.0
 40
0.0275
  1
96
 41
0.818182
  7
Style-ANSI_SYMBOLS
 72
     1
 11
1.825576
 21
-6.233389
 31
0.0
100
AcDbText
 73
     2
  0
TEXT
  5
1069
330
1191
100
AcDbEntity
  8
Level 1
  6
Continuous
 62
     7
370
     0
100
AcDbText
 10
1.88155
 20
-6.099958
 30
0.0
 40
0.0275
  1
73
 41
0.818182
  7
Style-ANSI_SYMBOLS
 72
     1
 11
1.900121
 21
-6.086208
 31
0.0
100
AcDbText
 73
     2
  0
TEXT
  5
106A
330
1191
100
AcDbEntity
  8
Level 1
  6
Continuous
 62
     7
370
     0
100
AcDbText
 10
1.954081
 20
-6.245123
 30
0.0
 40
0.0275
  1
99
 41
0.818182
  7
Style-ANSI_SYMBOLS
 72
     1
 11
1.972652
 21
-6.231373
 31
0.0
100
AcDbText
 73
     2
  0
TEXT
  5
106B
330
1191
100
AcDbEntity
  8
Level 1
  6
Continuous
 62
     7
370
     0
100
AcDbText
 10
0.86814
 20
-6.17254
 30
0.0
 40
0.0275
  1
77
 41
0.818182
  7
Style-ANSI_SYMBOLS
 72
     1
 11
0.886711
 21
-6.15879
 31
0.0
100
AcDbText
 73
     2
  0
TEXT
  5
106C
330
1191
100
AcDbEntity
  8
Level 1
  6
Continuous
 62
     7
370
     0
100
AcDbText
 10
0.97848
 20
-6.249159
 30
0.0
 40
0.0275
  1
79
 41
0.818182
  7
Style-ANSI_SYMBOLS
 72
     1
 11
0.997051
 21
-6.235409
 31
0.0
100
AcDbText
 73
     2
  0
TEXT
  5
106D
330
1191
100
AcDbEntity
  8
Level 1
  6
Continuous
 62
     7
370
     0
100
AcDbText
 10
1.019245
 20
-6.17254
 30
0.0
 40
0.0275
  1
80
 41
0.818182
  7
Style-ANSI_SYMBOLS
 72
     1
 11
1.037816
 21
-6.15879
 31
0.0
100
AcDbText
 73
     2
  0
TEXT
  5
106E
330
1191
100
AcDbEntity
  8
Level 1
  6
Continuous
 62
     7
370
     0
100
AcDbText
 10
1.130055
 20
-6.247139
 30
0.0
 40
0.0275
  1
82
 41
0.818182
  7
Style-ANSI_SYMBOLS
 72
     1
 11
1.148626
 21
-6.233389
 31
0.0
100
AcDbText
 73
     2
  0
TEXT
  5
106F
330
1191
100
AcDbEntity
  8
Level 1
  6
Continuous
 62
     7
370
     0
100
AcDbText
 10
1.17035
 20
-6.170524
 30
0.0
 40
0.0275
  1
83
 41
0.818182
  7
Style-ANSI_SYMBOLS
 72
     1
 11
1.188921
 21
-6.156774
 31
0.0
100
AcDbText
 73
     2
  0
TEXT
  5
1070
330
1191
100
AcDbEntity
  8
Level 1
  6
Continuous
 62
     7
370
     0
100
AcDbText
 10
1.28116
 20
-6.249155
 30
0.0
 40
0.0275
  1
85
 41
0.818182
  7
Style-ANSI_SYMBOLS
 72
     1
 11
1.299731
 21
-6.235405
 31
0.0
100
AcDbText
 73
     2
  0
TEXT
  5
1071
330
1191
100
AcDbEntity
  8
Level 1
  6
Continuous
 62
     7
370
     0
100
AcDbText
 10
1.31944
 20
-6.170524
 30
0.0
 40
0.0275
  1
86
 41
0.818182
  7
Style-ANSI_SYMBOLS
 72
     1
 11
1.338011
 21
-6.156774
 31
0.0
100
AcDbText
 73
     2
  0
TEXT
  5
1072
330
1191
100
AcDbEntity
  8
Level 1
  6
Continuous
 62
     7
370
     0
100
AcDbText
 10
1.432265
 20
-6.249155
 30
0.0
 40
0.0275
  1
88
 41
0.818182
  7
Style-ANSI_SYMBOLS
 72
     1
 11
1.450836
 21
-6.235405
 31
0.0
100
AcDbText
 73
     2
  0
TEXT
  5
1073
330
1191
100
AcDbEntity
  8
Level 1
  6
Continuous
 62
     7
370
     0
100
AcDbText
 10
1.46853
 20
-6.170524
 30
0.0
 40
0.0275
  1
89
 41
0.818182
  7
Style-ANSI_SYMBOLS
 72
     1
 11
1.487101
 21
-6.156774
 31
0.0
100
AcDbText
 73
     2
  0
TEXT
  5
1074
330
1191
100
AcDbEntity
  8
Level 1
  6
Continuous
 62
     7
370
     0
100
AcDbText
 10
1.583091
 20
-6.249155
 30
0.0
 40
0.0275
  1
91
 41
0.818182
  7
Style-ANSI_SYMBOLS
 72
     1
 11
1.597912
 21
-6.235405
 31
0.0
100
AcDbText
 73
     2
  0
TEXT
  5
1075
330
1191
100
AcDbEntity
  8
Level 1
  6
Continuous
 62
     7
370
     0
100
AcDbText
 10
1.61762
 20
-6.170524
 30
0.0
 40
0.0275
  1
92
 41
0.818182
  7
Style-ANSI_SYMBOLS
 72
     1
 11
1.636191
 21
-6.156774
 31
0.0
100
AcDbText
 73
     2
  0
TEXT
  5
1076
330
1191
100
AcDbEntity
  8
Level 1
  6
Continuous
 62
     7
370
     0
100
AcDbText
 10
1.730446
 20
-6.247139
 30
0.0
 40
0.0275
  1
94
 41
0.818182
  7
Style-ANSI_SYMBOLS
 72
     1
 11
1.749017
 21
-6.233389
 31
0.0
100
AcDbText
 73
     2
  0
TEXT
  5
1077
330
1191
100
AcDbEntity
  8
Level 1
  6
Continuous
 62
     7
370
     0
100
AcDbText
 10
1.77074
 20
-6.170524
 30
0.0
 40
0.0275
  1
95
 41
0.818182
  7
Style-ANSI_SYMBOLS
 72
     1
 11
1.789311
 21
-6.156774
 31
0.0
100
AcDbText
 73
     2
  0
TEXT
  5
1078
330
1191
100
AcDbEntity
  8
Level 1
  6
Continuous
 62
     7
370
     0
100
AcDbText
 10
1.88155
 20
-6.245123
 30
0.0
 40
0.0275
  1
97
 41
0.818182
  7
Style-ANSI_SYMBOLS
 72
     1
 11
1.900121
 21
-6.231373
 31
0.0
100
AcDbText
 73
     2
  0
TEXT
  5
1079
330
1191
100
AcDbEntity
  8
Level 1
  6
Continuous
 62
     7
370
     0
100
AcDbText
 10
1.917472
 20
-6.172177
 30
0.0
 40
0.0275
  1
98
 41
0.818182
  7
Style-ANSI_SYMBOLS
 72
     1
 11
1.936043
 21
-6.158427
 31
0.0
100
AcDbText
 73
     2
  0
TEXT
  5
107A
330
1191
100
AcDbEntity
  8
Level 1
  6
Continuous
 62
     7
370
     0
100
AcDbText
 10
2.028032
 20
-6.097941
 30
0.0
 40
0.0275
  1
100
 41
0.636364
  7
Style-ANSI_SYMBOLS
 72
     1
 11
2.051226
 21
-6.084191
 31
0.0
100
AcDbText
 73
     2
  0
DIMENSION
  5
1142
330
1191
100
AcDbEntity
  8
Level 55
  6
Continuous
 62
     7
370
     0
100
AcDbDimension
  2
*D3
 10
2.328726
 20
-5.670049
 30
0.0
 11
1.395348
 21
-5.670049
 31
0.0
 70
   160
  1
\H1x;\W0.916667;<>\H1x;\W0.916667;
 71
     5
 42
1.8
 73
     0
 74
     0
 75
     0
  3
Standard
100
AcDbAlignedDimension
 13
0.528726
 23
-5.954366
 33
0.0
 14
2.328726
 24
-5.954366
 34
0.0
100
AcDbRotatedDimension
1001
ACAD
1000
DSTYLE
1002
{
1070
    78
1070
     7
1070
   288
1070
     1
1070
   284
1070
     7
1070
   140
1040
0.03
1070
   340
1005
1286
1070
    47
1040
0.002
1070
   283
1070
     0
1070
    48
1040
0.002
1070
   272
1070
     3
1070
     3
1000
\X
1070
   147
1040
0.009
1070
   276
1070
     2
1070
    42
1040
0.018
1070
    44
1040
0.015
1070
    43
1040
0.0
1070
   271
1070
     3
1070
   289
1070
     1
1070
    41
1040
0.045
1070
   285
1070
    15
1070
   286
1070
    15
1070
   170
1070
     1
1002
}
  0
DIMENSION
  5
1143
330
1191
100
AcDbEntity
  8
Level 55
  6
Continuous
 62
     7
370
     0
100
AcDbDimension
  2
*D5
 10
2.048726
 20
-5.754753
 30
0.0
 11
2.190649
 21
-5.754753
 31
0.0
 70
   160
  1
\H1x;\W0.916667;<>\H1x;\W0.916667;
 71
     5
 42
0.28
 73
     0
 74
     0
 75
     0
  3
Standard
100
AcDbAlignedDimension
 13
2.328726
 23
-5.954366
 33
0.0
 14
2.048726
 24
-5.901642
 34
0.0
 50
180.0
100
AcDbRotatedDimension
1001
ACAD
1000
DSTYLE
1002
{
1070
    78
1070
     7
1070
   288
1070
     1
1070
   284
1070
     7
1070
   140
1040
0.03
1070
   340
1005
1286
1070
    47
1040
0.002
1070
   283
1070
     0
1070
    48
1040
0.002
1070
   272
1070
     3
1070
     3
1000
\X
1070
   147
1040
0.009
1070
   276
1070
     2
1070
    42
1040
0.018
1070
    44
1040
0.015
1070
    43
1040
0.0
1070
   271
1070
     3
1070
   289
1070
     1
1070
    41
1040
0.045
1070
   285
1070
    15
1070
   286
1070
    15
1070
   170
1070
     1
1002
}
  0
DIMENSION
  5
115C
330
1191
100
AcDbEntity
  8
Level 55
  6
Continuous
 62
     7
370
     0
100
AcDbDimension
  2
*D14
 10
2.438596
 20
-5.976642
 30
0.0
 11
2.553925
 21
-5.817725
 31
0.0
 70
   160
  1
\H1x;\W0.916667;<>\H1x;\W0.916667;
 71
     5
 42
0.037501
 73
     0
 74
     0
 75
     0
  3
Standard
100
AcDbAlignedDimension
 13
2.387266
 23
-6.014143
 33
0.0
 14
2.011226
 24
-5.976642
 34
0.0
 50
90.0
100
AcDbRotatedDimension
1001
ACAD
1000
DSTYLE
1002
{
1070
    78
1070
     7
1070
   288
1070
     0
1070
   284
1070
     7
1070
   140
1040
0.03
1070
   340
1005
1286
1070
    47
1040
0.0
1070
   283
1070
     0
1070
    48
1040
0.0
1070
   272
1070
     3
1070
     3
1000
\X
1070
   147
1040
0.009
1070
   276
1070
     2
1070
    42
1040
0.018
1070
    44
1040
0.015
1070
    43
1040
0.0
1070
   271
1070
     3
1070
   289
1070
     1
1070
    41
1040
0.045
1070
   285
1070
    15
1070
   286
1070
    15
1070
   170
1070
     1
1002
}
  0
DIMENSION
  5
115D
330
1191
100
AcDbEntity
  8
Level 55
  6
Continuous
 62
     7
370
     0
100
AcDbDimension
  2
*D15
 10
2.84227
 20
-6.051642
 30
0.0
 11
2.668994
 21
-6.244373
 31
0.0
 70
   160
  1
\H1x;\W0.916667;<> TYP\H1x;\W0.916667;
 71
     5
 42
0.075
 73
     0
 74
     0
 75
     0
  3
Standard
100
AcDbAlignedDimension
 13
2.011226
 23
-5.976642
 33
0.0
 14
2.048726
 24
-6.051642
 34
0.0
 50
270.0
100
AcDbRotatedDimension
1001
ACAD
1000
DSTYLE
1002
{
1070
    78
1070
     7
1070
   288
1070
     0
1070
   284
1070
     7
1070
   140
1040
0.03
1070
   340
1005
1286
1070
    47
1040
0.0
1070
   283
1070
     0
1070
    48
1040
0.0
1070
   272
1070
     3
1070
     3
1000
\X
1070
   147
1040
0.009
1070
   276
1070
     2
1070
    42
1040
0.018
1070
    44
1040
0.015
1070
    43
1040
0.0
1070
   271
1070
     3
1070
   289
1070
     1
1070
    41
1040
0.045
1070
   285
1070
    15
1070
   286
1070
    15
1070
   170
1070
     1
1002
}
  0
DIMENSION
  5
1147
330
1191
100
AcDbEntity
  8
Level 55
  6
Continuous
 62
     7
370
     0
100
AcDbDimension
  2
*D16
 10
2.011226
 20
-6.332469
 30
0.0
 11
1.809946
 21
-6.332469
 31
0.0
 70
   160
  1
\H1x;\W0.916667;<>\H1x;\W0.916667;
 71
     5
 42
0.0375
 73
     0
 74
     0
 75
     0
  3
Standard
100
AcDbAlignedDimension
 13
2.048726
 23
-6.051642
 33
0.0
 14
2.011226
 24
-6.126642
 34
0.0
 50
180.0
100
AcDbRotatedDimension
1001
ACAD
1000
DSTYLE
1002
{
1070
    78
1070
     7
1070
   288
1070
     0
1070
   284
1070
     7
1070
   140
1040
0.03
1070
   340
1005
1286
1070
    47
1040
0.0
1070
   283
1070
     0
1070
    48
1040
0.0
1070
   272
1070
     3
1070
     3
1000
\X
1070
   147
1040
0.009
1070
   276
1070
     2
1070
    42
1040
0.018
1070
    44
1040
0.015
1070
    43
1040
0.0
1070
   271
1070
     3
1070
   289
1070
     1
1070
    41
1040
0.045
1070
   285
1070
    15
1070
   286
1070
    15
1070
   170
1070
     1
1002
}
  0
DIMENSION
  5
114A
330
1191
100
AcDbEntity
  8
Level 55
  6
Continuous
 62
     7
370
     0
100
AcDbDimension
  2
*D17
 10
1.973726
 20
-6.415854
 30
0.0
 11
2.267002
 21
-6.415854
 31
0.0
 70
   160
  1
\H1x;\W0.916667;<> TYP\H1x;\W0.916667;
 71
     5
 42
0.075
 73
     0
 74
     0
 75
     0
  3
Standard
100
AcDbAlignedDimension
 13
2.048726
 23
-6.051642
 33
0.0
 14
1.973726
 24
-6.201642
 34
0.0
 50
180.0
100
AcDbRotatedDimension
1001
ACAD
1000
DSTYLE
1002
{
1070
    78
1070
     7
1070
   288
1070
     0
1070
   284
1070
     7
1070
   140
1040
0.03
1070
   340
1005
1286
1070
    47
1040
0.0
1070
   283
1070
     0
1070
    48
1040
0.0
1070
   272
1070
     3
1070
     3
1000
\X
1070
   147
1040
0.009
1070
   276
1070
     2
1070
    42
1040
0.018
1070
    44
1040
0.015
1070
    43
1040
0.0
1070
   271
1070
     3
1070
   289
1070
     1
1070
    41
1040
0.045
1070
   285
1070
    15
1070
   286
1070
    15
1070
   170
1070
     1
1002
}
  0
TEXT
  5
1016
330
1191
100
AcDbEntity
  8
Level 1
  6
Continuous
 62
     7
370
     0
100
AcDbText
 10
1.315286
 20
-6.459131
 30
0.0
 40
0.03
  1
SIZE 100
 41
0.916667
  7
Style-ANSI_SYMBOLS
 72
     1
 11
1.420484
 21
-6.444131
 31
0.0
100
AcDbText
 73
     2
  0
LEADER
  5
1176
330
1191
100
AcDbEntity
  8
Level 55
  6
Continuous
 62
     7
370
     0
100
AcDbLeader
  3
Standard
 76
     3
 10
0.489853
 20
-5.988697
 30
0.0
 10
0.409241
 20
-5.932228
 30
0.0
 10
0.385057
 20
-5.932228
 30
0.0
1001
ACAD
1000
DSTYLE
1002
{
1070
   140
1040
0.03
1070
   340
1005
1286
1070
   147
1040
0.015
1070
    41
1040
0.045
1002
}
  0
TEXT
  5
1177
330
1191
100
AcDbEntity
  8
Level 1
  6
Continuous
 62
     7
370
     0
100
AcDbText
 10
0.093208
 20
-5.947228
 30
0.0
 40
0.03
  1
%%c.096 [2.44]
 41
0.916667
 72
     1
 11
0.223833
 21
-5.932228
 31
0.0
100
AcDbText
 73
     2
  0
INSERT
  5
6F0
330
1191
100
AcDbEntity
  8
0
  6
Continuous
 62
     7
370
     0
100
AcDbBlockReference
  2
umiborder
 10
0.0
 20
0.0
 30
0.0
  0
INSERT
  5
73A
330
1191
100
AcDbEntity
  8
0
  6
Continuous
 62
     7
370
     0
100
AcDbBlockReference
  2
Style 1  PCB layouts
 10
0.0
 20
0.0
 30
0.0
  0
VIEWPORT
  5
1379
330
11A4
100
AcDbEntity
 67
     1
  8
0
  6
Continuous
 62
     7
370
     0
100
AcDbViewport
 10
5.250184
 20
4.000122
 30
0.0
 40
8.400879
 41
6.40091
 68
     0
 69
     2
 12
5.250184
 22
4.000122
 13
0.0
 23
0.0
 14
0.0
 24
0.0
 15
3.937008
 25
3.937008
 16
0.0
 26
0.0
 36
1.0
 17
0.0
 27
0.0
 37
0.0
 42
50.0
 43
0.0
 44
0.0
 45
6.40091
 50
0.0
 51
0.0
 72
   100
 90
    32768
  1

281
     0
 71
     1
 74
     1
110
0.0
120
0.0
130
0.0
111
1.0
121
0.0
131
0.0
112
0.0
122
1.0
132
0.0
 79
     0
146
0.0
170
     0
 61
    10
348
11B8
292
     1
282
     1
141
0.0
142
0.0
 63
   250
421
  3355443
  0
VIEWPORT
  5
1513
330
11A4
100
AcDbEntity
 67
     1
  8
0
 62
     7
370
     0
100
AcDbViewport
 10
5.250184
 20
4.000122
 30
0.0
 40
8.400879
 41
6.40091
 68
    -1
 69
     1
 12
5.250184
 22
4.000122
 13
0.0
 23
0.0
 14
0.0
 24
0.0
 15
0.0
 25
0.0
 16
0.0
 26
0.0
 36
1.0
 17
0.0
 27
0.0
 37
0.0
 42
50.0
 43
0.0
 44
0.0
 45
6.40091
 50
0.0
 51
0.0
 72
   100
 90
    32768
  1

281
     0
 71
     1
 74
     1
110
0.0
120
0.0
130
0.0
111
1.0
121
0.0
131
0.0
112
0.0
122
1.0
132
0.0
 79
     0
146
0.0
170
     0
 61
     5
292
     1
282
     1
141
0.0
142
0.0
 63
   250
421
  3355443
  0
ENDSEC
  0
SECTION
  2
OBJECTS
  0
DICTIONARY
  5
1196
330
0
100
AcDbDictionary
281
     1
  3
ACAD_COLOR
350
11D2
  3
ACAD_GROUP
350
11BF
  3
ACAD_LAYOUT
350
11A3
  3
ACAD_MATERIAL
350
1198
  3
ACAD_MLEADERSTYLE
350
11D5
  3
ACAD_MLINESTYLE
350
11C0
  3
ACAD_PLOTSETTINGS
350
11C1
  3
ACAD_PLOTSTYLENAME
350
1195
  3
ACAD_SCALELIST
350
11D3
  3
ACAD_TABLESTYLE
350
11D4
  3
ACAD_VISUALSTYLE
350
11B9
  3
AcadDim
350
1287
  3
ACDB_RECOMPOSE_DATA
350
18AF
  3
AcDbVariableDictionary
350
133E
  3
MicroStation
350
143F
  0
DICTIONARY
  5
11AC
330
11AB
100
AcDbDictionary
280
     1
281
     1
  3
ACAD_LAYERFILTERS
360
1281
  3
ACAD_LAYERSTATES
360
11AD
  0
DICTIONARY
  5
1282
330
110
100
AcDbDictionary
280
     1
281
     1
  3
ADSK_XREC_VTRVIEWINFO
360
1283
  0
DICTIONARY
  5
1284
330
112
100
AcDbDictionary
280
     1
281
     1
  3
ADSK_XREC_VTRVIEWINFO
360
1285
  0
DICTIONARY
  5
133B
330
1191
100
AcDbDictionary
280
     1
281
     1
  3
ACAD_SORTENTS
360
133C
  0
DICTIONARY
  5
179A
330
11A4
100
AcDbDictionary
280
     1
281
     1
  3
ACAD_SORTENTS
360
179B
  0
DICTIONARY
  5
11D2
102
{ACAD_REACTORS
330
1196
102
}
330
1196
100
AcDbDictionary
281
     1
  0
DICTIONARY
  5
11BF
102
{ACAD_REACTORS
330
1196
102
}
330
1196
100
AcDbDictionary
281
     1
  0
DICTIONARY
  5
11A3
102
{ACAD_REACTORS
330
1196
102
}
330
1196
100
AcDbDictionary
281
     1
  3
Layout1
350
11A7
  3
Model
350
11A2
  0
DICTIONARY
  5
1198
102
{ACAD_REACTORS
330
1196
102
}
330
1196
100
AcDbDictionary
281
     1
  3
ByBlock
350
11CA
  3
ByLayer
350
11C2
  3
Global
350
1197
  0
DICTIONARY
  5
11D5
102
{ACAD_REACTORS
330
1196
102
}
330
1196
100
AcDbDictionary
281
     1
  3
Standard
350
1363
  0
DICTIONARY
  5
11C0
102
{ACAD_REACTORS
330
1196
102
}
330
1196
100
AcDbDictionary
281
     1
  3
Standard
350
11D6
  0
DICTIONARY
  5
11C1
102
{ACAD_REACTORS
330
1196
102
}
330
1196
100
AcDbDictionary
281
     1
  0
ACDBDICTIONARYWDFLT
  5
1195
102
{ACAD_REACTORS
330
1196
102
}
330
1196
100
AcDbDictionary
281
     1
  3
Normal
350
1194
100
AcDbDictionaryWithDefault
340
1194
  0
DICTIONARY
  5
11D3
102
{ACAD_REACTORS
330
1196
102
}
330
1196
100
AcDbDictionary
281
     1
  3
A0
350
11DA
  3
A1
350
11DB
  3
A2
350
11DC
  3
A3
350
11DD
  3
A4
350
11DE
  3
A5
350
11DF
  3
A6
350
11E0
  3
A7
350
11E1
  3
A8
350
11E2
  3
A9
350
11E3
  3
B0
350
11E4
  3
B1
350
11E5
  3
B2
350
11E6
  3
B3
350
11E7
  3
B4
350
11E8
  3
B5
350
11E9
  3
B6
350
11EA
  3
B7
350
11EB
  3
B8
350
11EC
  3
B9
350
11ED
  3
C0
350
11EE
  3
C1
350
11EF
  3
C2
350
11F0
  3
C3
350
11F1
  3
C4
350
11F2
  3
C5
350
11F3
  3
C6
350
11F4
  3
C7
350
11F5
  3
C8
350
11F6
  3
C9
350
11F7
  3
D0
350
11F8
  3
D1
350
11F9
  3
D2
350
11FA
  0
DICTIONARY
  5
11D4
102
{ACAD_REACTORS
330
1196
102
}
330
1196
100
AcDbDictionary
281
     1
  3
Standard
350
11D7
  0
DICTIONARY
  5
11B9
102
{ACAD_REACTORS
330
1196
102
}
330
1196
100
AcDbDictionary
281
     1
  3
2dWireframe
350
11B8
  3
3D Hidden
350
1358
  3
3dWireframe
350
11D9
  3
Basic
350
1357
  3
Brighten
350
135B
  3
ColorChange
350
135F
  3
Conceptual
350
1359
  3
Dim
350
135A
  3
EdgeColorOff
350
1362
  3
Facepattern
350
135E
  3
Flat
350
1353
  3
FlatWithEdges
350
1354
  3
Gouraud
350
1355
  3
GouraudWithEdges
350
1356
  3
JitterOff
350
1360
  3
Linepattern
350
135D
  3
OverhangOff
350
1361
  3
Realistic
350
11D8
  3
Thicken
350
135C
  0
XRECORD
  5
1287
102
{ACAD_REACTORS
330
1196
102
}
330
1196
100
AcDbXrecord
280
     1
 90
   990106
  3
 
 60
     0
 61
     0
 62
     1
 63
     1
 64
     0
 65
     0
 66
     0
 67
     3
 68
     1
 69
     1
 70
     0
 71
     0
 72
     0
 40
0.0
170
     0
  0
XRECORD
  5
18AF
102
{ACAD_REACTORS
330
1196
102
}
330
1196
100
AcDbXrecord
280
     1
 90
        1
330
11D7
  0
DICTIONARY
  5
133E
102
{ACAD_REACTORS
330
1196
102
}
330
1196
100
AcDbDictionary
281
     1
  3
CANNOSCALE
350
1342
  3
CMLEADERSTYLE
350
1340
  3
CTABLESTYLE
350
133F
  3
LAYEREVAL
350
1344
  3
LAYERNOTIFY
350
1345
  3
LIGHTINGUNITS
350
1343
  3
MSLTSCALE
350
1341
  0
DICTIONARY
  5
143F
102
{ACAD_REACTORS
330
1196
102
}
330
1196
100
AcDbDictionary
281
     1
  0
DICTIONARY
  5
1281
102
{ACAD_REACTORS
330
11AC
102
}
330
11AC
100
AcDbDictionary
281
     1
  0
DICTIONARY
  5
11AD
102
{ACAD_REACTORS
330
11AC
102
}
330
11AC
100
AcDbDictionary
281
     1
  0
XRECORD
  5
1283
102
{ACAD_REACTORS
330
1282
102
}
330
1282
100
AcDbXrecord
280
     1
290
     0
292
     0
330
11A2
294
     0
  0
XRECORD
  5
1285
102
{ACAD_REACTORS
330
1284
102
}
330
1284
100
AcDbXrecord
280
     1
290
     0
292
     0
330
11A2
294
     0
  0
SORTENTSTABLE
  5
133C
102
{ACAD_REACTORS
330
133B
102
}
330
133B
100
AcDbSortentsTable
330
1191
331
1050
  5
111B
331
110A
  5
103C
331
1058
  5
1123
331
1112
  5
1044
331
1019
  5
10E5
331
1060
  5
112B
331
FA3
  5
FA3
331
111A
  5
104C
331
1122
  5
1054
331
1029
  5
10F4
331
1068
  5
1133
331
1147
  5
114A
331
1070
  5
113B
331
1177
  5
1177
331
10EB
  5
101D
331
112A
  5
105C
331
1031
  5
10FC
331
1078
  5
1143
331
10F3
  5
1025
331
1132
  5
1064
331
1039
  5
1104
331
1041
  5
110C
331
10FB
  5
102D
331
113A
  5
106C
331
1022
  5
10EE
331
1049
  5
1114
331
1103
  5
1035
331
1051
  5
111C
331
110B
  5
103D
331
1113
  5
1045
331
F9C
  5
F9C
331
1059
  5
1124
331
1061
  5
112C
331
1140
  5
1072
331
FA4
  5
FA4
331
111B
  5
104D
331
101A
  5
10E6
331
102A
  5
10F5
331
1069
  5
1134
331
10E4
  5
1016
331
1123
  5
1055
331
1032
  5
10FD
331
1071
  5
113C
331
10EC
  5
101E
331
112B
  5
105D
331
1148
  5
1077
331
1133
  5
1065
331
103A
  5
1105
331
10F4
  5
1026
331
1079
  5
1144
331
10FC
  5
102E
331
113B
  5
106D
331
1042
  5
110D
331
1104
  5
1036
331
1023
  5
10EF
331
104A
  5
1115
331
1052
  5
111D
331
110C
  5
103E
331
105A
  5
1125
331
F9D
  5
F9D
331
1114
  5
1046
331
101B
  5
10E7
331
1062
  5
112D
331
1141
  5
1073
331
FA5
  5
FA5
331
111C
  5
104E
331
1124
  5
1056
331
102B
  5
10F6
331
10E5
  5
1017
331
106A
  5
1135
331
1072
  5
113D
331
10ED
  5
101F
331
112C
  5
105E
331
1033
  5
10FE
331
1149
  5
1078
331
103B
  5
1106
331
107A
  5
1145
331
10F5
  5
1027
331
1134
  5
1066
331
1043
  5
110E
331
10FD
  5
102F
331
113C
  5
106E
331
1024
  5
10F0
331
104B
  5
1116
331
1105
  5
1037
331
110D
  5
103F
331
1053
  5
111E
331
1115
  5
1047
331
F9E
  5
F9E
331
105B
  5
1126
331
1063
  5
112E
331
1142
  5
1146
331
FA6
  5
FA6
331
111D
  5
104F
331
101C
  5
10E8
331
6F0
  5
6F0
331
102C
  5
10F7
331
106B
  5
1136
331
10E6
  5
1018
331
1125
  5
1057
331
1034
  5
10FF
331
1073
  5
113E
331
10EE
  5
1020
331
112D
  5
105F
331
114A
  5
115C
331
1135
  5
1067
331
103C
  5
1107
331
10F6
  5
1028
331
10FE
  5
1030
331
113D
  5
106F
331
1044
  5
110F
331
104C
  5
1117
331
1106
  5
1038
331
1025
  5
10F1
331
1054
  5
111F
331
110E
  5
1040
331
105C
  5
1127
331
F9F
  5
F9F
331
1116
  5
1048
331
111E
  5
1050
331
101D
  5
10E9
331
FA7
  5
FA7
331
1064
  5
112F
331
1143
  5
1147
331
1126
  5
1058
331
102D
  5
10F8
331
10E7
  5
1019
331
106C
  5
1137
331
1074
  5
113F
331
10EF
  5
1021
331
112E
  5
1060
331
1035
  5
1100
331
103D
  5
1108
331
10F7
  5
1029
331
1136
  5
1068
331
1045
  5
1110
331
10FF
  5
1031
331
113E
  5
1070
331
1026
  5
10F2
331
104D
  5
1118
331
1107
  5
1039
331
110F
  5
1041
331
1055
  5
1120
331
105D
  5
1128
331
1117
  5
1049
331
1016
  5
115D
331
FA0
  5
FA0
331
1065
  5
1130
331
1144
  5
1074
331
111F
  5
1051
331
101E
  5
10EA
331
102E
  5
10F9
331
106D
  5
1138
331
10E8
  5
101A
331
1127
  5
1059
331
73A
  5
73A
331
112F
  5
1061
331
1036
  5
1101
331
1075
  5
1140
331
115C
  5
1148
331
10F0
  5
1022
331
1137
  5
1069
331
103E
  5
1109
331
10F8
  5
102A
331
1100
  5
1032
331
113F
  5
1071
331
1046
  5
1111
331
104E
  5
1119
331
1108
  5
103A
331
1027
  5
1079
331
1056
  5
1121
331
1110
  5
1042
331
1017
  5
107A
331
105E
  5
1129
331
FA1
  5
FA1
331
1118
  5
104A
331
1120
  5
1052
331
101F
  5
10EB
331
1066
  5
1131
331
1145
  5
1075
331
106E
  5
1139
331
1128
  5
105A
331
102F
  5
10FA
331
10E9
  5
101B
331
1076
  5
1141
331
115D
  5
1149
331
1037
  5
1102
331
10F1
  5
1023
331
1130
  5
1062
331
103F
  5
110A
331
10F9
  5
102B
331
1138
  5
106A
331
1020
  5
10EC
331
1047
  5
1112
331
1101
  5
1033
331
104F
  5
111A
331
1109
  5
103B
331
1057
  5
1122
331
1111
  5
1043
331
105F
  5
112A
331
FA2
  5
FA2
331
1119
  5
104B
331
1018
  5
10E4
331
1067
  5
1132
331
1146
  5
1076
331
1121
  5
1053
331
1028
  5
10F3
331
1030
  5
10FB
331
106F
  5
113A
331
1176
  5
1176
331
10EA
  5
101C
331
1129
  5
105B
331
1077
  5
1142
331
1131
  5
1063
331
1038
  5
1103
331
10F2
  5
1024
331
1139
  5
106B
331
1040
  5
110B
331
10FA
  5
102C
331
1102
  5
1034
331
1021
  5
10ED
331
1048
  5
1113
  0
SORTENTSTABLE
  5
179B
102
{ACAD_REACTORS
330
179A
102
}
330
179A
100
AcDbSortentsTable
330
11A4
  0
LAYOUT
  5
11A7
102
{ACAD_XDICTIONARY
360
11A8
102
}
102
{ACAD_REACTORS
330
11A3
102
}
330
11A3
100
AcDbPlotSettings
  1

  2
none_device
  4
Letter_(8.50_x_11.00_Inches)
  6

 40
6.35
 41
6.35
 42
6.350006
 43
6.350006
 44
215.899994
 45
279.399994
 46
0.0
 47
0.0
 48
0.0
 49
0.0
140
0.0
141
0.0
142
1.0
143
1.0
 70
   688
 72
     0
 73
     1
 74
     5
  7

 75
    16
147
1.0
 76
     0
 77
     2
 78
   300
148
0.0
149
0.0
100
AcDbLayout
  1
Layout1
 70
     1
 71
     1
 10
-0.25
 20
-0.25
 11
10.75
 21
8.25
 12
0.0
 22
0.0
 32
0.0
 14
1.049744
 24
0.799667
 34
-0.001526
 15
9.450623
 25
7.200577
 35
0.0
146
0.0
 13
0.0
 23
0.0
 33
0.0
 16
1.0
 26
0.0
 36
0.0
 17
0.0
 27
1.0
 37
0.0
 76
     0
330
11A4
1001
ACAD_PSEXT
1000
None
1000
None
1000
Not applicable
1000
The layout will not be plotted unless a new plotter configuration name is selected.
1070
     0
  0
LAYOUT
  5
11A2
102
{ACAD_REACTORS
330
11A3
102
}
330
11A3
100
AcDbPlotSettings
  1

  2
none_device
  4
ANSI_A_(8.50_x_11.00_Inches)
  6

 40
6.35
 41
19.049999
 42
6.350006
 43
19.049988
 44
215.899994
 45
279.399994
 46
0.0
 47
0.0
 48
0.0
 49
0.0
140
0.0
141
0.0
142
1.0
143
2.584895
 70
 11952
 72
     0
 73
     1
 74
     0
  7

 75
     0
147
0.386863
 76
     0
 77
     2
 78
   300
148
0.0
149
0.0
100
AcDbLayout
  1
Model
 70
     1
 71
     0
 10
0.0
 20
0.0
 11
12.0
 21
9.0
 12
0.0
 22
0.0
 32
0.0
 14
0.0
 24
0.0
 34
0.0
 15
0.0
 25
0.0
 35
0.0
146
0.0
 13
0.0
 23
0.0
 33
0.0
 16
1.0
 26
0.0
 36
0.0
 17
0.0
 27
1.0
 37
0.0
 76
     0
330
1191
  0
MATERIAL
  5
11CA
102
{ACAD_XDICTIONARY
360
11CB
102
}
102
{ACAD_REACTORS
330
1198
102
}
330
1198
100
AcDbMaterial
  1
ByBlock
 72
     0
 43
0.020833
 43
0.0
 43
0.0
 43
0.0
 43
0.0
 43
0.020833
 43
0.0
 43
0.0
 43
0.0
 43
0.0
 43
1.0
 43
0.0
 43
0.0
 43
0.0
 43
0.0
 43
1.0
 77
     0
 47
0.020833
 47
0.0
 47
0.0
 47
0.0
 47
0.0
 47
0.020833
 47
0.0
 47
0.0
 47
0.0
 47
0.0
 47
1.0
 47
0.0
 47
0.0
 47
0.0
 47
0.0
 47
1.0
171
     0
 49
0.020833
 49
0.0
 49
0.0
 49
0.0
 49
0.0
 49
0.020833
 49
0.0
 49
0.0
 49
0.0
 49
0.0
 49
1.0
 49
0.0
 49
0.0
 49
0.0
 49
0.0
 49
1.0
175
     0
142
0.020833
142
0.0
142
0.0
142
0.0
142
0.0
142
0.020833
142
0.0
142
0.0
142
0.0
142
0.0
142
1.0
142
0.0
142
0.0
142
0.0
142
0.0
142
1.0
179
     0
144
0.020833
144
0.0
144
0.0
144
0.0
144
0.0
144
0.020833
144
0.0
144
0.0
144
0.0
144
0.0
144
1.0
144
0.0
144
0.0
144
0.0
144
0.0
144
1.0
147
0.020833
147
0.0
147
0.0
147
0.0
147
0.0
147
0.020833
147
0.0
147
0.0
147
0.0
147
0.0
147
1.0
147
0.0
147
0.0
147
0.0
147
0.0
147
1.0
  0
MATERIAL
  5
11C2
102
{ACAD_XDICTIONARY
360
11C3
102
}
102
{ACAD_REACTORS
330
1198
102
}
330
1198
100
AcDbMaterial
  1
ByLayer
 72
     0
 43
0.020833
 43
0.0
 43
0.0
 43
0.0
 43
0.0
 43
0.020833
 43
0.0
 43
0.0
 43
0.0
 43
0.0
 43
1.0
 43
0.0
 43
0.0
 43
0.0
 43
0.0
 43
1.0
 77
     0
 47
0.020833
 47
0.0
 47
0.0
 47
0.0
 47
0.0
 47
0.020833
 47
0.0
 47
0.0
 47
0.0
 47
0.0
 47
1.0
 47
0.0
 47
0.0
 47
0.0
 47
0.0
 47
1.0
171
     0
 49
0.020833
 49
0.0
 49
0.0
 49
0.0
 49
0.0
 49
0.020833
 49
0.0
 49
0.0
 49
0.0
 49
0.0
 49
1.0
 49
0.0
 49
0.0
 49
0.0
 49
0.0
 49
1.0
175
     0
142
0.020833
142
0.0
142
0.0
142
0.0
142
0.0
142
0.020833
142
0.0
142
0.0
142
0.0
142
0.0
142
1.0
142
0.0
142
0.0
142
0.0
142
0.0
142
1.0
179
     0
144
0.020833
144
0.0
144
0.0
144
0.0
144
0.0
144
0.020833
144
0.0
144
0.0
144
0.0
144
0.0
144
1.0
144
0.0
144
0.0
144
0.0
144
0.0
144
1.0
147
0.020833
147
0.0
147
0.0
147
0.0
147
0.0
147
0.020833
147
0.0
147
0.0
147
0.0
147
0.0
147
1.0
147
0.0
147
0.0
147
0.0
147
0.0
147
1.0
  0
MATERIAL
  5
1197
102
{ACAD_XDICTIONARY
360
1199
102
}
102
{ACAD_REACTORS
330
1198
102
}
330
1198
100
AcDbMaterial
  1
Global
 72
     0
 43
0.020833
 43
0.0
 43
0.0
 43
0.0
 43
0.0
 43
0.020833
 43
0.0
 43
0.0
 43
0.0
 43
0.0
 43
1.0
 43
0.0
 43
0.0
 43
0.0
 43
0.0
 43
1.0
 77
     0
 47
0.020833
 47
0.0
 47
0.0
 47
0.0
 47
0.0
 47
0.020833
 47
0.0
 47
0.0
 47
0.0
 47
0.0
 47
1.0
 47
0.0
 47
0.0
 47
0.0
 47
0.0
 47
1.0
171
     0
 49
0.020833
 49
0.0
 49
0.0
 49
0.0
 49
0.0
 49
0.020833
 49
0.0
 49
0.0
 49
0.0
 49
0.0
 49
1.0
 49
0.0
 49
0.0
 49
0.0
 49
0.0
 49
1.0
175
     0
142
0.020833
142
0.0
142
0.0
142
0.0
142
0.0
142
0.020833
142
0.0
142
0.0
142
0.0
142
0.0
142
1.0
142
0.0
142
0.0
142
0.0
142
0.0
142
1.0
179
     0
144
0.020833
144
0.0
144
0.0
144
0.0
144
0.0
144
0.020833
144
0.0
144
0.0
144
0.0
144
0.0
144
1.0
144
0.0
144
0.0
144
0.0
144
0.0
144
1.0
147
0.020833
147
0.0
147
0.0
147
0.0
147
0.0
147
0.020833
147
0.0
147
0.0
147
0.0
147
0.0
147
1.0
147
0.0
147
0.0
147
0.0
147
0.0
147
1.0
  0
MLEADERSTYLE
  5
1363
102
{ACAD_REACTORS
330
11D5
102
}
330
11D5
100
AcDbMLeaderStyle
170
     2
171
     1
172
     0
 90
        2
 40
0.0
 41
0.0
173
     1
 91
-1056964608
340
11B2
 92
       -2
290
     1
 42
0.09
291
     1
 43
0.36
  3
Standard
 44
0.18
300

342
11AF
174
     1
178
     6
175
     1
176
     0
 93
-1056964608
 45
0.18
292
     0
297
     0
 46
0.18
 94
-1056964608
 47
1.0
 49
1.0
140
1.0
293
     1
141
0.0
294
     1
177
     0
142
1.0
295
     0
296
     0
143
0.125
1001
ACAD_MLEADERVER
1070
     2
  0
MLINESTYLE
  5
11D6
102
{ACAD_REACTORS
330
11C0
102
}
330
11C0
100
AcDbMlineStyle
  2
STANDARD
 70
     0
  3

 62
   256
 51
90.0
 52
90.0
 71
     2
 49
0.5
 62
   256
  6
BYLAYER
 49
-0.5
 62
   256
  6
BYLAYER
  0
ACDBPLACEHOLDER
  5
1194
102
{ACAD_REACTORS
330
1195
102
}
330
1195
  0
SCALE
  5
11DA
102
{ACAD_REACTORS
330
11D3
102
}
330
11D3
100
AcDbScale
 70
     0
300
1:1
140
1.0
141
1.0
290
     1
  0
SCALE
  5
11DB
102
{ACAD_REACTORS
330
11D3
102
}
330
11D3
100
AcDbScale
 70
     0
300
1:2
140
1.0
141
2.0
290
     0
  0
SCALE
  5
11DC
102
{ACAD_REACTORS
330
11D3
102
}
330
11D3
100
AcDbScale
 70
     0
300
1:4
140
1.0
141
4.0
290
     0
  0
SCALE
  5
11DD
102
{ACAD_REACTORS
330
11D3
102
}
330
11D3
100
AcDbScale
 70
     0
300
1:5
140
1.0
141
5.0
290
     0
  0
SCALE
  5
11DE
102
{ACAD_REACTORS
330
11D3
102
}
330
11D3
100
AcDbScale
 70
     0
300
1:8
140
1.0
141
8.0
290
     0
  0
SCALE
  5
11DF
102
{ACAD_REACTORS
330
11D3
102
}
330
11D3
100
AcDbScale
 70
     0
300
1:10
140
1.0
141
10.0
290
     0
  0
SCALE
  5
11E0
102
{ACAD_REACTORS
330
11D3
102
}
330
11D3
100
AcDbScale
 70
     0
300
1:16
140
1.0
141
16.0
290
     0
  0
SCALE
  5
11E1
102
{ACAD_REACTORS
330
11D3
102
}
330
11D3
100
AcDbScale
 70
     0
300
1:20
140
1.0
141
20.0
290
     0
  0
SCALE
  5
11E2
102
{ACAD_REACTORS
330
11D3
102
}
330
11D3
100
AcDbScale
 70
     0
300
1:30
140
1.0
141
30.0
290
     0
  0
SCALE
  5
11E3
102
{ACAD_REACTORS
330
11D3
102
}
330
11D3
100
AcDbScale
 70
     0
300
1:40
140
1.0
141
40.0
290
     0
  0
SCALE
  5
11E4
102
{ACAD_REACTORS
330
11D3
102
}
330
11D3
100
AcDbScale
 70
     0
300
1:50
140
1.0
141
50.0
290
     0
  0
SCALE
  5
11E5
102
{ACAD_REACTORS
330
11D3
102
}
330
11D3
100
AcDbScale
 70
     0
300
1:100
140
1.0
141
100.0
290
     0
  0
SCALE
  5
11E6
102
{ACAD_REACTORS
330
11D3
102
}
330
11D3
100
AcDbScale
 70
     0
300
2:1
140
2.0
141
1.0
290
     0
  0
SCALE
  5
11E7
102
{ACAD_REACTORS
330
11D3
102
}
330
11D3
100
AcDbScale
 70
     0
300
4:1
140
4.0
141
1.0
290
     0
  0
SCALE
  5
11E8
102
{ACAD_REACTORS
330
11D3
102
}
330
11D3
100
AcDbScale
 70
     0
300
8:1
140
8.0
141
1.0
290
     0
  0
SCALE
  5
11E9
102
{ACAD_REACTORS
330
11D3
102
}
330
11D3
100
AcDbScale
 70
     0
300
10:1
140
10.0
141
1.0
290
     0
  0
SCALE
  5
11EA
102
{ACAD_REACTORS
330
11D3
102
}
330
11D3
100
AcDbScale
 70
     0
300
100:1
140
100.0
141
1.0
290
     0
  0
SCALE
  5
11EB
102
{ACAD_REACTORS
330
11D3
102
}
330
11D3
100
AcDbScale
 70
     0
300
1/128" = 1'-0"
140
0.007813
141
12.0
290
     0
  0
SCALE
  5
11EC
102
{ACAD_REACTORS
330
11D3
102
}
330
11D3
100
AcDbScale
 70
     0
300
1/64" = 1'-0"
140
0.015625
141
12.0
290
     0
  0
SCALE
  5
11ED
102
{ACAD_REACTORS
330
11D3
102
}
330
11D3
100
AcDbScale
 70
     0
300
1/32" = 1'-0"
140
0.03125
141
12.0
290
     0
  0
SCALE
  5
11EE
102
{ACAD_REACTORS
330
11D3
102
}
330
11D3
100
AcDbScale
 70
     0
300
1/16" = 1'-0"
140
0.0625
141
12.0
290
     0
  0
SCALE
  5
11EF
102
{ACAD_REACTORS
330
11D3
102
}
330
11D3
100
AcDbScale
 70
     0
300
3/32" = 1'-0"
140
0.09375
141
12.0
290
     0
  0
SCALE
  5
11F0
102
{ACAD_REACTORS
330
11D3
102
}
330
11D3
100
AcDbScale
 70
     0
300
1/8" = 1'-0"
140
0.125
141
12.0
290
     0
  0
SCALE
  5
11F1
102
{ACAD_REACTORS
330
11D3
102
}
330
11D3
100
AcDbScale
 70
     0
300
3/16" = 1'-0"
140
0.1875
141
12.0
290
     0
  0
SCALE
  5
11F2
102
{ACAD_REACTORS
330
11D3
102
}
330
11D3
100
AcDbScale
 70
     0
300
1/4" = 1'-0"
140
0.25
141
12.0
290
     0
  0
SCALE
  5
11F3
102
{ACAD_REACTORS
330
11D3
102
}
330
11D3
100
AcDbScale
 70
     0
300
3/8" = 1'-0"
140
0.375
141
12.0
290
     0
  0
SCALE
  5
11F4
102
{ACAD_REACTORS
330
11D3
102
}
330
11D3
100
AcDbScale
 70
     0
300
1/2" = 1'-0"
140
0.5
141
12.0
290
     0
  0
SCALE
  5
11F5
102
{ACAD_REACTORS
330
11D3
102
}
330
11D3
100
AcDbScale
 70
     0
300
3/4" = 1'-0"
140
0.75
141
12.0
290
     0
  0
SCALE
  5
11F6
102
{ACAD_REACTORS
330
11D3
102
}
330
11D3
100
AcDbScale
 70
     0
300
1" = 1'-0"
140
1.0
141
12.0
290
     0
  0
SCALE
  5
11F7
102
{ACAD_REACTORS
330
11D3
102
}
330
11D3
100
AcDbScale
 70
     0
300
1-1/2" = 1'-0"
140
1.5
141
12.0
290
     0
  0
SCALE
  5
11F8
102
{ACAD_REACTORS
330
11D3
102
}
330
11D3
100
AcDbScale
 70
     0
300
3" = 1'-0"
140
3.0
141
12.0
290
     0
  0
SCALE
  5
11F9
102
{ACAD_REACTORS
330
11D3
102
}
330
11D3
100
AcDbScale
 70
     0
300
6" = 1'-0"
140
6.0
141
12.0
290
     0
  0
SCALE
  5
11FA
102
{ACAD_REACTORS
330
11D3
102
}
330
11D3
100
AcDbScale
 70
     0
300
1'-0" = 1'-0"
140
12.0
141
12.0
290
     0
  0
TABLESTYLE
  5
11D7
102
{ACAD_XDICTIONARY
360
1346
102
}
102
{ACAD_REACTORS
330
11D4
102
}
330
11D4
100
AcDbTableStyle
  3
Standard
 70
     0
 71
     0
 40
0.06
 41
0.06
280
     0
281
     0
  7
Standard
140
0.18
170
     2
 62
     0
 63
     7
283
     0
 90
        4
 91
        0
  1

274
    -2
284
     1
 64
     0
275
    -2
285
     1
 65
     0
276
    -2
286
     1
 66
     0
277
    -2
287
     1
 67
     0
278
    -2
288
     1
 68
     0
279
    -2
289
     1
 69
     0
  7
Standard
140
0.25
170
     5
 62
     0
 63
     7
283
     0
 90
        4
 91
        0
  1

274
    -2
284
     1
 64
     0
275
    -2
285
     1
 65
     0
276
    -2
286
     1
 66
     0
277
    -2
287
     1
 67
     0
278
    -2
288
     1
 68
     0
279
    -2
289
     1
 69
     0
  7
Standard
140
0.18
170
     5
 62
     0
 63
     7
283
     0
 90
        4
 91
        0
  1

274
    -2
284
     1
 64
     0
275
    -2
285
     1
 65
     0
276
    -2
286
     1
 66
     0
277
    -2
287
     1
 67
     0
278
    -2
288
     1
 68
     0
279
    -2
289
     1
 69
     0
  0
VISUALSTYLE
  5
11B8
102
{ACAD_XDICTIONARY
360
18B0
102
}
102
{ACAD_REACTORS
330
11B9
102
}
330
11B9
100
AcDbVisualStyle
  2

 70
     4
 71
     0
 72
     2
 73
     0
 90
        0
 40
-0.6
 41
-30.0
 62
     5
 63
     7
421
 16777215
 74
     1
 91
        4
 64
     7
 65
   257
 75
     1
175
     1
 42
1.0
 92
        0
 66
   257
 43
1.0
 76
     1
 77
     6
 78
     2
 67
     7
 79
     5
170
     0
171
     0
290
     0
174
     0
 93
        1
 44
0.0
173
     0
291
     0
 45
0.0
1001
ACAD
1000
AcDbSavedByObjectVersion
1070
     0
  0
VISUALSTYLE
  5
1358
102
{ACAD_XDICTIONARY
360
18C0
102
}
102
{ACAD_REACTORS
330
11B9
102
}
330
11B9
100
AcDbVisualStyle
  2

 70
     6
 71
     1
 72
     2
 73
     2
 90
        0
 40
-0.6
 41
-30.0
 62
     5
 63
     7
421
 16777215
 74
     2
 91
        2
 64
     7
 65
   257
 75
     2
175
     1
 42
179.0
 92
        0
 66
   257
 43
1.0
 76
     1
 77
     6
 78
     2
 67
     7
 79
     3
170
     0
171
     0
290
     0
174
     0
 93
        1
 44
0.0
173
     0
291
     0
 45
0.0
1001
ACAD
1000
AcDbSavedByObjectVersion
1070
     0
  0
VISUALSTYLE
  5
11D9
102
{ACAD_XDICTIONARY
360
18B4
102
}
102
{ACAD_REACTORS
330
11B9
102
}
330
11B9
100
AcDbVisualStyle
  2

 70
     5
 71
     0
 72
     2
 73
     0
 90
        0
 40
-0.6
 41
-30.0
 62
     5
 63
     7
421
 16777215
 74
     1
 91
        4
 64
     7
 65
   257
 75
     1
175
     1
 42
1.0
 92
        0
 66
   257
 43
1.0
 76
     1
 77
     6
 78
     2
 67
     7
 79
     5
170
     0
171
     0
290
     0
174
     0
 93
        1
 44
0.0
173
     0
291
     0
 45
0.0
1001
ACAD
1000
AcDbSavedByObjectVersion
1070
     0
  0
VISUALSTYLE
  5
1357
102
{ACAD_XDICTIONARY
360
18BE
102
}
102
{ACAD_REACTORS
330
11B9
102
}
330
11B9
100
AcDbVisualStyle
  2

 70
     7
 71
     1
 72
     0
 73
     1
 90
        0
 40
-0.6
 41
-30.0
 62
     5
 63
     7
421
 16777215
 74
     0
 91
        4
 64
     7
 65
   257
 75
     1
175
     1
 42
1.0
 92
        8
 66
     7
 43
1.0
 76
     1
 77
     6
 78
     2
 67
     7
 79
     5
170
     0
171
     0
290
     0
174
     0
 93
        1
 44
0.0
173
     0
291
     1
 45
0.0
1001
ACAD
1000
AcDbSavedByObjectVersion
1070
     0
  0
VISUALSTYLE
  5
135B
102
{ACAD_XDICTIONARY
360
18C6
102
}
102
{ACAD_REACTORS
330
11B9
102
}
330
11B9
100
AcDbVisualStyle
  2

 70
    12
 71
     2
 72
     2
 73
     0
 90
        0
 40
-0.6
 41
-30.0
 62
     5
 63
     7
421
 16777215
 74
     1
 91
        4
 64
     7
 65
   257
 75
     1
175
     1
 42
1.0
 92
        8
 66
     7
 43
1.0
 76
     1
 77
     6
 78
     2
 67
     7
 79
     5
170
     0
171
     0
290
     0
174
     0
 93
        1
 44
50.0
173
     0
291
     1
 45
0.0
1001
ACAD
1000
AcDbSavedByObjectVersion
1070
     0
  0
VISUALSTYLE
  5
135F
102
{ACAD_XDICTIONARY
360
18CE
102
}
102
{ACAD_REACTORS
330
11B9
102
}
330
11B9
100
AcDbVisualStyle
  2

 70
    16
 71
     2
 72
     2
 73
     3
 90
        0
 40
-0.6
 41
-30.0
 62
     5
 63
     8
421
  8421504
 74
     1
 91
        4
 64
     7
 65
   257
 75
     1
175
     1
 42
1.0
 92
        8
 66
     8
424
  8421504
 43
1.0
 76
     1
 77
     6
 78
     2
 67
     7
 79
     5
170
     0
171
     0
290
     0
174
     0
 93
        1
 44
0.0
173
     0
291
     1
 45
0.0
1001
ACAD
1000
AcDbSavedByObjectVersion
1070
     0
  0
VISUALSTYLE
  5
1359
102
{ACAD_XDICTIONARY
360
18C2
102
}
102
{ACAD_REACTORS
330
11B9
102
}
330
11B9
100
AcDbVisualStyle
  2

 70
     9
 71
     3
 72
     2
 73
     0
 90
        0
 40
-0.6
 41
-30.0
 62
     5
 63
     7
421
 16777215
 74
     2
 91
        2
 64
     7
 65
   257
 75
     1
175
     1
 42
179.0
 92
        8
 66
     7
 43
1.0
 76
     1
 77
     6
 78
     2
 67
     7
 79
     3
170
     0
171
     0
290
     0
174
     0
 93
        1
 44
0.0
173
     0
291
     0
 45
0.0
1001
ACAD
1000
AcDbSavedByObjectVersion
1070
     0
  0
VISUALSTYLE
  5
135A
102
{ACAD_XDICTIONARY
360
18C4
102
}
102
{ACAD_REACTORS
330
11B9
102
}
330
11B9
100
AcDbVisualStyle
  2

 70
    11
 71
     2
 72
     2
 73
     0
 90
        0
 40
-0.6
 41
-30.0
 62
     5
 63
     7
421
 16777215
 74
     1
 91
        4
 64
     7
 65
   257
 75
     1
175
     1
 42
1.0
 92
        8
 66
     7
 43
1.0
 76
     1
 77
     6
 78
     2
 67
     7
 79
     5
170
     0
171
     0
290
     0
174
     0
 93
        1
 44
-50.0
173
     0
291
     1
 45
0.0
1001
ACAD
1000
AcDbSavedByObjectVersion
1070
     0
  0
VISUALSTYLE
  5
1362
102
{ACAD_XDICTIONARY
360
18D4
102
}
102
{ACAD_REACTORS
330
11B9
102
}
330
11B9
100
AcDbVisualStyle
  2

 70
    22
 71
     2
 72
     2
 73
     0
 90
        0
 40
-0.6
 41
-30.0
 62
     5
 63
     7
421
 16777215
 74
     1
 91
        4
 64
     7
 65
   257
 75
     1
175
     1
 42
1.0
 92
        8
 66
     7
 43
1.0
 76
     1
 77
     6
 78
     2
 67
     7
 79
     5
170
     0
171
     0
290
     0
174
     0
 93
        1
 44
0.0
173
     0
291
     1
 45
0.0
1001
ACAD
1000
AcDbSavedByObjectVersion
1070
     0
  0
VISUALSTYLE
  5
135E
102
{ACAD_XDICTIONARY
360
18CC
102
}
102
{ACAD_REACTORS
330
11B9
102
}
330
11B9
100
AcDbVisualStyle
  2

 70
    15
 71
     2
 72
     2
 73
     0
 90
        0
 40
-0.6
 41
-30.0
 62
     5
 63
     7
421
 16777215
 74
     1
 91
        4
 64
     7
 65
   257
 75
     1
175
     1
 42
1.0
 92
        8
 66
     7
 43
1.0
 76
     1
 77
     6
 78
     2
 67
     7
 79
     5
170
     0
171
     0
290
     0
174
     0
 93
        1
 44
0.0
173
     0
291
     1
 45
0.0
1001
ACAD
1000
AcDbSavedByObjectVersion
1070
     0
  0
VISUALSTYLE
  5
1353
102
{ACAD_XDICTIONARY
360
18B6
102
}
102
{ACAD_REACTORS
330
11B9
102
}
330
11B9
100
AcDbVisualStyle
  2

 70
     0
 71
     2
 72
     1
 73
     1
 90
        2
 40
-0.6
 41
30.0
 62
     5
 63
     7
421
 16777215
 74
     0
 91
        4
 64
     7
 65
   257
 75
     1
175
     1
 42
1.0
 92
        8
 66
     7
 43
1.0
 76
     1
 77
     6
 78
     2
 67
     7
 79
     5
170
     0
171
     0
290
     0
174
     0
 93
       13
 44
0.0
173
     0
291
     1
 45
0.0
1001
ACAD
1000
AcDbSavedByObjectVersion
1070
     0
  0
VISUALSTYLE
  5
1354
102
{ACAD_XDICTIONARY
360
18B8
102
}
102
{ACAD_REACTORS
330
11B9
102
}
330
11B9
100
AcDbVisualStyle
  2

 70
     1
 71
     2
 72
     1
 73
     1
 90
        2
 40
-0.6
 41
30.0
 62
     5
 63
     7
421
 16777215
 74
     1
 91
        4
 64
     7
 65
   257
 75
     1
175
     1
 42
1.0
 92
        0
 66
   257
 43
1.0
 76
     1
 77
     6
 78
     2
 67
     7
 79
     5
170
     0
171
     0
290
     0
174
     0
 93
       13
 44
0.0
173
     0
291
     1
 45
0.0
1001
ACAD
1000
AcDbSavedByObjectVersion
1070
     0
  0
VISUALSTYLE
  5
1355
102
{ACAD_XDICTIONARY
360
18BA
102
}
102
{ACAD_REACTORS
330
11B9
102
}
330
11B9
100
AcDbVisualStyle
  2

 70
     2
 71
     2
 72
     2
 73
     1
 90
        2
 40
-0.6
 41
30.0
 62
     5
 63
     7
421
 16777215
 74
     0
 91
        4
 64
     7
 65
   257
 75
     1
175
     1
 42
1.0
 92
        0
 66
     7
 43
1.0
 76
     1
 77
     6
 78
     2
 67
     7
 79
     5
170
     0
171
     0
290
     0
174
     0
 93
       13
 44
0.0
173
     0
291
     1
 45
0.0
1001
ACAD
1000
AcDbSavedByObjectVersion
1070
     0
  0
VISUALSTYLE
  5
1356
102
{ACAD_XDICTIONARY
360
18BC
102
}
102
{ACAD_REACTORS
330
11B9
102
}
330
11B9
100
AcDbVisualStyle
  2

 70
     3
 71
     2
 72
     2
 73
     1
 90
        2
 40
-0.6
 41
30.0
 62
     5
 63
     7
421
 16777215
 74
     1
 91
        4
 64
     7
 65
   257
 75
     1
175
     1
 42
1.0
 92
        0
 66
   257
 43
1.0
 76
     1
 77
     6
 78
     2
 67
     7
 79
     5
170
     0
171
     0
290
     0
174
     0
 93
       13
 44
0.0
173
     0
291
     1
 45
0.0
1001
ACAD
1000
AcDbSavedByObjectVersion
1070
     0
  0
VISUALSTYLE
  5
1360
102
{ACAD_XDICTIONARY
360
18D0
102
}
102
{ACAD_REACTORS
330
11B9
102
}
330
11B9
100
AcDbVisualStyle
  2

 70
    20
 71
     2
 72
     2
 73
     0
 90
        0
 40
-0.6
 41
-30.0
 62
     5
 63
     7
421
 16777215
 74
     1
 91
        4
 64
     7
 65
   257
 75
     1
175
     1
 42
1.0
 92
       10
 66
     7
 43
1.0
 76
     1
 77
     6
 78
     2
 67
     7
 79
     5
170
     0
171
     0
290
     0
174
     0
 93
        1
 44
0.0
173
     0
291
     1
 45
0.0
1001
ACAD
1000
AcDbSavedByObjectVersion
1070
     0
  0
VISUALSTYLE
  5
135D
102
{ACAD_XDICTIONARY
360
18CA
102
}
102
{ACAD_REACTORS
330
11B9
102
}
330
11B9
100
AcDbVisualStyle
  2

 70
    14
 71
     2
 72
     2
 73
     0
 90
        0
 40
-0.6
 41
-30.0
 62
     5
 63
     7
421
 16777215
 74
     1
 91
        4
 64
     7
 65
   257
 75
     7
175
     7
 42
1.0
 92
        8
 66
     7
 43
1.0
 76
     1
 77
     6
 78
     2
 67
     7
 79
     5
170
     0
171
     0
290
     0
174
     0
 93
        1
 44
0.0
173
     0
291
     1
 45
0.0
1001
ACAD
1000
AcDbSavedByObjectVersion
1070
     0
  0
VISUALSTYLE
  5
1361
102
{ACAD_XDICTIONARY
360
18D2
102
}
102
{ACAD_REACTORS
330
11B9
102
}
330
11B9
100
AcDbVisualStyle
  2

 70
    21
 71
     2
 72
     2
 73
     0
 90
        0
 40
-0.6
 41
-30.0
 62
     5
 63
     7
421
 16777215
 74
     1
 91
        4
 64
     7
 65
   257
 75
     1
175
     1
 42
1.0
 92
        9
 66
     7
 43
1.0
 76
     1
 77
     6
 78
     2
 67
     7
 79
     5
170
     0
171
     0
290
     0
174
     0
 93
        1
 44
0.0
173
     0
291
     1
 45
0.0
1001
ACAD
1000
AcDbSavedByObjectVersion
1070
     0
  0
VISUALSTYLE
  5
11D8
102
{ACAD_XDICTIONARY
360
18B2
102
}
102
{ACAD_REACTORS
330
11B9
102
}
330
11B9
100
AcDbVisualStyle
  2

 70
     8
 71
     2
 72
     2
 73
     0
 90
        0
 40
-0.6
 41
-30.0
 62
     5
 63
     7
421
 16777215
 74
     1
 91
        0
 64
     7
 65
   257
 75
     1
175
     1
 42
1.0
 92
        8
 66
     8
424
  7895160
 43
1.0
 76
     1
 77
     6
 78
     2
 67
     7
 79
     5
170
     0
171
     0
290
     0
174
     0
 93
       13
 44
0.0
173
     0
291
     0
 45
0.0
1001
ACAD
1000
AcDbSavedByObjectVersion
1070
     0
  0
VISUALSTYLE
  5
135C
102
{ACAD_XDICTIONARY
360
18C8
102
}
102
{ACAD_REACTORS
330
11B9
102
}
330
11B9
100
AcDbVisualStyle
  2

 70
    13
 71
     2
 72
     2
 73
     0
 90
        0
 40
-0.6
 41
-30.0
 62
     5
 63
     7
421
 16777215
 74
     1
 91
        4
 64
     7
 65
   257
 75
     1
175
     1
 42
1.0
 92
       12
 66
     7
 43
1.0
 76
     1
 77
     6
 78
     2
 67
     7
 79
     5
170
     0
171
     0
290
     0
174
     0
 93
        1
 44
0.0
173
     0
291
     1
 45
0.0
1001
ACAD
1000
AcDbSavedByObjectVersion
1070
     0
  0
DICTIONARYVAR
  5
1342
102
{ACAD_REACTORS
330
133E
102
}
330
133E
100
DictionaryVariables
280
     0
  1
1:1
  0
DICTIONARYVAR
  5
1340
102
{ACAD_REACTORS
330
133E
102
}
330
133E
100
DictionaryVariables
280
     0
  1
STANDARD
  0
DICTIONARYVAR
  5
133F
102
{ACAD_REACTORS
330
133E
102
}
330
133E
100
DictionaryVariables
280
     0
  1
STANDARD
  0
DICTIONARYVAR
  5
1344
102
{ACAD_REACTORS
330
133E
102
}
330
133E
100
DictionaryVariables
280
     0
  1
1
  0
DICTIONARYVAR
  5
1345
102
{ACAD_REACTORS
330
133E
102
}
330
133E
100
DictionaryVariables
280
     0
  1
15
  0
DICTIONARYVAR
  5
1343
102
{ACAD_REACTORS
330
133E
102
}
330
133E
100
DictionaryVariables
280
     0
  1
0
  0
DICTIONARYVAR
  5
1341
102
{ACAD_REACTORS
330
133E
102
}
330
133E
100
DictionaryVariables
280
     0
  1
0
  0
DICTIONARY
  5
11A8
330
11A7
100
AcDbDictionary
280
     1
281
     1
  3
ADSK_XREC_LAYOUTTHUMBNAIL
360
11A9
  0
DICTIONARY
  5
11CB
330
11CA
100
AcDbDictionary
280
     1
281
     1
  3
BUMPTILE
360
11CC
  3
DIFFUSETILE
360
11CD
  3
OPACITYTILE
360
11CE
  3
REFLECTIONTILE
360
11CF
  3
REFRACTIONTILE
360
11D0
  3
SPECULARTILE
360
11D1
  0
DICTIONARY
  5
11C3
330
11C2
100
AcDbDictionary
280
     1
281
     1
  3
BUMPTILE
360
11C4
  3
DIFFUSETILE
360
11C5
  3
OPACITYTILE
360
11C6
  3
REFLECTIONTILE
360
11C7
  3
REFRACTIONTILE
360
11C8
  3
SPECULARTILE
360
11C9
  0
DICTIONARY
  5
1199
330
1197
100
AcDbDictionary
280
     1
281
     1
  3
BUMPTILE
360
119A
  3
DIFFUSETILE
360
119B
  3
OPACITYTILE
360
119C
  3
REFLECTIONTILE
360
119D
  3
REFRACTIONTILE
360
119E
  3
SPECULARTILE
360
119F
  0
DICTIONARY
  5
1346
330
11D7
100
AcDbDictionary
280
     1
281
     1
  3
ACAD_ROUNDTRIP_2008_TABLESTYLE_CELLSTYLEMAP
360
18AE
  0
DICTIONARY
  5
18B0
330
11B8
100
AcDbDictionary
280
     1
281
     1
  3
ACAD_XREC_ROUNDTRIP
360
18B1
  0
DICTIONARY
  5
18C0
330
1358
100
AcDbDictionary
280
     1
281
     1
  3
ACAD_XREC_ROUNDTRIP
360
18C1
  0
DICTIONARY
  5
18B4
330
11D9
100
AcDbDictionary
280
     1
281
     1
  3
ACAD_XREC_ROUNDTRIP
360
18B5
  0
DICTIONARY
  5
18BE
330
1357
100
AcDbDictionary
280
     1
281
     1
  3
ACAD_XREC_ROUNDTRIP
360
18BF
  0
DICTIONARY
  5
18C6
330
135B
100
AcDbDictionary
280
     1
281
     1
  3
ACAD_XREC_ROUNDTRIP
360
18C7
  0
DICTIONARY
  5
18CE
330
135F
100
AcDbDictionary
280
     1
281
     1
  3
ACAD_XREC_ROUNDTRIP
360
18CF
  0
DICTIONARY
  5
18C2
330
1359
100
AcDbDictionary
280
     1
281
     1
  3
ACAD_XREC_ROUNDTRIP
360
18C3
  0
DICTIONARY
  5
18C4
330
135A
100
AcDbDictionary
280
     1
281
     1
  3
ACAD_XREC_ROUNDTRIP
360
18C5
  0
DICTIONARY
  5
18D4
330
1362
100
AcDbDictionary
280
     1
281
     1
  3
ACAD_XREC_ROUNDTRIP
360
18D5
  0
DICTIONARY
  5
18CC
330
135E
100
AcDbDictionary
280
     1
281
     1
  3
ACAD_XREC_ROUNDTRIP
360
18CD
  0
DICTIONARY
  5
18B6
330
1353
100
AcDbDictionary
280
     1
281
     1
  3
ACAD_XREC_ROUNDTRIP
360
18B7
  0
DICTIONARY
  5
18B8
330
1354
100
AcDbDictionary
280
     1
281
     1
  3
ACAD_XREC_ROUNDTRIP
360
18B9
  0
DICTIONARY
  5
18BA
330
1355
100
AcDbDictionary
280
     1
281
     1
  3
ACAD_XREC_ROUNDTRIP
360
18BB
  0
DICTIONARY
  5
18BC
330
1356
100
AcDbDictionary
280
     1
281
     1
  3
ACAD_XREC_ROUNDTRIP
360
18BD
  0
DICTIONARY
  5
18D0
330
1360
100
AcDbDictionary
280
     1
281
     1
  3
ACAD_XREC_ROUNDTRIP
360
18D1
  0
DICTIONARY
  5
18CA
330
135D
100
AcDbDictionary
280
     1
281
     1
  3
ACAD_XREC_ROUNDTRIP
360
18CB
  0
DICTIONARY
  5
18D2
330
1361
100
AcDbDictionary
280
     1
281
     1
  3
ACAD_XREC_ROUNDTRIP
360
18D3
  0
DICTIONARY
  5
18B2
330
11D8
100
AcDbDictionary
280
     1
281
     1
  3
ACAD_XREC_ROUNDTRIP
360
18B3
  0
DICTIONARY
  5
18C8
330
135C
100
AcDbDictionary
280
     1
281
     1
  3
ACAD_XREC_ROUNDTRIP
360
18C9
  0
XRECORD
  5
11A9
102
{ACAD_REACTORS
330
11A8
102
}
330
11A8
100
AcDbXrecord
280
     1
310
28000000B40000008B0000000100080000000000BC61000000000000000000000001000000000000FFFFFF0000000000FFFFFF000000000000000000000000000000000000000000000000000000000000000000330000006600000099000000CC000000FF00000000330000333300006633000099330000CC330000FF3300
310
0000660000336600006666000099660000CC660000FF66000000990000339900006699000099990000CC990000FF99000000CC000033CC000066CC000099CC0000CCCC0000FFCC000000FF000033FF000066FF000099FF0000CCFF0000FFFF000000003300330033006600330099003300CC003300FF003300003333003333
310
33006633330099333300CC333300FF33330000663300336633006666330099663300CC663300FF66330000993300339933006699330099993300CC993300FF99330000CC330033CC330066CC330099CC3300CCCC3300FFCC330000FF330033FF330066FF330099FF3300CCFF3300FFFF330000006600330066006600660099
310
006600CC006600FF00660000336600333366006633660099336600CC336600FF33660000666600336666006666660099666600CC666600FF66660000996600339966006699660099996600CC996600FF99660000CC660033CC660066CC660099CC6600CCCC6600FFCC660000FF660033FF660066FF660099FF6600CCFF6600
310
FFFF660000009900330099006600990099009900CC009900FF00990000339900333399006633990099339900CC339900FF33990000669900336699006666990099669900CC669900FF66990000999900339999006699990099999900CC999900FF99990000CC990033CC990066CC990099CC9900CCCC9900FFCC990000FF99
310
0033FF990066FF990099FF9900CCFF9900FFFF99000000CC003300CC006600CC009900CC00CC00CC00FF00CC000033CC003333CC006633CC009933CC00CC33CC00FF33CC000066CC003366CC006666CC009966CC00CC66CC00FF66CC000099CC003399CC006699CC009999CC00CC99CC00FF99CC0000CCCC0033CCCC0066CC
310
CC0099CCCC00CCCCCC00FFCCCC0000FFCC0033FFCC0066FFCC0099FFCC00CCFFCC00FFFFCC000000FF003300FF006600FF009900FF00CC00FF00FF00FF000033FF003333FF006633FF009933FF00CC33FF00FF33FF000066FF003366FF006666FF009966FF00CC66FF00FF66FF000099FF003399FF006699FF009999FF00CC
310
99FF00FF99FF0000CCFF0033CCFF0066CCFF0099CCFF00CCCCFF00FFCCFF0000FFFF0033FFFF0066FFFF0099FFFF00CCFFFF00FFFFFF00000000000D0D0D001A1A1A00282828003535350043434300505050005D5D5D006B6B6B00787878008686860093939300A1A1A100AEAEAE00BBBBBB00C9C9C900D6D6D600E4E4E400
310
F1F1F100FFFFFF0000000000000000000000000000000000000000000000000000000000000000000000000000000000E2E2E2E2E2E2E2E2E2E2E2E2E2E2E2E2E2E2E2E2E2E2E2E2E2E2E2E2E2E2E2E2E2E2E2E2E2E2E2E2E2E2E2E2E2E2E2E2E2E2E2E2E2E2E2E2E2E2E2E2E2E2E2E2E2E2E2E2E2E2E2E2E2E2E2E2E2E2E2
310
E2E2E2E2E2E2E2E2E2E2E2E2E2E2E2E2E2E2E2E2E2E2E2E2E2E2E2E2E2E2E2E2E2E2E2E2E2E2E2E2E2E2E2E2E2E2E2E2E2E2E2E2E2E2E2E2E2E2E2E2E2E2E2E2E2E2E2E2E2E2E2E2E2E2E2E2E2E2E2E2E2E2E2E2E2E2E2E2E2E2E2E2E2E2E2E2E2E2E2E2EFF5F5F5F5F5F5F5F5F5F5F5F5F5F5F5F5F5F5F5F5F5F5F5F5F5F5
310
F5F5F5F5F5F5F5F5F5F5F5F5F5F5F5F5F5F5F5F5F5F5F5F5F5F5F5F5F5F5F5F5F5F5F5F5F5F5F5F5F5F5F5F5F5F5F5F5F5F5F5F5F5F5F5F5F5F5F5F5F5F5F5F5F5F5F5F5F5F5F5F5F5F5F5F5F5F5F5F5F5F5F5F5F5F5F5F5F5F5F5F5F5F5F5F5F5F5F5F5F5F5F5F5F5F5F5F5F5F5F5F5F5F5F5F5F5F5F5F5F5F5F5F5F5F5F5
310
F5F5F5F5F5F5F5F5F5F5F5F5F5F5F5F5F5F5F5F5F5F5F5F5E2E2EFF5F5F5F5F5F5F5F5F5F5F5F5F5F5F5F5F5F5F5F5F5F5F5F5F5F5F5F5F5F5F5F5F5F5F5F5F5F5F5F5F5F5F5F5F5F5F5F5F5F5F5F5F5F5F5F5F5F5F5F5F5F5F5F5F5F5F5F5F5F5F5F5F5F5F5F5F5F5F5F5F5F5F5F5F5F5F5F5F5F5F5F5F5F5F5F5F5F5F5F5
310
F5F5F5F5F5F5F5F5F5F5F5F5F5F5F5F5F5F5F5F5F5F5F5F5F5F5F5F5F5F5F5F5F5F5F5F5F5F5F5F5F5F5F5F5F5F5F5F5F5F5F5F5F5F5F5F5F5F5F5F5F5F5F5F5F5F5F5F5F5F5F5F5F5F5F5F5F5E2E2EFF5F5F5F5F5F5F5F5F5F5F5F5F5F5F5F5F5F5F5F5F5F5F5F5F5F5F5F5F5F5F5F5F5F5F5F5F5F5F5F5F5F5F5F5F5F5F5
310
F5F5F5F5F5F5F5F5F5F5F5F5F5F5F5F5F5F5F5F5F5F5F5F5F5F5F5F5F5F5F5F5F5F5F5F5F5F5F5F5F5F5F5F5F5F5F5F5F5F5F5F5F5F5F5F5F5F5F5F5F5F5F5F5F5F5F5F5F5F5F5F5F5F5F5F5F5F5F5F5F5F5F5F5F5F5F5F5F5F5F5F5F5F5F5F5F5F5F5F5F5F5F5F5F5F5F5F5F5F5F5F5F5F5F5F5F5F5F5F5F5F5F5F5F5F5F5
310
F5F5F5E2E2EFF5F5F5E2E2E2E2E2E2E2E2F5F5F5F5F5F5F5F5F5E2E2E2E2E2E2E2E2E2E2E2E2E2E2E2E2F5F5F5F5F5F5F5F5E2E2E2E2E2E2E2E2E2E2E2E2E2E2E2E2F5F5F5F5F5F5F5F5F5E2E2E2E2E2E2E2E2E2E2E2E2E2E2E2F5F5F5F5F5F5F5F5F5E2E2E2E2E2E2E2E2E2E2E2E2E2E2E2F5F5F5F5F5F5F5F5F5E2E2E2E2
310
E2E2E2E2E2E2E2E2E2E2E2E2F5F5F5F5F5F5F5F5E2E2E2E2E2E2E2E2E2E2E2E2E2E2E2E2F5F5F5F5F5F5F5F5F5E2E2E2E2E2E2E2E2F5F5F5E2E2EFF5F5F5E2F5F5F5F5F5F5F5F5F5F5F5F5F5F5F5F5F5F5F5F5F5F5F5F5F5F5F5F5F5F5F5F5F5F5F5F5F5F5F5F5F5F5F5F5F5F5F5F5F5F5F5F5F5F5F5F5F5F5F5F5F5F5F5F5
310
F5F5F5F5F5F5F5F5F5F5F5F5F5F5F5F5F5F5F5F5F5F5F5F5F5F5F5F5F5F5F5F5F5F5F5F5F5F5F5F5F5F5F5F5F5F5F5F5F5F5F5F5F5F5F5F5F5F5F5F5F5F5F5F5F5F5F5F5F5F5F5F5F5F5F5F5F5F5F5F5F5F5F5F5F5F5F5F5F5F5F5F5F5F5F5F5F5F5F5F5F5F5F5F5F5E2F5F5F5E2E2EFF5F5F5E2F5F5F5F5F5F5F5F5F5F5F5
310
F5F5F5F5F5F5F5F5F5F5F5F5F5F5F5F5F5F5F5F5F5F5F5F5F5F5F5F5F5F5F5F5F5F5F5F5F5F5F5F5F5F5F5F5F5F5F5F5F5F5F5F5F5F5F5F5F5F5F5F5F5F5F5F5F5F5F5F5F5F5F5F5F5F5F5F5F5F5F5F5F5F5F5F5F5F5F5F5F5F5F5F5F5F5F5F5F5F5F5F5F5F5F5F5F5F5F5F5F5F5F5F5F5F5F5F5F5F5F5F5F5F5F5F5F5F5F5
310
F5F5F5F5F5F5F5F5F5F5F5F5F5F5F5F5F5F5F5F5F5F5F5F5F5F5F5F5F5F5F5E2F5F5F5E2E2EFF5F5F5E2F5F5F5F5F5F5F5F5F5F5F5F5F5F5F5F5F5F5F5F5F5F5F5F5F5F5F5F5F5F5F5F5F5F5F5F5F5F5F5F5F5F5F5F5F5F5F5F5F5F5F5F5F5F5F5F5F5F5F5F5F5F5F5F5F5F5F5F5F5F5F5F5F5F5F5F5F5F5F5F5F5F5F5F5F5
310
F5F5F5F5F5F5F5F5F5F5F5F5F5F5F5F5F5F5F5F5F5F5F5F5F5F5F5F5F5F5F5F5F5F5F5F5F5F5F5F5F5F5F5F5F5F5F5F5F5F5F5F5F5F5F5F5F5F5F5F5F5F5F5F5F5F5F5F5F5F5F5F5F5F5F5F5F5F5F5F5F5F5F5F5E2F5F5F5E2E2EFF5F5F5E2F5F5F5F5F5F5F5F5F5F5F5F5F5F5F5F5F5F5F5F5F5F5F5F5F5F5F5F5F5F5F5F5
310
F5F5F5F5F5F5F5F5F5F5F5F5F5F5F5F5F5F5F5F5F5F5F5F5F5F5F5F5F5F5F5F5F5F5F5F5F5F5F5F5F5F5F5F5F5F5F5F5F5F5F5F5F5F5F5F5F5F5F5F5F5F5F5F5F5F5F5F5F5F5F5F5F5F5F5F5F5F5F5F5F5F5F5F5F5F5F5F5F5F5F5F5F5F5F5F5F5F5F5F5F5F5F5F5F5F5F5F5F5F5F5F5F5F5F5F5F5F5F5F5F5F5F5F5F5F5F5
310
F5F5F5F5F5F5F5F5F5F5E2F5F5F5E2E2EFF5F5F5E2F5F5F5F5F5F5F5F5F5F5F5F5F5F5F5F5F5F5F5F5F5F5F5F5F5F5F5F5F5F5F5F5F5F5F5F5F5F5F5F5F5F5F5F5F5F5F5F5F5F5F5F5F5F5F5F5F5F5F5F5F5F5F5F5F5F5F5F5F5F5F5F5F5F5F5F5F5F5F5F5F5F5F5F5F5F5F5F5F5F5F5F5F5F5F5F5F5F5F5F5F5F5F5F5F5F5
310
F5F5F5F5F5F5F5F5F5F5F5F5F5F5F5F5F5F5F5F5F5F5F5F5F5F5F5F5F5F5F5F5F5F5F5F5F5F5F5F5F5F5F5F5F5F5F5F5F5F5F5F5F5F5F5F5F5F5F5F5F5F5F5E2F5F5F5E2E2EFF5F5F5E2F5F5F5F5F5F5F5F5F5F5F5F5F5F5F5F5F5F5F5F5F5F5F5F5F5F5F5F5F5F5F5F5F5F5F5F5F5F5F5F5F5F5F5F5F5F5F5F5F5F5F5F5F5
310
F5F5F5F5F5F5F5F5F5F5F5F5F5F5F5F5F5F5F5F5F5F5F5F5F5F5F5F5F5F5F5F5F5F5F5F5F5F5F5F5F5F5F5F5F5F5F5F5F5F5F5F5F5F5F5F5F5F5F5F5F5F5F5F5F5F5F5F5F5F5F5F5F5F5F5F5F5F5F5F5F5F5F5F5F5F5F5F5F5F5F5F5F5F5F5F5F5F5F5F5F5F5F5F5F5F5F5F5F5F5F5F5F5F5F5F5E2F5F5F5E2E2EFF5F5F5E2
310
F5F5F5F5F5F5F5F5F5F5F5F5F5F5F5F5F5F5F5F5F5F5F5F5F5F5F5F5F5F5F5F5F5F5F5F5F5F5F5F5F5F5F5F5F5F5F5F5F5F5F5F5F5F5F5F5F5F5F5F5F5F5F5F5F5F5F5F5F5F5F5F5F5F5F5F5F5F5F5F5F5F5F5F5F5F5F5F5F5F5F5F5F5F5F5F5F5F5F5F5F5F5F5F5F5F5F5F5F5F5F5F5F5F5F5F5F5F5F5F5F5F5F5F5F5F5F5
310
F5F5F5F5F5F5F5F5F5F5F5F5F5F5F5F5F5F5F5F5F5F5F5F5F5F5F5F5F5F5F5F5F5F5F5F5F5F5F5F5F5F5E2F5F5F5E2E2EFF5F5F5E2F5F5F5F5F5F5F5F5F5F5F5F5F5F5F5F5F5F5F5F5F5F5F5F5F5F5F5F5F5F5F5F5F5F5F5F5F5F5F5F5F5F5F5F5F5F5F5F5F5F5F5F5F5F5F5F5F5F5F5F5F5F5F5F5F5F5F5F5F5F5F5F5F5F5
310
F5F5F5F5F5F5F5F5F5F5F5F5F5F5F5F5F5F5F5F5F5F5F5F5F5F5F5F5F5F5F5F5F5F5F5F5F5F5F5F5F5F5F5F5F5F5F5F5F5F5F5F5F5F5F5F5F5F5F5F5F5F5F5F5F5F5F5F5F5F5F5F5F5F5F5F5F5F5F5F5F5F5F5F5F5F5F5F5F5F5F5F5F5F5F5E2F5F5F5E2E2EFF5F5F5F5F5F5F5F5F5F5F5F5F5F5F5F5F5F5F5F5F5F5F5F5F5
310
F5F5F5F5F5F5F5F5F5F5F5F5F5F5F5F5F5F5F5F5F5F5F5F5F5F5F5F5F5F5F5F5F5F5F5F5F5F5F5F5F5F5F5F5F5F5F5F5F5F5F5F5F5F5F5F5F5F5F5F5F5F5F5F5F5F5F5F5F5F5F5F5F5F5F5F5F5F5F5F5F5F5F5F5F5F5F5F5F5F5F5F5F5F5F5F5F5F5F5F5F5F5F5F5F5F5F5F5F5F5F5F5F5F5F5F5F5F5F5F5F5F5F5F5F5F5F5
310
F5F5F5F5F5F5F5F5F5F5F5F5F5F5F5F5F5F5F5F5F5F5F5F5F5E2E2EFF5F5F5F5F5F5F5F5F5F5F5F5F5F5F5F5F5F5F5F5F5F5F5F5F5F5F5F5F5F5F5F5F5F5F5F5F5F5F5F5F5F5F5F5F5F5F5F5F5F5F5F5F5F5F5F5F5F5F5F5F5F5F5F5F5F5F5F5F5F5F5F5F5F5F5F5F5F5F5F5F5F5F5F5F5F5F5F5F5F5F5F5F5F5F5F5F5F5F5
310
F5F5F5F5F5F5F5F5F5F5F5F5F5F5F5F5F5F5F5F5F5F5F5F5F5F5F5F5F5F5F5F5F5F5F5F5F5F5F5F5F5F5F5F5F5F5F5F5F5F5F5F5F5F5F5F5F5F5F5F5F5F5F5F5F5F5F5F5F5F5F5F5F5F5F5F5F5F5E2E2EFF5F5F5F5F5F5F5F5F5F5F5F5F5F5F5F5F5F5F5F5F5F5F5F5F5F5F5F5F5F5F5F5F5F5F5F5F5F5F5F5F5F5F5F5F5F5
310
F5F5F5F5F5F5F5F5F5F5F5F5F5F5F5F5F5F5F5F5F5F5F5F5F5F5F5F5F5F5F5F5F5F5F5F5F5F5F5F5F5F5F5F5F5F5F5F5F5F5F5F5F5F5F5F5F5F5F5F5F5F5F5F5F5F5F5F5F5F5F5F5F5F5F5F5F5F5F5F5F5F5F5F5F5F5F5F5F5F5F5F5F5F5F5F5F5F5F5F5F5F5F5F5F5F5F5F5F5F5F5F5F5F5F5F5F5F5F5F5F5F5F5F5F5F5F5
310
F5F5F5F5E2E2EFF5F5F5F5F5F5F5F5F5F5F5F5F5F5F5F5F5F5F5F5F5F5F5F5F5F5F5F5F5F5F5F5F5F5F5F5F5F5F5F5F5F5F5F5F5F5F5F5F5F5F5F5F5F5F5F5F5F5F5F5F5F5F5F5F5F5F5F5F5F5F5F5F5F5F5F5F5F5F5F5F5F5F5F5F5F5F5F5F5F5F5F5F5F5F5F5F5F5F5F5F5F5F5F5F5F5F5F5F5F5F5F5F5F5F5F5F5F5F5F5
310
F5F5F5F5F5F5F5F5F5F5F5F5F5F5F5F5F5F5F5F5F5F5F5F5F5F5F5F5F5F5F5F5F5F5F5F5F5F5F5F5F5F5F5F5F5F5F5F5F5F5F5F5F5F5F5F5F5E2E2EFF5F5F5F5F5F5F5F5F5F5F5F5F5F5F5F5F5F5F5F5E2E2E2E2E2E2E2E2E2E2E2E2E2E2E2E2E2E2E2E2E2E2E2E2E2E2E2E2E2E2E2E2E2E2E2E2E2E2E2E2E2E2E2E2E2E2E2
310
E2E2E2E2E2E2E2E2E2E2E2E2E2E2E2E2E2E2E2E2E2E2E2E2E2E2E2E2E2E2E2E2E2E2E2E2E2E2E2E2E2E2E2E2E2E2E2E2E2E2E2E2E2E2E2E2E2E2E2E2E2E2E2E2E2E2E2E2E2E2E2E2E2E2E2E2E2E2E2E2E2E2E2E2E2E2E2E2E2E2F5F5F5F5F5F5F5F5F5F5F5F5F5F5F5F5F5F5F5F5E2E2EFF5F5F5F5F5F5F5F5F5F5F5F5F5F5
310
F5F5F5F5F5F5E2F5F5F5F5F5F5F5F5F5F5F5F5F5F5F5F5F5F5F5F5F5F5F5F5F5F5F5F5F5F5F5F5F5F5F5F5F5F5F5F5F5F5F5F5F5F5F5F5F5F5F5F5F5F5F5F5F5F5F5F5F5F5F5F5F5F5F5F5F5F5F5F5F5F5F5F5F5F5F5F5F5F5F5F5F5F5F5F5F5F5F5F5F5F5F5F5F5F5F5F5F5F5F5F5F5F5F5F5F5F5F5F5F5F5F5F5F5F5F5F5
310
F5F5F5F5F5F5F5F5F5F5F5F5F5F5F5E2F5F5F5F5F5F5F5F5F5F5F5F5F5F5F5F5F5F5F5F5E2E2EFF5F5F5F5F5F5F5F5F5F5F5F5F5F5F5F5F5F5F5F5E2F5F5F5F5F5F5F5F5F5F5F5F5F5F5F5F5F5F5F5F5F5F5F5F5F5F5F5F5F5F5F5F5F5F5F5F5F5F5F5F5F5F5F5F5F5F5F5F5F5F5F5F5F5F5F5F5F5F5F5F5F5F5F5F5F5F5F5
310
F5F5F5F5F5F5F5F5F5F5F5F5F5F5F5F5F5F5F5F5F5F5F5F5F5F5F5F5F5F5F5F5F5F5F5F5F5F5F5F5F5F5F5F5F5F5F5F5F5F5F5F5F5F5F5F5F5F5F5F5F5F5F5F5F5F5F5F5E2F5F5F5F5F5F5F5F5F5F5F5F5F5F5F5F5F5F5F5F5E2E2EFF5F5F5F5F5F5F5F5F5F5F5F5F5F5F5F5F5F5F5F5E2F5F5F5F5F5F5F5F5F5F5F5F5F5F5
310
F5F5F5F5F5F5F5F5F5F5F5F5F5F5F5F5F5F5F5F5F5F5F5F5F5F5F5F5F5F5F5F5F5F5F5F5F5F5F5F5F5F5F5F5F5F5F5F5F5F5F5F5F5F5F5F5F5F5F5F5F5F5F5F5F5F5F5F5F5F5F5F5F5F5F5F5F5F5F5F5F5F5F5F5F5F5F5F5F5F5F5F5F5F5F5F5F5F5F5F5F5F5F5F5F5F5F5F5F5F5F5F5F5F5F5F5F5F5F5F5F5E2F5F5F5F5F5
310
F5F5F5F5F5F5F5F5F5F5F5F5F5F5F5E2E2EFF5F5F5F5F5F5F5F5F5F5F5F5F5F5F5F5F5F5F5F5E2F5F5F5F5F5F5F5F5F5F5F5F5F5F5F5F5F5F5F5F5F5F5F5F5F5F5F5F5F5F5F5F5F5F5F5F5F5F5F5F5F5F5F5F5F5F5F5F5F5F5F5F5F5F5F5F5F5F5F5F5F5F5F5F5F5F5F5F5F5F5F5F5F5F5F5F5F5F5F5F5F5F5F5F5F5F5F5F5
310
F5F5F5F5F5F5F5F5F5F5F5F5F5F5F5F5F5F5F5F5F5F5F5F5F5F5F5F5F5F5F5F5F5F5F5F5F5F5F5F5F5F5F5F5F5F5F5E2F5F5F5F5F5F5F5F5F5F5F5F5F5F5F5F5F5F5F5F5E2E2EFF5F5F5E2F5F5F5F5F5F5F5F5F5F5F5F5F5F5F5F5E2F5F5F5F5F5F5F5F5F5F5F5F5F5F5F5F5F5F5F5F5F5F5F5F5F5F5F5F5F5F5F5F5F5F5F5
310
F5F5F5F5F5F5F5F5F5F5F5F5F5F5F5F5F5F5F5F5F5F5F5F5F5F5F5F5F5F5F5F5F5F5F5F5F5F5F5F5F5F5F5F5F5F5F5F5F5F5F5F5F5F5F5F5F5F5F5F5F5F5F5F5F5F5F5F5F5F5F5F5F5F5F5F5F5F5F5F5F5F5F5F5F5F5F5F5F5F5F5F5F5F5F5F5F5F5F5F5E2F5F5F5F5F5F5F5F5F5F5F5F5F5F5F5F5E2F5F5F5E2E2EFF5F5F5
310
E2F5F5F5F5F5F5F5F5F5F5F5F5F5F5F5F5E2F5F5F5F5F5F5F5F5F5F5F5F5F5F5F5F5F5F5F5F5F5F5F5F5F5F5F5F5F5F5F5F5F5F5F5F5F5F5F5F5F5F5F5F5F5F5F5F5F5F5F5F5F5F5F5F5F5F5F5F5F5F5F5F5F5F5F5F5F5F5F5F5F5F5F5F5F5F5F5F5F5F5F5F5F5F5F5F5F5F5F5F5F5F5F5F5F5F5F5F5F5F5F5F5F5F5F5F5F5
310
F5F5F5F5F5F5F5F5F5F5F5F5F5F5F5F5F5F5F5F5F5F5F5F5F5F5E2F5F5F5F5F5F5F5F5F5F5F5F5F5F5F5F5E2F5F5F5E2E2EFF5F5F5E2F5F5F5F5F5F5F5F5F5F5F5F5F5F5F5F5E2F5F5F5F5F5F5F5F5F5F5F5F5F5F5F5F5F5F5F5F5F5F5F5F5F5F5F5F5F5F5F5F5F5F5F5F5F5F5F5F5F5F5F5F5F5F5F5F5F5F5F5F5F5F5F5F5
310
F5F5F5F5F5F5F5F5F5F5F5F5F5F5F5F5F5F5F5F5F5F5F5F5F5F5F5F5F5F5F5F5F5F5F5F5F5F5F5F5F5F5F5F5F5F5F5F5F5F5F5F5F5F5F5F5F5F5F5F5F5F5F5F5F5F5F5F5F5F5F5F5F5F5F5F5F5F5F5E2F5F5F5F5F5F5F5F5F5F5F5F5F5F5F5F5E2F5F5F5E2E2EFF5F5F5E2F5F5F5F5F5F5F5F5F5F5F5F5F5F5F5F5E2F5F5F5
310
F5F5F5F5F5F5F5F5F5F5F5F5F5F5F5F5F5F5F5F5F5F5F5F5F5F5F5F5F5F5F5F5F5F5F5F5F5F5F5F5F5F5F5F5F5F5F5F5F5F5F5F5F5F5F5F5F5F5F5F5F5F5F5F5F5F5F5F5F5F5F5F5F5F5F5F5F5F5F5F5F5F5F5F5F5F5F5F5F5F5F5F5F5F5F5F5F5F5F5F5F5F5F5F5F5F5F5F5F5F5F5F5F5F5F5F5F5F5F5F5F5F5F5F5F5F5F5
310
F5F5F5F5F5E2F5F5F5F5F5F5F5F5F5F5F5F5F5F5F5F5E2F5F5F5E2E2EFF5F5F5E2F5F5F5F5F5F5F5F5F5F5F5F5F5F5F5F5E2F5F5F5F5F5F5F5F5F5F5F5F5F5F5F5F5F5F5F5F5F5F5F5F5F5F5F5F5F5F5F5F5F5F5F5F5F5F5F5F5F5F5F5F5F5F5F5F5F5F5F5F5F5F5F5F5F5F5F5F5F5F5F5F5F5F5F5F5F5F5F5F5F5F5F5F5F5
310
F5F5F5F5F5F5F5F5F5F5F5F5F5F5F5F5F5F5F5F5F5F5F5F5F5F5F5F5F5F5F5F5F5F5F5F5F5F5F5F5F5F5F5F5F5F5F5F5F5F5F5F5F5F5F5F5F5F5E2F5F5F5F5F5F5F5F5F5F5F5F5F5F5F5F5E2F5F5F5E2E2EFF5F5F5E2F5F5F5F5F5F5F5F5F5F5F5F5F5F5F5F5E2F5F5F5F5F5F5F5F5F5F5F5F5F5F5F5F5F5F5F5F5F5F5F5F5
310
F5F5F5F5F5F5F5F5F5F5F5F5F5F5F5F5F5F5F5F5F5F5F5F5F5F5F5F5F5F5F5F5F5F5F5F5F5F5F5F5F5F5F5F5F5F5F5F5F5F5F5F5F5F5F5F5F5F5F5F5F5F5F5F5F5F5F5F5F5F5F5F5F5F5F5F5F5F5F5F5F5F5F5F5F5F5F5F5F5F5F5F5F5F5F5F5F5F5F5F5F5F5F5F5F5F5F5F5F5F5F5E2F5F5F5F5F5F5F5F5F5F5F5F5F5F5F5
310
F5E2F5F5F5E2E2EFF5F5F5E2F5F5F5F5F5F5F5F5F5F5F5F5F5F5F5F5E2F5F5F5F5F5F5F5F5F5F5F5F5F5F5F5F5F5F5F5F5F5F5F5F5F5F5F5F5F5F5F5F5F5F5F5F5F5F5F5F5F5F5F5F5F5F5F5F5F5F5F5F5F5F5F5F5F5F5F5F5F5F5F5F5F5F5F5F5F5F5F5F5F5F5F5F5F5F5F5F5F5F5F5F5F5F5F5F5F5F5F5F5F5F5F5F5F5F5
310
F5F5F5F5F5F5F5F5F5F5F5F5F5F5F5F5F5F5F5F5F5F5F5F5F5F5F5F5F5F5F5F5F5F5F5F5F5E2F5F5F5F5F5F5F5F5F5F5F5F5F5F5F5F5E2F5F5F5E2E2EFF5F5F5E2F5F5F5F5F5F5F5F5F5F5F5F5F5F5F5F5E2F5F5F5F5F5F5F5F5F5F5F5F5F5F5F5F5F5F5F5F5F5F5F5F5F5F5F5F5F5F5F5F5F5F5F5F5F5F5F5F5F5F5F5F5F5
310
F5F5F5F5F5F5F5F5F5F5F5F5F5F5F5F5F5F5F5F5F5F5F5F5F5F5F5F5F5F5F5F5F5F5F5F5F5F5F5F5F5F5F5F5F5F5F5F5F5F5F5F5F5F5F5F5F5F5F5F5F5F5F5F5F5F5F5F5F5F5F5F5F5F5F5F5F5F5F5F5F5F5F5F5F5F5F5F5F5F5E2F5F5F5F5F5F5F5F5F5F5F5F5F5F5F5F5E2F5F5F5E2E2EFF5F5F5E2F5F5F5F5F5F5F5F5F5
310
F5F5F5F5F5F5F5E2F5F5F5F5F5F5F5F5F5F5F5F5F5F5F5F5F5F5F5F5F5F5F5F5F5F5F5F5F5F5F5F5F5F5F5F5F5F5F5F5F5F5F5F5F5F5F5F5F5F5F5F5F5F5F5F5F5F5F5F5F5F5F5F5F5F5F5F5F5F5F5F5F5F5F5F5F5F5F5F5F5F5F5F5F5F5F5F5F5F5F5F5F5F5F5F5F5F5F5F5F5F5F5F5F5F5F5F5F5F5F5F5F5F5F5F5F5F5F5
310
F5F5F5F5F5F5F5F5F5F5F5F5F5F5F5F5E2F5F5F5F5F5F5F5F5F5F5F5F5F5F5F5F5E2F5F5F5E2E2EFF5F5F5E2F5F5F5F5F5F5F5F5F5F5F5F5F5F5F5F5E2F5F5F5F5F5F5F5F5F5F5F5F5F5F5F5F5F5F5F5F5F5F5F5F5F5F5F5F5F5F5F5F5F5F5F5F5F5F5F5F5F5F5F5F5F5F5F5F5F5F5F5F5F5F5F5F5F5F5F5F5F5F5F5F5F5F5
310
F5F5F5F5F5F5F5F5F5F5F5F5F5F5F5F5F5F5F5F5F5F5F5F5F5F5F5F5F5F5F5F5F5F5F5F5F5F5F5F5F5F5F5F5F5F5F5F5F5F5F5F5F5F5F5F5F5F5F5F5F5F5F5F5F5F5F5F5F5E2F5F5F5F5F5F5F5F5F5F5F5F5F5F5F5F5E2F5F5F5E2E2EFF5F5F5E2F5F5F5F5F5F5F5F5F5F5F5F5F5F5F5F5E2F5F5F5F5F5F5F5F5F5F5F5F5F5
310
F5F5F5F5F5F5F5F5F5F5F5F5F5F5F5F5F5F5F5F5F5F5F5F5F5F5F5F5F5F5F5F5F5F5F5F5F5F5F5F5F5F5F5F5F5F5F5F5F5F5F5F5F5F5F5F5F5F5F5F5F5F5F5F5F5F5F5F5F5F5F5F5F5F5F5F5F5F5F5F5F5F5F5F5F5F5F5F5F5F5F5F5F5F5F5F5F5F5F5F5F5F5F5F5F5F5F5F5F5F5F5F5F5F5F5F5F5F5F5F5F5F5E2F5F5F5F5
310
F5F5F5F5F5F5F5F5F5F5F5F5E2F5F5F5E2E2EFF5F5F5E2F5F5F5F5F5F5F5F5F5F5F5F5F5F5F5F5E2F5F5F5F5F5F5F5F5F5F5F5F5F5F5F5F5F5F5F5F5F5F5F5F5F5F5F5F5F5F5F5F5F5F5F5F5F5F5F5F5F5F5F5F5F5F5F5F5F5F5F5F5F5F5F5F5F5F5F5F5F5F5F5F5F5F5F5F5F5F5F5F5F5F5F5F5F5F5F5F5F5F5F5F5F5F5F5
310
F5F5F5F5F5F5F5F5F5F5F5F5F5F5F5F5F5F5F5F5F5F5F5F5F5F5F5F5F5F5F5F5F5F5F5F5F5F5F5F5F5F5F5F5F5F5F5F5E2F5F5F5F5F5F5F5F5F5F5F5F5F5F5F5F5E2F5F5F5E2E2EFF5F5F5E2F5F5F5F5F5F5F5F5F5F5F5F5F5F5F5F5E2F5F5F5F5F5F5F5F5F5F5F5F5F5F5F5F5F5F5F5F5F5F5F5F5F5F5F5F5F5F5F5F5F5F5
310
F5F5F5F5F5F5F5F5F5F5F5F5F5F5F5F5F5F5F5F5F5F5F5F5F5F5F5F5F5F5F5F5F5F5F5F5F5F5F5F5F5F5F5F5F5F5F5F5F5F5F5F5F5F5F5F5F5F5F5F5F5F5F5F5F5F5F5F5F5F5F5F5F5F5F5F5F5F5F5F5F5F5F5F5F5F5F5F5F5F5F5F5F5F5F5F5F5F5F5F5F5E2F5F5F5F5F5F5F5F5F5F5F5F5F5F5F5F5E2F5F5F5E2E2EFF5F5
310
F5E2F5F5F5F5F5F5F5F5F5F5F5F5F5F5F5F5E2F5F5F5F5F5F5F5F5F5F5F5F5F5F5F5F5F5F5F5F5F5F5F5F5F5F5F5F5F5F5F5F5F5F5F5F5F5F5F5F5F5F5F5F5F5F5F5F5F5F5F5F5F5F5F5F5F5F5F5F5F5F5F5F5F5F5F5F5F5F5F5F5F5F5F5F5F5F5F5F5F5F5F5F5F5F5F5F5F5F5F5F5F5F5F5F5F5F5F5F5F5F5F5F5F5F5F5F5
310
F5F5F5F5F5F5F5F5F5F5F5F5F5F5F5F5F5F5F5F5F5F5F5F5F5F5F5E2F5F5F5F5F5F5F5F5F5F5F5F5F5F5F5F5E2F5F5F5E2E2EFF5F5F5E2F5F5F5F5F5F5F5F5F5F5F5F5F5F5F5F5E2F5F5F5F5F5F5F5F5F5F5F5F5F5F5F5F5F5F5F5F5F5F5F5F5F5F5F5F5F5F5F5F5F5F5F5F5F5F5F5F5F5F5F5F5F5F5F5F5F5F5F5F5F5F5F5
310
F5F5F5F5F5F5F5F5F5F5F5F5F5F5F5F5F5F5F5F5F5F5F5F5F5F5F5F5F5F5F5F5F5F5F5F5F5F5F5F5F5F5F5F5F5F5F5F5F5F5F5F5F5F5F5F5F5F5F5F5F5F5F5F5F5F5F5F5F5F5F5F5F5F5F5F5F5F5F5F5E2F5F5F5F5F5F5F5F5F5F5F5F5F5F5F5F5E2F5F5F5E2E2EFF5F5F5E2F5F5F5F5F5F5F5F5F5F5F5F5F5F5F5F5E2F5F5
310
F5F5F5F5F5F5F5F5F5F5F5F5F5F5F5F5F5F5F5F5F5F5F5F5F5F5F5F5F5F5F5F5F5F5F5F5F5F5F5F5F5F5F5F5F5F5F5F5F5F5F5F5F5F5F5F5F5F5F5F5F5F5F5F5F5F5F5F5F5F5F5F5F5F5F5F5F5F5F5F5F5F5F5F5F5F5F5F5F5F5F5F5F5F5F5F5F5F5F5F5F5F5F5F5F5F5F5F5F5F5F5F5F5F5F5F5F5F5F5F5F5F5F5F5F5F5F5
310
F5F5F5F5F5F5E2F5F5F5F5F5F5F5F5F5F5F5F5F5F5F5F5E2F5F5F5E2E2EFF5F5F5E2F5F5F5F5F5F5F5F5F5F5F5F5F5F5F5F5E2F5F5F5F5F5F5F5F5F5F5F5F5F5F5F5F5F5F5F5F5F5F5F5F5F5F5F5F5F5F5F5F5F5F5F5F5F5F5F5F5F5F5F5F5F5F5F5F5F5F5F5F5F5F5F5F5F5F5F5F5F5F5F5F5F5F5F5F5F5F5F5F5F5F5F5F5
310
F5F5F5F5F5F5F5F5F5F5F5F5F5F5F5F5F5F5F5F5F5F5F5F5F5F5F5F5F5F5F5F5F5F5F5F5F5F5F5F5F5F5F5F5F5F5F5F5F5F5F5F5F5F5F5F5F5F5F5E2F5F5F5F5F5F5F5F5F5F5F5F5F5F5F5F5E2F5F5F5E2E2EFF5F5F5F5F5F5F5F5F5F5F5F5F5F5F5F5F5F5F5F5E2F5F5F5F5F5F5F5F5F5F5F5F5F5F5F5F5F5F5F5F5F5F5F5
310
F5F5F5F5F5F5F5F5F5F5F5F5F5F5F5F5F5F5F5F5F5F5F5F5F5F5F5F5F5F5F5F5F5F5F5F5F5F5F5F5F5F5F5F5F5F5F5F5F5F5F5F5F5F5F5F5F5F5F5F5F5F5F5F5F5F5F5F5F5F5F5F5F5F5F5F5F5F5F5F5F5F5F5F5F5F5F5F5F5F5F5F5F5F5F5F5F5F5F5F5F5F5F5F5F5F5F5F5F5F5F5F5E2F5F5F5F5F5F5F5F5F5F5F5F5F5F5
310
F5F5F5F5F5F5E2E2EFF5F5F5F5F5F5F5F5F5F5F5F5F5F5F5F5F5F5F5F5E2F5F5F5F5F5F5F5F5F5F5F5F5F5F5F5F5F5F5F5F5F5F5F5F5F5F5F5F5F5F5F5F5F5F5F5F5F5F5F5F5F5F5F5F5F5F5F5F5F5F5F5F5F5F5F5F5F5F5F5F5F5F5F5F5F5F5F5F5F5F5F5F5F5F5F5F5F5F5F5F5F5F5F5F5F5F5F5F5F5F5F5F5F5F5F5F5F5
310
F5F5F5F5F5F5F5F5F5F5F5F5F5F5F5F5F5F5F5F5F5F5F5F5F5F5F5F5F5F5F5F5F5F5F5F5F5F5E2F5F5F5F5F5F5F5F5F5F5F5F5F5F5F5F5F5F5F5F5E2E2EFF5F5F5F5F5F5F5F5F5F5F5F5F5F5F5F5F5F5F5F5E2F5F5F5F5F5F5F5F5F5F5F5F5F5F5F5F5F5F5F5F5F5F5F5F5F5F5F5F5F5F5F5F5F5F5F5F5F5F5F5F5F5F5F5F5
310
F5F5F5F5F5F5F5F5F5F5F5F5F5F5F5F5F5F5F5F5F5F5F5F5F5F5F5F5F5F5F5F5F5F5F5F5F5F5F5F5F5F5F5F5F5F5F5F5F5F5F5F5F5F5F5F5F5F5F5F5F5F5F5F5F5F5F5F5F5F5F5F5F5F5F5F5F5F5F5F5F5F5F5F5F5F5F5F5F5F5F5E2F5F5F5F5F5F5F5F5F5F5F5F5F5F5F5F5F5F5F5F5E2E2EFF5F5F5F5F5F5F5F5F5F5F5F5
310
F5F5F5F5F5F5F5F5E2F5F5F5F5F5F5F5F5F5F5F5F5F5F5F5F5F5F5F5F5F5F5F5F5F5F5F5F5F5F5F5F5F5F5F5F5F5F5F5F5F5F5F5F5F5F5F5F5F5F5F5F5F5F5F5F5F5F5F5F5F5F5F5F5F5F5F5F5F5F5F5F5F5F5F5F5F5F5F5F5F5F5F5F5F5F5F5F5F5F5F5F5F5F5F5F5F5F5F5F5F5F5F5F5F5F5F5F5F5F5F5F5F5F5F5F5F5F5
310
F5F5F5F5F5F5F5F5F5F5F5F5F5F5F5F5F5E2F5F5F5F5F5F5F5F5F5F5F5F5F5F5F5F5F5F5F5F5E2E2EFF5F5F5F5F5F5F5F5F5F5F5F5F5F5F5F5F5F5F5F5E2F5F5F5F5F5F5F5F5F5F5F5F5F5F5F5F5F5F5F5F5F5F5F5F5F5F5F5F5F5F5F5F5F5F5F5F5F5F5F5F5F5F5F5F5F5F5F5F5F5F5F5F5F5F5F5F5F5F5F5F5F5F5F5F5F5
310
F5F5F5F5F5F5F5F5F5F5F5F5F5F5F5F5F5F5F5F5F5F5F5F5F5F5F5F5F5F5F5F5F5F5F5F5F5F5F5F5F5F5F5F5F5F5F5F5F5F5F5F5F5F5F5F5F5F5F5F5F5F5F5F5F5F5F5F5F5F5E2F5F5F5F5F5F5F5F5F5F5F5F5F5F5F5F5F5F5F5F5E2E2EFF5F5F5F5F5F5F5F5F5F5F5F5F5F5F5F5F5F5F5F5E2F5F5F5F5F5F5F5F5F5F5F5F5
310
F5F5F5F5F5F5F5F5F5F5F5F5F5F5F5F5F5F5F5F5F5F5F5F5F5F5F5F5F5F5F5F5F5F5F5F5F5F5F5F5F5F5F5F5F5F5F5F5F5F5F5F5F5F5F5F5F5F5F5F5F5F5F5F5F5F5F5F5F5F5F5F5F5F5F5F5F5F5F5F5F5F5F5F5F5F5F5F5F5F5F5F5F5F5F5F5F5F5F5F5F5F5F5F5F5F5F5F5F5F5F5F5F5F5F5F5F5F5F5F5F5F5F5E2F5F5F5
310
F5F5F5F5F5F5F5F5F5F5F5F5F5F5F5F5F5E2E2EFF5F5F5F5F5F5F5F5F5F5F5F5F5F5F5F5F5F5F5F5E2F5F5F5F5F5F5F5F5F5F5F5F5F5F5F5F5F5F5F5F5F5F5F5F5F5F5F5F5F5F5F5F5F5F5F5F5F5F5F5F5F5F5F5F5F5F5F5F5F5F5F5F5F5F5F5F5F5F5F5F5F5F5F5F5F5F5F5F5F5F5F5F5F5F5F5F5F5F5F5F5F5F5F5F5F5F5
310
F5F5F5F5F5F5F5F5F5F5F5F5F5F5F5F5F5F5F5F5F5F5F5F5F5F5F5F5F5F5F5F5F5F5F5F5F5F5F5F5F5F5F5F5F5F5F5F5F5E2F5F5F5F5F5F5F5F5F5F5F5F5F5F5F5F5F5F5F5F5E2E2EFF5F5F5F5F5F5F5F5F5F5F5F5F5F5F5F5F5F5F5F5E2F5F5F5F5F5F5F5F5F5F5F5F5F5F5F5F5F5F5F5F5F5F5F5F5F5F5F5F5F5F5F5F5F5
310
F5F5F5F5F5F5F5F5F5F5F5F5F5F5F5F5F5F5F5F5F5F5F5F5F5F5F5F5F5F5F5F5F5F5F5F5F5F5F5F5F5F5F5F5F5F5F5F5F5F5F5F5F5F5F5F5F5F5F5F5F5F5F5F5F5F5F5F5F5F5F5F5F5F5F5F5F5F5F5F5F5F5F5F5F5F5F5F5F5F5F5F5F5F5F5F5F5F5F5F5F5F5E2F5F5F5F5F5F5F5F5F5F5F5F5F5F5F5F5F5F5F5F5E2E2EFF5
310
F5F5F5F5F5F5F5F5F5F5F5F5F5F5F5F5F5F5F5E2F5F5F5F5F5F5F5F5F5F5F5F5F5F5F5F5F5F5F5F5F5F5F5F5F5F5F5F5F5F5F5F5F5F5F5F5F5F5F5F5F5F5F5F5F5F5F5F5F5F5F5F5F5F5F5F5F5F5F5F5F5F5F5F5F5F5F5F5F5F5F5F5F5F5F5F5F5F5F5F5F5F5F5F5F5F5F5F5F5F5F5F5F5F5F5F5F5F5F5F5F5F5F5F5F5F5F5
310
F5F5F5F5F5F5F5F5F5F5F5F5F5F5F5F5F5F5F5F5F5F5F5F5F5F5F5F5E2F5F5F5F5F5F5F5F5F5F5F5F5F5F5F5F5F5F5F5F5E2E2EFF5F5F5E2F5F5F5F5F5F5F5F5F5F5F5F5F5F5F5F5E2F5F5F5F5F5F5F5F5F5F5F5F5F5F5F5F5F5F5F5F5F5F5F5F5F5F5F5F5F5F5F5F5F5F5F5F5F5F5F5F5F5F5F5F5F5F5F5F5F5F5F5F5F5F5
310
F5F5F5F5F5F5F5F5F5F5F5F5F5F5F5F5F5F5F5F5F5F5F5F5F5F5F5F5F5F5F5F5F5F5F5F5F5F5F5F5F5F5F5F5F5F5F5F5F5F5F5F5F5F5F5F5F5F5F5F5F5F5F5F5F5F5F5F5F5F5F5F5F5F5F5F5F5F5F5F5F5E2F5F5F5F5F5F5F5F5F5F5F5F5F5F5F5F5E2F5F5F5E2E2EFF5F5F5E2F5F5F5F5F5F5F5F5F5F5F5F5F5F5F5F5E2F5
310
F5F5F5F5F5F5F5F5F5F5F5F5F5F5F5F5F5F5F5F5F5F5F5F5F5F5F5F5F5F5F5F5F5F5F5F5F5F5F5F5F5F5F5F5F5F5F5F5F5F5F5F5F5F5F5F5F5F5F5F5F5F5F5F5F5F5F5F5F5F5F5F5F5F5F5F5F5F5F5F5F5F5F5F5F5F5F5F5F5F5F5F5F5F5F5F5F5F5F5F5F5F5F5F5F5F5F5F5F5F5F5F5F5F5F5F5F5F5F5F5F5F5F5F5F5F5F5
310
F5F5F5F5F5F5F5E2F5F5F5F5F5F5F5F5F5F5F5F5F5F5F5F5E2F5F5F5E2E2EFF5F5F5E2F5F5F5F5F5F5F5F5F5F5F5F5F5F5F5F5E2F5F5F5F5F5F5F5F5F5F5F5F5F5F5F5F5F5F5F5F5F5F5F5F5F5F5F5F5F5F5F5F5F5F5F5F5F5F5F5F5F5F5F5F5F5F5F5F5F5F5F5F5F5F5F5F5F5F5F5F5F5F5F5F5F5F5F5F5F5F5F5F5F5F5F5
310
F5F5F5F5F5F5F5F5F5F5F5F5F5F5F5F5F5F5F5F5F5F5F5F5F5F5F5F5F5F5F5F5F5F5F5F5F5F5F5F5F5F5F5F5F5F5F5F5F5F5F5F5F5F5F5F5F5F5F5F5E2F5F5F5F5F5F5F5F5F5F5F5F5F5F5F5F5E2F5F5F5E2E2EFF5F5F5E2F5F5F5F5F5F5F5F5F5F5F5F5F5F5F5F5E2F5F5F5F5F5F5F5F5F5F5F5F5F5F5F5F5F5F5F5F5F5F5
310
F5F5F5F5F5F5F5F5F5F5F5F5F5F5F5F5F5F5F5F5F5F5F5F5F5F5F5F5F5F5F5F5F5F5F5F5F5F5F5F5F5F5F5F5F5F5F5F5F5F5F5F5F5F5F5F5F5F5F5F5F5F5F5F5F5F5F5F5F5F5F5F5F5F5F5F5F5F5F5F5F5F5F5F5F5F5F5F5F5F5F5F5F5F5F5F5F5F5F5F5F5F5F5F5F5F5F5F5F5F5F5F5F5E2F5F5F5F5F5F5F5F5F5F5F5F5F5
310
F5F5F5E2F5F5F5E2E2EFF5F5F5E2F5F5F5F5F5F5F5F5F5F5F5F5F5F5F5F5E2F5F5F5F5F5F5F5F5F5F5F5F5F5F5F5F5F5F5F5F5F5F5F5F5F5F5F5F5F5F5F5F5F5F5F5F5F5F5F5F5F5F5F5F5F5F5F5F5F5F5F5F5F5F5F5F5F5F5F5F5F5F5F5F5F5F5F5F5F5F5F5F5F5F5F5F5F5F5F5F5F5F5F5F5F5F5F5F5F5F5F5F5F5F5F5F5
310
F5F5F5F5F5F5F5F5F5F5F5F5F5F5F5F5F5F5F5F5F5F5F5F5F5F5F5F5F5F5F5F5F5F5F5F5F5F5F5E2F5F5F5F5F5F5F5F5F5F5F5F5F5F5F5F5E2F5F5F5E2E2EFF5F5F5E2F5F5F5F5F5F5F5F5F5F5F5F5F5F5F5F5E2F5F5F5F5F5F5F5F5F5F5F5F5F5F5F5F5F5F5F5F5F5F5F5F5F5F5F5F5F5F5F5F5F5F5F5F5F5F5F5F5F5F5F5
310
F5F5F5F5F5F5F5F5F5F5F5F5F5F5F5F5F5F5F5F5F5F5F5F5F5F5F5F5F5F5F5F5F5F5F5F5F5F5F5F5F5F5F5F5F5F5F5F5F5F5F5F5F5F5F5F5F5F5F5F5F5F5F5F5F5F5F5F5F5F5F5F5F5F5F5F5F5F5F5F5F5F5F5F5F5F5F5F5F5F5F5F5E2F5F5F5F5F5F5F5F5F5F5F5F5F5F5F5F5E2F5F5F5E2E2EFF5F5F5E2F5F5F5F5F5F5F5
310
F5F5F5F5F5F5F5F5F5E2F5F5F5F5F5F5F5F5F5F5F5F5F5F5F5F5F5F5F5F5F5F5F5F5F5F5F5F5F5F5F5F5F5F5F5F5F5F5F5F5F5F5F5F5F5F5F5F5F5F5F5F5F5F5F5F5F5F5F5F5F5F5F5F5F5F5F5F5F5F5F5F5F5F5F5F5F5F5F5F5F5F5F5F5F5F5F5F5F5F5F5F5F5F5F5F5F5F5F5F5F5F5F5F5F5F5F5F5F5F5F5F5F5F5F5F5F5
310
F5F5F5F5F5F5F5F5F5F5F5F5F5F5F5F5F5F5E2F5F5F5F5F5F5F5F5F5F5F5F5F5F5F5F5E2F5F5F5E2E2EFF5F5F5E2F5F5F5F5F5F5F5F5F5F5F5F5F5F5F5F5E2F5F5F5F5F5F5F5F5F5F5F5F5F5F5F5F5F5F5F5F5F5F5F5F5F5F5F5F5F5F5F5F5F5F5F5F5F5F5F5F5F5F5F5F5F5F5F5F5F5F5F5F5F5F5F5F5F5F5F5F5F5F5F5F5
310
F5F5F5F5F5F5F5F5F5F5F5F5F5F5F5F5F5F5F5F5F5F5F5F5F5F5F5F5F5F5F5F5F5F5F5F5F5F5F5F5F5F5F5F5F5F5F5F5F5F5F5F5F5F5F5F5F5F5F5F5F5F5F5F5F5F5F5F5F5F5F5E2F5F5F5F5F5F5F5F5F5F5F5F5F5F5F5F5E2F5F5F5E2E2EFF5F5F5E2F5F5F5F5F5F5F5F5F5F5F5F5F5F5F5F5E2F5F5F5F5F5F5F5F5F5F5F5
310
F5F5F5F5F5F5F5F5F5F5F5F5F5F5F5F5F5F5F5F5F5F5F5F5F5F5F5F5F5F5F5F5F5F5F5F5F5F5F5F5F5F5F5F5F5F5F5F5F5F5F5F5F5F5F5F5F5F5F5F5F5F5F5F5F5F5F5F5F5F5F5F5F5F5F5F5F5F5F5F5F5F5F5F5F5F5F5F5F5F5F5F5F5F5F5F5F5F5F5F5F5F5F5F5F5F5F5F5F5F5F5F5F5F5F5F5F5F5F5F5F5F5F5F5E2F5F5
310
F5F5F5F5F5F5F5F5F5F5F5F5F5F5E2F5F5F5E2E2EFF5F5F5E2F5F5F5F5F5F5F5F5F5F5F5F5F5F5F5F5E2F5F5F5F5F5F5F5F5F5F5F5F5F5F5F5F5F5F5F5F5F5F5F5F5F5F5F5F5F5F5F5F5F5F5F5F5F5F5F5F5F5F5F5F5F5F5F5F5F5F5F5F5F5F5F5F5F5F5F5F5F5F5F5F5F5F5F5F5F5F5F5F5F5F5F5F5F5F5F5F5F5F5F5F5F5
310
F5F5F5F5F5F5F5F5F5F5F5F5F5F5F5F5F5F5F5F5F5F5F5F5F5F5F5F5F5F5F5F5F5F5F5F5F5F5F5F5F5F5F5F5F5F5F5F5F5F5E2F5F5F5F5F5F5F5F5F5F5F5F5F5F5F5F5E2F5F5F5E2E2EFF5F5F5E2F5F5F5F5F5F5F5F5F5F5F5F5F5F5F5F5E2F5F5F5F5F5F5F5F5F5F5F5F5F5F5F5F5F5F5F5F5F5F5F5F5F5F5F5F5F5F5F5F5
310
F5F5F5F5F5F5F5F5F5F5F5F5F5F5F5F5F5F5F5F5F5F5F5F5F5F5F5F5F5F5F5F5F5F5F5F5F5F5F5F5F5F5F5F5F5F5F5F5F5F5F5F5F5F5F5F5F5F5F5F5F5F5F5F5F5F5F5F5F5F5F5F5F5F5F5F5F5F5F5F5F5F5F5F5F5F5F5F5F5F5F5F5F5F5F5F5F5F5F5F5F5F5F5E2F5F5F5F5F5F5F5F5F5F5F5F5F5F5F5F5E2F5F5F5E2E2EF
310
F5F5F5E2F5F5F5F5F5F5F5F5F5F5F5F5F5F5F5F5E2F5F5F5F5F5F5F5F5F5F5F5F5F5F5F5F5F5F5F5F5F5F5F5F5F5F5F5F5F5F5F5F5F5F5F5F5F5F5F5F5F5F5F5F5F5F5F5F5F5F5F5F5F5F5F5F5F5F5F5F5F5F5F5F5F5F5F5F5F5F5F5F5F5F5F5F5F5F5F5F5F5F5F5F5F5F5F5F5F5F5F5F5F5F5F5F5F5F5F5F5F5F5F5F5F5F5
310
F5F5F5F5F5F5F5F5F5F5F5F5F5F5F5F5F5F5F5F5F5F5F5F5F5F5F5F5F5E2F5F5F5F5F5F5F5F5F5F5F5F5F5F5F5F5E2F5F5F5E2E2EFF5F5F5E2F5F5F5F5F5F5F5F5F5F5F5F5F5F5F5F5E2F5F5F5F5F5F5F5F5F5F5F5F5F5F5F5F5F5F5F5F5F5F5F5F5F5F5F5F5F5F5F5F5F5F5F5F5F5F5F5F5F5F5F5F5F5F5F5F5F5F5F5F5F5
310
F5F5F5F5F5F5F5F5F5F5F5F5F5F5F5F5F5F5F5F5F5F5F5F5F5F5F5F5F5F5F5F5F5F5F5F5F5F5F5F5F5F5F5F5F5F5F5F5F5F5F5F5F5F5F5F5F5F5F5F5F5F5F5F5F5F5F5F5F5F5F5F5F5F5F5F5F5F5F5F5F5F5E2F5F5F5F5F5F5F5F5F5F5F5F5F5F5F5F5E2F5F5F5E2E2EFF5F5F5E2F5F5F5F5F5F5F5F5F5F5F5F5F5F5F5F5E2
310
F5F5F5F5F5F5F5F5F5F5F5F5F5F5F5F5F5F5F5F5F5F5F5F5F5F5F5F5F5F5F5F5F5F5F5F5F5F5F5F5F5F5F5F5F5F5F5F5F5F5F5F5F5F5F5F5F5F5F5F5F5F5F5F5F5F5F5F5F5F5F5F5F5F5F5F5F5F5F5F5F5F5F5F5F5F5F5F5F5F5F5F5F5F5F5F5F5F5F5F5F5F5F5F5F5F5F5F5F5F5F5F5F5F5F5F5F5F5F5F5F5F5F5F5F5F5F5
310
F5F5F5F5F5F5F5F5E2F5F5F5F5F5F5F5F5F5F5F5F5F5F5F5F5E2F5F5F5E2E2EFF5F5F5E2F5F5F5F5F5F5F5F5F5F5F5F5F5F5F5F5E2F5F5F5F5F5F5F5F5F5F5F5F5F5F5F5F5F5F5F5F5F5F5F5F5F5F5F5F5F5F5F5F5F5F5F5F5F5F5F5F5F5F5F5F5F5F5F5F5F5F5F5F5F5F5F5F5F5F5F5F5F5F5F5F5F5F5F5F5F5F5F5F5F5F5
310
F5F5F5F5F5F5F5F5F5F5F5F5F5F5F5F5F5F5F5F5F5F5F5F5F5F5F5F5F5F5F5F5F5F5F5F5F5F5F5F5F5F5F5F5F5F5F5F5F5F5F5F5F5F5F5F5F5F5F5F5F5E2F5F5F5F5F5F5F5F5F5F5F5F5F5F5F5F5E2F5F5F5E2E2EFF5F5F5E2F5F5F5F5F5F5F5F5F5F5F5F5F5F5F5F5E2F5F5F5F5F5F5F5F5F5F5F5F5F5F5F5F5F5F5F5F5F5
310
F5F5F5F5F5F5F5F5F5F5F5F5F5F5F5F5F5F5F5F5F5F5F5F5F5F5F5F5F5F5F5F5F5F5F5F5F5F5F5F5F5F5F5F5F5F5F5F5F5F5F5F5F5F5F5F5F5F5F5F5F5F5F5F5F5F5F5F5F5F5F5F5F5F5F5F5F5F5F5F5F5F5F5F5F5F5F5F5F5F5F5F5F5F5F5F5F5F5F5F5F5F5F5F5F5F5F5F5F5F5F5F5F5F5E2F5F5F5F5F5F5F5F5F5F5F5F5
310
F5F5F5F5E2F5F5F5E2E2EFF5F5F5E2F5F5F5F5F5F5F5F5F5F5F5F5F5F5F5F5E2F5F5F5F5F5F5F5F5F5F5F5F5F5F5F5F5F5F5F5F5F5F5F5F5F5F5F5F5F5F5F5F5F5F5F5F5F5F5F5F5F5F5F5F5F5F5F5F5F5F5F5F5F5F5F5F5F5F5F5F5F5F5F5F5F5F5F5F5F5F5F5F5F5F5F5F5F5F5F5F5F5F5F5F5F5F5F5F5F5F5F5F5F5F5F5
310
F5F5F5F5F5F5F5F5F5F5F5F5F5F5F5F5F5F5F5F5F5F5F5F5F5F5F5F5F5F5F5F5F5F5F5F5F5F5F5F5E2F5F5F5F5F5F5F5F5F5F5F5F5F5F5F5F5E2F5F5F5E2E2EFF5F5F5F5F5F5F5F5F5F5F5F5F5F5F5F5F5F5F5F5E2F5F5F5F5F5F5F5F5F5F5F5F5F5F5F5F5F5F5F5F5F5F5F5F5F5F5F5F5F5F5F5F5F5F5F5F5F5F5F5F5F5F5
310
F5F5F5F5F5F5F5F5F5F5F5F5F5F5F5F5F5F5F5F5F5F5F5F5F5F5F5F5F5F5F5F5F5F5F5F5F5F5F5F5F5F5F5F5F5F5F5F5F5F5F5F5F5F5F5F5F5F5F5F5F5F5F5F5F5F5F5F5F5F5F5F5F5F5F5F5F5F5F5F5F5F5F5F5F5F5F5F5F5F5F5F5F5E2F5F5F5F5F5F5F5F5F5F5F5F5F5F5F5F5F5F5F5F5E2E2EFF5F5F5F5F5F5F5F5F5F5
310
F5F5F5F5F5F5F5F5F5F5E2F5F5F5F5F5F5F5F5F5F5F5F5F5F5F5F5F5F5F5F5F5F5F5F5F5F5F5F5F5F5F5F5F5F5F5F5F5F5F5F5F5F5F5F5F5F5F5F5F5F5F5F5F5F5F5F5F5F5F5F5F5F5F5F5F5F5F5F5F5F5F5F5F5F5F5F5F5F5F5F5F5F5F5F5F5F5F5F5F5F5F5F5F5F5F5F5F5F5F5F5F5F5F5F5F5F5F5F5F5F5F5F5F5F5F5F5
310
F5F5F5F5F5F5F5F5F5F5F5F5F5F5F5F5F5F5F5E2F5F5F5F5F5F5F5F5F5F5F5F5F5F5F5F5F5F5F5F5E2E2EFF5F5F5F5F5F5F5F5F5F5F5F5F5F5F5F5F5F5F5F5E2F5F5F5F5F5F5F5F5F5F5F5F5F5F5F5F5F5F5F5F5F5F5F5F5F5F5F5F5F5F5F5F5F5F5F5F5F5F5F5F5F5F5F5F5F5F5F5F5F5F5F5F5F5F5F5F5F5F5F5F5F5F5F5
310
F5F5F5F5F5F5F5F5F5F5F5F5F5F5F5F5F5F5F5F5F5F5F5F5F5F5F5F5F5F5F5F5F5F5F5F5F5F5F5F5F5F5F5F5F5F5F5F5F5F5F5F5F5F5F5F5F5F5F5F5F5F5F5F5F5F5F5F5F5F5F5F5E2F5F5F5F5F5F5F5F5F5F5F5F5F5F5F5F5F5F5F5F5E2E2EFF5F5F5F5F5F5F5F5F5F5F5F5F5F5F5F5F5F5F5F5E2F5F5F5F5F5F5F5F5F5F5
310
F5F5F5F5F5F5F5F5F5F5F5F5F5F5F5F5F5F5F5F5F5F5F5F5F5F5F5F5F5F5F5F5F5F5F5F5F5F5F5F5F5F5F5F5F5F5F5F5F5F5F5F5F5F5F5F5F5F5F5F5F5F5F5F5F5F5F5F5F5F5F5F5F5F5F5F5F5F5F5F5F5F5F5F5F5F5F5F5F5F5F5F5F5F5F5F5F5F5F5F5F5F5F5F5F5F5F5F5F5F5F5F5F5F5F5F5F5F5F5F5F5F5F5F5F5E2F5
310
F5F5F5F5F5F5F5F5F5F5F5F5F5F5F5F5F5F5F5E2E2EFF5F5F5F5F5F5F5F5F5F5F5F5F5F5F5F5F5F5F5F5E2F5F5F5F5F5F5F5F5F5F5F5F5F5F5F5F5F5F5F5F5F5F5F5F5F5F5F5F5F5F5F5F5F5F5F5F5F5F5F5F5F5F5F5F5F5F5F5F5F5F5F5F5F5F5F5F5F5F5F5F5F5F5F5F5F5F5F5F5F5F5F5F5F5F5F5F5F5F5F5F5F5F5F5F5
310
F5F5F5F5F5F5F5F5F5F5F5F5F5F5F5F5F5F5F5F5F5F5F5F5F5F5F5F5F5F5F5F5F5F5F5F5F5F5F5F5F5F5F5F5F5F5F5F5F5F5F5E2F5F5F5F5F5F5F5F5F5F5F5F5F5F5F5F5F5F5F5F5E2E2EFF5F5F5F5F5F5F5F5F5F5F5F5F5F5F5F5F5F5F5F5E2F5F5F5F5F5F5F5F5F5F5F5F5F5F5F5F5F5F5F5F5F5F5F5F5F5F5F5F5F5F5F5
310
F5F5F5F5F5F5F5F5F5F5F5F5F5F5F5F5F5F5F5F5F5F5F5F5F5F5F5F5F5F5F5F5F5F5F5F5F5F5F5F5F5F5F5F5F5F5F5F5F5F5F5F5F5F5F5F5F5F5F5F5F5F5F5F5F5F5F5F5F5F5F5F5F5F5F5F5F5F5F5F5F5F5F5F5F5F5F5F5F5F5F5F5F5F5F5F5F5F5F5F5F5F5F5F5E2F5F5F5F5F5F5F5F5F5F5F5F5F5F5F5F5F5F5F5F5E2E2
310
EFF5F5F5F5F5F5F5F5F5F5F5F5F5F5F5F5F5F5F5F5E2F5F5F5F5F5F5F5F5F5F5F5F5F5F5F5F5F5F5F5F5F5F5F5F5F5F5F5F5F5F5F5F5F5F5F5F5F5F5F5F5F5F5F5F5F5F5F5F5F5F5F5F5F5F5F5F5F5F5F5F5F5F5F5F5F5F5F5F5F5F5F5F5F5F5F5F5F5F5F5F5F5F5F5F5F5F5F5F5F5F5F5F5F5F5F5F5F5F5F5F5F5F5F5F5F5
310
F5F5F5F5F5F5F5F5F5F5F5F5F5F5F5F5F5F5F5F5F5F5F5F5F5F5F5F5F5F5E2F5F5F5F5F5F5F5F5F5F5F5F5F5F5F5F5F5F5F5F5E2E2EFF5F5F5F5F5F5F5F5F5F5F5F5F5F5F5F5F5F5F5F5E2F5F5F5F5F5F5F5F5F5F5F5F5F5F5F5F5F5F5F5F5F5F5F5F5F5F5F5F5F5F5F5F5F5F5F5F5F5F5F5F5F5F5F5F5F5F5F5F5F5F5F5F5
310
F5F5F5F5F5F5F5F5F5F5F5F5F5F5F5F5F5F5F5F5F5F5F5F5F5F5F5F5F5F5F5F5F5F5F5F5F5F5F5F5F5F5F5F5F5F5F5F5F5F5F5F5F5F5F5F5F5F5F5F5F5F5F5F5F5F5F5F5F5F5F5F5F5F5F5F5F5F5F5F5F5F5F5E2F5F5F5F5F5F5F5F5F5F5F5F5F5F5F5F5F5F5F5F5E2E2EFF5F5F5F5F5F5F5F5F5F5F5F5F5F5F5F5F5F5F5F5
310
E2F5F5F5F5F5F5F5F5F5F5F5F5F5F5F5F5F5F5F5F5F5F5F5F5F5F5F5F5F5F5F5F5F5F5F5F5F5F5F5F5F5F5F5F5F5F5F5F5F5F5F5F5F5F5F5F5F5F5F5F5F5F5F5F5F5F5F5F5F5F5F5F5F5F5F5F5F5F5F5F5F5F5F5F5F5F5F5F5F5F5F5F5F5F5F5F5F5F5F5F5F5F5F5F5F5F5F5F5F5F5F5F5F5F5F5F5F5F5F5F5F5F5F5F5F5F5
310
F5F5F5F5F5F5F5F5F5E2F5F5F5F5F5F5F5F5F5F5F5F5F5F5F5F5F5F5F5F5E2E2EFF5F5F5E2F5F5F5F5F5F5F5F5F5F5F5F5F5F5F5F5E2F5F5F5F5F5F5F5F5F5F5F5F5F5F5F5F5F5F5F5F5F5F5F5F5F5F5F5F5F5F5F5F5F5F5F5F5F5F5F5F5F5F5F5F5F5F5F5F5F5F5F5F5F5F5F5F5F5F5F5F5F5F5F5F5F5F5F5F5F5F5F5F5F5
310
F5F5F5F5F5F5F5F5F5F5F5F5F5F5F5F5F5F5F5F5F5F5F5F5F5F5F5F5F5F5F5F5F5F5F5F5F5F5F5F5F5F5F5F5F5F5F5F5F5F5F5F5F5F5F5F5F5F5F5F5F5F5E2F5F5F5F5F5F5F5F5F5F5F5F5F5F5F5F5E2F5F5F5E2E2EFF5F5F5E2F5F5F5F5F5F5F5F5F5F5F5F5F5F5F5F5E2F5F5F5F5F5F5F5F5F5F5F5F5F5F5F5F5F5F5F5F5
310
F5F5F5F5F5F5F5F5F5F5F5F5F5F5F5F5F5F5F5F5F5F5F5F5F5F5F5F5F5F5F5F5F5F5F5F5F5F5F5F5F5F5F5F5F5F5F5F5F5F5F5F5F5F5F5F5F5F5F5F5F5F5F5F5F5F5F5F5F5F5F5F5F5F5F5F5F5F5F5F5F5F5F5F5F5F5F5F5F5F5F5F5F5F5F5F5F5F5F5F5F5F5F5F5F5F5F5F5F5F5F5F5F5F5F5E2F5F5F5F5F5F5F5F5F5F5F5
310
F5F5F5F5F5E2F5F5F5E2E2EFF5F5F5E2F5F5F5F5F5F5F5F5F5F5F5F5F5F5F5F5E2F5F5F5F5F5F5F5F5F5F5F5F5F5F5F5F5F5F5F5F5F5F5F5F5F5F5F5F5F5F5F5F5F5F5F5F5F5F5F5F5F5F5F5F5F5F5F5F5F5F5F5F5F5F5F5F5F5F5F5F5F5F5F5F5F5F5F5F5F5F5F5F5F5F5F5F5F5F5F5F5F5F5F5F5F5F5F5F5F5F5F5F5F5F5
310
F5F5F5F5F5F5F5F5F5F5F5F5F5F5F5F5F5F5F5F5F5F5F5F5F5F5F5F5F5F5F5F5F5F5F5F5F5F5F5F5F5E2F5F5F5F5F5F5F5F5F5F5F5F5F5F5F5F5E2F5F5F5E2E2EFF5F5F5E2F5F5F5F5F5F5F5F5F5F5F5F5F5F5F5F5E2F5F5F5F5F5F5F5F5F5F5F5F5F5F5F5F5F5F5F5F5F5F5F5F5F5F5F5F5F5F5F5F5F5F5F5F5F5F5F5F5F5
310
F5F5F5F5F5F5F5F5F5F5F5F5F5F5F5F5F5F5F5F5F5F5F5F5F5F5F5F5F5F5F5F5F5F5F5F5F5F5F5F5F5F5F5F5F5F5F5F5F5F5F5F5F5F5F5F5F5F5F5F5F5F5F5F5F5F5F5F5F5F5F5F5F5F5F5F5F5F5F5F5F5F5F5F5F5F5F5F5F5F5F5F5F5F5E2F5F5F5F5F5F5F5F5F5F5F5F5F5F5F5F5E2F5F5F5E2E2EFF5F5F5E2F5F5F5F5F5
310
F5F5F5F5F5F5F5F5F5F5F5E2F5F5F5F5F5F5F5F5F5F5F5F5F5F5F5F5F5F5F5F5F5F5F5F5F5F5F5F5F5F5F5F5F5F5F5F5F5F5F5F5F5F5F5F5F5F5F5F5F5F5F5F5F5F5F5F5F5F5F5F5F5F5F5F5F5F5F5F5F5F5F5F5F5F5F5F5F5F5F5F5F5F5F5F5F5F5F5F5F5F5F5F5F5F5F5F5F5F5F5F5F5F5F5F5F5F5F5F5F5F5F5F5F5F5F5
310
F5F5F5F5F5F5F5F5F5F5F5F5F5F5F5F5F5F5F5F5E2F5F5F5F5F5F5F5F5F5F5F5F5F5F5F5F5E2F5F5F5E2E2EFF5F5F5E2F5F5F5F5F5F5F5F5F5F5F5F5F5F5F5F5E2F5F5F5F5F5F5F5F5F5F5F5F5F5F5F5F5F5F5F5F5F5F5F5F5F5F5F5F5F5F5F5F5F5F5F5F5F5F5F5F5F5F5F5F5F5F5F5F5F5F5F5F5F5F5F5F5F5F5F5F5F5F5
310
F5F5F5F5F5F5F5F5F5F5F5F5F5F5F5F5F5F5F5F5F5F5F5F5F5F5F5F5F5F5F5F5F5F5F5F5F5F5F5F5F5F5F5F5F5F5F5F5F5F5F5F5F5F5F5F5F5F5F5F5F5F5F5F5F5F5F5F5F5F5F5F5F5E2F5F5F5F5F5F5F5F5F5F5F5F5F5F5F5F5E2F5F5F5E2E2EFF5F5F5E2F5F5F5F5F5F5F5F5F5F5F5F5F5F5F5F5E2F5F5F5F5F5F5F5F5F5
310
F5F5F5F5F5F5F5F5F5F5F5F5F5F5F5F5F5F5F5F5F5F5F5F5F5F5F5F5F5F5F5F5F5F5F5F5F5F5F5F5F5F5F5F5F5F5F5F5F5F5F5F5F5F5F5F5F5F5F5F5F5F5F5F5F5F5F5F5F5F5F5F5F5F5F5F5F5F5F5F5F5F5F5F5F5F5F5F5F5F5F5F5F5F5F5F5F5F5F5F5F5F5F5F5F5F5F5F5F5F5F5F5F5F5F5F5F5F5F5F5F5F5F5F5F5F5E2
310
F5F5F5F5F5F5F5F5F5F5F5F5F5F5F5F5E2F5F5F5E2E2EFF5F5F5E2F5F5F5F5F5F5F5F5F5F5F5F5F5F5F5F5E2F5F5F5F5F5F5F5F5F5F5F5F5F5F5F5F5F5F5F5F5F5F5F5F5F5F5F5F5F5F5F5F5F5F5F5F5F5F5F5F5F5F5F5F5F5F5F5F5F5F5F5F5F5F5F5F5F5F5F5F5F5F5F5F5F5F5F5F5F5F5F5F5F5F5F5F5F5F5F5F5F5F5F5
310
F5F5F5F5F5F5F5F5F5F5F5F5F5F5F5F5F5F5F5F5F5F5F5F5F5F5F5F5F5F5F5F5F5F5F5F5F5F5F5F5F5F5F5F5F5F5F5F5F5F5F5F5E2F5F5F5F5F5F5F5F5F5F5F5F5F5F5F5F5E2F5F5F5E2E2EFF5F5F5E2F5F5F5F5F5F5F5F5F5F5F5F5F5F5F5F5E2F5F5F5F5F5F5F5F5F5F5F5F5F5F5F5F5F5F5F5F5F5F5F5F5F5F5F5F5F5F5
310
F5F5F5F5F5F5F5F5F5F5F5F5F5F5F5F5F5F5F5F5F5F5F5F5F5F5F5F5F5F5F5F5F5F5F5F5F5F5F5F5F5F5F5F5F5F5F5F5F5F5F5F5F5F5F5F5F5F5F5F5F5F5F5F5F5F5F5F5F5F5F5F5F5F5F5F5F5F5F5F5F5F5F5F5F5F5F5F5F5F5F5F5F5F5F5F5F5F5F5F5F5F5F5F5F5E2F5F5F5F5F5F5F5F5F5F5F5F5F5F5F5F5E2F5F5F5E2
310
E2EFF5F5F5E2F5F5F5F5F5F5F5F5F5F5F5F5F5F5F5F5E2F5F5F5F5F5F5F5F5F5F5F5F5F5F5F5F5F5F5F5F5F5F5F5F5F5F5F5F5F5F5F5F5F5F5F5F5F5F5F5F5F5F5F5F5F5F5F5F5F5F5F5F5F5F5F5F5F5F5F5F5F5F5F5F5F5F5F5F5F5F5F5F5F5F5F5F5F5F5F5F5F5F5F5F5F5F5F5F5F5F5F5F5F5F5F5F5F5F5F5F5F5F5F5F5
310
F5F5F5F5F5F5F5F5F5F5F5F5F5F5F5F5F5F5F5F5F5F5F5F5F5F5F5F5F5F5F5E2F5F5F5F5F5F5F5F5F5F5F5F5F5F5F5F5E2F5F5F5E2E2EFF5F5F5E2F5F5F5F5F5F5F5F5F5F5F5F5F5F5F5F5E2F5F5F5F5F5F5F5F5F5F5F5F5F5F5F5F5F5F5F5F5F5F5F5F5F5F5F5F5F5F5F5F5F5F5F5F5F5F5F5F5F5F5F5F5F5F5F5F5F5F5F5
310
F5F5F5F5F5F5F5F5F5F5F5F5F5F5F5F5F5F5F5F5F5F5F5F5F5F5F5F5F5F5F5F5F5F5F5F5F5F5F5F5F5F5F5F5F5F5F5F5F5F5F5F5F5F5F5F5F5F5F5F5F5F5F5F5F5F5F5F5F5F5F5F5F5F5F5F5F5F5F5F5F5F5F5F5E2F5F5F5F5F5F5F5F5F5F5F5F5F5F5F5F5E2F5F5F5E2E2EFF5F5F5E2F5F5F5F5F5F5F5F5F5F5F5F5F5F5F5
310
F5E2F5F5F5F5F5F5F5F5F5F5F5F5F5F5F5F5F5F5F5F5F5F5F5F5F5F5F5F5F5F5F5F5F5F5F5F5F5F5F5F5F5F5F5F5F5F5F5F5F5F5F5F5F5F5F5F5F5F5F5F5F5F5F5F5F5F5F5F5F5F5F5F5F5F5F5F5F5F5F5F5F5F5F5F5F5F5F5F5F5F5F5F5F5F5F5F5F5F5F5F5F5F5F5F5F5F5F5F5F5F5F5F5F5F5F5F5F5F5F5F5F5F5F5F5F5
310
F5F5F5F5F5F5F5F5F5F5E2F5F5F5F5F5F5F5F5F5F5F5F5F5F5F5F5E2F5F5F5E2E2EFF5F5F5E2F5F5F5F5F5F5F5F5F5F5F5F5F5F5F5F5E2F5F5F5F5F5F5F5F5F5F5F5F5F5F5F5F5F5F5F5F5F5F5F5F5F5F5F5F5F5F5F5F5F5F5F5F5F5F5F5F5F5F5F5F5F5F5F5F5F5F5F5F5F5F5F5F5F5F5F5F5F5F5F5F5F5F5F5F5F5F5F5F5
310
F5F5F5F5F5F5F5F5F5F5F5F5F5F5F5F5F5F5F5F5F5F5F5F5F5F5F5F5F5F5F5F5F5F5F5F5F5F5F5F5F5F5F5F5F5F5F5F5F5F5F5F5F5F5F5F5F5F5F5F5F5F5F5E2F5F5F5F5F5F5F5F5F5F5F5F5F5F5F5F5E2F5F5F5E2E2EFF5F5F5E2F5F5F5F5F5F5F5F5F5F5F5F5F5F5F5F5E2F5F5F5F5F5F5F5F5F5F5F5F5F5F5F5F5F5F5F5
310
F5F5F5F5F5F5F5F5F5F5F5F5F5F5F5F5F5F5F5F5F5F5F5F5F5F5F5F5F5F5F5F5F5F5F5F5F5F5F5F5F5F5F5F5F5F5F5F5F5F5F5F5F5F5F5F5F5F5F5F5F5F5F5F5F5F5F5F5F5F5F5F5F5F5F5F5F5F5F5F5F5F5F5F5F5F5F5F5F5F5F5F5F5F5F5F5F5F5F5F5F5F5F5F5F5F5F5F5F5F5F5F5F5F5F5F5E2F5F5F5F5F5F5F5F5F5F5
310
F5F5F5F5F5F5E2F5F5F5E2E2EFF5F5F5E2F5F5F5F5F5F5F5F5F5F5F5F5F5F5F5F5E2F5F5F5F5F5F5F5F5F5F5F5F5F5F5F5F5F5F5F5F5F5F5F5F5F5F5F5F5F5F5F5F5F5F5F5F5F5F5F5F5F5F5F5F5F5F5F5F5F5F5F5F5F5F5F5F5F5F5F5F5F5F5F5F5F5F5F5F5F5F5F5F5F5F5F5F5F5F5F5F5F5F5F5F5F5F5F5F5F5F5F5F5F5
310
F5F5F5F5F5F5F5F5F5F5F5F5F5F5F5F5F5F5F5F5F5F5F5F5F5F5F5F5F5F5F5F5F5F5F5F5F5F5F5F5F5F5E2F5F5F5F5F5F5F5F5F5F5F5F5F5F5F5F5E2F5F5F5E2E2EFF5F5F5E2F5F5F5F5F5F5F5F5F5F5F5F5F5F5F5F5E2F5F5F5F5F5F5F5F5F5F5F5F5F5F5F5F5F5F5F5F5F5F5F5F5F5F5F5F5F5F5F5F5F5F5F5F5F5F5F5F5
310
F5F5F5F5F5F5F5F5F5F5F5F5F5F5F5F5F5F5F5F5F5F5F5F5F5F5F5F5F5F5F5F5F5F5F5F5F5F5F5F5F5F5F5F5F5F5F5F5F5F5F5F5F5F5F5F5F5F5F5F5F5F5F5F5F5F5F5F5F5F5F5F5F5F5F5F5F5F5F5F5F5F5F5F5F5F5F5F5F5F5F5F5F5F5F5E2F5F5F5F5F5F5F5F5F5F5F5F5F5F5F5F5E2F5F5F5E2E2EFF5F5F5E2F5F5F5F5
310
F5F5F5F5F5F5F5F5F5F5F5F5E2F5F5F5F5F5F5F5F5F5F5F5F5F5F5F5F5F5F5F5F5F5F5F5F5F5F5F5F5F5F5F5F5F5F5F5F5F5F5F5F5F5F5F5F5F5F5F5F5F5F5F5F5F5F5F5F5F5F5F5F5F5F5F5F5F5F5F5F5F5F5F5F5F5F5F5F5F5F5F5F5F5F5F5F5F5F5F5F5F5F5F5F5F5F5F5F5F5F5F5F5F5F5F5F5F5F5F5F5F5F5F5F5F5F5
310
F5F5F5F5F5F5F5F5F5F5F5F5F5F5F5F5F5F5F5F5F5E2F5F5F5F5F5F5F5F5F5F5F5F5F5F5F5F5E2F5F5F5E2E2EFF5F5F5F5F5F5F5F5F5F5F5F5F5F5F5F5F5F5F5F5E2F5F5F5F5F5F5F5F5F5F5F5F5F5F5F5F5F5F5F5F5F5F5F5F5F5F5F5F5F5F5F5F5F5F5F5F5F5F5F5F5F5F5F5F5F5F5F5F5F5F5F5F5F5F5F5F5F5F5F5F5F5
310
F5F5F5F5F5F5F5F5F5F5F5F5F5F5F5F5F5F5F5F5F5F5F5F5F5F5F5F5F5F5F5F5F5F5F5F5F5F5F5F5F5F5F5F5F5F5F5F5F5F5F5F5F5F5F5F5F5F5F5F5F5F5F5F5F5F5F5F5F5F5F5F5F5F5E2F5F5F5F5F5F5F5F5F5F5F5F5F5F5F5F5F5F5F5F5E2E2EFF5F5F5F5F5F5F5F5F5F5F5F5F5F5F5F5F5F5F5F5E2F5F5F5F5F5F5F5F5
310
F5F5F5F5F5F5F5F5F5F5F5F5F5F5F5F5F5F5F5F5F5F5F5F5F5F5F5F5F5F5F5F5F5F5F5F5F5F5F5F5F5F5F5F5F5F5F5F5F5F5F5F5F5F5F5F5F5F5F5F5F5F5F5F5F5F5F5F5F5F5F5F5F5F5F5F5F5F5F5F5F5F5F5F5F5F5F5F5F5F5F5F5F5F5F5F5F5F5F5F5F5F5F5F5F5F5F5F5F5F5F5F5F5F5F5F5F5F5F5F5F5F5F5F5F5F5F5
310
E2F5F5F5F5F5F5F5F5F5F5F5F5F5F5F5F5F5F5F5F5E2E2EFF5F5F5F5F5F5F5F5F5F5F5F5F5F5F5F5F5F5F5F5E2F5F5F5F5F5F5F5F5F5F5F5F5F5F5F5F5F5F5F5F5F5F5F5F5F5F5F5F5F5F5F5F5F5F5F5F5F5F5F5F5F5F5F5F5F5F5F5F5F5F5F5F5F5F5F5F5F5F5F5F5F5F5F5F5F5F5F5F5F5F5F5F5F5F5F5F5F5F5F5F5F5F5
310
F5F5F5F5F5F5F5F5F5F5F5F5F5F5F5F5F5F5F5F5F5F5F5F5F5F5F5F5F5F5F5F5F5F5F5F5F5F5F5F5F5F5F5F5F5F5F5F5F5F5F5F5F5E2F5F5F5F5F5F5F5F5F5F5F5F5F5F5F5F5F5F5F5F5E2E2EFF5F5F5F5F5F5F5F5F5F5F5F5F5F5F5F5F5F5F5F5E2F5F5F5F5F5F5F5F5F5F5F5F5F5F5F5F5F5F5F5F5F5F5F5F5F5F5F5F5F5
310
F5F5F5F5F5F5F5F5F5F5F5F5F5F5F5F5F5F5F5F5F5F5F5F5F5F5F5F5F5F5F5F5F5F5F5F5F5F5F5F5F5F5F5F5F5F5F5F5F5F5F5F5F5F5F5F5F5F5F5F5F5F5F5F5F5F5F5F5F5F5F5F5F5F5F5F5F5F5F5F5F5F5F5F5F5F5F5F5F5F5F5F5F5F5F5F5F5F5F5F5F5F5F5F5F5F5E2F5F5F5F5F5F5F5F5F5F5F5F5F5F5F5F5F5F5F5F5
310
E2E2EFF5F5F5F5F5F5F5F5F5F5F5F5F5F5F5F5F5F5F5F5E2F5F5F5F5F5F5F5F5F5F5F5F5F5F5F5F5F5F5F5F5F5F5F5F5F5F5F5F5F5F5F5F5F5F5F5F5F5F5F5F5F5F5F5F5F5F5F5F5F5F5F5F5F5F5F5F5F5F5F5F5F5F5F5F5F5F5F5F5F5F5F5F5F5F5F5F5F5F5F5F5F5F5F5F5F5F5F5F5F5F5F5F5F5F5F5F5F5F5F5F5F5F5F5
310
F5F5F5F5F5F5F5F5F5F5F5F5F5F5F5F5F5F5F5F5F5F5F5F5F5F5F5F5F5F5F5F5E2F5F5F5F5F5F5F5F5F5F5F5F5F5F5F5F5F5F5F5F5E2E2EFF5F5F5F5F5F5F5F5F5F5F5F5F5F5F5F5F5F5F5F5E2F5F5F5F5F5F5F5F5F5F5F5F5F5F5F5F5F5F5F5F5F5F5F5F5F5F5F5F5F5F5F5F5F5F5F5F5F5F5F5F5F5F5F5F5F5F5F5F5F5F5
310
F5F5F5F5F5F5F5F5F5F5F5F5F5F5F5F5F5F5F5F5F5F5F5F5F5F5F5F5F5F5F5F5F5F5F5F5F5F5F5F5F5F5F5F5F5F5F5F5F5F5F5F5F5F5F5F5F5F5F5F5F5F5F5F5F5F5F5F5F5F5F5F5F5F5F5F5F5F5F5F5F5F5F5F5F5E2F5F5F5F5F5F5F5F5F5F5F5F5F5F5F5F5F5F5F5F5E2E2EFF5F5F5F5F5F5F5F5F5F5F5F5F5F5F5F5F5F5
310
F5F5E2F5F5F5F5F5F5F5F5F5F5F5F5F5F5F5F5F5F5F5F5F5F5F5F5F5F5F5F5F5F5F5F5F5F5F5F5F5F5F5F5F5F5F5F5F5F5F5F5F5F5F5F5F5F5F5F5F5F5F5F5F5F5F5F5F5F5F5F5F5F5F5F5F5F5F5F5F5F5F5F5F5F5F5F5F5F5F5F5F5F5F5F5F5F5F5F5F5F5F5F5F5F5F5F5F5F5F5F5F5F5F5F5F5F5F5F5F5F5F5F5F5F5F5F5
310
F5F5F5F5F5F5F5F5F5F5F5E2F5F5F5F5F5F5F5F5F5F5F5F5F5F5F5F5F5F5F5F5E2E2EFF5F5F5F5F5F5F5F5F5F5F5F5F5F5F5F5F5F5F5F5E2F5F5F5F5F5F5F5F5F5F5F5F5F5F5F5F5F5F5F5F5F5F5F5F5F5F5F5F5F5F5F5F5F5F5F5F5F5F5F5F5F5F5F5F5F5F5F5F5F5F5F5F5F5F5F5F5F5F5F5F5F5F5F5F5F5F5F5F5F5F5F5
310
F5F5F5F5F5F5F5F5F5F5F5F5F5F5F5F5F5F5F5F5F5F5F5F5F5F5F5F5F5F5F5F5F5F5F5F5F5F5F5F5F5F5F5F5F5F5F5F5F5F5F5F5F5F5F5F5F5F5F5F5F5F5F5F5E2F5F5F5F5F5F5F5F5F5F5F5F5F5F5F5F5F5F5F5F5E2E2EFF5F5F5F5F5F5F5F5F5F5F5F5F5F5F5F5F5F5F5F5E2F5F5F5F5F5F5F5F5F5F5F5F5F5F5F5F5F5F5
310
F5F5F5F5F5F5F5F5F5F5F5F5F5F5F5F5F5F5F5F5F5F5F5F5F5F5F5F5F5F5F5F5F5F5F5F5F5F5F5F5F5F5F5F5F5F5F5F5F5F5F5F5F5F5F5F5F5F5F5F5F5F5F5F5F5F5F5F5F5F5F5F5F5F5F5F5F5F5F5F5F5F5F5F5F5F5F5F5F5F5F5F5F5F5F5F5F5F5F5F5F5F5F5F5F5F5F5F5F5F5F5F5F5F5F5F5F5E2F5F5F5F5F5F5F5F5F5
310
F5F5F5F5F5F5F5F5F5F5F5E2E2EFF5F5F5E2F5F5F5F5F5F5F5F5F5F5F5F5F5F5F5F5E2F5F5F5F5F5F5F5F5F5F5F5F5F5F5F5F5F5F5F5F5F5F5F5F5F5F5F5F5F5F5F5F5F5F5F5F5F5F5F5F5F5F5F5F5F5F5F5F5F5F5F5F5F5F5F5F5F5F5F5F5F5F5F5F5F5F5F5F5F5F5F5F5F5F5F5F5F5F5F5F5F5F5F5F5F5F5F5F5F5F5F5F5
310
F5F5F5F5F5F5F5F5F5F5F5F5F5F5F5F5F5F5F5F5F5F5F5F5F5F5F5F5F5F5F5F5F5F5F5F5F5F5F5F5F5F5F5E2F5F5F5F5F5F5F5F5F5F5F5F5F5F5F5F5E2F5F5F5E2E2EFF5F5F5E2F5F5F5F5F5F5F5F5F5F5F5F5F5F5F5F5E2F5F5F5F5F5F5F5F5F5F5F5F5F5F5F5F5F5F5F5F5F5F5F5F5F5F5F5F5F5F5F5F5F5F5F5F5F5F5F5
310
F5F5F5F5F5F5F5F5F5F5F5F5F5F5F5F5F5F5F5F5F5F5F5F5F5F5F5F5F5F5F5F5F5F5F5F5F5F5F5F5F5F5F5F5F5F5F5F5F5F5F5F5F5F5F5F5F5F5F5F5F5F5F5F5F5F5F5F5F5F5F5F5F5F5F5F5F5F5F5F5F5F5F5F5F5F5F5F5F5F5F5F5F5F5F5F5E2F5F5F5F5F5F5F5F5F5F5F5F5F5F5F5F5E2F5F5F5E2E2EFF5F5F5E2F5F5F5
310
F5F5F5F5F5F5F5F5F5F5F5F5F5E2F5F5F5F5F5F5F5F5F5F5F5F5F5F5F5F5F5F5F5F5F5F5F5F5F5F5F5F5F5F5F5F5F5F5F5F5F5F5F5F5F5F5F5F5F5F5F5F5F5F5F5F5F5F5F5F5F5F5F5F5F5F5F5F5F5F5F5F5F5F5F5F5F5F5F5F5F5F5F5F5F5F5F5F5F5F5F5F5F5F5F5F5F5F5F5F5F5F5F5F5F5F5F5F5F5F5F5F5F5F5F5F5F5
310
F5F5F5F5F5F5F5F5F5F5F5F5F5F5F5F5F5F5F5F5F5F5E2F5F5F5F5F5F5F5F5F5F5F5F5F5F5F5F5E2F5F5F5E2E2EFF5F5F5E2F5F5F5F5F5F5F5F5F5F5F5F5F5F5F5F5E2F5F5F5F5F5F5F5F5F5F5F5F5F5F5F5F5F5F5F5F5F5F5F5F5F5F5F5F5F5F5F5F5F5F5F5F5F5F5F5F5F5F5F5F5F5F5F5F5F5F5F5F5F5F5F5F5F5F5F5F5
310
F5F5F5F5F5F5F5F5F5F5F5F5F5F5F5F5F5F5F5F5F5F5F5F5F5F5F5F5F5F5F5F5F5F5F5F5F5F5F5F5F5F5F5F5F5F5F5F5F5F5F5F5F5F5F5F5F5F5F5F5F5F5F5F5F5F5F5F5F5F5F5F5F5F5F5E2F5F5F5F5F5F5F5F5F5F5F5F5F5F5F5F5E2F5F5F5E2E2EFF5F5F5E2F5F5F5F5F5F5F5F5F5F5F5F5F5F5F5F5E2F5F5F5F5F5F5F5
310
F5F5F5F5F5F5F5F5F5F5F5F5F5F5F5F5F5F5F5F5F5F5F5F5F5F5F5F5F5F5F5F5F5F5F5F5F5F5F5F5F5F5F5F5F5F5F5F5F5F5F5F5F5F5F5F5F5F5F5F5F5F5F5F5F5F5F5F5F5F5F5F5F5F5F5F5F5F5F5F5F5F5F5F5F5F5F5F5F5F5F5F5F5F5F5F5F5F5F5F5F5F5F5F5F5F5F5F5F5F5F5F5F5F5F5F5F5F5F5F5F5F5F5F5F5F5F5
310
F5E2F5F5F5F5F5F5F5F5F5F5F5F5F5F5F5F5E2F5F5F5E2E2EFF5F5F5E2F5F5F5F5F5F5F5F5F5F5F5F5F5F5F5F5E2F5F5F5F5F5F5F5F5F5F5F5F5F5F5F5F5F5F5F5F5F5F5F5F5F5F5F5F5F5F5F5F5F5F5F5F5F5F5F5F5F5F5F5F5F5F5F5F5F5F5F5F5F5F5F5F5F5F5F5F5F5F5F5F5F5F5F5F5F5F5F5F5F5F5F5F5F5F5F5F5F5
310
F5F5F5F5F5F5F5F5F5F5F5F5F5F5F5F5F5F5F5F5F5F5F5F5F5F5F5F5F5F5F5F5F5F5F5F5F5F5F5F5F5F5F5F5F5F5F5F5F5F5F5F5F5F5E2F5F5F5F5F5F5F5F5F5F5F5F5F5F5F5F5E2F5F5F5E2E2EFF5F5F5E2F5F5F5F5F5F5F5F5F5F5F5F5F5F5F5F5E2F5F5F5F5F5F5F5F5F5F5F5F5F5F5F5F5F5F5F5F5F5F5F5F5F5F5F5F5
310
F5F5F5F5F5F5F5F5F5F5F5F5F5F5F5F5F5F5F5F5F5F5F5F5F5F5F5F5F5F5F5F5F5F5F5F5F5F5F5F5F5F5F5F5F5F5F5F5F5F5F5F5F5F5F5F5F5F5F5F5F5F5F5F5F5F5F5F5F5F5F5F5F5F5F5F5F5F5F5F5F5F5F5F5F5F5F5F5F5F5F5F5F5F5F5F5F5F5F5F5F5F5F5F5F5F5F5E2F5F5F5F5F5F5F5F5F5F5F5F5F5F5F5F5E2F5F5
310
F5E2E2EFF5F5F5E2F5F5F5F5F5F5F5F5F5F5F5F5F5F5F5F5E2F5F5F5F5F5F5F5F5F5F5F5F5F5F5F5F5F5F5F5F5F5F5F5F5F5F5F5F5F5F5F5F5F5F5F5F5F5F5F5F5F5F5F5F5F5F5F5F5F5F5F5F5F5F5F5F5F5F5F5F5F5F5F5F5F5F5F5F5F5F5F5F5F5F5F5F5F5F5F5F5F5F5F5F5F5F5F5F5F5F5F5F5F5F5F5F5F5F5F5F5F5F5
310
F5F5F5F5F5F5F5F5F5F5F5F5F5F5F5F5F5F5F5F5F5F5F5F5F5F5F5F5F5F5F5F5F5E2F5F5F5F5F5F5F5F5F5F5F5F5F5F5F5F5E2F5F5F5E2E2EFF5F5F5E2F5F5F5F5F5F5F5F5F5F5F5F5F5F5F5F5E2F5F5F5F5F5F5F5F5F5F5F5F5F5F5F5F5F5F5F5F5F5F5F5F5F5F5F5F5F5F5F5F5F5F5F5F5F5F5F5F5F5F5F5F5F5F5F5F5F5
310
F5F5F5F5F5F5F5F5F5F5F5F5F5F5F5F5F5F5F5F5F5F5F5F5F5F5F5F5F5F5F5F5F5F5F5F5F5F5F5F5F5F5F5F5F5F5F5F5F5F5F5F5F5F5F5F5F5F5F5F5F5F5F5F5F5F5F5F5F5F5F5F5F5F5F5F5F5F5F5F5F5F5F5F5F5F5E2F5F5F5F5F5F5F5F5F5F5F5F5F5F5F5F5E2F5F5F5E2E2EFF5F5F5E2F5F5F5F5F5F5F5F5F5F5F5F5F5
310
F5F5F5E2F5F5F5F5F5F5F5F5F5F5F5F5F5F5F5F5F5F5F5F5F5F5F5F5F5F5F5F5F5F5F5F5F5F5F5F5F5F5F5F5F5F5F5F5F5F5F5F5F5F5F5F5F5F5F5F5F5F5F5F5F5F5F5F5F5F5F5F5F5F5F5F5F5F5F5F5F5F5F5F5F5F5F5F5F5F5F5F5F5F5F5F5F5F5F5F5F5F5F5F5F5F5F5F5F5F5F5F5F5F5F5F5F5F5F5F5F5F5F5F5F5F5F5
310
F5F5F5F5F5F5F5F5F5F5F5F5E2F5F5F5F5F5F5F5F5F5F5F5F5F5F5F5F5E2F5F5F5E2E2EFF5F5F5E2F5F5F5F5F5F5F5F5F5F5F5F5F5F5F5F5E2F5F5F5F5F5F5F5F5F5F5F5F5F5F5F5F5F5F5F5F5F5F5F5F5F5F5F5F5F5F5F5F5F5F5F5F5F5F5F5F5F5F5F5F5F5F5F5F5F5F5F5F5F5F5F5F5F5F5F5F5F5F5F5F5F5F5F5F5F5F5
310
F5F5F5F5F5F5F5F5F5F5F5F5F5F5F5F5F5F5F5F5F5F5F5F5F5F5F5F5F5F5F5F5F5F5F5F5F5F5F5F5F5F5F5F5F5F5F5F5F5F5F5F5F5F5F5F5F5F5F5F5F5F5F5F5F5E2F5F5F5F5F5F5F5F5F5F5F5F5F5F5F5F5E2F5F5F5E2E2EFF5F5F5E2F5F5F5F5F5F5F5F5F5F5F5F5F5F5F5F5E2F5F5F5F5F5F5F5F5F5F5F5F5F5F5F5F5F5
310
F5F5F5F5F5F5F5F5F5F5F5F5F5F5F5F5F5F5F5F5F5F5F5F5F5F5F5F5F5F5F5F5F5F5F5F5F5F5F5F5F5F5F5F5F5F5F5F5F5F5F5F5F5F5F5F5F5F5F5F5F5F5F5F5F5F5F5F5F5F5F5F5F5F5F5F5F5F5F5F5F5F5F5F5F5F5F5F5F5F5F5F5F5F5F5F5F5F5F5F5F5F5F5F5F5F5F5F5F5F5F5F5F5F5F5F5F5F5E2F5F5F5F5F5F5F5F5
310
F5F5F5F5F5F5F5F5E2F5F5F5E2E2EFF5F5F5E2F5F5F5F5F5F5F5F5F5F5F5F5F5F5F5F5E2F5F5F5F5F5F5F5F5F5F5F5F5F5F5F5F5F5F5F5F5F5F5F5F5F5F5F5F5F5F5F5F5F5F5F5F5F5F5F5F5F5F5F5F5F5F5F5F5F5F5F5F5F5F5F5F5F5F5F5F5F5F5F5F5F5F5F5F5F5F5F5F5F5F5F5F5F5F5F5F5F5F5F5F5F5F5F5F5F5F5F5
310
F5F5F5F5F5F5F5F5F5F5F5F5F5F5F5F5F5F5F5F5F5F5F5F5F5F5F5F5F5F5F5F5F5F5F5F5F5F5F5F5F5F5F5F5E2F5F5F5F5F5F5F5F5F5F5F5F5F5F5F5F5E2F5F5F5E2E2EFF5F5F5E2F5F5F5F5F5F5F5F5F5F5F5F5F5F5F5F5E2F5F5F5F5F5F5F5F5F5F5F5F5F5F5F5F5F5F5F5F5F5F5F5F5F5F5F5F5F5F5F5F5F5F5F5F5F5F5
310
F5F5F5F5F5F5F5F5F5F5F5F5F5F5F5F5F5F5F5F5F5F5F5F5F5F5F5F5F5F5F5F5F5F5F5F5F5F5F5F5F5F5F5F5F5F5F5F5F5F5F5F5F5F5F5F5F5F5F5F5F5F5F5F5F5F5F5F5F5F5F5F5F5F5F5F5F5F5F5F5F5F5F5F5F5F5F5F5F5F5F5F5F5F5F5F5F5E2F5F5F5F5F5F5F5F5F5F5F5F5F5F5F5F5E2F5F5F5E2E2EFF5F5F5E2F5F5
310
F5F5F5F5F5F5F5F5F5F5F5F5F5F5E2F5F5F5F5F5F5F5F5F5F5F5F5F5F5F5F5F5F5F5F5F5F5F5F5F5F5F5F5F5F5F5F5F5F5F5F5F5F5F5F5F5F5F5F5F5F5F5F5F5F5F5F5F5F5F5F5F5F5F5F5F5F5F5F5F5F5F5F5F5F5F5F5F5F5F5F5F5F5F5F5F5F5F5F5F5F5F5F5F5F5F5F5F5F5F5F5F5F5F5F5F5F5F5F5F5F5F5F5F5F5F5F5
310
F5F5F5F5F5F5F5F5F5F5F5F5F5F5F5F5F5F5F5F5F5F5F5E2F5F5F5F5F5F5F5F5F5F5F5F5F5F5F5F5E2F5F5F5E2E2EFF5F5F5E2F5F5F5F5F5F5F5F5F5F5F5F5F5F5F5F5E2F5F5F5F5F5F5F5F5F5F5F5F5F5F5F5F5F5F5F5F5F5F5F5F5F5F5F5F5F5F5F5F5F5F5F5F5F5F5F5F5F5F5F5F5F5F5F5F5F5F5F5F5F5F5F5F5F5F5F5
310
F5F5F5F5F5F5F5F5F5F5F5F5F5F5F5F5F5F5F5F5F5F5F5F5F5F5F5F5F5F5F5F5F5F5F5F5F5F5F5F5F5F5F5F5F5F5F5F5F5F5F5F5F5F5F5F5F5F5F5F5F5F5F5F5F5F5F5F5F5F5F5F5F5F5F5F5E2F5F5F5F5F5F5F5F5F5F5F5F5F5F5F5F5E2F5F5F5E2E2EFF5F5F5E2F5F5F5F5F5F5F5F5F5F5F5F5F5F5F5F5E2F5F5F5F5F5F5
310
F5F5F5F5F5F5F5F5F5F5F5F5F5F5F5F5F5F5F5F5F5F5F5F5F5F5F5F5F5F5F5F5F5F5F5F5F5F5F5F5F5F5F5F5F5F5F5F5F5F5F5F5F5F5F5F5F5F5F5F5F5F5F5F5F5F5F5F5F5F5F5F5F5F5F5F5F5F5F5F5F5F5F5F5F5F5F5F5F5F5F5F5F5F5F5F5F5F5F5F5F5F5F5F5F5F5F5F5F5F5F5F5F5F5F5F5F5F5F5F5F5F5F5F5F5F5F5
310
F5F5E2F5F5F5F5F5F5F5F5F5F5F5F5F5F5F5F5E2F5F5F5E2E2EFF5F5F5F5F5F5F5F5F5F5F5F5F5F5F5F5F5F5F5F5E2F5F5F5F5F5F5F5F5F5F5F5F5F5F5F5F5F5F5F5F5F5F5F5F5F5F5F5F5F5F5F5F5F5F5F5F5F5F5F5F5F5F5F5F5F5F5F5F5F5F5F5F5F5F5F5F5F5F5F5F5F5F5F5F5F5F5F5F5F5F5F5F5F5F5F5F5F5F5F5F5
310
F5F5F5F5F5F5F5F5F5F5F5F5F5F5F5F5F5F5F5F5F5F5F5F5F5F5F5F5F5F5F5F5F5F5F5F5F5F5F5F5F5F5F5F5F5F5F5F5F5F5F5F5F5F5F5E2F5F5F5F5F5F5F5F5F5F5F5F5F5F5F5F5F5F5F5F5E2E2EFF5F5F5F5F5F5F5F5F5F5F5F5F5F5F5F5F5F5F5F5E2F5F5F5F5F5F5F5F5F5F5F5F5F5F5F5F5F5F5F5F5F5F5F5F5F5F5F5
310
F5F5F5F5F5F5F5F5F5F5F5F5F5F5F5F5F5F5F5F5F5F5F5F5F5F5F5F5F5F5F5F5F5F5F5F5F5F5F5F5F5F5F5F5F5F5F5F5F5F5F5F5F5F5F5F5F5F5F5F5F5F5F5F5F5F5F5F5F5F5F5F5F5F5F5F5F5F5F5F5F5F5F5F5F5F5F5F5F5F5F5F5F5F5F5F5F5F5F5F5F5F5F5F5F5F5F5F5E2F5F5F5F5F5F5F5F5F5F5F5F5F5F5F5F5F5F5
310
F5F5E2E2EFF5F5F5F5F5F5F5F5F5F5F5F5F5F5F5F5F5F5F5F5E2F5F5F5F5F5F5F5F5F5F5F5F5F5F5F5F5F5F5F5F5F5F5F5F5F5F5F5F5F5F5F5F5F5F5F5F5F5F5F5F5F5F5F5F5F5F5F5F5F5F5F5F5F5F5F5F5F5F5F5F5F5F5F5F5F5F5F5F5F5F5F5F5F5F5F5F5F5F5F5F5F5F5F5F5F5F5F5F5F5F5F5F5F5F5F5F5F5F5F5F5F5
310
F5F5F5F5F5F5F5F5F5F5F5F5F5F5F5F5F5F5F5F5F5F5F5F5F5F5F5F5F5F5F5F5F5F5E2F5F5F5F5F5F5F5F5F5F5F5F5F5F5F5F5F5F5F5F5E2E2EFF5F5F5F5F5F5F5F5F5F5F5F5F5F5F5F5F5F5F5F5E2F5F5F5F5F5F5F5F5F5F5F5F5F5F5F5F5F5F5F5F5F5F5F5F5F5F5F5F5F5F5F5F5F5F5F5F5F5F5F5F5F5F5F5F5F5F5F5F5
310
F5F5F5F5F5F5F5F5F5F5F5F5F5F5F5F5F5F5F5F5F5F5F5F5F5F5F5F5F5F5F5F5F5F5F5F5F5F5F5F5F5F5F5F5F5F5F5F5F5F5F5F5F5F5F5F5F5F5F5F5F5F5F5F5F5F5F5F5F5F5F5F5F5F5F5F5F5F5F5F5F5F5F5F5F5F5F5E2F5F5F5F5F5F5F5F5F5F5F5F5F5F5F5F5F5F5F5F5E2E2EFF5F5F5F5F5F5F5F5F5F5F5F5F5F5F5F5
310
F5F5F5F5E2E2E2E2E2E2E2E2E2E2E2E2E2E2E2E2E2E2E2E2E2E2E2E2E2E2E2E2E2E2E2E2E2E2E2E2E2E2E2E2E2E2E2E2E2E2E2E2E2E2E2E2E2E2E2E2E2E2E2E2E2E2E2E2E2E2E2E2E2E2E2E2E2E2E2E2E2E2E2E2E2E2E2E2E2E2E2E2E2E2E2E2E2E2E2E2E2E2E2E2E2E2E2E2E2E2E2E2E2E2E2E2E2E2E2E2E2E2E2E2E2E2E2
310
E2E2E2E2E2E2E2E2E2E2E2E2E2E2F5F5F5F5F5F5F5F5F5F5F5F5F5F5F5F5F5F5F5F5E2E2EFF5F5F5F5F5F5F5F5F5F5F5F5F5F5F5F5F5F5F5F5F5F5F5F5F5F5F5F5F5F5F5F5F5F5F5F5F5F5F5F5F5F5F5F5F5F5F5F5F5F5F5F5F5F5F5F5F5F5F5F5F5F5F5F5F5F5F5F5F5F5F5F5F5F5F5F5F5F5F5F5F5F5F5F5F5F5F5F5F5F5
310
F5F5F5F5F5F5F5F5F5F5F5F5F5F5F5F5F5F5F5F5F5F5F5F5F5F5F5F5F5F5F5F5F5F5F5F5F5F5F5F5F5F5F5F5F5F5F5F5F5F5F5F5F5F5F5F5F5F5F5F5F5F5F5F5F5F5F5F5F5F5F5F5F5F5F5F5F5F5F5F5F5F5F5F5F5F5F5E2E2EFF5F5F5F5F5F5F5F5F5F5F5F5F5F5F5F5F5F5F5F5F5F5F5F5F5F5F5F5F5F5F5F5F5F5F5F5F5
310
F5F5F5F5F5F5F5F5F5F5F5F5F5F5F5F5F5F5F5F5F5F5F5F5F5F5F5F5F5F5F5F5F5F5F5F5F5F5F5F5F5F5F5F5F5F5F5F5F5F5F5F5F5F5F5F5F5F5F5F5F5F5F5F5F5F5F5F5F5F5F5F5F5F5F5F5F5F5F5F5F5F5F5F5F5F5F5F5F5F5F5F5F5F5F5F5F5F5F5F5F5F5F5F5F5F5F5F5F5F5F5F5F5F5F5F5F5F5F5F5F5F5F5F5F5F5F5
310
F5F5F5F5F5F5F5F5F5F5F5F5F5E2E2EFF5F5F5F5F5F5F5F5F5F5F5F5F5F5F5F5F5F5F5F5F5F5F5F5F5F5F5F5F5F5F5F5F5F5F5F5F5F5F5F5F5F5F5F5F5F5F5F5F5F5F5F5F5F5F5F5F5F5F5F5F5F5F5F5F5F5F5F5F5F5F5F5F5F5F5F5F5F5F5F5F5F5F5F5F5F5F5F5F5F5F5F5F5F5F5F5F5F5F5F5F5F5F5F5F5F5F5F5F5F5F5
310
F5F5F5F5F5F5F5F5F5F5F5F5F5F5F5F5F5F5F5F5F5F5F5F5F5F5F5F5F5F5F5F5F5F5F5F5F5F5F5F5F5F5F5F5F5F5F5F5F5F5F5F5F5F5F5F5F5F5F5F5F5F5F5F5F5F5E2E2EFF5F5F5F5F5F5F5F5F5F5F5F5F5F5F5F5F5F5F5F5F5F5F5F5F5F5F5F5F5F5F5F5F5F5F5F5F5F5F5F5F5F5F5F5F5F5F5F5F5F5F5F5F5F5F5F5F5F5
310
F5F5F5F5F5F5F5F5F5F5F5F5F5F5F5F5F5F5F5F5F5F5F5F5F5F5F5F5F5F5F5F5F5F5F5F5F5F5F5F5F5F5F5F5F5F5F5F5F5F5F5F5F5F5F5F5F5F5F5F5F5F5F5F5F5F5F5F5F5F5F5F5F5F5F5F5F5F5F5F5F5F5F5F5F5F5F5F5F5F5F5F5F5F5F5F5F5F5F5F5F5F5F5F5F5F5F5F5F5F5F5F5F5F5F5F5F5F5F5E2E2EFF5F5F5E2F5
310
F5F5F5F5F5F5F5F5F5F5F5F5F5F5F5F5F5F5F5F5F5F5F5F5F5F5F5F5F5F5F5F5F5F5F5F5F5F5F5F5F5F5F5F5F5F5F5F5F5F5F5F5F5F5F5F5F5F5F5F5F5F5F5F5F5F5F5F5F5F5F5F5F5F5F5F5F5F5F5F5F5F5F5F5F5F5F5F5F5F5F5F5F5F5F5F5F5F5F5F5F5F5F5F5F5F5F5F5F5F5F5F5F5F5F5F5F5F5F5F5F5F5F5F5F5F5F5
310
F5F5F5F5F5F5F5F5F5F5F5F5F5F5F5F5F5F5F5F5F5F5F5F5F5F5F5F5F5F5F5F5F5F5F5F5F5F5F5F5F5E2F5F5F5E2E2EFF5F5F5E2F5F5F5F5F5F5F5F5F5F5F5F5F5F5F5F5F5F5F5F5F5F5F5F5F5F5F5F5F5F5F5F5F5F5F5F5F5F5F5F5F5F5F5F5F5F5F5F5F5F5F5F5F5F5F5F5F5F5F5F5F5F5F5F5F5F5F5F5F5F5F5F5F5F5F5
310
F5F5F5F5F5F5F5F5F5F5F5F5F5F5F5F5F5F5F5F5F5F5F5F5F5F5F5F5F5F5F5F5F5F5F5F5F5F5F5F5F5F5F5F5F5F5F5F5F5F5F5F5F5F5F5F5F5F5F5F5F5F5F5F5F5F5F5F5F5F5F5F5F5F5F5F5F5F5F5F5F5F5F5F5F5F5F5F5F5F5F5F5F5F5E2F5F5F5E2E2EFF5F5F5E2F5F5F5F5F5F5F5F5F5F5F5F5F5F5F5F5F5F5F5F5F5F5
310
F5F5F5F5F5F5F5F5F5F5F5F5F5F5F5F5F5F5F5F5F5F5F5F5F5F5F5F5F5F5F5F5F5F5F5F5F5F5F5F5F5F5F5F5F5F5F5F5F5F5F5F5F5F5F5F5F5F5F5F5F5F5F5F5F5F5F5F5F5F5F5F5F5F5F5F5F5F5F5F5F5F5F5F5F5F5F5F5F5F5F5F5F5F5F5F5F5F5F5F5F5F5F5F5F5F5F5F5F5F5F5F5F5F5F5F5F5F5F5F5F5F5F5F5F5F5F5
310
F5F5F5F5F5F5F5F5F5F5F5F5F5F5F5F5F5F5F5F5E2F5F5F5E2E2EFF5F5F5E2F5F5F5F5F5F5F5F5F5F5F5F5F5F5F5F5F5F5F5F5F5F5F5F5F5F5F5F5F5F5F5F5F5F5F5F5F5F5F5F5F5F5F5F5F5F5F5F5F5F5F5F5F5F5F5F5F5F5F5F5F5F5F5F5F5F5F5F5F5F5F5F5F5F5F5F5F5F5F5F5F5F5F5F5F5F5F5F5F5F5F5F5F5F5F5F5
310
F5F5F5F5F5F5F5F5F5F5F5F5F5F5F5F5F5F5F5F5F5F5F5F5F5F5F5F5F5F5F5F5F5F5F5F5F5F5F5F5F5F5F5F5F5F5F5F5F5F5F5F5F5F5F5F5F5F5F5F5F5F5F5F5F5F5F5F5F5F5F5F5F5E2F5F5F5E2E2EFF5F5F5E2F5F5F5F5F5F5F5F5F5F5F5F5F5F5F5F5F5F5F5F5F5F5F5F5F5F5F5F5F5F5F5F5F5F5F5F5F5F5F5F5F5F5F5
310
F5F5F5F5F5F5F5F5F5F5F5F5F5F5F5F5F5F5F5F5F5F5F5F5F5F5F5F5F5F5F5F5F5F5F5F5F5F5F5F5F5F5F5F5F5F5F5F5F5F5F5F5F5F5F5F5F5F5F5F5F5F5F5F5F5F5F5F5F5F5F5F5F5F5F5F5F5F5F5F5F5F5F5F5F5F5F5F5F5F5F5F5F5F5F5F5F5F5F5F5F5F5F5F5F5F5F5F5F5F5F5F5F5F5F5F5F5F5F5F5F5F5F5F5F5F5E2
310
F5F5F5E2E2EFF5F5F5E2F5F5F5F5F5F5F5F5F5F5F5F5F5F5F5F5F5F5F5F5F5F5F5F5F5F5F5F5F5F5F5F5F5F5F5F5F5F5F5F5F5F5F5F5F5F5F5F5F5F5F5F5F5F5F5F5F5F5F5F5F5F5F5F5F5F5F5F5F5F5F5F5F5F5F5F5F5F5F5F5F5F5F5F5F5F5F5F5F5F5F5F5F5F5F5F5F5F5F5F5F5F5F5F5F5F5F5F5F5F5F5F5F5F5F5F5F5
310
F5F5F5F5F5F5F5F5F5F5F5F5F5F5F5F5F5F5F5F5F5F5F5F5F5F5F5F5F5F5F5F5F5F5F5F5F5F5F5F5F5F5F5F5F5F5F5F5F5F5F5F5E2F5F5F5E2E2EFF5F5F5E2F5F5F5F5F5F5F5F5F5F5F5F5F5F5F5F5F5F5F5F5F5F5F5F5F5F5F5F5F5F5F5F5F5F5F5F5F5F5F5F5F5F5F5F5F5F5F5F5F5F5F5F5F5F5F5F5F5F5F5F5F5F5F5F5
310
F5F5F5F5F5F5F5F5F5F5F5F5F5F5F5F5F5F5F5F5F5F5F5F5F5F5F5F5F5F5F5F5F5F5F5F5F5F5F5F5F5F5F5F5F5F5F5F5F5F5F5F5F5F5F5F5F5F5F5F5F5F5F5F5F5F5F5F5F5F5F5F5F5F5F5F5F5F5F5F5F5F5F5F5F5F5F5F5F5F5F5F5F5F5F5F5F5F5F5F5F5F5F5F5F5E2F5F5F5E2E2EFF5F5F5E2F5F5F5F5F5F5F5F5F5F5F5
310
F5F5F5F5F5F5F5F5F5F5F5F5F5F5F5F5F5F5F5F5F5F5F5F5F5F5F5F5F5F5F5F5F5F5F5F5F5F5F5F5F5F5F5F5F5F5F5F5F5F5F5F5F5F5F5F5F5F5F5F5F5F5F5F5F5F5F5F5F5F5F5F5F5F5F5F5F5F5F5F5F5F5F5F5F5F5F5F5F5F5F5F5F5F5F5F5F5F5F5F5F5F5F5F5F5F5F5F5F5F5F5F5F5F5F5F5F5F5F5F5F5F5F5F5F5F5F5
310
F5F5F5F5F5F5F5F5F5F5F5F5F5F5F5F5F5F5F5F5F5F5F5F5F5F5F5F5F5F5F5E2F5F5F5E2E2EFF5F5F5E2E2E2E2E2E2E2E2F5F5F5F5F5F5F5F5F5E2E2E2E2E2E2E2E2E2E2E2E2E2E2E2E2F5F5F5F5F5F5F5F5E2E2E2E2E2E2E2E2E2E2E2E2E2E2E2E2F5F5F5F5F5F5F5F5F5E2E2E2E2E2E2E2E2E2E2E2E2E2E2E2F5F5F5F5F5
310
F5F5F5F5E2E2E2E2E2E2E2E2E2E2E2E2E2E2E2F5F5F5F5F5F5F5F5F5E2E2E2E2E2E2E2E2E2E2E2E2E2E2E2E2F5F5F5F5F5F5F5F5E2E2E2E2E2E2E2E2E2E2E2E2E2E2E2E2F5F5F5F5F5F5F5F5F5E2E2E2E2E2E2E2E2F5F5F5E2E2EFF5F5F5F5F5F5F5F5F5F5F5F5F5F5F5F5F5F5F5F5F5F5F5F5F5F5F5F5F5F5F5F5F5F5F5F5
310
F5F5F5F5F5F5F5F5F5F5F5F5F5F5F5F5F5F5F5F5F5F5F5F5F5F5F5F5F5F5F5F5F5F5F5F5F5F5F5F5F5F5F5F5F5F5F5F5F5F5F5F5F5F5F5F5F5F5F5F5F5F5F5F5F5F5F5F5F5F5F5F5F5F5F5F5F5F5F5F5F5F5F5F5F5F5F5F5F5F5F5F5F5F5F5F5F5F5F5F5F5F5F5F5F5F5F5F5F5F5F5F5F5F5F5F5F5F5F5F5F5F5F5F5F5F5F5
310
F5F5F5F5F5F5F5F5F5F5F5F5F5F5E2E2EFF5F5F5F5F5F5F5F5F5F5F5F5F5F5F5F5F5F5F5F5F5F5F5F5F5F5F5F5F5F5F5F5F5F5F5F5F5F5F5F5F5F5F5F5F5F5F5F5F5F5F5F5F5F5F5F5F5F5F5F5F5F5F5F5F5F5F5F5F5F5F5F5F5F5F5F5F5F5F5F5F5F5F5F5F5F5F5F5F5F5F5F5F5F5F5F5F5F5F5F5F5F5F5F5F5F5F5F5F5F5
310
F5F5F5F5F5F5F5F5F5F5F5F5F5F5F5F5F5F5F5F5F5F5F5F5F5F5F5F5F5F5F5F5F5F5F5F5F5F5F5F5F5F5F5F5F5F5F5F5F5F5F5F5F5F5F5F5F5F5F5F5F5F5F5F5F5F5F5E2EFEFF5F5F5F5F5F5F5F5F5F5F5F5F5F5F5F5F5F5F5F5F5F5F5F5F5F5F5F5F5F5F5F5F5F5F5F5F5F5F5F5F5F5F5F5F5F5F5F5F5F5F5F5F5F5F5F5F5
310
F5F5F5F5F5F5F5F5F5F5F5F5F5F5F5F5F5F5F5F5F5F5F5F5F5F5F5F5F5F5F5F5F5F5F5F5F5F5F5F5F5F5F5F5F5F5F5F5F5F5F5F5F5F5F5F5F5F5F5F5F5F5F5F5F5F5F5F5F5F5F5F5F5F5F5F5F5F5F5F5F5F5F5F5F5F5F5F5F5F5F5F5F5F5F5F5F5F5F5F5F5F5F5F5F5F5F5F5F5F5F5F5F5F5F5F5F5F5F5F5E2EFEFE2E2E2E2
310
E2E2E2E2E2E2E2E2E2E2E2E2E2E2E2E2E2E2E2E2E2E2E2E2E2E2E2E2E2E2E2E2E2E2E2E2E2E2E2E2E2E2E2E2E2E2E2E2E2E2E2E2E2E2E2E2E2E2E2E2E2E2E2E2E2E2E2E2E2E2E2E2E2E2E2E2E2E2E2E2E2E2E2E2E2E2E2E2E2E2E2E2E2E2E2E2E2E2E2E2E2E2E2E2E2E2E2E2E2E2E2E2E2E2E2E2E2E2E2E2E2E2E2E2E2E2E2
310
E2E2E2E2E2E2E2E2E2E2E2E2E2E2E2E2E2E2E2E2E2E2E2E2E2E2E2E2E2E2E2E2E2E2E2E2E2E2E2E2E2E2E2E2E2E2E2EFEF
  0
XRECORD
  5
11CC
102
{ACAD_REACTORS
330
11CB
102
}
330
11CB
100
AcDbXrecord
280
     1
270
     1
271
     1
  0
XRECORD
  5
11CD
102
{ACAD_REACTORS
330
11CB
102
}
330
11CB
100
AcDbXrecord
280
     1
270
     1
271
     1
  0
XRECORD
  5
11CE
102
{ACAD_REACTORS
330
11CB
102
}
330
11CB
100
AcDbXrecord
280
     1
270
     1
271
     1
  0
XRECORD
  5
11CF
102
{ACAD_REACTORS
330
11CB
102
}
330
11CB
100
AcDbXrecord
280
     1
270
     1
271
     1
  0
XRECORD
  5
11D0
102
{ACAD_REACTORS
330
11CB
102
}
330
11CB
100
AcDbXrecord
280
     1
270
     1
271
     1
  0
XRECORD
  5
11D1
102
{ACAD_REACTORS
330
11CB
102
}
330
11CB
100
AcDbXrecord
280
     1
270
     1
271
     1
  0
XRECORD
  5
11C4
102
{ACAD_REACTORS
330
11C3
102
}
330
11C3
100
AcDbXrecord
280
     1
270
     1
271
     1
  0
XRECORD
  5
11C5
102
{ACAD_REACTORS
330
11C3
102
}
330
11C3
100
AcDbXrecord
280
     1
270
     1
271
     1
  0
XRECORD
  5
11C6
102
{ACAD_REACTORS
330
11C3
102
}
330
11C3
100
AcDbXrecord
280
     1
270
     1
271
     1
  0
XRECORD
  5
11C7
102
{ACAD_REACTORS
330
11C3
102
}
330
11C3
100
AcDbXrecord
280
     1
270
     1
271
     1
  0
XRECORD
  5
11C8
102
{ACAD_REACTORS
330
11C3
102
}
330
11C3
100
AcDbXrecord
280
     1
270
     1
271
     1
  0
XRECORD
  5
11C9
102
{ACAD_REACTORS
330
11C3
102
}
330
11C3
100
AcDbXrecord
280
     1
270
     1
271
     1
  0
XRECORD
  5
119A
102
{ACAD_REACTORS
330
1199
102
}
330
1199
100
AcDbXrecord
280
     1
270
     1
271
     1
  0
XRECORD
  5
119B
102
{ACAD_REACTORS
330
1199
102
}
330
1199
100
AcDbXrecord
280
     1
270
     1
271
     1
  0
XRECORD
  5
119C
102
{ACAD_REACTORS
330
1199
102
}
330
1199
100
AcDbXrecord
280
     1
270
     1
271
     1
  0
XRECORD
  5
119D
102
{ACAD_REACTORS
330
1199
102
}
330
1199
100
AcDbXrecord
280
     1
270
     1
271
     1
  0
XRECORD
  5
119E
102
{ACAD_REACTORS
330
1199
102
}
330
1199
100
AcDbXrecord
280
     1
270
     1
271
     1
  0
XRECORD
  5
119F
102
{ACAD_REACTORS
330
1199
102
}
330
1199
100
AcDbXrecord
280
     1
270
     1
271
     1
  0
CELLSTYLEMAP
  5
18AE
102
{ACAD_REACTORS
330
1346
102
}
330
1346
100
AcDbCellStyleMap
 90
        3
300
CELLSTYLE
  1
TABLEFORMAT_BEGIN
 90
        5
170
     1
 91
        0
 92
    32768
 62
   257
 93
        1
300
CONTENTFORMAT
  1
CONTENTFORMAT_BEGIN
 90
        0
 91
        0
 92
        4
 93
        0
300

 40
0.0
140
1.0
 94
        5
 62
     0
340
11AF
144
0.25
309
CONTENTFORMAT_END
171
     1
301
MARGIN
  1
CELLMARGIN_BEGIN
 40
0.06
 40
0.06
 40
0.06
 40
0.06
 40
0.18
 40
0.18
309
CELLMARGIN_END
 94
        6
 95
        1
302
GRIDFORMAT
  1
GRIDFORMAT_BEGIN
 90
        0
 91
        1
 62
     0
 92
       -2
340
0
 93
        0
 40
0.045
309
GRIDFORMAT_END
 95
        2
302
GRIDFORMAT
  1
GRIDFORMAT_BEGIN
 90
        0
 91
        1
 62
     0
 92
       -2
340
0
 93
        0
 40
0.045
309
GRIDFORMAT_END
 95
        4
302
GRIDFORMAT
  1
GRIDFORMAT_BEGIN
 90
        0
 91
        1
 62
     0
 92
       -2
340
0
 93
        0
 40
0.045
309
GRIDFORMAT_END
 95
        8
302
GRIDFORMAT
  1
GRIDFORMAT_BEGIN
 90
        0
 91
        1
 62
     0
 92
       -2
340
0
 93
        0
 40
0.045
309
GRIDFORMAT_END
 95
       16
302
GRIDFORMAT
  1
GRIDFORMAT_BEGIN
 90
        0
 91
        1
 62
     0
 92
       -2
340
0
 93
        0
 40
0.045
309
GRIDFORMAT_END
 95
       32
302
GRIDFORMAT
  1
GRIDFORMAT_BEGIN
 90
        0
 91
        1
 62
     0
 92
       -2
340
0
 93
        0
 40
0.045
309
GRIDFORMAT_END
309
TABLEFORMAT_END
  1
CELLSTYLE_BEGIN
 90
        1
 91
        1
300
_TITLE
309
CELLSTYLE_END
300
CELLSTYLE
  1
TABLEFORMAT_BEGIN
 90
        5
170
     1
 91
        0
 92
        0
 62
   257
 93
        1
300
CONTENTFORMAT
  1
CONTENTFORMAT_BEGIN
 90
        0
 91
        0
 92
        4
 93
        0
300

 40
0.0
140
1.0
 94
        5
 62
     0
340
11AF
144
0.18
309
CONTENTFORMAT_END
171
     1
301
MARGIN
  1
CELLMARGIN_BEGIN
 40
0.06
 40
0.06
 40
0.06
 40
0.06
 40
0.18
 40
0.18
309
CELLMARGIN_END
 94
        6
 95
        1
302
GRIDFORMAT
  1
GRIDFORMAT_BEGIN
 90
        0
 91
        1
 62
     0
 92
       -2
340
0
 93
        0
 40
0.045
309
GRIDFORMAT_END
 95
        2
302
GRIDFORMAT
  1
GRIDFORMAT_BEGIN
 90
        0
 91
        1
 62
     0
 92
       -2
340
0
 93
        0
 40
0.045
309
GRIDFORMAT_END
 95
        4
302
GRIDFORMAT
  1
GRIDFORMAT_BEGIN
 90
        0
 91
        1
 62
     0
 92
       -2
340
0
 93
        0
 40
0.045
309
GRIDFORMAT_END
 95
        8
302
GRIDFORMAT
  1
GRIDFORMAT_BEGIN
 90
        0
 91
        1
 62
     0
 92
       -2
340
0
 93
        0
 40
0.045
309
GRIDFORMAT_END
 95
       16
302
GRIDFORMAT
  1
GRIDFORMAT_BEGIN
 90
        0
 91
        1
 62
     0
 92
       -2
340
0
 93
        0
 40
0.045
309
GRIDFORMAT_END
 95
       32
302
GRIDFORMAT
  1
GRIDFORMAT_BEGIN
 90
        0
 91
        1
 62
     0
 92
       -2
340
0
 93
        0
 40
0.045
309
GRIDFORMAT_END
309
TABLEFORMAT_END
  1
CELLSTYLE_BEGIN
 90
        2
 91
        1
300
_HEADER
309
CELLSTYLE_END
300
CELLSTYLE
  1
TABLEFORMAT_BEGIN
 90
        5
170
     1
 91
        0
 92
        0
 62
   257
 93
        1
300
CONTENTFORMAT
  1
CONTENTFORMAT_BEGIN
 90
        0
 91
        0
 92
        4
 93
        0
300

 40
0.0
140
1.0
 94
        2
 62
     0
340
11AF
144
0.18
309
CONTENTFORMAT_END
171
     1
301
MARGIN
  1
CELLMARGIN_BEGIN
 40
0.06
 40
0.06
 40
0.06
 40
0.06
 40
0.18
 40
0.18
309
CELLMARGIN_END
 94
        6
 95
        1
302
GRIDFORMAT
  1
GRIDFORMAT_BEGIN
 90
        0
 91
        1
 62
     0
 92
       -2
340
0
 93
        0
 40
0.045
309
GRIDFORMAT_END
 95
        2
302
GRIDFORMAT
  1
GRIDFORMAT_BEGIN
 90
        0
 91
        1
 62
     0
 92
       -2
340
0
 93
        0
 40
0.045
309
GRIDFORMAT_END
 95
        4
302
GRIDFORMAT
  1
GRIDFORMAT_BEGIN
 90
        0
 91
        1
 62
     0
 92
       -2
340
0
 93
        0
 40
0.045
309
GRIDFORMAT_END
 95
        8
302
GRIDFORMAT
  1
GRIDFORMAT_BEGIN
 90
        0
 91
        1
 62
     0
 92
       -2
340
0
 93
        0
 40
0.045
309
GRIDFORMAT_END
 95
       16
302
GRIDFORMAT
  1
GRIDFORMAT_BEGIN
 90
        0
 91
        1
 62
     0
 92
       -2
340
0
 93
        0
 40
0.045
309
GRIDFORMAT_END
 95
       32
302
GRIDFORMAT
  1
GRIDFORMAT_BEGIN
 90
        0
 91
        1
 62
     0
 92
       -2
340
0
 93
        0
 40
0.045
309
GRIDFORMAT_END
309
TABLEFORMAT_END
  1
CELLSTYLE_BEGIN
 90
        3
 91
        2
300
_DATA
309
CELLSTYLE_END
  0
XRECORD
  5
18B1
102
{ACAD_REACTORS
330
18B0
102
}
330
18B0
100
AcDbXrecord
280
     1
102
RTVSPropertyOp0
 70
     1
102
RTVSPropertyOp1
 70
     1
102
RTVSPropertyOp2
 70
     1
102
RTVSPropertyOp3
 70
     1
102
RTVSPropertyOp4
 70
     1
102
RTVSPropertyOp5
 70
     1
102
RTVSPropertyOp6
 70
     1
102
RTVSPropertyOp7
 70
     1
102
RTVSPropertyOp8
 70
     1
102
RTVSPropertyOp9
 70
     1
102
RTVSPropertyOp10
 70
     1
102
RTVSPropertyOp11
 70
     1
102
RTVSPropertyOp12
 70
     1
102
RTVSPropertyOp13
 70
     1
102
RTVSPropertyOp14
 70
     1
102
RTVSPropertyOp15
 70
     1
102
RTVSPropertyOp16
 70
     1
102
RTVSPropertyOp17
 70
     1
102
RTVSPropertyOp18
 70
     1
102
RTVSPropertyOp19
 70
     1
102
RTVSPropertyOp20
 70
     1
102
RTVSPropertyOp21
 70
     1
102
RTVSPropertyOp22
 70
     1
102
RTVSPropertyOp23
 70
     1
102
RTVSPropertyOp24
 70
     1
102
RTVSPropertyOp25
 70
     1
102
RTVSPropertyOp26
 70
     1
102
RTVSPropertyOp27
 70
     1
  0
XRECORD
  5
18C1
102
{ACAD_REACTORS
330
18C0
102
}
330
18C0
100
AcDbXrecord
280
     1
102
RTVSPropertyOp0
 70
     1
102
RTVSPropertyOp1
 70
     1
102
RTVSPropertyOp2
 70
     1
102
RTVSPropertyOp3
 70
     1
102
RTVSPropertyOp4
 70
     1
102
RTVSPropertyOp5
 70
     1
102
RTVSPropertyOp6
 70
     1
102
RTVSPropertyOp7
 70
     1
102
RTVSPropertyOp8
 70
     1
102
RTVSPropertyOp9
 70
     1
102
RTVSPropertyOp10
 70
     1
102
RTVSPropertyOp11
 70
     1
102
RTVSPropertyOp12
 70
     1
102
RTVSPropertyOp13
 70
     1
102
RTVSPropertyOp14
 70
     1
102
RTVSPropertyOp15
 70
     1
102
RTVSPropertyOp16
 70
     1
102
RTVSPropertyOp17
 70
     1
102
RTVSPropertyOp18
 70
     1
102
RTVSPropertyOp19
 70
     1
102
RTVSPropertyOp20
 70
     1
102
RTVSPropertyOp21
 70
     1
102
RTVSPropertyOp22
 70
     1
102
RTVSPropertyOp23
 70
     1
102
RTVSPropertyOp24
 70
     1
102
RTVSPropertyOp25
 70
     1
102
RTVSPropertyOp26
 70
     1
102
RTVSPropertyOp27
 70
     1
  0
XRECORD
  5
18B5
102
{ACAD_REACTORS
330
18B4
102
}
330
18B4
100
AcDbXrecord
280
     1
102
RTVSPropertyOp0
 70
     1
102
RTVSPropertyOp1
 70
     1
102
RTVSPropertyOp2
 70
     1
102
RTVSPropertyOp3
 70
     1
102
RTVSPropertyOp4
 70
     1
102
RTVSPropertyOp5
 70
     1
102
RTVSPropertyOp6
 70
     1
102
RTVSPropertyOp7
 70
     1
102
RTVSPropertyOp8
 70
     1
102
RTVSPropertyOp9
 70
     1
102
RTVSPropertyOp10
 70
     1
102
RTVSPropertyOp11
 70
     1
102
RTVSPropertyOp12
 70
     1
102
RTVSPropertyOp13
 70
     1
102
RTVSPropertyOp14
 70
     1
102
RTVSPropertyOp15
 70
     1
102
RTVSPropertyOp16
 70
     1
102
RTVSPropertyOp17
 70
     1
102
RTVSPropertyOp18
 70
     1
102
RTVSPropertyOp19
 70
     1
102
RTVSPropertyOp20
 70
     1
102
RTVSPropertyOp21
 70
     1
102
RTVSPropertyOp22
 70
     1
102
RTVSPropertyOp23
 70
     1
102
RTVSPropertyOp24
 70
     1
102
RTVSPropertyOp25
 70
     1
102
RTVSPropertyOp26
 70
     1
102
RTVSPropertyOp27
 70
     1
  0
XRECORD
  5
18BF
102
{ACAD_REACTORS
330
18BE
102
}
330
18BE
100
AcDbXrecord
280
     1
102
RTVSPropertyOp0
 70
     1
102
RTVSPropertyOp1
 70
     1
102
RTVSPropertyOp2
 70
     1
102
RTVSPropertyOp3
 70
     1
102
RTVSPropertyOp4
 70
     1
102
RTVSPropertyOp5
 70
     1
102
RTVSPropertyOp6
 70
     1
102
RTVSPropertyOp7
 70
     1
102
RTVSPropertyOp8
 70
     1
102
RTVSPropertyOp9
 70
     1
102
RTVSPropertyOp10
 70
     1
102
RTVSPropertyOp11
 70
     1
102
RTVSPropertyOp12
 70
     1
102
RTVSPropertyOp13
 70
     1
102
RTVSPropertyOp14
 70
     1
102
RTVSPropertyOp15
 70
     1
102
RTVSPropertyOp16
 70
     1
102
RTVSPropertyOp17
 70
     1
102
RTVSPropertyOp18
 70
     1
102
RTVSPropertyOp19
 70
     1
102
RTVSPropertyOp20
 70
     1
102
RTVSPropertyOp21
 70
     1
102
RTVSPropertyOp22
 70
     1
102
RTVSPropertyOp23
 70
     1
102
RTVSPropertyOp24
 70
     1
102
RTVSPropertyOp25
 70
     1
102
RTVSPropertyOp26
 70
     1
102
RTVSPropertyOp27
 70
     1
  0
XRECORD
  5
18C7
102
{ACAD_REACTORS
330
18C6
102
}
330
18C6
100
AcDbXrecord
280
     1
102
RTVSPropertyOp0
 70
     1
102
RTVSPropertyOp1
 70
     1
102
RTVSPropertyOp2
 70
     1
102
RTVSPropertyOp3
 70
     1
102
RTVSPropertyOp4
 70
     1
102
RTVSPropertyOp5
 70
     1
102
RTVSPropertyOp6
 70
     1
102
RTVSPropertyOp7
 70
     1
102
RTVSPropertyOp8
 70
     1
102
RTVSPropertyOp9
 70
     1
102
RTVSPropertyOp10
 70
     1
102
RTVSPropertyOp11
 70
     1
102
RTVSPropertyOp12
 70
     1
102
RTVSPropertyOp13
 70
     1
102
RTVSPropertyOp14
 70
     1
102
RTVSPropertyOp15
 70
     1
102
RTVSPropertyOp16
 70
     1
102
RTVSPropertyOp17
 70
     1
102
RTVSPropertyOp18
 70
     1
102
RTVSPropertyOp19
 70
     1
102
RTVSPropertyOp20
 70
     1
102
RTVSPropertyOp21
 70
     1
102
RTVSPropertyOp22
 70
     1
102
RTVSPropertyOp23
 70
     1
102
RTVSPropertyOp24
 70
     1
102
RTVSPropertyOp25
 70
     1
102
RTVSPropertyOp26
 70
     1
102
RTVSPropertyOp27
 70
     1
  0
XRECORD
  5
18CF
102
{ACAD_REACTORS
330
18CE
102
}
330
18CE
100
AcDbXrecord
280
     1
102
RTVSPropertyOp0
 70
     1
102
RTVSPropertyOp1
 70
     1
102
RTVSPropertyOp2
 70
     1
102
RTVSPropertyOp3
 70
     1
102
RTVSPropertyOp4
 70
     1
102
RTVSPropertyOp5
 70
     1
102
RTVSPropertyOp6
 70
     1
102
RTVSPropertyOp7
 70
     1
102
RTVSPropertyOp8
 70
     1
102
RTVSPropertyOp9
 70
     1
102
RTVSPropertyOp10
 70
     1
102
RTVSPropertyOp11
 70
     1
102
RTVSPropertyOp12
 70
     1
102
RTVSPropertyOp13
 70
     1
102
RTVSPropertyOp14
 70
     1
102
RTVSPropertyOp15
 70
     1
102
RTVSPropertyOp16
 70
     1
102
RTVSPropertyOp17
 70
     1
102
RTVSPropertyOp18
 70
     1
102
RTVSPropertyOp19
 70
     1
102
RTVSPropertyOp20
 70
     1
102
RTVSPropertyOp21
 70
     1
102
RTVSPropertyOp22
 70
     1
102
RTVSPropertyOp23
 70
     1
102
RTVSPropertyOp24
 70
     1
102
RTVSPropertyOp25
 70
     1
102
RTVSPropertyOp26
 70
     1
102
RTVSPropertyOp27
 70
     1
  0
XRECORD
  5
18C3
102
{ACAD_REACTORS
330
18C2
102
}
330
18C2
100
AcDbXrecord
280
     1
102
RTVSPropertyOp0
 70
     1
102
RTVSPropertyOp1
 70
     1
102
RTVSPropertyOp2
 70
     1
102
RTVSPropertyOp3
 70
     1
102
RTVSPropertyOp4
 70
     1
102
RTVSPropertyOp5
 70
     1
102
RTVSPropertyOp6
 70
     1
102
RTVSPropertyOp7
 70
     1
102
RTVSPropertyOp8
 70
     1
102
RTVSPropertyOp9
 70
     1
102
RTVSPropertyOp10
 70
     1
102
RTVSPropertyOp11
 70
     1
102
RTVSPropertyOp12
 70
     1
102
RTVSPropertyOp13
 70
     1
102
RTVSPropertyOp14
 70
     1
102
RTVSPropertyOp15
 70
     1
102
RTVSPropertyOp16
 70
     1
102
RTVSPropertyOp17
 70
     1
102
RTVSPropertyOp18
 70
     1
102
RTVSPropertyOp19
 70
     1
102
RTVSPropertyOp20
 70
     1
102
RTVSPropertyOp21
 70
     1
102
RTVSPropertyOp22
 70
     1
102
RTVSPropertyOp23
 70
     1
102
RTVSPropertyOp24
 70
     1
102
RTVSPropertyOp25
 70
     1
102
RTVSPropertyOp26
 70
     1
102
RTVSPropertyOp27
 70
     1
  0
XRECORD
  5
18C5
102
{ACAD_REACTORS
330
18C4
102
}
330
18C4
100
AcDbXrecord
280
     1
102
RTVSPropertyOp0
 70
     1
102
RTVSPropertyOp1
 70
     1
102
RTVSPropertyOp2
 70
     1
102
RTVSPropertyOp3
 70
     1
102
RTVSPropertyOp4
 70
     1
102
RTVSPropertyOp5
 70
     1
102
RTVSPropertyOp6
 70
     1
102
RTVSPropertyOp7
 70
     1
102
RTVSPropertyOp8
 70
     1
102
RTVSPropertyOp9
 70
     1
102
RTVSPropertyOp10
 70
     1
102
RTVSPropertyOp11
 70
     1
102
RTVSPropertyOp12
 70
     1
102
RTVSPropertyOp13
 70
     1
102
RTVSPropertyOp14
 70
     1
102
RTVSPropertyOp15
 70
     1
102
RTVSPropertyOp16
 70
     1
102
RTVSPropertyOp17
 70
     1
102
RTVSPropertyOp18
 70
     1
102
RTVSPropertyOp19
 70
     1
102
RTVSPropertyOp20
 70
     1
102
RTVSPropertyOp21
 70
     1
102
RTVSPropertyOp22
 70
     1
102
RTVSPropertyOp23
 70
     1
102
RTVSPropertyOp24
 70
     1
102
RTVSPropertyOp25
 70
     1
102
RTVSPropertyOp26
 70
     1
102
RTVSPropertyOp27
 70
     1
  0
XRECORD
  5
18D5
102
{ACAD_REACTORS
330
18D4
102
}
330
18D4
100
AcDbXrecord
280
     1
102
RTVSPropertyOp0
 70
     0
102
RTVSPropertyOp1
 70
     0
102
RTVSPropertyOp2
 70
     0
102
RTVSPropertyOp3
 70
     0
102
RTVSPropertyOp4
 70
     0
102
RTVSPropertyOp5
 70
     0
102
RTVSPropertyOp6
 70
     0
102
RTVSPropertyOp7
 70
     0
102
RTVSPropertyOp8
 70
     0
102
RTVSPropertyOp9
 70
     0
102
RTVSPropertyOp10
 70
     0
102
RTVSPropertyOp11
 70
     0
102
RTVSPropertyOp12
 70
     0
102
RTVSPropertyOp13
 70
     0
102
RTVSPropertyOp14
 70
     2
102
RTVSPropertyOp15
 70
     0
102
RTVSPropertyOp16
 70
     0
102
RTVSPropertyOp17
 70
     0
102
RTVSPropertyOp18
 70
     0
102
RTVSPropertyOp19
 70
     0
102
RTVSPropertyOp20
 70
     0
102
RTVSPropertyOp21
 70
     0
102
RTVSPropertyOp22
 70
     0
102
RTVSPropertyOp23
 70
     0
102
RTVSPropertyOp24
 70
     0
102
RTVSPropertyOp25
 70
     0
102
RTVSPropertyOp26
 70
     0
102
RTVSPropertyOp27
 70
     0
  0
XRECORD
  5
18CD
102
{ACAD_REACTORS
330
18CC
102
}
330
18CC
100
AcDbXrecord
280
     1
102
RTVSPropertyOp0
 70
     1
102
RTVSPropertyOp1
 70
     1
102
RTVSPropertyOp2
 70
     1
102
RTVSPropertyOp3
 70
     1
102
RTVSPropertyOp4
 70
     1
102
RTVSPropertyOp5
 70
     1
102
RTVSPropertyOp6
 70
     1
102
RTVSPropertyOp7
 70
     1
102
RTVSPropertyOp8
 70
     1
102
RTVSPropertyOp9
 70
     1
102
RTVSPropertyOp10
 70
     1
102
RTVSPropertyOp11
 70
     1
102
RTVSPropertyOp12
 70
     1
102
RTVSPropertyOp13
 70
     1
102
RTVSPropertyOp14
 70
     1
102
RTVSPropertyOp15
 70
     1
102
RTVSPropertyOp16
 70
     1
102
RTVSPropertyOp17
 70
     1
102
RTVSPropertyOp18
 70
     1
102
RTVSPropertyOp19
 70
     1
102
RTVSPropertyOp20
 70
     1
102
RTVSPropertyOp21
 70
     1
102
RTVSPropertyOp22
 70
     1
102
RTVSPropertyOp23
 70
     1
102
RTVSPropertyOp24
 70
     1
102
RTVSPropertyOp25
 70
     1
102
RTVSPropertyOp26
 70
     1
102
RTVSPropertyOp27
 70
     1
  0
XRECORD
  5
18B7
102
{ACAD_REACTORS
330
18B6
102
}
330
18B6
100
AcDbXrecord
280
     1
102
RTVSPropertyOp0
 70
     1
102
RTVSPropertyOp1
 70
     1
102
RTVSPropertyOp2
 70
     1
102
RTVSPropertyOp3
 70
     1
102
RTVSPropertyOp4
 70
     1
102
RTVSPropertyOp5
 70
     1
102
RTVSPropertyOp6
 70
     1
102
RTVSPropertyOp7
 70
     1
102
RTVSPropertyOp8
 70
     1
102
RTVSPropertyOp9
 70
     1
102
RTVSPropertyOp10
 70
     1
102
RTVSPropertyOp11
 70
     1
102
RTVSPropertyOp12
 70
     1
102
RTVSPropertyOp13
 70
     1
102
RTVSPropertyOp14
 70
     1
102
RTVSPropertyOp15
 70
     1
102
RTVSPropertyOp16
 70
     1
102
RTVSPropertyOp17
 70
     1
102
RTVSPropertyOp18
 70
     1
102
RTVSPropertyOp19
 70
     1
102
RTVSPropertyOp20
 70
     1
102
RTVSPropertyOp21
 70
     1
102
RTVSPropertyOp22
 70
     1
102
RTVSPropertyOp23
 70
     1
102
RTVSPropertyOp24
 70
     1
102
RTVSPropertyOp25
 70
     1
102
RTVSPropertyOp26
 70
     1
102
RTVSPropertyOp27
 70
     1
  0
XRECORD
  5
18B9
102
{ACAD_REACTORS
330
18B8
102
}
330
18B8
100
AcDbXrecord
280
     1
102
RTVSPropertyOp0
 70
     1
102
RTVSPropertyOp1
 70
     1
102
RTVSPropertyOp2
 70
     1
102
RTVSPropertyOp3
 70
     1
102
RTVSPropertyOp4
 70
     1
102
RTVSPropertyOp5
 70
     1
102
RTVSPropertyOp6
 70
     1
102
RTVSPropertyOp7
 70
     1
102
RTVSPropertyOp8
 70
     1
102
RTVSPropertyOp9
 70
     1
102
RTVSPropertyOp10
 70
     1
102
RTVSPropertyOp11
 70
     1
102
RTVSPropertyOp12
 70
     1
102
RTVSPropertyOp13
 70
     1
102
RTVSPropertyOp14
 70
     1
102
RTVSPropertyOp15
 70
     1
102
RTVSPropertyOp16
 70
     1
102
RTVSPropertyOp17
 70
     1
102
RTVSPropertyOp18
 70
     1
102
RTVSPropertyOp19
 70
     1
102
RTVSPropertyOp20
 70
     1
102
RTVSPropertyOp21
 70
     1
102
RTVSPropertyOp22
 70
     1
102
RTVSPropertyOp23
 70
     1
102
RTVSPropertyOp24
 70
     1
102
RTVSPropertyOp25
 70
     1
102
RTVSPropertyOp26
 70
     1
102
RTVSPropertyOp27
 70
     1
  0
XRECORD
  5
18BB
102
{ACAD_REACTORS
330
18BA
102
}
330
18BA
100
AcDbXrecord
280
     1
102
RTVSPropertyOp0
 70
     1
102
RTVSPropertyOp1
 70
     1
102
RTVSPropertyOp2
 70
     1
102
RTVSPropertyOp3
 70
     1
102
RTVSPropertyOp4
 70
     1
102
RTVSPropertyOp5
 70
     1
102
RTVSPropertyOp6
 70
     1
102
RTVSPropertyOp7
 70
     1
102
RTVSPropertyOp8
 70
     1
102
RTVSPropertyOp9
 70
     1
102
RTVSPropertyOp10
 70
     1
102
RTVSPropertyOp11
 70
     1
102
RTVSPropertyOp12
 70
     1
102
RTVSPropertyOp13
 70
     1
102
RTVSPropertyOp14
 70
     1
102
RTVSPropertyOp15
 70
     1
102
RTVSPropertyOp16
 70
     1
102
RTVSPropertyOp17
 70
     1
102
RTVSPropertyOp18
 70
     1
102
RTVSPropertyOp19
 70
     1
102
RTVSPropertyOp20
 70
     1
102
RTVSPropertyOp21
 70
     1
102
RTVSPropertyOp22
 70
     1
102
RTVSPropertyOp23
 70
     1
102
RTVSPropertyOp24
 70
     1
102
RTVSPropertyOp25
 70
     1
102
RTVSPropertyOp26
 70
     1
102
RTVSPropertyOp27
 70
     1
  0
XRECORD
  5
18BD
102
{ACAD_REACTORS
330
18BC
102
}
330
18BC
100
AcDbXrecord
280
     1
102
RTVSPropertyOp0
 70
     1
102
RTVSPropertyOp1
 70
     1
102
RTVSPropertyOp2
 70
     1
102
RTVSPropertyOp3
 70
     1
102
RTVSPropertyOp4
 70
     1
102
RTVSPropertyOp5
 70
     1
102
RTVSPropertyOp6
 70
     1
102
RTVSPropertyOp7
 70
     1
102
RTVSPropertyOp8
 70
     1
102
RTVSPropertyOp9
 70
     1
102
RTVSPropertyOp10
 70
     1
102
RTVSPropertyOp11
 70
     1
102
RTVSPropertyOp12
 70
     1
102
RTVSPropertyOp13
 70
     1
102
RTVSPropertyOp14
 70
     1
102
RTVSPropertyOp15
 70
     1
102
RTVSPropertyOp16
 70
     1
102
RTVSPropertyOp17
 70
     1
102
RTVSPropertyOp18
 70
     1
102
RTVSPropertyOp19
 70
     1
102
RTVSPropertyOp20
 70
     1
102
RTVSPropertyOp21
 70
     1
102
RTVSPropertyOp22
 70
     1
102
RTVSPropertyOp23
 70
     1
102
RTVSPropertyOp24
 70
     1
102
RTVSPropertyOp25
 70
     1
102
RTVSPropertyOp26
 70
     1
102
RTVSPropertyOp27
 70
     1
  0
XRECORD
  5
18D1
102
{ACAD_REACTORS
330
18D0
102
}
330
18D0
100
AcDbXrecord
280
     1
102
RTVSPropertyOp0
 70
     0
102
RTVSPropertyOp1
 70
     0
102
RTVSPropertyOp2
 70
     0
102
RTVSPropertyOp3
 70
     0
102
RTVSPropertyOp4
 70
     0
102
RTVSPropertyOp5
 70
     0
102
RTVSPropertyOp6
 70
     0
102
RTVSPropertyOp7
 70
     0
102
RTVSPropertyOp8
 70
     0
102
RTVSPropertyOp9
 70
     0
102
RTVSPropertyOp10
 70
     0
102
RTVSPropertyOp11
 70
     0
102
RTVSPropertyOp12
 70
     0
102
RTVSPropertyOp13
 70
     0
102
RTVSPropertyOp14
 70
     2
102
RTVSPropertyOp15
 70
     0
102
RTVSPropertyOp16
 70
     0
102
RTVSPropertyOp17
 70
     0
102
RTVSPropertyOp18
 70
     0
102
RTVSPropertyOp19
 70
     0
102
RTVSPropertyOp20
 70
     0
102
RTVSPropertyOp21
 70
     0
102
RTVSPropertyOp22
 70
     0
102
RTVSPropertyOp23
 70
     0
102
RTVSPropertyOp24
 70
     0
102
RTVSPropertyOp25
 70
     0
102
RTVSPropertyOp26
 70
     0
102
RTVSPropertyOp27
 70
     0
  0
XRECORD
  5
18CB
102
{ACAD_REACTORS
330
18CA
102
}
330
18CA
100
AcDbXrecord
280
     1
102
RTVSPropertyOp0
 70
     1
102
RTVSPropertyOp1
 70
     1
102
RTVSPropertyOp2
 70
     1
102
RTVSPropertyOp3
 70
     1
102
RTVSPropertyOp4
 70
     1
102
RTVSPropertyOp5
 70
     1
102
RTVSPropertyOp6
 70
     1
102
RTVSPropertyOp7
 70
     1
102
RTVSPropertyOp8
 70
     1
102
RTVSPropertyOp9
 70
     1
102
RTVSPropertyOp10
 70
     1
102
RTVSPropertyOp11
 70
     1
102
RTVSPropertyOp12
 70
     1
102
RTVSPropertyOp13
 70
     1
102
RTVSPropertyOp14
 70
     1
102
RTVSPropertyOp15
 70
     1
102
RTVSPropertyOp16
 70
     1
102
RTVSPropertyOp17
 70
     1
102
RTVSPropertyOp18
 70
     1
102
RTVSPropertyOp19
 70
     1
102
RTVSPropertyOp20
 70
     1
102
RTVSPropertyOp21
 70
     1
102
RTVSPropertyOp22
 70
     1
102
RTVSPropertyOp23
 70
     1
102
RTVSPropertyOp24
 70
     1
102
RTVSPropertyOp25
 70
     1
102
RTVSPropertyOp26
 70
     1
102
RTVSPropertyOp27
 70
     1
  0
XRECORD
  5
18D3
102
{ACAD_REACTORS
330
18D2
102
}
330
18D2
100
AcDbXrecord
280
     1
102
RTVSPropertyOp0
 70
     0
102
RTVSPropertyOp1
 70
     0
102
RTVSPropertyOp2
 70
     0
102
RTVSPropertyOp3
 70
     0
102
RTVSPropertyOp4
 70
     0
102
RTVSPropertyOp5
 70
     0
102
RTVSPropertyOp6
 70
     0
102
RTVSPropertyOp7
 70
     0
102
RTVSPropertyOp8
 70
     0
102
RTVSPropertyOp9
 70
     0
102
RTVSPropertyOp10
 70
     0
102
RTVSPropertyOp11
 70
     0
102
RTVSPropertyOp12
 70
     0
102
RTVSPropertyOp13
 70
     0
102
RTVSPropertyOp14
 70
     2
102
RTVSPropertyOp15
 70
     0
102
RTVSPropertyOp16
 70
     0
102
RTVSPropertyOp17
 70
     0
102
RTVSPropertyOp18
 70
     0
102
RTVSPropertyOp19
 70
     0
102
RTVSPropertyOp20
 70
     0
102
RTVSPropertyOp21
 70
     0
102
RTVSPropertyOp22
 70
     0
102
RTVSPropertyOp23
 70
     0
102
RTVSPropertyOp24
 70
     0
102
RTVSPropertyOp25
 70
     0
102
RTVSPropertyOp26
 70
     0
102
RTVSPropertyOp27
 70
     0
  0
XRECORD
  5
18B3
102
{ACAD_REACTORS
330
18B2
102
}
330
18B2
100
AcDbXrecord
280
     1
102
RTVSPropertyOp0
 70
     1
102
RTVSPropertyOp1
 70
     1
102
RTVSPropertyOp2
 70
     1
102
RTVSPropertyOp3
 70
     1
102
RTVSPropertyOp4
 70
     1
102
RTVSPropertyOp5
 70
     1
102
RTVSPropertyOp6
 70
     1
102
RTVSPropertyOp7
 70
     1
102
RTVSPropertyOp8
 70
     1
102
RTVSPropertyOp9
 70
     1
102
RTVSPropertyOp10
 70
     1
102
RTVSPropertyOp11
 70
     1
102
RTVSPropertyOp12
 70
     1
102
RTVSPropertyOp13
 70
     1
102
RTVSPropertyOp14
 70
     1
102
RTVSPropertyOp15
 70
     1
102
RTVSPropertyOp16
 70
     1
102
RTVSPropertyOp17
 70
     1
102
RTVSPropertyOp18
 70
     1
102
RTVSPropertyOp19
 70
     1
102
RTVSPropertyOp20
 70
     1
102
RTVSPropertyOp21
 70
     1
102
RTVSPropertyOp22
 70
     1
102
RTVSPropertyOp23
 70
     1
102
RTVSPropertyOp24
 70
     1
102
RTVSPropertyOp25
 70
     1
102
RTVSPropertyOp26
 70
     1
102
RTVSPropertyOp27
 70
     1
  0
XRECORD
  5
18C9
102
{ACAD_REACTORS
330
18C8
102
}
330
18C8
100
AcDbXrecord
280
     1
102
RTVSPropertyOp0
 70
     1
102
RTVSPropertyOp1
 70
     1
102
RTVSPropertyOp2
 70
     1
102
RTVSPropertyOp3
 70
     1
102
RTVSPropertyOp4
 70
     1
102
RTVSPropertyOp5
 70
     1
102
RTVSPropertyOp6
 70
     1
102
RTVSPropertyOp7
 70
     1
102
RTVSPropertyOp8
 70
     1
102
RTVSPropertyOp9
 70
     1
102
RTVSPropertyOp10
 70
     1
102
RTVSPropertyOp11
 70
     1
102
RTVSPropertyOp12
 70
     1
102
RTVSPropertyOp13
 70
     1
102
RTVSPropertyOp14
 70
     1
102
RTVSPropertyOp15
 70
     1
102
RTVSPropertyOp16
 70
     1
102
RTVSPropertyOp17
 70
     1
102
RTVSPropertyOp18
 70
     1
102
RTVSPropertyOp19
 70
     1
102
RTVSPropertyOp20
 70
     1
102
RTVSPropertyOp21
 70
     1
102
RTVSPropertyOp22
 70
     1
102
RTVSPropertyOp23
 70
     1
102
RTVSPropertyOp24
 70
     1
102
RTVSPropertyOp25
 70
     1
102
RTVSPropertyOp26
 70
     1
102
RTVSPropertyOp27
 70
     1
  0
ENDSEC
  0
EOF
