  0
SECTION
  2
HEADER
  9
$ACADVER
  1
AC1021
  9
$ACADMAINTVER
 70
    50
  9
$DWGCODEPAGE
  3
ANSI_1252
  9
$AUTHOR
  1
dworden
  9
$LASTSAVEDBY
  1
dworden
  9
$INSBASE
 10
0.0
 20
0.0
 30
0.0
  9
$EXTMIN
 10
-26.429807
 20
-3.308012
 30
-0.000146
  9
$EXTMAX
 10
11.822028
 20
16.499799
 30
0.000004
  9
$LIMMIN
 10
-93.456132
 20
-79.556349
  9
$LIMMAX
 10
78.848353
 20
92.748136
  9
$ORTHOMODE
 70
     0
  9
$REGENMODE
 70
     1
  9
$FILLMODE
 70
     1
  9
$QTEXTMODE
 70
     0
  9
$MIRRTEXT
 70
     0
  9
$LTSCALE
 40
1.0
  9
$ATTMODE
 70
     1
  9
$TEXTSIZE
 40
0.03
  9
$TRACEWID
 40
0.05
  9
$TEXTSTYLE
  7
Standard
  9
$CLAYER
  8
Level 1
  9
$CELTYPE
  6
Continuous
  9
$CECOLOR
 62
     7
  9
$CELTSCALE
 40
1.0
  9
$DISPSILH
 70
     0
  9
$DIMSCALE
 40
1.0
  9
$DIMASZ
 40
0.045
  9
$DIMEXO
 40
0.018
  9
$DIMDLI
 40
0.0
  9
$DIMRND
 40
0.0
  9
$DIMDLE
 40
0.0
  9
$DIMEXE
 40
0.015
  9
$DIMTP
 40
0.002
  9
$DIMTM
 40
0.002
  9
$DIMTXT
 40
0.03
  9
$DIMCEN
 40
0.09
  9
$DIMTSZ
 40
0.0
  9
$DIMTOL
 70
     0
  9
$DIMLIM
 70
     0
  9
$DIMTIH
 70
     1
  9
$DIMTOH
 70
     1
  9
$DIMSE1
 70
     0
  9
$DIMSE2
 70
     0
  9
$DIMTAD
 70
     0
  9
$DIMZIN
 70
     7
  9
$DIMBLK
  1

  9
$DIMASO
 70
     1
  9
$DIMSHO
 70
     1
  9
$DIMPOST
  1
\X
  9
$DIMAPOST
  1

  9
$DIMALT
 70
     1
  9
$DIMALTD
 70
     2
  9
$DIMALTF
 40
25.4
  9
$DIMLFAC
 40
1.0
  9
$DIMTOFL
 70
     0
  9
$DIMTVP
 40
0.0
  9
$DIMTIX
 70
     0
  9
$DIMSOXD
 70
     0
  9
$DIMSAH
 70
     0
  9
$DIMBLK1
  1

  9
$DIMBLK2
  1

  9
$DIMSTYLE
  2
Standard
  9
$DIMCLRD
 70
     0
  9
$DIMCLRE
 70
     0
  9
$DIMCLRT
 70
     0
  9
$DIMTFAC
 40
1.0
  9
$DIMGAP
 40
0.009
  9
$DIMJUST
 70
     0
  9
$DIMSD1
 70
     0
  9
$DIMSD2
 70
     0
  9
$DIMTOLJ
 70
     0
  9
$DIMTZIN
 70
     7
  9
$DIMALTZ
 70
    15
  9
$DIMALTTZ
 70
    15
  9
$DIMUPT
 70
     1
  9
$DIMDEC
 70
     3
  9
$DIMTDEC
 70
     3
  9
$DIMALTU
 70
     2
  9
$DIMALTTD
 70
     2
  9
$DIMTXSTY
  7
Style-WORKING
  9
$DIMAUNIT
 70
     0
  9
$DIMADEC
 70
     0
  9
$DIMALTRND
 40
0.0
  9
$DIMAZIN
 70
     3
  9
$DIMDSEP
 70
    46
  9
$DIMATFIT
 70
     1
  9
$DIMFRAC
 70
     2
  9
$DIMLDRBLK
  1

  9
$DIMLUNIT
 70
     2
  9
$DIMLWD
 70
    -2
  9
$DIMLWE
 70
    -2
  9
$DIMTMOVE
 70
     0
  9
$DIMFXL
 40
1.0
  9
$DIMFXLON
 70
     0
  9
$DIMJOGANG
 40
0.785398
  9
$DIMTFILL
 70
     0
  9
$DIMTFILLCLR
 70
     0
  9
$DIMARCSYM
 70
     0
  9
$DIMLTYPE
  6

  9
$DIMLTEX1
  6

  9
$DIMLTEX2
  6

  9
$LUNITS
 70
     2
  9
$LUPREC
 70
     4
  9
$SKETCHINC
 40
0.1
  9
$FILLETRAD
 40
0.0
  9
$AUNITS
 70
     0
  9
$AUPREC
 70
     4
  9
$MENU
  1
.
  9
$ELEVATION
 40
0.0
  9
$PELEVATION
 40
0.0
  9
$THICKNESS
 40
0.0
  9
$LIMCHECK
 70
     0
  9
$CHAMFERA
 40
0.0
  9
$CHAMFERB
 40
0.0
  9
$CHAMFERC
 40
0.0
  9
$CHAMFERD
 40
0.0
  9
$SKPOLY
 70
     0
  9
$TDCREATE
 40
2454144.486357349
  9
$TDUCREATE
 40
2454144.778024017
  9
$TDUPDATE
 40
2454144.487020359
  9
$TDUUPDATE
 40
2454144.778687026
  9
$TDINDWG
 40
0.0044427894
  9
$TDUSRTIMER
 40
0.0044416898
  9
$USRTIMER
 70
     1
  9
$ANGBASE
 50
0.0
  9
$ANGDIR
 70
     0
  9
$PDMODE
 70
     0
  9
$PDSIZE
 40
0.0
  9
$PLINEWID
 40
0.0
  9
$SPLFRAME
 70
     0
  9
$SPLINETYPE
 70
     6
  9
$SPLINESEGS
 70
     8
  9
$HANDSEED
  5
24D2
  9
$SURFTAB1
 70
     6
  9
$SURFTAB2
 70
     6
  9
$SURFTYPE
 70
     6
  9
$SURFU
 70
     6
  9
$SURFV
 70
     6
  9
$UCSBASE
  2

  9
$UCSNAME
  2

  9
$UCSORG
 10
0.0
 20
0.0
 30
0.0
  9
$UCSXDIR
 10
1.0
 20
0.0
 30
0.0
  9
$UCSYDIR
 10
0.0
 20
1.0
 30
0.0
  9
$UCSORTHOREF
  2

  9
$UCSORTHOVIEW
 70
     0
  9
$UCSORGTOP
 10
0.0
 20
0.0
 30
0.0
  9
$UCSORGBOTTOM
 10
0.0
 20
0.0
 30
0.0
  9
$UCSORGLEFT
 10
0.0
 20
0.0
 30
0.0
  9
$UCSORGRIGHT
 10
0.0
 20
0.0
 30
0.0
  9
$UCSORGFRONT
 10
0.0
 20
0.0
 30
0.0
  9
$UCSORGBACK
 10
0.0
 20
0.0
 30
0.0
  9
$PUCSBASE
  2

  9
$PUCSNAME
  2

  9
$PUCSORG
 10
0.0
 20
0.0
 30
0.0
  9
$PUCSXDIR
 10
1.0
 20
0.0
 30
0.0
  9
$PUCSYDIR
 10
0.0
 20
1.0
 30
0.0
  9
$PUCSORTHOREF
  2

  9
$PUCSORTHOVIEW
 70
     0
  9
$PUCSORGTOP
 10
0.0
 20
0.0
 30
0.0
  9
$PUCSORGBOTTOM
 10
0.0
 20
0.0
 30
0.0
  9
$PUCSORGLEFT
 10
0.0
 20
0.0
 30
0.0
  9
$PUCSORGRIGHT
 10
0.0
 20
0.0
 30
0.0
  9
$PUCSORGFRONT
 10
0.0
 20
0.0
 30
0.0
  9
$PUCSORGBACK
 10
0.0
 20
0.0
 30
0.0
  9
$USERI1
 70
     0
  9
$USERI2
 70
     0
  9
$USERI3
 70
     0
  9
$USERI4
 70
     0
  9
$USERI5
 70
     0
  9
$USERR1
 40
0.0
  9
$USERR2
 40
0.0
  9
$USERR3
 40
0.0
  9
$USERR4
 40
0.0
  9
$USERR5
 40
0.0
  9
$WORLDVIEW
 70
     1
  9
$SHADEDGE
 70
     3
  9
$SHADEDIF
 70
    70
  9
$TILEMODE
 70
     1
  9
$MAXACTVP
 70
    64
  9
$PINSBASE
 10
0.0
 20
0.0
 30
0.0
  9
$PLIMCHECK
 70
     0
  9
$PEXTMIN
 10
1.049744
 20
0.799667
 30
-0.001526
  9
$PEXTMAX
 10
9.450623
 20
7.200577
 30
0.0
  9
$PLIMMIN
 10
-0.25
 20
-0.25
  9
$PLIMMAX
 10
10.75
 20
8.25
  9
$UNITMODE
 70
     0
  9
$VISRETAIN
 70
     1
  9
$PLINEGEN
 70
     0
  9
$PSLTSCALE
 70
     0
  9
$TREEDEPTH
 70
  3020
  9
$CMLSTYLE
  2
Standard
  9
$CMLJUST
 70
     0
  9
$CMLSCALE
 40
1.0
  9
$PROXYGRAPHICS
 70
     1
  9
$MEASUREMENT
 70
     0
  9
$CELWEIGHT
370
     0
  9
$ENDCAPS
280
     0
  9
$JOINSTYLE
280
     0
  9
$LWDISPLAY
290
     1
  9
$INSUNITS
 70
     1
  9
$HYPERLINKBASE
  1

  9
$STYLESHEET
  1

  9
$XEDIT
290
     1
  9
$CEPSNTYPE
380
     0
  9
$PSTYLEMODE
290
     1
  9
$FINGERPRINTGUID
  2
{0F059ED2-29C8-4587-A47A-91F49B98F5EC}
  9
$VERSIONGUID
  2
{82C521FC-BF81-46B3-825E-420B6BD93A99}
  9
$EXTNAMES
290
     1
  9
$PSVPSCALE
 40
0.0
  9
$OLESTARTUP
290
     0
  9
$SORTENTS
280
   127
  9
$INDEXCTL
280
     0
  9
$HIDETEXT
280
     1
  9
$XCLIPFRAME
290
     0
  9
$HALOGAP
280
     0
  9
$OBSCOLOR
 70
   257
  9
$OBSLTYPE
280
     0
  9
$INTERSECTIONDISPLAY
280
     0
  9
$INTERSECTIONCOLOR
 70
   257
  9
$DIMASSOC
280
     1
  9
$PROJECTNAME
  1

  9
$CAMERADISPLAY
290
     0
  9
$LENSLENGTH
 40
50.0
  9
$CAMERAHEIGHT
 40
0.0
  9
$STEPSPERSEC
 40
2.0
  9
$STEPSIZE
 40
6.0
  9
$3DDWFPREC
 40
2.0
  9
$PSOLWIDTH
 40
0.25
  9
$PSOLHEIGHT
 40
4.0
  9
$LOFTANG1
 40
1.570796
  9
$LOFTANG2
 40
1.570796
  9
$LOFTMAG1
 40
0.0
  9
$LOFTMAG2
 40
0.0
  9
$LOFTPARAM
 70
     7
  9
$LOFTNORMALS
280
     1
  9
$LATITUDE
 40
37.795
  9
$LONGITUDE
 40
-122.394
  9
$NORTHDIRECTION
 40
0.0
  9
$TIMEZONE
 70
 -8000
  9
$LIGHTGLYPHDISPLAY
280
     1
  9
$TILEMODELIGHTSYNCH
280
     1
  9
$CMATERIAL
347
11C2
  9
$SOLIDHIST
280
     1
  9
$SHOWHIST
280
     1
  9
$DWFFRAME
280
     2
  9
$DGNFRAME
280
     0
  9
$REALWORLDSCALE
290
     1
  9
$INTERFERECOLOR
 62
     1
  9
$INTERFEREOBJVS
345
11D8
  9
$INTERFEREVPVS
346
11D9
  9
$CSHADOW
280
     0
  9
$SHADOWPLANELOCATION
 40
0.0
  0
ENDSEC
  0
SECTION
  2
CLASSES
  0
CLASS
  1
ACDBDICTIONARYWDFLT
  2
AcDbDictionaryWithDefault
  3
ObjectDBX Classes
 90
        0
 91
        1
280
     0
281
     0
  0
CLASS
  1
DICTIONARYVAR
  2
AcDbDictionaryVar
  3
ObjectDBX Classes
 90
        0
 91
        7
280
     0
281
     0
  0
CLASS
  1
TABLESTYLE
  2
AcDbTableStyle
  3
ObjectDBX Classes
 90
     4095
 91
        1
280
     0
281
     0
  0
CLASS
  1
MATERIAL
  2
AcDbMaterial
  3
ObjectDBX Classes
 90
     1153
 91
        3
280
     0
281
     0
  0
CLASS
  1
VISUALSTYLE
  2
AcDbVisualStyle
  3
ObjectDBX Classes
 90
     4095
 91
       19
280
     0
281
     0
  0
CLASS
  1
SCALE
  2
AcDbScale
  3
ObjectDBX Classes
 90
     1153
 91
       33
280
     0
281
     0
  0
CLASS
  1
MLEADERSTYLE
  2
AcDbMLeaderStyle
  3
ACDB_MLEADERSTYLE_CLASS
 90
     4095
 91
        1
280
     0
281
     0
  0
CLASS
  1
SORTENTSTABLE
  2
AcDbSortentsTable
  3
ObjectDBX Classes
 90
        0
 91
        2
280
     0
281
     0
  0
CLASS
  1
CELLSTYLEMAP
  2
AcDbCellStyleMap
  3
ObjectDBX Classes
 90
     1152
 91
        2
280
     0
281
     0
  0
ENDSEC
  0
SECTION
  2
TABLES
  0
TABLE
  2
VPORT
  5
11B6
330
0
100
AcDbSymbolTable
 70
     1
  0
VPORT
  5
102
330
11B6
100
AcDbSymbolTableRecord
100
AcDbViewportTableRecord
  2
*ACTIVE
 70
     0
 10
0.0
 20
0.0
 11
1.0
 21
1.0
 12
6.736078
 22
-1.621688
 13
0.0
 23
0.0
 14
0.001
 24
0.001
 15
0.001
 25
0.001
 16
0.0
 26
0.0
 36
1.0
 17
0.0
 27
0.0
 37
0.0
 40
1.018477
 41
2.025496
 42
50.0
 43
0.0
 44
0.0
 50
0.0
 51
0.0
 71
     0
 72
   100
 73
     1
 74
     0
 75
     0
 76
     0
 77
     0
 78
     1
281
     0
 65
     1
110
0.0
120
0.0
130
0.0
111
1.0
121
0.0
131
0.0
112
0.0
122
1.0
132
0.0
 79
     0
146
0.0
348
11B8
 60
     3
 61
  1000
292
     1
282
     1
141
0.0
142
0.0
 63
   250
421
  3355443
  0
ENDTAB
  0
TABLE
  2
LTYPE
  5
11B1
330
0
100
AcDbSymbolTable
 70
     2
  0
LTYPE
  5
11B2
330
11B1
100
AcDbSymbolTableRecord
100
AcDbLinetypeTableRecord
  2
ByBlock
 70
     0
  3

 72
    65
 73
     0
 40
0.0
  0
LTYPE
  5
11B3
330
11B1
100
AcDbSymbolTableRecord
100
AcDbLinetypeTableRecord
  2
ByLayer
 70
     0
  3

 72
    65
 73
     0
 40
0.0
  0
LTYPE
  5
11A0
330
11B1
100
AcDbSymbolTableRecord
100
AcDbLinetypeTableRecord
  2
Continuous
 70
     0
  3
Solid line
 72
    65
 73
     0
 40
0.0
  0
LTYPE
  5
1288
330
11B1
100
AcDbSymbolTableRecord
100
AcDbLinetypeTableRecord
  2
DGN Style 4
 70
     0
  3
Dgn Style 4
 72
    65
 73
     4
 40
0.035107
 49
0.017542
 74
     0
 49
-0.008771
 74
     0
 49
0.000022
 74
     0
 49
-0.008771
 74
     0
  0
ENDTAB
  0
TABLE
  2
LAYER
  5
11AB
102
{ACAD_XDICTIONARY
360
11AC
102
}
330
0
100
AcDbSymbolTable
 70
   191
  0
LAYER
  5
1193
330
11AB
100
AcDbSymbolTableRecord
100
AcDbLayerTableRecord
  2
0
 70
     0
 62
     7
  6
Continuous
370
    -3
390
1194
347
1197
  0
LAYER
  5
3C
330
11AB
100
AcDbSymbolTableRecord
100
AcDbLayerTableRecord
  2
Level 1
 70
     0
 62
     7
  6
Continuous
370
     0
390
1194
347
1197
  0
LAYER
  5
3D
330
11AB
100
AcDbSymbolTableRecord
100
AcDbLayerTableRecord
  2
Level 2
 70
     0
 62
     7
  6
Continuous
370
     0
390
1194
347
1197
  0
LAYER
  5
3E
330
11AB
100
AcDbSymbolTableRecord
100
AcDbLayerTableRecord
  2
Level 3
 70
     0
 62
     7
  6
Continuous
370
     0
390
1194
347
1197
  0
LAYER
  5
3F
330
11AB
100
AcDbSymbolTableRecord
100
AcDbLayerTableRecord
  2
Level 4
 70
     0
 62
     7
  6
Continuous
370
     0
390
1194
347
1197
  0
LAYER
  5
40
330
11AB
100
AcDbSymbolTableRecord
100
AcDbLayerTableRecord
  2
Level 5
 70
     0
 62
     7
  6
Continuous
370
     0
390
1194
347
1197
  0
LAYER
  5
41
330
11AB
100
AcDbSymbolTableRecord
100
AcDbLayerTableRecord
  2
Level 6
 70
     0
 62
     7
  6
Continuous
370
     0
390
1194
347
1197
  0
LAYER
  5
42
330
11AB
100
AcDbSymbolTableRecord
100
AcDbLayerTableRecord
  2
Level 7
 70
     0
 62
     7
  6
Continuous
370
     0
390
1194
347
1197
  0
LAYER
  5
43
330
11AB
100
AcDbSymbolTableRecord
100
AcDbLayerTableRecord
  2
Level 8
 70
     0
 62
     7
  6
Continuous
370
     0
390
1194
347
1197
  0
LAYER
  5
44
330
11AB
100
AcDbSymbolTableRecord
100
AcDbLayerTableRecord
  2
Level 9
 70
     0
 62
     7
  6
Continuous
370
     0
390
1194
347
1197
  0
LAYER
  5
45
330
11AB
100
AcDbSymbolTableRecord
100
AcDbLayerTableRecord
  2
Level 10
 70
     0
 62
     7
  6
Continuous
370
     0
390
1194
347
1197
  0
LAYER
  5
46
330
11AB
100
AcDbSymbolTableRecord
100
AcDbLayerTableRecord
  2
Level 11
 70
     0
 62
     7
  6
Continuous
370
     0
390
1194
347
1197
  0
LAYER
  5
47
330
11AB
100
AcDbSymbolTableRecord
100
AcDbLayerTableRecord
  2
Level 12
 70
     0
 62
     7
  6
Continuous
370
     0
390
1194
347
1197
  0
LAYER
  5
48
330
11AB
100
AcDbSymbolTableRecord
100
AcDbLayerTableRecord
  2
Level 13
 70
     0
 62
     7
  6
Continuous
370
     0
390
1194
347
1197
  0
LAYER
  5
49
330
11AB
100
AcDbSymbolTableRecord
100
AcDbLayerTableRecord
  2
Level 14
 70
     0
 62
     7
  6
Continuous
370
     0
390
1194
347
1197
  0
LAYER
  5
4A
330
11AB
100
AcDbSymbolTableRecord
100
AcDbLayerTableRecord
  2
Level 15
 70
     0
 62
     7
  6
Continuous
370
     0
390
1194
347
1197
  0
LAYER
  5
4B
330
11AB
100
AcDbSymbolTableRecord
100
AcDbLayerTableRecord
  2
Level 16
 70
     0
 62
     7
  6
Continuous
370
     0
390
1194
347
1197
  0
LAYER
  5
4C
330
11AB
100
AcDbSymbolTableRecord
100
AcDbLayerTableRecord
  2
Level 17
 70
     0
 62
     7
  6
Continuous
370
     0
390
1194
347
1197
  0
LAYER
  5
4D
330
11AB
100
AcDbSymbolTableRecord
100
AcDbLayerTableRecord
  2
Level 18
 70
     0
 62
     7
  6
Continuous
370
     0
390
1194
347
1197
  0
LAYER
  5
4E
330
11AB
100
AcDbSymbolTableRecord
100
AcDbLayerTableRecord
  2
Level 19
 70
     0
 62
     7
  6
Continuous
370
     0
390
1194
347
1197
  0
LAYER
  5
4F
330
11AB
100
AcDbSymbolTableRecord
100
AcDbLayerTableRecord
  2
Level 20
 70
     0
 62
     7
  6
Continuous
370
     0
390
1194
347
1197
  0
LAYER
  5
50
330
11AB
100
AcDbSymbolTableRecord
100
AcDbLayerTableRecord
  2
Level 21
 70
     0
 62
     7
  6
Continuous
370
     0
390
1194
347
1197
  0
LAYER
  5
51
330
11AB
100
AcDbSymbolTableRecord
100
AcDbLayerTableRecord
  2
Level 22
 70
     0
 62
     7
  6
Continuous
370
     0
390
1194
347
1197
  0
LAYER
  5
52
330
11AB
100
AcDbSymbolTableRecord
100
AcDbLayerTableRecord
  2
Level 23
 70
     0
 62
     7
  6
Continuous
370
     0
390
1194
347
1197
  0
LAYER
  5
53
330
11AB
100
AcDbSymbolTableRecord
100
AcDbLayerTableRecord
  2
Level 24
 70
     0
 62
     7
  6
Continuous
370
     0
390
1194
347
1197
  0
LAYER
  5
54
330
11AB
100
AcDbSymbolTableRecord
100
AcDbLayerTableRecord
  2
Level 25
 70
     0
 62
     7
  6
Continuous
370
     0
390
1194
347
1197
  0
LAYER
  5
55
330
11AB
100
AcDbSymbolTableRecord
100
AcDbLayerTableRecord
  2
Level 26
 70
     0
 62
     7
  6
Continuous
370
     0
390
1194
347
1197
  0
LAYER
  5
56
330
11AB
100
AcDbSymbolTableRecord
100
AcDbLayerTableRecord
  2
Level 27
 70
     0
 62
     7
  6
Continuous
370
     0
390
1194
347
1197
  0
LAYER
  5
57
330
11AB
100
AcDbSymbolTableRecord
100
AcDbLayerTableRecord
  2
Level 28
 70
     0
 62
     7
  6
Continuous
370
     0
390
1194
347
1197
  0
LAYER
  5
58
330
11AB
100
AcDbSymbolTableRecord
100
AcDbLayerTableRecord
  2
Level 29
 70
     0
 62
     7
  6
Continuous
370
     0
390
1194
347
1197
  0
LAYER
  5
59
330
11AB
100
AcDbSymbolTableRecord
100
AcDbLayerTableRecord
  2
Level 30
 70
     0
 62
     7
  6
Continuous
370
     0
390
1194
347
1197
  0
LAYER
  5
5A
330
11AB
100
AcDbSymbolTableRecord
100
AcDbLayerTableRecord
  2
Level 31
 70
     0
 62
     7
  6
Continuous
370
     0
390
1194
347
1197
  0
LAYER
  5
5B
330
11AB
100
AcDbSymbolTableRecord
100
AcDbLayerTableRecord
  2
Level 32
 70
     0
 62
     7
  6
Continuous
370
     0
390
1194
347
1197
  0
LAYER
  5
5C
330
11AB
100
AcDbSymbolTableRecord
100
AcDbLayerTableRecord
  2
Level 33
 70
     0
 62
     7
  6
Continuous
370
     0
390
1194
347
1197
  0
LAYER
  5
5D
330
11AB
100
AcDbSymbolTableRecord
100
AcDbLayerTableRecord
  2
Level 34
 70
     0
 62
     7
  6
Continuous
370
     0
390
1194
347
1197
  0
LAYER
  5
5E
330
11AB
100
AcDbSymbolTableRecord
100
AcDbLayerTableRecord
  2
Level 35
 70
     0
 62
     7
  6
Continuous
370
     0
390
1194
347
1197
  0
LAYER
  5
5F
330
11AB
100
AcDbSymbolTableRecord
100
AcDbLayerTableRecord
  2
Level 36
 70
     0
 62
     7
  6
Continuous
370
     0
390
1194
347
1197
  0
LAYER
  5
60
330
11AB
100
AcDbSymbolTableRecord
100
AcDbLayerTableRecord
  2
Level 37
 70
     0
 62
     7
  6
Continuous
370
     0
390
1194
347
1197
  0
LAYER
  5
61
330
11AB
100
AcDbSymbolTableRecord
100
AcDbLayerTableRecord
  2
Level 38
 70
     0
 62
     7
  6
Continuous
370
     0
390
1194
347
1197
  0
LAYER
  5
62
330
11AB
100
AcDbSymbolTableRecord
100
AcDbLayerTableRecord
  2
Level 39
 70
     0
 62
     7
  6
Continuous
370
     0
390
1194
347
1197
  0
LAYER
  5
63
330
11AB
100
AcDbSymbolTableRecord
100
AcDbLayerTableRecord
  2
Level 40
 70
     0
 62
     7
  6
Continuous
370
     0
390
1194
347
1197
  0
LAYER
  5
64
330
11AB
100
AcDbSymbolTableRecord
100
AcDbLayerTableRecord
  2
Level 41
 70
     0
 62
     7
  6
Continuous
370
     0
390
1194
347
1197
  0
LAYER
  5
65
330
11AB
100
AcDbSymbolTableRecord
100
AcDbLayerTableRecord
  2
Level 42
 70
     0
 62
     7
  6
Continuous
370
     0
390
1194
347
1197
  0
LAYER
  5
66
330
11AB
100
AcDbSymbolTableRecord
100
AcDbLayerTableRecord
  2
Level 43
 70
     0
 62
     7
  6
Continuous
370
     0
390
1194
347
1197
  0
LAYER
  5
67
330
11AB
100
AcDbSymbolTableRecord
100
AcDbLayerTableRecord
  2
Level 44
 70
     0
 62
     7
  6
Continuous
370
     0
390
1194
347
1197
  0
LAYER
  5
68
330
11AB
100
AcDbSymbolTableRecord
100
AcDbLayerTableRecord
  2
Level 45
 70
     0
 62
     7
  6
Continuous
370
     0
390
1194
347
1197
  0
LAYER
  5
69
330
11AB
100
AcDbSymbolTableRecord
100
AcDbLayerTableRecord
  2
Level 46
 70
     0
 62
     7
  6
Continuous
370
     0
390
1194
347
1197
  0
LAYER
  5
6A
330
11AB
100
AcDbSymbolTableRecord
100
AcDbLayerTableRecord
  2
Level 47
 70
     0
 62
     7
  6
Continuous
370
     0
390
1194
347
1197
  0
LAYER
  5
6B
330
11AB
100
AcDbSymbolTableRecord
100
AcDbLayerTableRecord
  2
Level 48
 70
     0
 62
     7
  6
Continuous
370
     0
390
1194
347
1197
  0
LAYER
  5
6C
330
11AB
100
AcDbSymbolTableRecord
100
AcDbLayerTableRecord
  2
Level 49
 70
     0
 62
     7
  6
Continuous
370
     0
390
1194
347
1197
  0
LAYER
  5
6D
330
11AB
100
AcDbSymbolTableRecord
100
AcDbLayerTableRecord
  2
Level 50
 70
     0
 62
     7
  6
Continuous
370
     0
390
1194
347
1197
  0
LAYER
  5
6E
330
11AB
100
AcDbSymbolTableRecord
100
AcDbLayerTableRecord
  2
Level 51
 70
     0
 62
     7
  6
Continuous
370
     0
390
1194
347
1197
  0
LAYER
  5
6F
330
11AB
100
AcDbSymbolTableRecord
100
AcDbLayerTableRecord
  2
Level 52
 70
     0
 62
     7
  6
Continuous
370
     0
390
1194
347
1197
  0
LAYER
  5
70
330
11AB
100
AcDbSymbolTableRecord
100
AcDbLayerTableRecord
  2
Level 53
 70
     0
 62
     7
  6
Continuous
370
     0
390
1194
347
1197
  0
LAYER
  5
71
330
11AB
100
AcDbSymbolTableRecord
100
AcDbLayerTableRecord
  2
Level 54
 70
     0
 62
     7
  6
Continuous
370
     0
390
1194
347
1197
  0
LAYER
  5
72
330
11AB
100
AcDbSymbolTableRecord
100
AcDbLayerTableRecord
  2
Level 55
 70
     0
 62
     7
  6
Continuous
370
     0
390
1194
347
1197
  0
LAYER
  5
73
330
11AB
100
AcDbSymbolTableRecord
100
AcDbLayerTableRecord
  2
Level 56
 70
     0
 62
     7
  6
Continuous
370
     0
390
1194
347
1197
  0
LAYER
  5
74
330
11AB
100
AcDbSymbolTableRecord
100
AcDbLayerTableRecord
  2
Level 57
 70
     0
 62
     7
  6
Continuous
370
     0
390
1194
347
1197
  0
LAYER
  5
75
330
11AB
100
AcDbSymbolTableRecord
100
AcDbLayerTableRecord
  2
Level 58
 70
     0
 62
     7
  6
Continuous
370
     0
390
1194
347
1197
  0
LAYER
  5
76
330
11AB
100
AcDbSymbolTableRecord
100
AcDbLayerTableRecord
  2
Level 59
 70
     0
 62
     7
  6
Continuous
370
     0
390
1194
347
1197
  0
LAYER
  5
77
330
11AB
100
AcDbSymbolTableRecord
100
AcDbLayerTableRecord
  2
Level 60
 70
     0
 62
     7
  6
Continuous
370
     0
390
1194
347
1197
  0
LAYER
  5
78
330
11AB
100
AcDbSymbolTableRecord
100
AcDbLayerTableRecord
  2
Level 61
 70
     0
 62
     7
  6
Continuous
370
     0
390
1194
347
1197
  0
LAYER
  5
79
330
11AB
100
AcDbSymbolTableRecord
100
AcDbLayerTableRecord
  2
Level 62
 70
     0
 62
     7
  6
Continuous
370
     0
390
1194
347
1197
  0
LAYER
  5
7A
330
11AB
100
AcDbSymbolTableRecord
100
AcDbLayerTableRecord
  2
Level 63
 70
     0
 62
     7
  6
Continuous
370
     0
390
1194
347
1197
  0
LAYER
  5
1200
330
11AB
100
AcDbSymbolTableRecord
100
AcDbLayerTableRecord
  2
umiborder|Level 1
 70
    16
 62
     7
  6
Continuous
370
     0
390
1194
347
1197
  0
LAYER
  5
1201
330
11AB
100
AcDbSymbolTableRecord
100
AcDbLayerTableRecord
  2
umiborder|Level 2
 70
    16
 62
     7
  6
Continuous
370
     0
390
1194
347
1197
  0
LAYER
  5
1202
330
11AB
100
AcDbSymbolTableRecord
100
AcDbLayerTableRecord
  2
umiborder|Level 3
 70
    16
 62
     7
  6
Continuous
370
     0
390
1194
347
1197
  0
LAYER
  5
1203
330
11AB
100
AcDbSymbolTableRecord
100
AcDbLayerTableRecord
  2
umiborder|Level 4
 70
    16
 62
     7
  6
Continuous
370
     0
390
1194
347
1197
  0
LAYER
  5
1204
330
11AB
100
AcDbSymbolTableRecord
100
AcDbLayerTableRecord
  2
umiborder|Level 5
 70
    16
 62
     7
  6
Continuous
370
     0
390
1194
347
1197
  0
LAYER
  5
1205
330
11AB
100
AcDbSymbolTableRecord
100
AcDbLayerTableRecord
  2
umiborder|Level 6
 70
    16
 62
     7
  6
Continuous
370
     0
390
1194
347
1197
  0
LAYER
  5
1206
330
11AB
100
AcDbSymbolTableRecord
100
AcDbLayerTableRecord
  2
umiborder|Level 7
 70
    16
 62
     7
  6
Continuous
370
     0
390
1194
347
1197
  0
LAYER
  5
1207
330
11AB
100
AcDbSymbolTableRecord
100
AcDbLayerTableRecord
  2
umiborder|Level 8
 70
    16
 62
     7
  6
Continuous
370
     0
390
1194
347
1197
  0
LAYER
  5
1208
330
11AB
100
AcDbSymbolTableRecord
100
AcDbLayerTableRecord
  2
umiborder|Level 9
 70
    16
 62
     7
  6
Continuous
370
     0
390
1194
347
1197
  0
LAYER
  5
1209
330
11AB
100
AcDbSymbolTableRecord
100
AcDbLayerTableRecord
  2
umiborder|Level 10
 70
    16
 62
     7
  6
Continuous
370
     0
390
1194
347
1197
  0
LAYER
  5
120A
330
11AB
100
AcDbSymbolTableRecord
100
AcDbLayerTableRecord
  2
umiborder|Level 11
 70
    16
 62
     7
  6
Continuous
370
     0
390
1194
347
1197
  0
LAYER
  5
120B
330
11AB
100
AcDbSymbolTableRecord
100
AcDbLayerTableRecord
  2
umiborder|Level 12
 70
    16
 62
     7
  6
Continuous
370
     0
390
1194
347
1197
  0
LAYER
  5
120C
330
11AB
100
AcDbSymbolTableRecord
100
AcDbLayerTableRecord
  2
umiborder|Level 13
 70
    16
 62
     7
  6
Continuous
370
     0
390
1194
347
1197
  0
LAYER
  5
120D
330
11AB
100
AcDbSymbolTableRecord
100
AcDbLayerTableRecord
  2
umiborder|Level 14
 70
    16
 62
     7
  6
Continuous
370
     0
390
1194
347
1197
  0
LAYER
  5
120E
330
11AB
100
AcDbSymbolTableRecord
100
AcDbLayerTableRecord
  2
umiborder|Level 15
 70
    16
 62
     7
  6
Continuous
370
     0
390
1194
347
1197
  0
LAYER
  5
120F
330
11AB
100
AcDbSymbolTableRecord
100
AcDbLayerTableRecord
  2
umiborder|Level 16
 70
    16
 62
     7
  6
Continuous
370
     0
390
1194
347
1197
  0
LAYER
  5
1210
330
11AB
100
AcDbSymbolTableRecord
100
AcDbLayerTableRecord
  2
umiborder|Level 17
 70
    16
 62
     7
  6
Continuous
370
     0
390
1194
347
1197
  0
LAYER
  5
1211
330
11AB
100
AcDbSymbolTableRecord
100
AcDbLayerTableRecord
  2
umiborder|Level 18
 70
    16
 62
     7
  6
Continuous
370
     0
390
1194
347
1197
  0
LAYER
  5
1212
330
11AB
100
AcDbSymbolTableRecord
100
AcDbLayerTableRecord
  2
umiborder|Level 19
 70
    16
 62
     7
  6
Continuous
370
     0
390
1194
347
1197
  0
LAYER
  5
1213
330
11AB
100
AcDbSymbolTableRecord
100
AcDbLayerTableRecord
  2
umiborder|Level 20
 70
    16
 62
     7
  6
Continuous
370
     0
390
1194
347
1197
  0
LAYER
  5
1214
330
11AB
100
AcDbSymbolTableRecord
100
AcDbLayerTableRecord
  2
umiborder|Level 21
 70
    16
 62
     7
  6
Continuous
370
     0
390
1194
347
1197
  0
LAYER
  5
1215
330
11AB
100
AcDbSymbolTableRecord
100
AcDbLayerTableRecord
  2
umiborder|Level 22
 70
    16
 62
     7
  6
Continuous
370
     0
390
1194
347
1197
  0
LAYER
  5
1216
330
11AB
100
AcDbSymbolTableRecord
100
AcDbLayerTableRecord
  2
umiborder|Level 23
 70
    16
 62
     7
  6
Continuous
370
     0
390
1194
347
1197
  0
LAYER
  5
1217
330
11AB
100
AcDbSymbolTableRecord
100
AcDbLayerTableRecord
  2
umiborder|Level 24
 70
    16
 62
     7
  6
Continuous
370
     0
390
1194
347
1197
  0
LAYER
  5
1218
330
11AB
100
AcDbSymbolTableRecord
100
AcDbLayerTableRecord
  2
umiborder|Level 25
 70
    16
 62
     7
  6
Continuous
370
     0
390
1194
347
1197
  0
LAYER
  5
1219
330
11AB
100
AcDbSymbolTableRecord
100
AcDbLayerTableRecord
  2
umiborder|Level 26
 70
    16
 62
     7
  6
Continuous
370
     0
390
1194
347
1197
  0
LAYER
  5
121A
330
11AB
100
AcDbSymbolTableRecord
100
AcDbLayerTableRecord
  2
umiborder|Level 27
 70
    16
 62
     7
  6
Continuous
370
     0
390
1194
347
1197
  0
LAYER
  5
121B
330
11AB
100
AcDbSymbolTableRecord
100
AcDbLayerTableRecord
  2
umiborder|Level 28
 70
    16
 62
     7
  6
Continuous
370
     0
390
1194
347
1197
  0
LAYER
  5
121C
330
11AB
100
AcDbSymbolTableRecord
100
AcDbLayerTableRecord
  2
umiborder|Level 29
 70
    16
 62
     7
  6
Continuous
370
     0
390
1194
347
1197
  0
LAYER
  5
121D
330
11AB
100
AcDbSymbolTableRecord
100
AcDbLayerTableRecord
  2
umiborder|Level 30
 70
    16
 62
     7
  6
Continuous
370
     0
390
1194
347
1197
  0
LAYER
  5
121E
330
11AB
100
AcDbSymbolTableRecord
100
AcDbLayerTableRecord
  2
umiborder|Level 31
 70
    16
 62
     7
  6
Continuous
370
     0
390
1194
347
1197
  0
LAYER
  5
121F
330
11AB
100
AcDbSymbolTableRecord
100
AcDbLayerTableRecord
  2
umiborder|Level 32
 70
    16
 62
     7
  6
Continuous
370
     0
390
1194
347
1197
  0
LAYER
  5
1220
330
11AB
100
AcDbSymbolTableRecord
100
AcDbLayerTableRecord
  2
umiborder|Level 33
 70
    16
 62
     7
  6
Continuous
370
     0
390
1194
347
1197
  0
LAYER
  5
1221
330
11AB
100
AcDbSymbolTableRecord
100
AcDbLayerTableRecord
  2
umiborder|Level 34
 70
    16
 62
     7
  6
Continuous
370
     0
390
1194
347
1197
  0
LAYER
  5
1222
330
11AB
100
AcDbSymbolTableRecord
100
AcDbLayerTableRecord
  2
umiborder|Level 35
 70
    16
 62
     7
  6
Continuous
370
     0
390
1194
347
1197
  0
LAYER
  5
1223
330
11AB
100
AcDbSymbolTableRecord
100
AcDbLayerTableRecord
  2
umiborder|Level 36
 70
    16
 62
     7
  6
Continuous
370
     0
390
1194
347
1197
  0
LAYER
  5
1224
330
11AB
100
AcDbSymbolTableRecord
100
AcDbLayerTableRecord
  2
umiborder|Level 37
 70
    16
 62
     7
  6
Continuous
370
     0
390
1194
347
1197
  0
LAYER
  5
1225
330
11AB
100
AcDbSymbolTableRecord
100
AcDbLayerTableRecord
  2
umiborder|Level 38
 70
    16
 62
     7
  6
Continuous
370
     0
390
1194
347
1197
  0
LAYER
  5
1226
330
11AB
100
AcDbSymbolTableRecord
100
AcDbLayerTableRecord
  2
umiborder|Level 39
 70
    16
 62
     7
  6
Continuous
370
     0
390
1194
347
1197
  0
LAYER
  5
1227
330
11AB
100
AcDbSymbolTableRecord
100
AcDbLayerTableRecord
  2
umiborder|Level 40
 70
    16
 62
     7
  6
Continuous
370
     0
390
1194
347
1197
  0
LAYER
  5
1228
330
11AB
100
AcDbSymbolTableRecord
100
AcDbLayerTableRecord
  2
umiborder|Level 41
 70
    16
 62
     7
  6
Continuous
370
     0
390
1194
347
1197
  0
LAYER
  5
1229
330
11AB
100
AcDbSymbolTableRecord
100
AcDbLayerTableRecord
  2
umiborder|Level 42
 70
    16
 62
     7
  6
Continuous
370
     0
390
1194
347
1197
  0
LAYER
  5
122A
330
11AB
100
AcDbSymbolTableRecord
100
AcDbLayerTableRecord
  2
umiborder|Level 43
 70
    16
 62
     7
  6
Continuous
370
     0
390
1194
347
1197
  0
LAYER
  5
122B
330
11AB
100
AcDbSymbolTableRecord
100
AcDbLayerTableRecord
  2
umiborder|Level 44
 70
    16
 62
     7
  6
Continuous
370
     0
390
1194
347
1197
  0
LAYER
  5
122C
330
11AB
100
AcDbSymbolTableRecord
100
AcDbLayerTableRecord
  2
umiborder|Level 45
 70
    16
 62
     7
  6
Continuous
370
     0
390
1194
347
1197
  0
LAYER
  5
122D
330
11AB
100
AcDbSymbolTableRecord
100
AcDbLayerTableRecord
  2
umiborder|Level 46
 70
    16
 62
     7
  6
Continuous
370
     0
390
1194
347
1197
  0
LAYER
  5
122E
330
11AB
100
AcDbSymbolTableRecord
100
AcDbLayerTableRecord
  2
umiborder|Level 47
 70
    16
 62
     7
  6
Continuous
370
     0
390
1194
347
1197
  0
LAYER
  5
122F
330
11AB
100
AcDbSymbolTableRecord
100
AcDbLayerTableRecord
  2
umiborder|Level 48
 70
    16
 62
     7
  6
Continuous
370
     0
390
1194
347
1197
  0
LAYER
  5
1230
330
11AB
100
AcDbSymbolTableRecord
100
AcDbLayerTableRecord
  2
umiborder|Level 49
 70
    16
 62
     7
  6
Continuous
370
     0
390
1194
347
1197
  0
LAYER
  5
1231
330
11AB
100
AcDbSymbolTableRecord
100
AcDbLayerTableRecord
  2
umiborder|Level 50
 70
    16
 62
     7
  6
Continuous
370
     0
390
1194
347
1197
  0
LAYER
  5
1232
330
11AB
100
AcDbSymbolTableRecord
100
AcDbLayerTableRecord
  2
umiborder|Level 51
 70
    16
 62
     7
  6
Continuous
370
     0
390
1194
347
1197
  0
LAYER
  5
1233
330
11AB
100
AcDbSymbolTableRecord
100
AcDbLayerTableRecord
  2
umiborder|Level 52
 70
    16
 62
     7
  6
Continuous
370
     0
390
1194
347
1197
  0
LAYER
  5
1234
330
11AB
100
AcDbSymbolTableRecord
100
AcDbLayerTableRecord
  2
umiborder|Level 53
 70
    16
 62
     7
  6
Continuous
370
     0
390
1194
347
1197
  0
LAYER
  5
1235
330
11AB
100
AcDbSymbolTableRecord
100
AcDbLayerTableRecord
  2
umiborder|Level 54
 70
    16
 62
     7
  6
Continuous
370
     0
390
1194
347
1197
  0
LAYER
  5
1236
330
11AB
100
AcDbSymbolTableRecord
100
AcDbLayerTableRecord
  2
umiborder|Level 55
 70
    16
 62
     7
  6
Continuous
370
     0
390
1194
347
1197
  0
LAYER
  5
1237
330
11AB
100
AcDbSymbolTableRecord
100
AcDbLayerTableRecord
  2
umiborder|Level 56
 70
    16
 62
     7
  6
Continuous
370
     0
390
1194
347
1197
  0
LAYER
  5
1238
330
11AB
100
AcDbSymbolTableRecord
100
AcDbLayerTableRecord
  2
umiborder|Level 57
 70
    16
 62
     7
  6
Continuous
370
     0
390
1194
347
1197
  0
LAYER
  5
1239
330
11AB
100
AcDbSymbolTableRecord
100
AcDbLayerTableRecord
  2
umiborder|Level 58
 70
    16
 62
     7
  6
Continuous
370
     0
390
1194
347
1197
  0
LAYER
  5
123A
330
11AB
100
AcDbSymbolTableRecord
100
AcDbLayerTableRecord
  2
umiborder|Level 59
 70
    16
 62
     7
  6
Continuous
370
     0
390
1194
347
1197
  0
LAYER
  5
123B
330
11AB
100
AcDbSymbolTableRecord
100
AcDbLayerTableRecord
  2
umiborder|Level 60
 70
    16
 62
     7
  6
Continuous
370
     0
390
1194
347
1197
  0
LAYER
  5
123C
330
11AB
100
AcDbSymbolTableRecord
100
AcDbLayerTableRecord
  2
umiborder|Level 61
 70
    16
 62
     7
  6
Continuous
370
     0
390
1194
347
1197
  0
LAYER
  5
123D
330
11AB
100
AcDbSymbolTableRecord
100
AcDbLayerTableRecord
  2
umiborder|Level 62
 70
    16
 62
     7
  6
Continuous
370
     0
390
1194
347
1197
  0
LAYER
  5
123E
330
11AB
100
AcDbSymbolTableRecord
100
AcDbLayerTableRecord
  2
umiborder|Level 63
 70
    16
 62
     7
  6
Continuous
370
     0
390
1194
347
1197
  0
LAYER
  5
1242
330
11AB
100
AcDbSymbolTableRecord
100
AcDbLayerTableRecord
  2
Style 1  PCB layouts|Level 1
 70
    16
 62
     7
  6
Continuous
370
     0
390
1194
347
1197
  0
LAYER
  5
1243
330
11AB
100
AcDbSymbolTableRecord
100
AcDbLayerTableRecord
  2
Style 1  PCB layouts|Level 2
 70
    16
 62
     7
  6
Continuous
370
     0
390
1194
347
1197
  0
LAYER
  5
1244
330
11AB
100
AcDbSymbolTableRecord
100
AcDbLayerTableRecord
  2
Style 1  PCB layouts|Level 3
 70
    16
 62
     7
  6
Continuous
370
     0
390
1194
347
1197
  0
LAYER
  5
1245
330
11AB
100
AcDbSymbolTableRecord
100
AcDbLayerTableRecord
  2
Style 1  PCB layouts|Level 4
 70
    16
 62
     7
  6
Continuous
370
     0
390
1194
347
1197
  0
LAYER
  5
1246
330
11AB
100
AcDbSymbolTableRecord
100
AcDbLayerTableRecord
  2
Style 1  PCB layouts|Level 5
 70
    16
 62
     7
  6
Continuous
370
     0
390
1194
347
1197
  0
LAYER
  5
1247
330
11AB
100
AcDbSymbolTableRecord
100
AcDbLayerTableRecord
  2
Style 1  PCB layouts|Level 6
 70
    16
 62
     7
  6
Continuous
370
     0
390
1194
347
1197
  0
LAYER
  5
1248
330
11AB
100
AcDbSymbolTableRecord
100
AcDbLayerTableRecord
  2
Style 1  PCB layouts|Level 7
 70
    16
 62
     7
  6
Continuous
370
     0
390
1194
347
1197
  0
LAYER
  5
1249
330
11AB
100
AcDbSymbolTableRecord
100
AcDbLayerTableRecord
  2
Style 1  PCB layouts|Level 8
 70
    16
 62
     7
  6
Continuous
370
     0
390
1194
347
1197
  0
LAYER
  5
124A
330
11AB
100
AcDbSymbolTableRecord
100
AcDbLayerTableRecord
  2
Style 1  PCB layouts|Level 9
 70
    16
 62
     7
  6
Continuous
370
     0
390
1194
347
1197
  0
LAYER
  5
124B
330
11AB
100
AcDbSymbolTableRecord
100
AcDbLayerTableRecord
  2
Style 1  PCB layouts|Level 10
 70
    16
 62
     7
  6
Continuous
370
     0
390
1194
347
1197
  0
LAYER
  5
124C
330
11AB
100
AcDbSymbolTableRecord
100
AcDbLayerTableRecord
  2
Style 1  PCB layouts|Level 11
 70
    16
 62
     7
  6
Continuous
370
     0
390
1194
347
1197
  0
LAYER
  5
124D
330
11AB
100
AcDbSymbolTableRecord
100
AcDbLayerTableRecord
  2
Style 1  PCB layouts|Level 12
 70
    16
 62
     7
  6
Continuous
370
     0
390
1194
347
1197
  0
LAYER
  5
124E
330
11AB
100
AcDbSymbolTableRecord
100
AcDbLayerTableRecord
  2
Style 1  PCB layouts|Level 13
 70
    16
 62
     7
  6
Continuous
370
     0
390
1194
347
1197
  0
LAYER
  5
124F
330
11AB
100
AcDbSymbolTableRecord
100
AcDbLayerTableRecord
  2
Style 1  PCB layouts|Level 14
 70
    16
 62
     7
  6
Continuous
370
     0
390
1194
347
1197
  0
LAYER
  5
1250
330
11AB
100
AcDbSymbolTableRecord
100
AcDbLayerTableRecord
  2
Style 1  PCB layouts|Level 15
 70
    16
 62
     7
  6
Continuous
370
     0
390
1194
347
1197
  0
LAYER
  5
1251
330
11AB
100
AcDbSymbolTableRecord
100
AcDbLayerTableRecord
  2
Style 1  PCB layouts|Level 16
 70
    16
 62
     7
  6
Continuous
370
     0
390
1194
347
1197
  0
LAYER
  5
1252
330
11AB
100
AcDbSymbolTableRecord
100
AcDbLayerTableRecord
  2
Style 1  PCB layouts|Level 17
 70
    16
 62
     7
  6
Continuous
370
     0
390
1194
347
1197
  0
LAYER
  5
1253
330
11AB
100
AcDbSymbolTableRecord
100
AcDbLayerTableRecord
  2
Style 1  PCB layouts|Level 18
 70
    16
 62
     7
  6
Continuous
370
     0
390
1194
347
1197
  0
LAYER
  5
1254
330
11AB
100
AcDbSymbolTableRecord
100
AcDbLayerTableRecord
  2
Style 1  PCB layouts|Level 19
 70
    16
 62
     7
  6
Continuous
370
     0
390
1194
347
1197
  0
LAYER
  5
1255
330
11AB
100
AcDbSymbolTableRecord
100
AcDbLayerTableRecord
  2
Style 1  PCB layouts|Level 20
 70
    16
 62
     7
  6
Continuous
370
     0
390
1194
347
1197
  0
LAYER
  5
1256
330
11AB
100
AcDbSymbolTableRecord
100
AcDbLayerTableRecord
  2
Style 1  PCB layouts|Level 21
 70
    16
 62
     7
  6
Continuous
370
     0
390
1194
347
1197
  0
LAYER
  5
1257
330
11AB
100
AcDbSymbolTableRecord
100
AcDbLayerTableRecord
  2
Style 1  PCB layouts|Level 22
 70
    16
 62
     7
  6
Continuous
370
     0
390
1194
347
1197
  0
LAYER
  5
1258
330
11AB
100
AcDbSymbolTableRecord
100
AcDbLayerTableRecord
  2
Style 1  PCB layouts|Level 23
 70
    16
 62
     7
  6
Continuous
370
     0
390
1194
347
1197
  0
LAYER
  5
1259
330
11AB
100
AcDbSymbolTableRecord
100
AcDbLayerTableRecord
  2
Style 1  PCB layouts|Level 24
 70
    16
 62
     7
  6
Continuous
370
     0
390
1194
347
1197
  0
LAYER
  5
125A
330
11AB
100
AcDbSymbolTableRecord
100
AcDbLayerTableRecord
  2
Style 1  PCB layouts|Level 25
 70
    16
 62
     7
  6
Continuous
370
     0
390
1194
347
1197
  0
LAYER
  5
125B
330
11AB
100
AcDbSymbolTableRecord
100
AcDbLayerTableRecord
  2
Style 1  PCB layouts|Level 26
 70
    16
 62
     7
  6
Continuous
370
     0
390
1194
347
1197
  0
LAYER
  5
125C
330
11AB
100
AcDbSymbolTableRecord
100
AcDbLayerTableRecord
  2
Style 1  PCB layouts|Level 27
 70
    16
 62
     7
  6
Continuous
370
     0
390
1194
347
1197
  0
LAYER
  5
125D
330
11AB
100
AcDbSymbolTableRecord
100
AcDbLayerTableRecord
  2
Style 1  PCB layouts|Level 28
 70
    16
 62
     7
  6
Continuous
370
     0
390
1194
347
1197
  0
LAYER
  5
125E
330
11AB
100
AcDbSymbolTableRecord
100
AcDbLayerTableRecord
  2
Style 1  PCB layouts|Level 29
 70
    16
 62
     7
  6
Continuous
370
     0
390
1194
347
1197
  0
LAYER
  5
125F
330
11AB
100
AcDbSymbolTableRecord
100
AcDbLayerTableRecord
  2
Style 1  PCB layouts|Level 30
 70
    16
 62
     7
  6
Continuous
370
     0
390
1194
347
1197
  0
LAYER
  5
1260
330
11AB
100
AcDbSymbolTableRecord
100
AcDbLayerTableRecord
  2
Style 1  PCB layouts|Level 31
 70
    16
 62
     7
  6
Continuous
370
     0
390
1194
347
1197
  0
LAYER
  5
1261
330
11AB
100
AcDbSymbolTableRecord
100
AcDbLayerTableRecord
  2
Style 1  PCB layouts|Level 32
 70
    16
 62
     7
  6
Continuous
370
     0
390
1194
347
1197
  0
LAYER
  5
1262
330
11AB
100
AcDbSymbolTableRecord
100
AcDbLayerTableRecord
  2
Style 1  PCB layouts|Level 33
 70
    16
 62
     7
  6
Continuous
370
     0
390
1194
347
1197
  0
LAYER
  5
1263
330
11AB
100
AcDbSymbolTableRecord
100
AcDbLayerTableRecord
  2
Style 1  PCB layouts|Level 34
 70
    16
 62
     7
  6
Continuous
370
     0
390
1194
347
1197
  0
LAYER
  5
1264
330
11AB
100
AcDbSymbolTableRecord
100
AcDbLayerTableRecord
  2
Style 1  PCB layouts|Level 35
 70
    16
 62
     7
  6
Continuous
370
     0
390
1194
347
1197
  0
LAYER
  5
1265
330
11AB
100
AcDbSymbolTableRecord
100
AcDbLayerTableRecord
  2
Style 1  PCB layouts|Level 36
 70
    16
 62
     7
  6
Continuous
370
     0
390
1194
347
1197
  0
LAYER
  5
1266
330
11AB
100
AcDbSymbolTableRecord
100
AcDbLayerTableRecord
  2
Style 1  PCB layouts|Level 37
 70
    16
 62
     7
  6
Continuous
370
     0
390
1194
347
1197
  0
LAYER
  5
1267
330
11AB
100
AcDbSymbolTableRecord
100
AcDbLayerTableRecord
  2
Style 1  PCB layouts|Level 38
 70
    16
 62
     7
  6
Continuous
370
     0
390
1194
347
1197
  0
LAYER
  5
1268
330
11AB
100
AcDbSymbolTableRecord
100
AcDbLayerTableRecord
  2
Style 1  PCB layouts|Level 39
 70
    16
 62
     7
  6
Continuous
370
     0
390
1194
347
1197
  0
LAYER
  5
1269
330
11AB
100
AcDbSymbolTableRecord
100
AcDbLayerTableRecord
  2
Style 1  PCB layouts|Level 40
 70
    16
 62
     7
  6
Continuous
370
     0
390
1194
347
1197
  0
LAYER
  5
126A
330
11AB
100
AcDbSymbolTableRecord
100
AcDbLayerTableRecord
  2
Style 1  PCB layouts|Level 41
 70
    16
 62
     7
  6
Continuous
370
     0
390
1194
347
1197
  0
LAYER
  5
126B
330
11AB
100
AcDbSymbolTableRecord
100
AcDbLayerTableRecord
  2
Style 1  PCB layouts|Level 42
 70
    16
 62
     7
  6
Continuous
370
     0
390
1194
347
1197
  0
LAYER
  5
126C
330
11AB
100
AcDbSymbolTableRecord
100
AcDbLayerTableRecord
  2
Style 1  PCB layouts|Level 43
 70
    16
 62
     7
  6
Continuous
370
     0
390
1194
347
1197
  0
LAYER
  5
126D
330
11AB
100
AcDbSymbolTableRecord
100
AcDbLayerTableRecord
  2
Style 1  PCB layouts|Level 44
 70
    16
 62
     7
  6
Continuous
370
     0
390
1194
347
1197
  0
LAYER
  5
126E
330
11AB
100
AcDbSymbolTableRecord
100
AcDbLayerTableRecord
  2
Style 1  PCB layouts|Level 45
 70
    16
 62
     7
  6
Continuous
370
     0
390
1194
347
1197
  0
LAYER
  5
126F
330
11AB
100
AcDbSymbolTableRecord
100
AcDbLayerTableRecord
  2
Style 1  PCB layouts|Level 46
 70
    16
 62
     7
  6
Continuous
370
     0
390
1194
347
1197
  0
LAYER
  5
1270
330
11AB
100
AcDbSymbolTableRecord
100
AcDbLayerTableRecord
  2
Style 1  PCB layouts|Level 47
 70
    16
 62
     7
  6
Continuous
370
     0
390
1194
347
1197
  0
LAYER
  5
1271
330
11AB
100
AcDbSymbolTableRecord
100
AcDbLayerTableRecord
  2
Style 1  PCB layouts|Level 48
 70
    16
 62
     7
  6
Continuous
370
     0
390
1194
347
1197
  0
LAYER
  5
1272
330
11AB
100
AcDbSymbolTableRecord
100
AcDbLayerTableRecord
  2
Style 1  PCB layouts|Level 49
 70
    16
 62
     7
  6
Continuous
370
     0
390
1194
347
1197
  0
LAYER
  5
1273
330
11AB
100
AcDbSymbolTableRecord
100
AcDbLayerTableRecord
  2
Style 1  PCB layouts|Level 50
 70
    16
 62
     7
  6
Continuous
370
     0
390
1194
347
1197
  0
LAYER
  5
1274
330
11AB
100
AcDbSymbolTableRecord
100
AcDbLayerTableRecord
  2
Style 1  PCB layouts|Level 51
 70
    16
 62
     7
  6
Continuous
370
     0
390
1194
347
1197
  0
LAYER
  5
1275
330
11AB
100
AcDbSymbolTableRecord
100
AcDbLayerTableRecord
  2
Style 1  PCB layouts|Level 52
 70
    16
 62
     7
  6
Continuous
370
     0
390
1194
347
1197
  0
LAYER
  5
1276
330
11AB
100
AcDbSymbolTableRecord
100
AcDbLayerTableRecord
  2
Style 1  PCB layouts|Level 53
 70
    16
 62
     7
  6
Continuous
370
     0
390
1194
347
1197
  0
LAYER
  5
1277
330
11AB
100
AcDbSymbolTableRecord
100
AcDbLayerTableRecord
  2
Style 1  PCB layouts|Level 54
 70
    16
 62
     7
  6
Continuous
370
     0
390
1194
347
1197
  0
LAYER
  5
1278
330
11AB
100
AcDbSymbolTableRecord
100
AcDbLayerTableRecord
  2
Style 1  PCB layouts|Level 55
 70
    16
 62
     7
  6
Continuous
370
     0
390
1194
347
1197
  0
LAYER
  5
1279
330
11AB
100
AcDbSymbolTableRecord
100
AcDbLayerTableRecord
  2
Style 1  PCB layouts|Level 56
 70
    16
 62
     7
  6
Continuous
370
     0
390
1194
347
1197
  0
LAYER
  5
127A
330
11AB
100
AcDbSymbolTableRecord
100
AcDbLayerTableRecord
  2
Style 1  PCB layouts|Level 57
 70
    16
 62
     7
  6
Continuous
370
     0
390
1194
347
1197
  0
LAYER
  5
127B
330
11AB
100
AcDbSymbolTableRecord
100
AcDbLayerTableRecord
  2
Style 1  PCB layouts|Level 58
 70
    16
 62
     7
  6
Continuous
370
     0
390
1194
347
1197
  0
LAYER
  5
127C
330
11AB
100
AcDbSymbolTableRecord
100
AcDbLayerTableRecord
  2
Style 1  PCB layouts|Level 59
 70
    16
 62
     7
  6
Continuous
370
     0
390
1194
347
1197
  0
LAYER
  5
127D
330
11AB
100
AcDbSymbolTableRecord
100
AcDbLayerTableRecord
  2
Style 1  PCB layouts|Level 60
 70
    16
 62
     7
  6
Continuous
370
     0
390
1194
347
1197
  0
LAYER
  5
127E
330
11AB
100
AcDbSymbolTableRecord
100
AcDbLayerTableRecord
  2
Style 1  PCB layouts|Level 61
 70
    16
 62
     7
  6
Continuous
370
     0
390
1194
347
1197
  0
LAYER
  5
127F
330
11AB
100
AcDbSymbolTableRecord
100
AcDbLayerTableRecord
  2
Style 1  PCB layouts|Level 62
 70
    16
 62
     7
  6
Continuous
370
     0
390
1194
347
1197
  0
LAYER
  5
1280
330
11AB
100
AcDbSymbolTableRecord
100
AcDbLayerTableRecord
  2
Style 1  PCB layouts|Level 63
 70
    16
 62
     7
  6
Continuous
370
     0
390
1194
347
1197
  0
LAYER
  5
1298
330
11AB
100
AcDbSymbolTableRecord
100
AcDbLayerTableRecord
  2
Defpoints
 70
     0
 62
     7
  6
Continuous
290
     0
370
    -3
390
1194
347
1197
  0
ENDTAB
  0
TABLE
  2
STYLE
  5
11AE
330
0
100
AcDbSymbolTable
 70
     3
  0
STYLE
  5
11AF
330
11AE
100
AcDbSymbolTableRecord
100
AcDbTextStyleTableRecord
  2
Standard
 70
     0
 40
0.0
 41
1.0
 50
0.0
 71
     0
 42
0.03
  3
txt.shx
  4

  0
STYLE
  5
1286
330
11AE
100
AcDbSymbolTableRecord
100
AcDbTextStyleTableRecord
  2
Style-WORKING
 70
     0
 40
0.0
 41
1.0
 50
0.0
 71
     0
 42
0.03
  3
WORKING.shx
  4

  0
STYLE
  5
1289
330
11AE
100
AcDbSymbolTableRecord
100
AcDbTextStyleTableRecord
  2
Style-ANSI_SYMBOLS
 70
     0
 40
0.0
 41
1.0
 50
0.0
 71
     0
 42
0.03
  3
ANSI_SYMBOLS.shx
  4

  0
ENDTAB
  0
TABLE
  2
VIEW
  5
11B4
330
0
100
AcDbSymbolTable
 70
     2
  0
VIEW
  5
110
102
{ACAD_XDICTIONARY
360
1282
102
}
330
11B4
100
AcDbSymbolTableRecord
100
AcDbViewTableRecord
  2
VIEW 5
 70
     0
 40
11.630165
 10
-7.758911
 20
5.32565
 41
18.974736
 11
0.0
 21
0.0
 31
1.0
 12
0.0
 22
0.0
 32
0.0
 42
50.0
 43
0.001969
 44
-0.001969
 50
0.0
 71
    16
281
     0
 72
     0
 73
     0
348
11B8
  0
VIEW
  5
112
102
{ACAD_XDICTIONARY
360
1284
102
}
330
11B4
100
AcDbSymbolTableRecord
100
AcDbViewTableRecord
  2
V2
 70
     0
 40
13.786559
 10
9.249309
 20
6.341453
 41
18.16465
 11
0.0
 21
0.0
 31
1.0
 12
0.0
 22
0.0
 32
0.0
 42
50.0
 43
0.001969
 44
-0.001969
 50
0.0
 71
    16
281
     0
 72
     0
 73
     0
348
11B8
  0
ENDTAB
  0
TABLE
  2
UCS
  5
11B5
330
0
100
AcDbSymbolTable
 70
     0
  0
ENDTAB
  0
TABLE
  2
APPID
  5
11BA
330
0
100
AcDbSymbolTable
 70
     3
  0
APPID
  5
11BB
330
11BA
100
AcDbSymbolTableRecord
100
AcDbRegAppTableRecord
  2
ACAD
 70
     0
  0
APPID
  5
11AA
330
11BA
100
AcDbSymbolTableRecord
100
AcDbRegAppTableRecord
  2
ACAD_PSEXT
 70
     0
  0
APPID
  5
1589
330
11BA
100
AcDbSymbolTableRecord
100
AcDbRegAppTableRecord
  2
ACAD_MLEADERVER
 70
     0
  0
ENDTAB
  0
TABLE
  2
DIMSTYLE
  5
11BC
330
0
100
AcDbSymbolTable
 70
     1
100
AcDbDimStyleTable
 71
     1
340
11BD
  0
DIMSTYLE
105
11BD
102
{ACAD_REACTORS
330
1082
330
1085
330
1084
330
1086
330
1157
330
1176
330
1155
330
1083
330
1156
102
}
330
11BC
100
AcDbSymbolTableRecord
100
AcDbDimStyleTableRecord
  2
Standard
 70
     0
 42
0.0625
 44
0.18
147
0.09
340
11AF
  0
ENDTAB
  0
TABLE
  2
BLOCK_RECORD
  5
1190
330
0
100
AcDbSymbolTable
 70
    32
  0
BLOCK_RECORD
  5
1191
102
{ACAD_XDICTIONARY
360
1376
102
}
330
1190
100
AcDbSymbolTableRecord
100
AcDbBlockTableRecord
  2
*Model_Space
340
11A2
 70
     0
280
     1
281
     0
  0
BLOCK_RECORD
  5
11A4
102
{ACAD_XDICTIONARY
360
171D
102
}
330
1190
100
AcDbSymbolTableRecord
100
AcDbBlockTableRecord
  2
*Paper_Space
340
11A7
 70
     0
280
     1
281
     0
  0
BLOCK_RECORD
  5
11FD
330
1190
100
AcDbSymbolTableRecord
100
AcDbBlockTableRecord
  2
umiborder
340
0
102
{BLKREFS
331
6F0
102
}
 70
     0
280
     1
281
     0
  0
BLOCK_RECORD
  5
123F
330
1190
100
AcDbSymbolTableRecord
100
AcDbBlockTableRecord
  2
Style 1  PCB layouts
340
0
102
{BLKREFS
331
73A
102
}
 70
     0
280
     1
281
     0
  0
BLOCK_RECORD
  5
128B
330
1190
100
AcDbSymbolTableRecord
100
AcDbBlockTableRecord
  2
*D2
340
0
 70
     0
280
     1
281
     0
  0
BLOCK_RECORD
  5
129D
330
1190
100
AcDbSymbolTableRecord
100
AcDbBlockTableRecord
  2
*D3
340
0
 70
     0
280
     1
281
     0
  0
BLOCK_RECORD
  5
12AA
330
1190
100
AcDbSymbolTableRecord
100
AcDbBlockTableRecord
  2
*D4
340
0
 70
     0
280
     1
281
     0
  0
BLOCK_RECORD
  5
12B9
330
1190
100
AcDbSymbolTableRecord
100
AcDbBlockTableRecord
  2
*D5
340
0
 70
     0
280
     1
281
     0
  0
BLOCK_RECORD
  5
12C6
330
1190
100
AcDbSymbolTableRecord
100
AcDbBlockTableRecord
  2
*D6
340
0
 70
     0
280
     1
281
     0
  0
BLOCK_RECORD
  5
12D6
330
1190
100
AcDbSymbolTableRecord
100
AcDbBlockTableRecord
  2
*D7
340
0
 70
     0
280
     1
281
     0
  0
BLOCK_RECORD
  5
12E4
330
1190
100
AcDbSymbolTableRecord
100
AcDbBlockTableRecord
  2
*D8
340
0
 70
     0
280
     1
281
     0
  0
BLOCK_RECORD
  5
12F4
330
1190
100
AcDbSymbolTableRecord
100
AcDbBlockTableRecord
  2
*D9
340
0
 70
     0
280
     1
281
     0
  0
BLOCK_RECORD
  5
1301
330
1190
100
AcDbSymbolTableRecord
100
AcDbBlockTableRecord
  2
*D10
340
0
 70
     0
280
     1
281
     0
  0
BLOCK_RECORD
  5
1311
330
1190
100
AcDbSymbolTableRecord
100
AcDbBlockTableRecord
  2
*D11
340
0
 70
     0
280
     1
281
     0
  0
BLOCK_RECORD
  5
131E
330
1190
100
AcDbSymbolTableRecord
100
AcDbBlockTableRecord
  2
*D12
340
0
 70
     0
280
     1
281
     0
  0
BLOCK_RECORD
  5
132E
330
1190
100
AcDbSymbolTableRecord
100
AcDbBlockTableRecord
  2
*D13
340
0
 70
     0
280
     1
281
     0
  0
BLOCK_RECORD
  5
133C
330
1190
100
AcDbSymbolTableRecord
100
AcDbBlockTableRecord
  2
*D14
340
0
 70
     0
280
     1
281
     0
  0
BLOCK_RECORD
  5
134C
330
1190
100
AcDbSymbolTableRecord
100
AcDbBlockTableRecord
  2
*D15
340
0
 70
     0
280
     1
281
     0
  0
BLOCK_RECORD
  5
1359
330
1190
100
AcDbSymbolTableRecord
100
AcDbBlockTableRecord
  2
*D16
340
0
 70
     0
280
     1
281
     0
  0
BLOCK_RECORD
  5
1369
330
1190
100
AcDbSymbolTableRecord
100
AcDbBlockTableRecord
  2
*D17
340
0
 70
     0
280
     1
281
     0
  0
BLOCK_RECORD
  5
1491
330
1190
100
AcDbSymbolTableRecord
100
AcDbBlockTableRecord
  2
*D18
340
0
 70
     0
280
     1
281
     0
  0
BLOCK_RECORD
  5
14AC
330
1190
100
AcDbSymbolTableRecord
100
AcDbBlockTableRecord
  2
*D19
340
0
 70
     0
280
     1
281
     0
  0
BLOCK_RECORD
  5
14C6
330
1190
100
AcDbSymbolTableRecord
100
AcDbBlockTableRecord
  2
*D20
340
0
 70
     0
280
     1
281
     0
  0
BLOCK_RECORD
  5
1688
330
1190
100
AcDbSymbolTableRecord
100
AcDbBlockTableRecord
  2
*D21
340
0
 70
     0
280
     1
281
     0
  0
BLOCK_RECORD
  5
1846
330
1190
100
AcDbSymbolTableRecord
100
AcDbBlockTableRecord
  2
*D22
340
0
 70
     0
280
     1
281
     0
  0
BLOCK_RECORD
  5
1861
330
1190
100
AcDbSymbolTableRecord
100
AcDbBlockTableRecord
  2
*D23
340
0
 70
     0
280
     1
281
     0
  0
BLOCK_RECORD
  5
187C
330
1190
100
AcDbSymbolTableRecord
100
AcDbBlockTableRecord
  2
*D24
340
0
 70
     0
280
     1
281
     0
  0
BLOCK_RECORD
  5
1A3E
330
1190
100
AcDbSymbolTableRecord
100
AcDbBlockTableRecord
  2
*D25
340
0
 70
     0
280
     1
281
     0
  0
BLOCK_RECORD
  5
1A59
330
1190
100
AcDbSymbolTableRecord
100
AcDbBlockTableRecord
  2
*D26
340
0
 70
     0
280
     1
281
     0
  0
BLOCK_RECORD
  5
1A74
330
1190
100
AcDbSymbolTableRecord
100
AcDbBlockTableRecord
  2
*D27
340
0
 70
     0
280
     1
281
     0
  0
BLOCK_RECORD
  5
1C39
330
1190
100
AcDbSymbolTableRecord
100
AcDbBlockTableRecord
  2
*D28
340
0
 70
     0
280
     1
281
     0
  0
BLOCK_RECORD
  5
1C54
330
1190
100
AcDbSymbolTableRecord
100
AcDbBlockTableRecord
  2
*D29
340
0
 70
     0
280
     1
281
     0
  0
BLOCK_RECORD
  5
1E20
330
1190
100
AcDbSymbolTableRecord
100
AcDbBlockTableRecord
  2
*D30
340
0
 70
     0
280
     1
281
     0
  0
BLOCK_RECORD
  5
1FED
330
1190
100
AcDbSymbolTableRecord
100
AcDbBlockTableRecord
  2
*D31
340
0
 70
     0
280
     1
281
     0
  0
ENDTAB
  0
ENDSEC
  0
SECTION
  2
BLOCKS
  0
BLOCK
  5
1192
330
1191
100
AcDbEntity
  8
0
100
AcDbBlockBegin
  2
*Model_Space
 70
     0
 10
0.0
 20
0.0
 30
0.0
  3
*Model_Space
  1

  0
ENDBLK
  5
11A1
330
1191
100
AcDbEntity
  8
0
100
AcDbBlockEnd
  0
BLOCK
  5
11A5
330
11A4
100
AcDbEntity
 67
     1
  8
0
100
AcDbBlockBegin
  2
*Paper_Space
 70
     0
 10
0.0
 20
0.0
 30
0.0
  3
*Paper_Space
  1

  0
ENDBLK
  5
11A6
330
11A4
100
AcDbEntity
 67
     1
  8
0
100
AcDbBlockEnd
  0
BLOCK
  5
11FE
330
11FD
100
AcDbEntity
  8
0
100
AcDbBlockBegin
  2
umiborder
 70
     4
 71
     1
 10
0.0
 20
0.0
 30
0.0
  3
umiborder
  1
C:\D DRIVE\MSTRDWG\umiborder.dwg
  0
ENDBLK
  5
11FF
330
11FD
100
AcDbEntity
  8
0
100
AcDbBlockEnd
  0
BLOCK
  5
1240
330
123F
100
AcDbEntity
  8
0
100
AcDbBlockBegin
  2
Style 1  PCB layouts
 70
     4
 71
     1
 10
0.0
 20
0.0
 30
0.0
  3
Style 1  PCB layouts
  1
C:\D drive\mstrdwg\pdf catalog drawings\cad files\Style 1  PCB layouts.dwg
  0
ENDBLK
  5
1241
330
123F
100
AcDbEntity
  8
0
100
AcDbBlockEnd
  0
BLOCK
  5
1296
330
128B
100
AcDbEntity
  8
0
 62
     7
370
     0
100
AcDbBlockBegin
  2
*D2
 70
     1
 10
0.0
 20
0.0
 30
0.0
  3
*D2
  1

  0
TEXT
  5
128C
330
128B
100
AcDbEntity
  8
Level 55
  6
Continuous
 62
     7
370
     0
100
AcDbText
 10
7.17639
 20
-1.25943
 30
0.0
 40
0.03
  1
.183
 41
0.916667
  7
Style-WORKING
 11
7.17639
 21
-1.24443
 31
0.0
100
AcDbText
 73
     2
  0
TEXT
  5
128E
330
128B
100
AcDbEntity
  8
Level 55
  6
Continuous
 62
     7
370
     0
100
AcDbText
 10
7.170439
 20
-1.31943
 30
0.0
 40
0.03
  1
4.63
 41
0.916667
  7
Style-WORKING
 11
7.170439
 21
-1.30443
 31
0.0
100
AcDbText
 73
     2
  0
LINE
  5
128F
330
128B
100
AcDbEntity
  8
Level 55
  6
Continuous
 62
     7
370
     0
100
AcDbLine
 10
7.170439
 20
-1.27443
 30
0.0
 11
7.257679
 21
-1.27443
 31
0.0
  0
LINE
  5
1290
330
128B
100
AcDbEntity
  8
Level 55
  6
Continuous
 62
     7
370
     0
100
AcDbLine
 10
7.379404
 20
-1.27443
 30
0.0
 11
7.310654
 21
-1.27443
 31
0.0
  0
LINE
  5
1291
330
128B
100
AcDbEntity
  8
Level 55
  6
Continuous
 62
     7
370
     0
100
AcDbLine
 10
7.059654
 20
-1.27443
 30
0.0
 11
7.128404
 21
-1.27443
 31
0.0
  0
SOLID
  5
1292
330
128B
100
AcDbEntity
  8
Level 55
  6
Continuous
 62
     7
370
     0
100
AcDbTrace
 10
7.355654
 20
-1.28193
 30
0.0
 11
7.310654
 21
-1.27443
 31
0.0
 12
7.355654
 22
-1.26693
 32
0.0
 13
7.355654
 23
-1.26693
 33
0.0
  0
SOLID
  5
1293
330
128B
100
AcDbEntity
  8
Level 55
  6
Continuous
 62
     7
370
     0
100
AcDbTrace
 10
-7.083404
 20
-1.26693
 30
0.0
 11
-7.128404
 21
-1.27443
 31
0.0
 12
-7.083404
 22
-1.28193
 32
0.0
 13
-7.083404
 23
-1.28193
 33
0.0
210
0.0
220
0.0
230
-1.0
  0
LINE
  5
1294
330
128B
100
AcDbEntity
  8
Level 55
  6
Continuous
 62
     7
370
     0
100
AcDbLine
 10
7.310654
 20
-1.370313
 30
0.0
 11
7.310654
 21
-1.25943
 31
0.0
  0
LINE
  5
1295
330
128B
100
AcDbEntity
  8
Level 55
  6
Continuous
 62
     7
370
     0
100
AcDbLine
 10
7.128404
 20
-1.392087
 30
0.0
 11
7.128404
 21
-1.25943
 31
0.0
  0
POINT
  5
1299
330
128B
100
AcDbEntity
  8
Defpoints
  6
Continuous
 62
     7
370
     0
100
AcDbPoint
 10
7.128404
 20
-1.27443
 30
0.0
  0
POINT
  5
129A
330
128B
100
AcDbEntity
  8
Defpoints
  6
Continuous
 62
     7
370
     0
100
AcDbPoint
 10
7.310654
 20
-1.388313
 30
0.0
  0
POINT
  5
129B
330
128B
100
AcDbEntity
  8
Defpoints
  6
Continuous
 62
     7
370
     0
100
AcDbPoint
 10
7.128404
 20
-1.410087
 30
0.0
  0
POINT
  5
129C
330
128B
100
AcDbEntity
  8
Defpoints
  6
Continuous
 62
     7
370
     0
100
AcDbPoint
 10
7.214059
 20
-1.27443
 30
0.0
  0
ENDBLK
  5
1297
330
128B
100
AcDbEntity
  8
0
 62
     7
370
     0
100
AcDbBlockEnd
  0
BLOCK
  5
129E
330
129D
100
AcDbEntity
  8
0
 62
     7
370
     0
100
AcDbBlockBegin
  2
*D3
 70
     1
 10
0.0
 20
0.0
 30
0.0
  3
*D3
  1

  0
LINE
  5
143F
330
129D
100
AcDbEntity
  8
Level 55
  6
Continuous
 62
     0
370
    -2
100
AcDbLine
 10
7.128404
 20
-1.392087
 30
0.0
 11
7.128404
 21
-1.25943
 31
0.0
  0
LINE
  5
1440
330
129D
100
AcDbEntity
  8
Level 55
  6
Continuous
 62
     0
370
    -2
100
AcDbLine
 10
7.355654
 20
-1.27443
 30
0.0
 11
7.400654
 21
-1.27443
 31
0.0
  0
LINE
  5
1441
330
129D
100
AcDbEntity
  8
Level 55
  6
Continuous
 62
     0
370
    -2
100
AcDbLine
 10
7.083404
 20
-1.27443
 30
0.0
 11
7.038404
 21
-1.27443
 31
0.0
  0
SOLID
  5
1442
330
129D
100
AcDbEntity
  8
Level 55
  6
Continuous
 62
     0
370
     0
100
AcDbTrace
 10
7.355654
 20
-1.26693
 30
0.0
 11
7.355654
 21
-1.28193
 31
0.0
 12
7.310654
 22
-1.27443
 32
0.0
 13
7.310654
 23
-1.27443
 33
0.0
  0
SOLID
  5
1443
330
129D
100
AcDbEntity
  8
Level 55
  6
Continuous
 62
     0
370
     0
100
AcDbTrace
 10
7.083404
 20
-1.26693
 30
0.0
 11
7.083404
 21
-1.28193
 31
0.0
 12
7.128404
 22
-1.27443
 32
0.0
 13
7.128404
 23
-1.27443
 33
0.0
  0
MTEXT
  5
1444
330
129D
100
AcDbEntity
  8
Level 55
  6
Continuous
 62
     0
370
     0
100
AcDbMText
 10
7.214059
 20
-1.27443
 30
0.0
 40
0.03
 41
0.0
 46
0.0
 71
     5
 72
     1
  1
\H1x;\W0.916667;.183\P\H1x;\W0.916667;
  7
Style-WORKING
 73
     1
 44
1.0
  0
POINT
  5
1445
330
129D
100
AcDbEntity
  8
Defpoints
  6
Continuous
 62
     0
370
     0
100
AcDbPoint
 10
7.310654
 20
-1.388313
 30
0.0
  0
POINT
  5
1446
330
129D
100
AcDbEntity
  8
Defpoints
  6
Continuous
 62
     0
370
     0
100
AcDbPoint
 10
7.128404
 20
-1.410087
 30
0.0
  0
POINT
  5
1447
330
129D
100
AcDbEntity
  8
Defpoints
  6
Continuous
 62
     0
370
     0
100
AcDbPoint
 10
7.128404
 20
-1.27443
 30
0.0
  0
ENDBLK
  5
129F
330
129D
100
AcDbEntity
  8
0
 62
     7
370
     0
100
AcDbBlockEnd
  0
BLOCK
  5
12B3
330
12AA
100
AcDbEntity
  8
0
 62
     7
370
     0
100
AcDbBlockBegin
  2
*D4
 70
     1
 10
0.0
 20
0.0
 30
0.0
  3
*D4
  1

  0
TEXT
  5
12AB
330
12AA
100
AcDbEntity
  8
Level 55
  6
Continuous
 62
     7
370
     0
100
AcDbText
 10
6.724248
 20
-1.181555
 30
0.0
 40
0.03
  1
1.115
 41
0.916667
  7
Style-WORKING
 11
6.724248
 21
-1.166555
 31
0.0
100
AcDbText
 73
     2
  0
TEXT
  5
12AC
330
12AA
100
AcDbEntity
  8
Level 55
  6
Continuous
 62
     7
370
     0
100
AcDbText
 10
6.706377
 20
-1.241555
 30
0.0
 40
0.03
  1
28.32
 41
0.916667
  7
Style-WORKING
 11
6.706377
 21
-1.226555
 31
0.0
100
AcDbText
 73
     2
  0
LINE
  5
12AD
330
12AA
100
AcDbEntity
  8
Level 55
  6
Continuous
 62
     7
370
     0
100
AcDbLine
 10
6.706377
 20
-1.196555
 30
0.0
 11
6.821131
 21
-1.196555
 31
0.0
  0
LINE
  5
12AE
330
12AA
100
AcDbEntity
  8
Level 55
  6
Continuous
 62
     7
370
     0
100
AcDbLine
 10
6.195654
 20
-1.196555
 30
0.0
 11
7.310654
 21
-1.196555
 31
0.0
  0
SOLID
  5
12AF
330
12AA
100
AcDbEntity
  8
Level 55
  6
Continuous
 62
     7
370
     0
100
AcDbTrace
 10
6.240654
 20
-1.204055
 30
0.0
 11
6.195654
 21
-1.196555
 31
0.0
 12
6.240654
 22
-1.189055
 32
0.0
 13
6.240654
 23
-1.189055
 33
0.0
  0
SOLID
  5
12B0
330
12AA
100
AcDbEntity
  8
Level 55
  6
Continuous
 62
     7
370
     0
100
AcDbTrace
 10
-7.265654
 20
-1.189055
 30
0.0
 11
-7.310654
 21
-1.196555
 31
0.0
 12
-7.265654
 22
-1.204055
 32
0.0
 13
-7.265654
 23
-1.204055
 33
0.0
210
0.0
220
0.0
230
-1.0
  0
LINE
  5
12B1
330
12AA
100
AcDbEntity
  8
Level 55
  6
Continuous
 62
     7
370
     0
100
AcDbLine
 10
6.195654
 20
-1.370313
 30
0.0
 11
6.195654
 21
-1.181555
 31
0.0
  0
LINE
  5
12B2
330
12AA
100
AcDbEntity
  8
Level 55
  6
Continuous
 62
     7
370
     0
100
AcDbLine
 10
7.310654
 20
-1.370313
 30
0.0
 11
7.310654
 21
-1.181555
 31
0.0
  0
POINT
  5
12B5
330
12AA
100
AcDbEntity
  8
Defpoints
  6
Continuous
 62
     7
370
     0
100
AcDbPoint
 10
7.310654
 20
-1.196555
 30
0.0
  0
POINT
  5
12B6
330
12AA
100
AcDbEntity
  8
Defpoints
  6
Continuous
 62
     7
370
     0
100
AcDbPoint
 10
6.195654
 20
-1.388313
 30
0.0
  0
POINT
  5
12B7
330
12AA
100
AcDbEntity
  8
Defpoints
  6
Continuous
 62
     7
370
     0
100
AcDbPoint
 10
7.310654
 20
-1.388313
 30
0.0
  0
POINT
  5
12B8
330
12AA
100
AcDbEntity
  8
Defpoints
  6
Continuous
 62
     7
370
     0
100
AcDbPoint
 10
6.763754
 20
-1.196555
 30
0.0
  0
ENDBLK
  5
12B4
330
12AA
100
AcDbEntity
  8
0
 62
     7
370
     0
100
AcDbBlockEnd
  0
BLOCK
  5
12BA
330
12B9
100
AcDbEntity
  8
0
 62
     7
370
     0
100
AcDbBlockBegin
  2
*D5
 70
     1
 10
0.0
 20
0.0
 30
0.0
  3
*D5
  1

  0
LINE
  5
2458
330
12B9
100
AcDbEntity
  8
Level 55
  6
Continuous
 62
     0
370
    -2
100
AcDbLine
 10
6.195654
 20
-1.370313
 30
0.0
 11
6.195654
 21
-1.181555
 31
0.0
  0
LINE
  5
2459
330
12B9
100
AcDbEntity
  8
Level 55
  6
Continuous
 62
     0
370
    -2
100
AcDbLine
 10
7.310654
 20
-1.370313
 30
0.0
 11
7.310654
 21
-1.181555
 31
0.0
  0
LINE
  5
245A
330
12B9
100
AcDbEntity
  8
Level 55
  6
Continuous
 62
     0
370
    -2
100
AcDbLine
 10
6.240654
 20
-1.196555
 30
0.0
 11
6.66527
 21
-1.196555
 31
0.0
  0
LINE
  5
245B
330
12B9
100
AcDbEntity
  8
Level 55
  6
Continuous
 62
     0
370
    -2
100
AcDbLine
 10
7.265654
 20
-1.196555
 30
0.0
 11
6.862238
 21
-1.196555
 31
0.0
  0
SOLID
  5
245C
330
12B9
100
AcDbEntity
  8
Level 55
  6
Continuous
 62
     0
370
     0
100
AcDbTrace
 10
6.240654
 20
-1.189055
 30
0.0
 11
6.240654
 21
-1.204055
 31
0.0
 12
6.195654
 22
-1.196555
 32
0.0
 13
6.195654
 23
-1.196555
 33
0.0
  0
SOLID
  5
245D
330
12B9
100
AcDbEntity
  8
Level 55
  6
Continuous
 62
     0
370
     0
100
AcDbTrace
 10
7.265654
 20
-1.189055
 30
0.0
 11
7.265654
 21
-1.204055
 31
0.0
 12
7.310654
 22
-1.196555
 32
0.0
 13
7.310654
 23
-1.196555
 33
0.0
  0
MTEXT
  5
245E
330
12B9
100
AcDbEntity
  8
Level 55
  6
Continuous
 62
     0
370
     0
100
AcDbMText
 10
6.763754
 20
-1.196555
 30
0.0
 40
0.03
 41
0.0
 46
0.0
 71
     5
 72
     1
  1
\H1x;\W0.916667;1.115\P [28.32]\H1x;\W0.916667;
  7
Style-WORKING
 73
     1
 44
1.0
  0
POINT
  5
245F
330
12B9
100
AcDbEntity
  8
Defpoints
  6
Continuous
 62
     0
370
     0
100
AcDbPoint
 10
6.195654
 20
-1.388313
 30
0.0
  0
POINT
  5
2460
330
12B9
100
AcDbEntity
  8
Defpoints
  6
Continuous
 62
     0
370
     0
100
AcDbPoint
 10
7.310654
 20
-1.388313
 30
0.0
  0
POINT
  5
2461
330
12B9
100
AcDbEntity
  8
Defpoints
  6
Continuous
 62
     0
370
     0
100
AcDbPoint
 10
7.310654
 20
-1.196555
 30
0.0
  0
ENDBLK
  5
12BB
330
12B9
100
AcDbEntity
  8
0
 62
     7
370
     0
100
AcDbBlockEnd
  0
BLOCK
  5
12D0
330
12C6
100
AcDbEntity
  8
0
 62
     7
370
     0
100
AcDbBlockBegin
  2
*D6
 70
     1
 10
0.0
 20
0.0
 30
0.0
  3
*D6
  1

  0
TEXT
  5
12C7
330
12C6
100
AcDbEntity
  8
Level 55
  6
Continuous
 62
     7
370
     0
100
AcDbText
 10
7.510801
 20
-1.223259
 30
0.0
 40
0.03
  1
.075 TYP
 41
0.916667
  7
Style-WORKING
 11
7.510801
 21
-1.208259
 31
0.0
100
AcDbText
 73
     2
  0
TEXT
  5
12C8
330
12C6
100
AcDbEntity
  8
Level 55
  6
Continuous
 62
     7
370
     0
100
AcDbText
 10
7.573703
 20
-1.283259
 30
0.0
 40
0.03
  1
1.93
 41
0.916667
  7
Style-WORKING
 11
7.573703
 21
-1.268259
 31
0.0
100
AcDbText
 73
     2
  0
LINE
  5
12C9
330
12C6
100
AcDbEntity
  8
Level 55
  6
Continuous
 62
     7
370
     0
100
AcDbLine
 10
7.510801
 20
-1.238259
 30
0.0
 11
7.710635
 21
-1.238259
 31
0.0
  0
LINE
  5
12CA
330
12C6
100
AcDbEntity
  8
Level 55
  6
Continuous
 62
     7
370
     0
100
AcDbLine
 10
7.610718
 20
-1.292259
 30
0.0
 11
7.610718
 21
-1.410087
 31
0.0
  0
LINE
  5
12CB
330
12C6
100
AcDbEntity
  8
Level 55
  6
Continuous
 62
     7
370
     0
100
AcDbLine
 10
7.610718
 20
-1.554838
 30
0.0
 11
7.610718
 21
-1.486088
 31
0.0
  0
SOLID
  5
12CC
330
12C6
100
AcDbEntity
  8
Level 55
  6
Continuous
 62
     7
370
     0
100
AcDbTrace
 10
7.618218
 20
-1.365087
 30
0.0
 11
7.610718
 21
-1.410087
 31
0.0
 12
7.603218
 22
-1.365087
 32
0.0
 13
7.603218
 23
-1.365087
 33
0.0
  0
SOLID
  5
12CD
330
12C6
100
AcDbEntity
  8
Level 55
  6
Continuous
 62
     7
370
     0
100
AcDbTrace
 10
-7.603218
 20
-1.531088
 30
0.0
 11
-7.610718
 21
-1.486088
 31
0.0
 12
-7.618218
 22
-1.531088
 32
0.0
 13
-7.618218
 23
-1.531088
 33
0.0
210
0.0
220
0.0
230
-1.0
  0
LINE
  5
12CE
330
12C6
100
AcDbEntity
  8
Level 55
  6
Continuous
 62
     7
370
     0
100
AcDbLine
 10
7.146404
 20
-1.410087
 30
0.0
 11
7.625718
 21
-1.410087
 31
0.0
  0
LINE
  5
12CF
330
12C6
100
AcDbEntity
  8
Level 55
  6
Continuous
 62
     7
370
     0
100
AcDbLine
 10
7.121404
 20
-1.486088
 30
0.0
 11
7.625718
 21
-1.486088
 31
0.0
  0
POINT
  5
12D2
330
12C6
100
AcDbEntity
  8
Defpoints
  6
Continuous
 62
     7
370
     0
100
AcDbPoint
 10
7.610718
 20
-1.486088
 30
0.0
  0
POINT
  5
12D3
330
12C6
100
AcDbEntity
  8
Defpoints
  6
Continuous
 62
     7
370
     0
100
AcDbPoint
 10
7.128404
 20
-1.410087
 30
0.0
  0
POINT
  5
12D4
330
12C6
100
AcDbEntity
  8
Defpoints
  6
Continuous
 62
     7
370
     0
100
AcDbPoint
 10
7.103404
 20
-1.486088
 30
0.0
  0
POINT
  5
12D5
330
12C6
100
AcDbEntity
  8
Defpoints
  6
Continuous
 62
     7
370
     0
100
AcDbPoint
 10
7.610718
 20
-1.238259
 30
0.0
  0
ENDBLK
  5
12D1
330
12C6
100
AcDbEntity
  8
0
 62
     7
370
     0
100
AcDbBlockEnd
  0
BLOCK
  5
12D7
330
12D6
100
AcDbEntity
  8
0
 62
     7
370
     0
100
AcDbBlockBegin
  2
*D7
 70
     1
 10
0.0
 20
0.0
 30
0.0
  3
*D7
  1

  0
LINE
  5
1452
330
12D6
100
AcDbEntity
  8
Level 55
  6
Continuous
 62
     0
370
    -2
100
AcDbLine
 10
7.146404
 20
-1.410087
 30
0.0
 11
7.471867
 21
-1.410087
 31
0.0
  0
LINE
  5
1453
330
12D6
100
AcDbEntity
  8
Level 55
  6
Continuous
 62
     0
370
    -2
100
AcDbLine
 10
7.121404
 20
-1.486088
 30
0.0
 11
7.471867
 21
-1.486088
 31
0.0
  0
LINE
  5
1454
330
12D6
100
AcDbEntity
  8
Level 55
  6
Continuous
 62
     0
370
    -2
100
AcDbLine
 10
7.456867
 20
-1.531088
 30
0.0
 11
7.456867
 21
-1.576088
 31
0.0
  0
LINE
  5
1455
330
12D6
100
AcDbEntity
  8
Level 55
  6
Continuous
 62
     0
370
    -2
100
AcDbLine
 10
7.456867
 20
-1.365087
 30
0.0
 11
7.456867
 21
-1.238259
 31
0.0
  0
LINE
  5
1456
330
12D6
100
AcDbEntity
  8
Level 55
  6
Continuous
 62
     0
370
    -2
100
AcDbLine
 10
7.456867
 20
-1.238259
 30
0.0
 11
7.501867
 21
-1.238259
 31
0.0
  0
SOLID
  5
1457
330
12D6
100
AcDbEntity
  8
Level 55
  6
Continuous
 62
     0
370
     0
100
AcDbTrace
 10
7.449367
 20
-1.531088
 30
0.0
 11
7.464367
 21
-1.531088
 31
0.0
 12
7.456867
 22
-1.486088
 32
0.0
 13
7.456867
 23
-1.486088
 33
0.0
  0
SOLID
  5
1458
330
12D6
100
AcDbEntity
  8
Level 55
  6
Continuous
 62
     0
370
     0
100
AcDbTrace
 10
7.449367
 20
-1.365087
 30
0.0
 11
7.464367
 21
-1.365087
 31
0.0
 12
7.456867
 22
-1.410087
 32
0.0
 13
7.456867
 23
-1.410087
 33
0.0
  0
MTEXT
  5
1459
330
12D6
100
AcDbEntity
  8
Level 55
  6
Continuous
 62
     0
370
     0
100
AcDbMText
 10
7.610718
 20
-1.238259
 30
0.0
 40
0.03
 41
0.0
 46
0.0
 71
     5
 72
     1
  1
\H1x;\W0.916667;.075 TYP\P\H1x;\W0.916667;
  7
Style-WORKING
 73
     1
 44
1.0
  0
POINT
  5
145A
330
12D6
100
AcDbEntity
  8
Defpoints
  6
Continuous
 62
     0
370
     0
100
AcDbPoint
 10
7.128404
 20
-1.410087
 30
0.0
  0
POINT
  5
145B
330
12D6
100
AcDbEntity
  8
Defpoints
  6
Continuous
 62
     0
370
     0
100
AcDbPoint
 10
7.103404
 20
-1.486088
 30
0.0
  0
POINT
  5
145C
330
12D6
100
AcDbEntity
  8
Defpoints
  6
Continuous
 62
     0
370
     0
100
AcDbPoint
 10
7.456867
 20
-1.486088
 30
0.0
  0
ENDBLK
  5
12D8
330
12D6
100
AcDbEntity
  8
0
 62
     7
370
     0
100
AcDbBlockEnd
  0
BLOCK
  5
12EE
330
12E4
100
AcDbEntity
  8
0
 62
     7
370
     0
100
AcDbBlockBegin
  2
*D8
 70
     1
 10
0.0
 20
0.0
 30
0.0
  3
*D8
  1

  0
TEXT
  5
12E5
330
12E4
100
AcDbEntity
  8
Level 55
  6
Continuous
 62
     7
370
     0
100
AcDbText
 10
7.232083
 20
-1.652901
 30
0.0
 40
0.03
  1
.025
 41
0.916667
  7
Style-WORKING
 11
7.232083
 21
-1.637901
 31
0.0
100
AcDbText
 73
     2
  0
TEXT
  5
12E6
330
12E4
100
AcDbEntity
  8
Level 55
  6
Continuous
 62
     7
370
     0
100
AcDbText
 10
7.246377
 20
-1.712901
 30
0.0
 40
0.03
  1
.63
 41
0.916667
  7
Style-WORKING
 11
7.246377
 21
-1.697901
 31
0.0
100
AcDbText
 73
     2
  0
LINE
  5
12E7
330
12E4
100
AcDbEntity
  8
Level 55
  6
Continuous
 62
     7
370
     0
100
AcDbLine
 10
7.232083
 20
-1.667901
 30
0.0
 11
7.319115
 21
-1.667901
 31
0.0
  0
LINE
  5
12E8
330
12E4
100
AcDbEntity
  8
Level 55
  6
Continuous
 62
     7
370
     0
100
AcDbLine
 10
7.223083
 20
-1.667901
 30
0.0
 11
7.127654
 21
-1.667901
 31
0.0
  0
LINE
  5
12E9
330
12E4
100
AcDbEntity
  8
Level 55
  6
Continuous
 62
     7
370
     0
100
AcDbLine
 10
7.033904
 20
-1.667901
 30
0.0
 11
7.102654
 21
-1.667901
 31
0.0
  0
SOLID
  5
12EA
330
12E4
100
AcDbEntity
  8
Level 55
  6
Continuous
 62
     7
370
     0
100
AcDbTrace
 10
7.172654
 20
-1.675401
 30
0.0
 11
7.127654
 21
-1.667901
 31
0.0
 12
7.172654
 22
-1.660401
 32
0.0
 13
7.172654
 23
-1.660401
 33
0.0
  0
SOLID
  5
12EB
330
12E4
100
AcDbEntity
  8
Level 55
  6
Continuous
 62
     7
370
     0
100
AcDbTrace
 10
-7.057654
 20
-1.660401
 30
0.0
 11
-7.102654
 21
-1.667901
 31
0.0
 12
-7.057654
 22
-1.675401
 32
0.0
 13
-7.057654
 23
-1.675401
 33
0.0
210
0.0
220
0.0
230
-1.0
  0
LINE
  5
12EC
330
12E4
100
AcDbEntity
  8
Level 55
  6
Continuous
 62
     7
370
     0
100
AcDbLine
 10
7.127654
 20
-1.428088
 30
0.0
 11
7.127654
 21
-1.682901
 31
0.0
  0
LINE
  5
12ED
330
12E4
100
AcDbEntity
  8
Level 55
  6
Continuous
 62
     7
370
     0
100
AcDbLine
 10
7.102654
 20
-1.503088
 30
0.0
 11
7.102654
 21
-1.682901
 31
0.0
  0
POINT
  5
12F0
330
12E4
100
AcDbEntity
  8
Defpoints
  6
Continuous
 62
     7
370
     0
100
AcDbPoint
 10
7.102654
 20
-1.667901
 30
0.0
  0
POINT
  5
12F1
330
12E4
100
AcDbEntity
  8
Defpoints
  6
Continuous
 62
     7
370
     0
100
AcDbPoint
 10
7.127654
 20
-1.410088
 30
0.0
  0
POINT
  5
12F2
330
12E4
100
AcDbEntity
  8
Defpoints
  6
Continuous
 62
     7
370
     0
100
AcDbPoint
 10
7.102654
 20
-1.485088
 30
0.0
  0
POINT
  5
12F3
330
12E4
100
AcDbEntity
  8
Defpoints
  6
Continuous
 62
     7
370
     0
100
AcDbPoint
 10
7.275599
 20
-1.667901
 30
0.0
  0
ENDBLK
  5
12EF
330
12E4
100
AcDbEntity
  8
0
 62
     7
370
     0
100
AcDbBlockEnd
  0
BLOCK
  5
12F5
330
12F4
100
AcDbEntity
  8
0
 62
     7
370
     0
100
AcDbBlockBegin
  2
*D9
 70
     1
 10
0.0
 20
0.0
 30
0.0
  3
*D9
  1

  0
LINE
  5
2462
330
12F4
100
AcDbEntity
  8
Level 55
  6
Continuous
 62
     0
370
    -2
100
AcDbLine
 10
7.127654
 20
-1.428088
 30
0.0
 11
7.127654
 21
-1.682901
 31
0.0
  0
LINE
  5
2463
330
12F4
100
AcDbEntity
  8
Level 55
  6
Continuous
 62
     0
370
    -2
100
AcDbLine
 10
7.102654
 20
-1.503088
 30
0.0
 11
7.102654
 21
-1.682901
 31
0.0
  0
LINE
  5
2464
330
12F4
100
AcDbEntity
  8
Level 55
  6
Continuous
 62
     0
370
    -2
100
AcDbLine
 10
7.057654
 20
-1.667901
 30
0.0
 11
7.012654
 21
-1.667901
 31
0.0
  0
LINE
  5
2465
330
12F4
100
AcDbEntity
  8
Level 55
  6
Continuous
 62
     0
370
    -2
100
AcDbLine
 10
7.172654
 20
-1.667901
 30
0.0
 11
7.217654
 21
-1.667901
 31
0.0
  0
SOLID
  5
2466
330
12F4
100
AcDbEntity
  8
Level 55
  6
Continuous
 62
     0
370
     0
100
AcDbTrace
 10
7.057654
 20
-1.660401
 30
0.0
 11
7.057654
 21
-1.675401
 31
0.0
 12
7.102654
 22
-1.667901
 32
0.0
 13
7.102654
 23
-1.667901
 33
0.0
  0
SOLID
  5
2467
330
12F4
100
AcDbEntity
  8
Level 55
  6
Continuous
 62
     0
370
     0
100
AcDbTrace
 10
7.172654
 20
-1.660401
 30
0.0
 11
7.172654
 21
-1.675401
 31
0.0
 12
7.127654
 22
-1.667901
 32
0.0
 13
7.127654
 23
-1.667901
 33
0.0
  0
MTEXT
  5
2468
330
12F4
100
AcDbEntity
  8
Level 55
  6
Continuous
 62
     0
370
     0
100
AcDbMText
 10
7.288638
 20
-1.667901
 30
0.0
 40
0.03
 41
0.0
 46
0.0
 71
     5
 72
     1
  1
\H1x;\W0.916667;.025\P [.64]\H1x;\W0.916667;
  7
Style-WORKING
 73
     1
 44
1.0
  0
POINT
  5
2469
330
12F4
100
AcDbEntity
  8
Defpoints
  6
Continuous
 62
     0
370
     0
100
AcDbPoint
 10
7.127654
 20
-1.410088
 30
0.0
  0
POINT
  5
246A
330
12F4
100
AcDbEntity
  8
Defpoints
  6
Continuous
 62
     0
370
     0
100
AcDbPoint
 10
7.102654
 20
-1.485088
 30
0.0
  0
POINT
  5
246B
330
12F4
100
AcDbEntity
  8
Defpoints
  6
Continuous
 62
     0
370
     0
100
AcDbPoint
 10
7.102654
 20
-1.667901
 30
0.0
  0
ENDBLK
  5
12F6
330
12F4
100
AcDbEntity
  8
0
 62
     7
370
     0
100
AcDbBlockEnd
  0
BLOCK
  5
130B
330
1301
100
AcDbEntity
  8
0
 62
     7
370
     0
100
AcDbBlockBegin
  2
*D10
 70
     1
 10
0.0
 20
0.0
 30
0.0
  3
*D10
  1

  0
TEXT
  5
1302
330
1301
100
AcDbEntity
  8
Level 55
  6
Continuous
 62
     7
370
     0
100
AcDbText
 10
6.835019
 20
-1.751268
 30
0.0
 40
0.03
  1
.050
 41
0.916667
  7
Style-WORKING
 11
6.835019
 21
-1.736268
 31
0.0
100
AcDbText
 73
     2
  0
TEXT
  5
1303
330
1301
100
AcDbEntity
  8
Level 55
  6
Continuous
 62
     7
370
     0
100
AcDbText
 10
6.840648
 20
-1.811268
 30
0.0
 40
0.03
  1
1.27
 41
0.916667
  7
Style-WORKING
 11
6.840648
 21
-1.796268
 31
0.0
100
AcDbText
 73
     2
  0
LINE
  5
1304
330
1301
100
AcDbEntity
  8
Level 55
  6
Continuous
 62
     7
370
     0
100
AcDbLine
 10
6.835019
 20
-1.766268
 30
0.0
 11
6.921832
 21
-1.766268
 31
0.0
  0
LINE
  5
1305
330
1301
100
AcDbEntity
  8
Level 55
  6
Continuous
 62
     7
370
     0
100
AcDbLine
 10
7.196404
 20
-1.766268
 30
0.0
 11
7.127654
 21
-1.766268
 31
0.0
  0
LINE
  5
1306
330
1301
100
AcDbEntity
  8
Level 55
  6
Continuous
 62
     7
370
     0
100
AcDbLine
 10
6.930832
 20
-1.766268
 30
0.0
 11
7.077654
 21
-1.766268
 31
0.0
  0
SOLID
  5
1307
330
1301
100
AcDbEntity
  8
Level 55
  6
Continuous
 62
     7
370
     0
100
AcDbTrace
 10
7.172654
 20
-1.773768
 30
0.0
 11
7.127654
 21
-1.766268
 31
0.0
 12
7.172654
 22
-1.758768
 32
0.0
 13
7.172654
 23
-1.758768
 33
0.0
  0
SOLID
  5
1308
330
1301
100
AcDbEntity
  8
Level 55
  6
Continuous
 62
     7
370
     0
100
AcDbTrace
 10
-7.032654
 20
-1.758768
 30
0.0
 11
-7.077654
 21
-1.766268
 31
0.0
 12
-7.032654
 22
-1.773768
 32
0.0
 13
-7.032654
 23
-1.773768
 33
0.0
210
0.0
220
0.0
230
-1.0
  0
LINE
  5
1309
330
1301
100
AcDbEntity
  8
Level 55
  6
Continuous
 62
     7
370
     0
100
AcDbLine
 10
7.127654
 20
-1.428088
 30
0.0
 11
7.127654
 21
-1.781268
 31
0.0
  0
LINE
  5
130A
330
1301
100
AcDbEntity
  8
Level 55
  6
Continuous
 62
     7
370
     0
100
AcDbLine
 10
7.077654
 20
-1.353088
 30
0.0
 11
7.077654
 21
-1.781268
 31
0.0
  0
POINT
  5
130D
330
1301
100
AcDbEntity
  8
Defpoints
  6
Continuous
 62
     7
370
     0
100
AcDbPoint
 10
7.077654
 20
-1.766268
 30
0.0
  0
POINT
  5
130E
330
1301
100
AcDbEntity
  8
Defpoints
  6
Continuous
 62
     7
370
     0
100
AcDbPoint
 10
7.127654
 20
-1.410088
 30
0.0
  0
POINT
  5
130F
330
1301
100
AcDbEntity
  8
Defpoints
  6
Continuous
 62
     7
370
     0
100
AcDbPoint
 10
7.077654
 20
-1.335088
 30
0.0
  0
POINT
  5
1310
330
1301
100
AcDbEntity
  8
Defpoints
  6
Continuous
 62
     7
370
     0
100
AcDbPoint
 10
6.878425
 20
-1.766268
 30
0.0
  0
ENDBLK
  5
130C
330
1301
100
AcDbEntity
  8
0
 62
     7
370
     0
100
AcDbBlockEnd
  0
BLOCK
  5
1312
330
1311
100
AcDbEntity
  8
0
 62
     7
370
     0
100
AcDbBlockBegin
  2
*D11
 70
     1
 10
0.0
 20
0.0
 30
0.0
  3
*D11
  1

  0
LINE
  5
246C
330
1311
100
AcDbEntity
  8
Level 55
  6
Continuous
 62
     0
370
    -2
100
AcDbLine
 10
7.127654
 20
-1.428088
 30
0.0
 11
7.127654
 21
-1.781268
 31
0.0
  0
LINE
  5
246D
330
1311
100
AcDbEntity
  8
Level 55
  6
Continuous
 62
     0
370
    -2
100
AcDbLine
 10
7.077654
 20
-1.353088
 30
0.0
 11
7.077654
 21
-1.781268
 31
0.0
  0
LINE
  5
246E
330
1311
100
AcDbEntity
  8
Level 55
  6
Continuous
 62
     0
370
    -2
100
AcDbLine
 10
7.172654
 20
-1.766268
 30
0.0
 11
7.217654
 21
-1.766268
 31
0.0
  0
LINE
  5
246F
330
1311
100
AcDbEntity
  8
Level 55
  6
Continuous
 62
     0
370
    -2
100
AcDbLine
 10
7.032654
 20
-1.766268
 30
0.0
 11
6.957266
 21
-1.766268
 31
0.0
  0
SOLID
  5
2470
330
1311
100
AcDbEntity
  8
Level 55
  6
Continuous
 62
     0
370
     0
100
AcDbTrace
 10
7.172654
 20
-1.758768
 30
0.0
 11
7.172654
 21
-1.773768
 31
0.0
 12
7.127654
 22
-1.766268
 32
0.0
 13
7.127654
 23
-1.766268
 33
0.0
  0
SOLID
  5
2471
330
1311
100
AcDbEntity
  8
Level 55
  6
Continuous
 62
     0
370
     0
100
AcDbTrace
 10
7.032654
 20
-1.758768
 30
0.0
 11
7.032654
 21
-1.773768
 31
0.0
 12
7.077654
 22
-1.766268
 32
0.0
 13
7.077654
 23
-1.766268
 33
0.0
  0
MTEXT
  5
2472
330
1311
100
AcDbEntity
  8
Level 55
  6
Continuous
 62
     0
370
     0
100
AcDbMText
 10
6.878425
 20
-1.766268
 30
0.0
 40
0.03
 41
0.0
 46
0.0
 71
     5
 72
     1
  1
\H1x;\W0.916667;.050\P [1.27]\H1x;\W0.916667;
  7
Style-WORKING
 73
     1
 44
1.0
  0
POINT
  5
2473
330
1311
100
AcDbEntity
  8
Defpoints
  6
Continuous
 62
     0
370
     0
100
AcDbPoint
 10
7.127654
 20
-1.410088
 30
0.0
  0
POINT
  5
2474
330
1311
100
AcDbEntity
  8
Defpoints
  6
Continuous
 62
     0
370
     0
100
AcDbPoint
 10
7.077654
 20
-1.335088
 30
0.0
  0
POINT
  5
2475
330
1311
100
AcDbEntity
  8
Defpoints
  6
Continuous
 62
     0
370
     0
100
AcDbPoint
 10
7.077654
 20
-1.766268
 30
0.0
  0
ENDBLK
  5
1313
330
1311
100
AcDbEntity
  8
0
 62
     7
370
     0
100
AcDbBlockEnd
  0
BLOCK
  5
1328
330
131E
100
AcDbEntity
  8
0
 62
     7
370
     0
100
AcDbBlockBegin
  2
*D12
 70
     1
 10
0.0
 20
0.0
 30
0.0
  3
*D12
  1

  0
TEXT
  5
131F
330
131E
100
AcDbEntity
  8
Level 55
  6
Continuous
 62
     7
370
     0
100
AcDbText
 10
7.432044
 20
-1.590703
 30
0.0
 40
0.03
  1
.038
 41
0.916667
  7
Style-WORKING
 11
7.432044
 21
-1.575703
 31
0.0
100
AcDbText
 73
     2
  0
TEXT
  5
1320
330
131E
100
AcDbEntity
  8
Level 55
  6
Continuous
 62
     7
370
     0
100
AcDbText
 10
7.44623
 20
-1.650703
 30
0.0
 40
0.03
  1
.97
 41
0.916667
  7
Style-WORKING
 11
7.44623
 21
-1.635703
 31
0.0
100
AcDbText
 73
     2
  0
LINE
  5
1321
330
131E
100
AcDbEntity
  8
Level 55
  6
Continuous
 62
     7
370
     0
100
AcDbLine
 10
7.432044
 20
-1.605703
 30
0.0
 11
7.519076
 21
-1.605703
 31
0.0
  0
LINE
  5
1322
330
131E
100
AcDbEntity
  8
Level 55
  6
Continuous
 62
     7
370
     0
100
AcDbLine
 10
7.47556
 20
-1.551703
 30
0.0
 11
7.47556
 21
-1.448088
 31
0.0
  0
LINE
  5
1323
330
131E
100
AcDbEntity
  8
Level 55
  6
Continuous
 62
     7
370
     0
100
AcDbLine
 10
7.47556
 20
-1.341337
 30
0.0
 11
7.47556
 21
-1.410087
 31
0.0
  0
SOLID
  5
1324
330
131E
100
AcDbEntity
  8
Level 55
  6
Continuous
 62
     7
370
     0
100
AcDbTrace
 10
-7.46806
 20
-1.493088
 30
0.0
 11
-7.47556
 21
-1.448088
 31
0.0
 12
-7.48306
 22
-1.493088
 32
0.0
 13
-7.48306
 23
-1.493088
 33
0.0
210
0.0
220
0.0
230
-1.0
  0
SOLID
  5
1325
330
131E
100
AcDbEntity
  8
Level 55
  6
Continuous
 62
     7
370
     0
100
AcDbTrace
 10
7.48306
 20
-1.365087
 30
0.0
 11
7.47556
 21
-1.410087
 31
0.0
 12
7.46806
 22
-1.365087
 32
0.0
 13
7.46806
 23
-1.365087
 33
0.0
  0
LINE
  5
1326
330
131E
100
AcDbEntity
  8
Level 55
  6
Continuous
 62
     7
370
     0
100
AcDbLine
 10
7.387194
 20
-1.448088
 30
0.0
 11
7.49056
 21
-1.448088
 31
0.0
  0
LINE
  5
1327
330
131E
100
AcDbEntity
  8
Level 55
  6
Continuous
 62
     7
370
     0
100
AcDbLine
 10
7.146404
 20
-1.410087
 30
0.0
 11
7.49056
 21
-1.410087
 31
0.0
  0
POINT
  5
132A
330
131E
100
AcDbEntity
  8
Defpoints
  6
Continuous
 62
     7
370
     0
100
AcDbPoint
 10
7.47556
 20
-1.410087
 30
0.0
  0
POINT
  5
132B
330
131E
100
AcDbEntity
  8
Defpoints
  6
Continuous
 62
     7
370
     0
100
AcDbPoint
 10
7.369194
 20
-1.448088
 30
0.0
  0
POINT
  5
132C
330
131E
100
AcDbEntity
  8
Defpoints
  6
Continuous
 62
     7
370
     0
100
AcDbPoint
 10
7.128404
 20
-1.410087
 30
0.0
  0
POINT
  5
132D
330
131E
100
AcDbEntity
  8
Defpoints
  6
Continuous
 62
     7
370
     0
100
AcDbPoint
 10
7.47556
 20
-1.605703
 30
0.0
  0
ENDBLK
  5
1329
330
131E
100
AcDbEntity
  8
0
 62
     7
370
     0
100
AcDbBlockEnd
  0
BLOCK
  5
132F
330
132E
100
AcDbEntity
  8
0
 62
     7
370
     0
100
AcDbBlockBegin
  2
*D13
 70
     1
 10
0.0
 20
0.0
 30
0.0
  3
*D13
  1

  0
LINE
  5
1471
330
132E
100
AcDbEntity
  8
Level 55
  6
Continuous
 62
     0
370
    -2
100
AcDbLine
 10
7.387194
 20
-1.448088
 30
0.0
 11
7.605999
 21
-1.448088
 31
0.0
  0
LINE
  5
1472
330
132E
100
AcDbEntity
  8
Level 55
  6
Continuous
 62
     0
370
    -2
100
AcDbLine
 10
7.146404
 20
-1.410087
 30
0.0
 11
7.605999
 21
-1.410087
 31
0.0
  0
LINE
  5
1473
330
132E
100
AcDbEntity
  8
Level 55
  6
Continuous
 62
     0
370
    -2
100
AcDbLine
 10
7.590999
 20
-1.365087
 30
0.0
 11
7.590999
 21
-1.320087
 31
0.0
  0
LINE
  5
1474
330
132E
100
AcDbEntity
  8
Level 55
  6
Continuous
 62
     0
370
    -2
100
AcDbLine
 10
7.590999
 20
-1.493088
 30
0.0
 11
7.590999
 21
-1.605703
 31
0.0
  0
LINE
  5
1475
330
132E
100
AcDbEntity
  8
Level 55
  6
Continuous
 62
     0
370
    -2
100
AcDbLine
 10
7.590999
 20
-1.605703
 30
0.0
 11
7.545999
 21
-1.605703
 31
0.0
  0
SOLID
  5
1476
330
132E
100
AcDbEntity
  8
Level 55
  6
Continuous
 62
     0
370
     0
100
AcDbTrace
 10
7.583499
 20
-1.365087
 30
0.0
 11
7.598499
 21
-1.365087
 31
0.0
 12
7.590999
 22
-1.410087
 32
0.0
 13
7.590999
 23
-1.410087
 33
0.0
  0
SOLID
  5
1477
330
132E
100
AcDbEntity
  8
Level 55
  6
Continuous
 62
     0
370
     0
100
AcDbTrace
 10
7.583499
 20
-1.493088
 30
0.0
 11
7.598499
 21
-1.493088
 31
0.0
 12
7.590999
 22
-1.448088
 32
0.0
 13
7.590999
 23
-1.448088
 33
0.0
  0
MTEXT
  5
1478
330
132E
100
AcDbEntity
  8
Level 55
  6
Continuous
 62
     0
370
     0
100
AcDbMText
 10
7.47556
 20
-1.605703
 30
0.0
 40
0.03
 41
0.0
 46
0.0
 71
     5
 72
     1
  1
\H1x;\W0.916667;.038\P [.97]\H1x;\W0.916667;
  7
Style-WORKING
 73
     1
 44
1.0
  0
POINT
  5
1479
330
132E
100
AcDbEntity
  8
Defpoints
  6
Continuous
 62
     0
370
     0
100
AcDbPoint
 10
7.369194
 20
-1.448088
 30
0.0
  0
POINT
  5
147A
330
132E
100
AcDbEntity
  8
Defpoints
  6
Continuous
 62
     0
370
     0
100
AcDbPoint
 10
7.128404
 20
-1.410087
 30
0.0
  0
POINT
  5
147B
330
132E
100
AcDbEntity
  8
Defpoints
  6
Continuous
 62
     0
370
     0
100
AcDbPoint
 10
7.590999
 20
-1.410087
 30
0.0
  0
ENDBLK
  5
1330
330
132E
100
AcDbEntity
  8
0
 62
     7
370
     0
100
AcDbBlockEnd
  0
BLOCK
  5
1346
330
133C
100
AcDbEntity
  8
0
 62
     7
370
     0
100
AcDbBlockBegin
  2
*D14
 70
     1
 10
0.0
 20
0.0
 30
0.0
  3
*D14
  1

  0
TEXT
  5
133D
330
133C
100
AcDbEntity
  8
Level 55
  6
Continuous
 62
     7
370
     0
100
AcDbText
 10
7.248258
 20
-1.853735
 30
0.0
 40
0.03
  1
.075
 41
0.916667
  7
Style-WORKING
 11
7.248258
 21
-1.838735
 31
0.0
100
AcDbText
 73
     2
  0
TEXT
  5
133E
330
133C
100
AcDbEntity
  8
Level 55
  6
Continuous
 62
     7
370
     0
100
AcDbText
 10
7.268607
 20
-1.913735
 30
0.0
 40
0.03
  1
1.9
 41
0.916667
  7
Style-WORKING
 11
7.268607
 21
-1.898735
 31
0.0
100
AcDbText
 73
     2
  0
LINE
  5
133F
330
133C
100
AcDbEntity
  8
Level 55
  6
Continuous
 62
     7
370
     0
100
AcDbLine
 10
7.248258
 20
-1.868735
 30
0.0
 11
7.335498
 21
-1.868735
 31
0.0
  0
LINE
  5
1340
330
133C
100
AcDbEntity
  8
Level 55
  6
Continuous
 62
     7
370
     0
100
AcDbLine
 10
7.239258
 20
-1.868735
 30
0.0
 11
7.127654
 21
-1.868735
 31
0.0
  0
LINE
  5
1341
330
133C
100
AcDbEntity
  8
Level 55
  6
Continuous
 62
     7
370
     0
100
AcDbLine
 10
6.983904
 20
-1.868735
 30
0.0
 11
7.052654
 21
-1.868735
 31
0.0
  0
SOLID
  5
1342
330
133C
100
AcDbEntity
  8
Level 55
  6
Continuous
 62
     7
370
     0
100
AcDbTrace
 10
7.172654
 20
-1.876235
 30
0.0
 11
7.127654
 21
-1.868735
 31
0.0
 12
7.172654
 22
-1.861235
 32
0.0
 13
7.172654
 23
-1.861235
 33
0.0
  0
SOLID
  5
1343
330
133C
100
AcDbEntity
  8
Level 55
  6
Continuous
 62
     7
370
     0
100
AcDbTrace
 10
-7.007654
 20
-1.861235
 30
0.0
 11
-7.052654
 21
-1.868735
 31
0.0
 12
-7.007654
 22
-1.876235
 32
0.0
 13
-7.007654
 23
-1.876235
 33
0.0
210
0.0
220
0.0
230
-1.0
  0
LINE
  5
1344
330
133C
100
AcDbEntity
  8
Level 55
  6
Continuous
 62
     7
370
     0
100
AcDbLine
 10
7.127654
 20
-1.428088
 30
0.0
 11
7.127654
 21
-1.883735
 31
0.0
  0
LINE
  5
1345
330
133C
100
AcDbEntity
  8
Level 55
  6
Continuous
 62
     7
370
     0
100
AcDbLine
 10
7.052654
 20
-1.578088
 30
0.0
 11
7.052654
 21
-1.883735
 31
0.0
  0
POINT
  5
1348
330
133C
100
AcDbEntity
  8
Defpoints
  6
Continuous
 62
     7
370
     0
100
AcDbPoint
 10
7.052654
 20
-1.868735
 30
0.0
  0
POINT
  5
1349
330
133C
100
AcDbEntity
  8
Defpoints
  6
Continuous
 62
     7
370
     0
100
AcDbPoint
 10
7.127654
 20
-1.410088
 30
0.0
  0
POINT
  5
134A
330
133C
100
AcDbEntity
  8
Defpoints
  6
Continuous
 62
     7
370
     0
100
AcDbPoint
 10
7.052654
 20
-1.560088
 30
0.0
  0
POINT
  5
134B
330
133C
100
AcDbEntity
  8
Defpoints
  6
Continuous
 62
     7
370
     0
100
AcDbPoint
 10
7.291878
 20
-1.868735
 30
0.0
  0
ENDBLK
  5
1347
330
133C
100
AcDbEntity
  8
0
 62
     7
370
     0
100
AcDbBlockEnd
  0
BLOCK
  5
134D
330
134C
100
AcDbEntity
  8
0
 62
     7
370
     0
100
AcDbBlockBegin
  2
*D15
 70
     1
 10
0.0
 20
0.0
 30
0.0
  3
*D15
  1

  0
LINE
  5
2476
330
134C
100
AcDbEntity
  8
Level 55
  6
Continuous
 62
     0
370
    -2
100
AcDbLine
 10
7.127654
 20
-1.428088
 30
0.0
 11
7.127654
 21
-1.883735
 31
0.0
  0
LINE
  5
2477
330
134C
100
AcDbEntity
  8
Level 55
  6
Continuous
 62
     0
370
    -2
100
AcDbLine
 10
7.052654
 20
-1.578088
 30
0.0
 11
7.052654
 21
-1.883735
 31
0.0
  0
LINE
  5
2478
330
134C
100
AcDbEntity
  8
Level 55
  6
Continuous
 62
     0
370
    -2
100
AcDbLine
 10
7.007654
 20
-1.868735
 30
0.0
 11
6.962654
 21
-1.868735
 31
0.0
  0
LINE
  5
2479
330
134C
100
AcDbEntity
  8
Level 55
  6
Continuous
 62
     0
370
    -2
100
AcDbLine
 10
7.172654
 20
-1.868735
 30
0.0
 11
7.219803
 21
-1.868735
 31
0.0
  0
SOLID
  5
247A
330
134C
100
AcDbEntity
  8
Level 55
  6
Continuous
 62
     0
370
     0
100
AcDbTrace
 10
7.007654
 20
-1.861235
 30
0.0
 11
7.007654
 21
-1.876235
 31
0.0
 12
7.052654
 22
-1.868735
 32
0.0
 13
7.052654
 23
-1.868735
 33
0.0
  0
SOLID
  5
247B
330
134C
100
AcDbEntity
  8
Level 55
  6
Continuous
 62
     0
370
     0
100
AcDbTrace
 10
7.172654
 20
-1.861235
 30
0.0
 11
7.172654
 21
-1.876235
 31
0.0
 12
7.127654
 22
-1.868735
 32
0.0
 13
7.127654
 23
-1.868735
 33
0.0
  0
MTEXT
  5
247C
330
134C
100
AcDbEntity
  8
Level 55
  6
Continuous
 62
     0
370
     0
100
AcDbMText
 10
7.291878
 20
-1.868735
 30
0.0
 40
0.03
 41
0.0
 46
0.0
 71
     5
 72
     1
  1
\H1x;\W0.916667;.075\P [1.91]\H1x;\W0.916667;
  7
Style-WORKING
 73
     1
 44
1.0
  0
POINT
  5
247D
330
134C
100
AcDbEntity
  8
Defpoints
  6
Continuous
 62
     0
370
     0
100
AcDbPoint
 10
7.127654
 20
-1.410088
 30
0.0
  0
POINT
  5
247E
330
134C
100
AcDbEntity
  8
Defpoints
  6
Continuous
 62
     0
370
     0
100
AcDbPoint
 10
7.052654
 20
-1.560088
 30
0.0
  0
POINT
  5
247F
330
134C
100
AcDbEntity
  8
Defpoints
  6
Continuous
 62
     0
370
     0
100
AcDbPoint
 10
7.052654
 20
-1.868735
 30
0.0
  0
ENDBLK
  5
134E
330
134C
100
AcDbEntity
  8
0
 62
     7
370
     0
100
AcDbBlockEnd
  0
BLOCK
  5
1363
330
1359
100
AcDbEntity
  8
0
 62
     7
370
     0
100
AcDbBlockBegin
  2
*D16
 70
     1
 10
0.0
 20
0.0
 30
0.0
  3
*D16
  1

  0
TEXT
  5
135A
330
1359
100
AcDbEntity
  8
Level 55
  6
Continuous
 62
     7
370
     0
100
AcDbText
 10
6.71818
 20
-1.956201
 30
0.0
 40
0.03
  1
.100 TYP
 41
0.916667
  7
Style-WORKING
 11
6.71818
 21
-1.941201
 31
0.0
100
AcDbText
 73
     2
  0
TEXT
  5
135B
330
1359
100
AcDbEntity
  8
Level 55
  6
Continuous
 62
     7
370
     0
100
AcDbText
 10
6.767538
 20
-2.016201
 30
0.0
 40
0.03
  1
2.54
 41
0.916667
  7
Style-WORKING
 11
6.767538
 21
-2.001201
 31
0.0
100
AcDbText
 73
     2
  0
LINE
  5
135C
330
1359
100
AcDbEntity
  8
Level 55
  6
Continuous
 62
     7
370
     0
100
AcDbLine
 10
6.71818
 20
-1.971201
 30
0.0
 11
6.905449
 21
-1.971201
 31
0.0
  0
LINE
  5
135D
330
1359
100
AcDbEntity
  8
Level 55
  6
Continuous
 62
     7
370
     0
100
AcDbLine
 10
7.196404
 20
-1.971201
 30
0.0
 11
7.127654
 21
-1.971201
 31
0.0
  0
LINE
  5
135E
330
1359
100
AcDbEntity
  8
Level 55
  6
Continuous
 62
     7
370
     0
100
AcDbLine
 10
6.914449
 20
-1.971201
 30
0.0
 11
7.027654
 21
-1.971201
 31
0.0
  0
SOLID
  5
135F
330
1359
100
AcDbEntity
  8
Level 55
  6
Continuous
 62
     7
370
     0
100
AcDbTrace
 10
7.172654
 20
-1.978701
 30
0.0
 11
7.127654
 21
-1.971201
 31
0.0
 12
7.172654
 22
-1.963701
 32
0.0
 13
7.172654
 23
-1.963701
 33
0.0
  0
SOLID
  5
1360
330
1359
100
AcDbEntity
  8
Level 55
  6
Continuous
 62
     7
370
     0
100
AcDbTrace
 10
-6.982654
 20
-1.963701
 30
0.0
 11
-7.027654
 21
-1.971201
 31
0.0
 12
-6.982654
 22
-1.978701
 32
0.0
 13
-6.982654
 23
-1.978701
 33
0.0
210
0.0
220
0.0
230
-1.0
  0
LINE
  5
1361
330
1359
100
AcDbEntity
  8
Level 55
  6
Continuous
 62
     7
370
     0
100
AcDbLine
 10
7.127654
 20
-1.428088
 30
0.0
 11
7.127654
 21
-1.986201
 31
0.0
  0
LINE
  5
1362
330
1359
100
AcDbEntity
  8
Level 55
  6
Continuous
 62
     7
370
     0
100
AcDbLine
 10
7.027654
 20
-1.428088
 30
0.0
 11
7.027654
 21
-1.986201
 31
0.0
  0
POINT
  5
1365
330
1359
100
AcDbEntity
  8
Defpoints
  6
Continuous
 62
     7
370
     0
100
AcDbPoint
 10
7.027654
 20
-1.971201
 30
0.0
  0
POINT
  5
1366
330
1359
100
AcDbEntity
  8
Defpoints
  6
Continuous
 62
     7
370
     0
100
AcDbPoint
 10
7.127654
 20
-1.410088
 30
0.0
  0
POINT
  5
1367
330
1359
100
AcDbEntity
  8
Defpoints
  6
Continuous
 62
     7
370
     0
100
AcDbPoint
 10
7.027654
 20
-1.410088
 30
0.0
  0
POINT
  5
1368
330
1359
100
AcDbEntity
  8
Defpoints
  6
Continuous
 62
     7
370
     0
100
AcDbPoint
 10
6.811814
 20
-1.971201
 30
0.0
  0
ENDBLK
  5
1364
330
1359
100
AcDbEntity
  8
0
 62
     7
370
     0
100
AcDbBlockEnd
  0
BLOCK
  5
136A
330
1369
100
AcDbEntity
  8
0
 62
     7
370
     0
100
AcDbBlockBegin
  2
*D17
 70
     1
 10
0.0
 20
0.0
 30
0.0
  3
*D17
  1

  0
LINE
  5
2480
330
1369
100
AcDbEntity
  8
Level 55
  6
Continuous
 62
     0
370
    -2
100
AcDbLine
 10
7.127654
 20
-1.428088
 30
0.0
 11
7.127654
 21
-1.986201
 31
0.0
  0
LINE
  5
2481
330
1369
100
AcDbEntity
  8
Level 55
  6
Continuous
 62
     0
370
    -2
100
AcDbLine
 10
7.027654
 20
-1.428088
 30
0.0
 11
7.027654
 21
-1.986201
 31
0.0
  0
LINE
  5
2482
330
1369
100
AcDbEntity
  8
Level 55
  6
Continuous
 62
     0
370
    -2
100
AcDbLine
 10
7.172654
 20
-1.971201
 30
0.0
 11
7.217654
 21
-1.971201
 31
0.0
  0
LINE
  5
2483
330
1369
100
AcDbEntity
  8
Level 55
  6
Continuous
 62
     0
370
    -2
100
AcDbLine
 10
6.982654
 20
-1.971201
 30
0.0
 11
6.937654
 21
-1.971201
 31
0.0
  0
SOLID
  5
2484
330
1369
100
AcDbEntity
  8
Level 55
  6
Continuous
 62
     0
370
     0
100
AcDbTrace
 10
7.172654
 20
-1.963701
 30
0.0
 11
7.172654
 21
-1.978701
 31
0.0
 12
7.127654
 22
-1.971201
 32
0.0
 13
7.127654
 23
-1.971201
 33
0.0
  0
SOLID
  5
2485
330
1369
100
AcDbEntity
  8
Level 55
  6
Continuous
 62
     0
370
     0
100
AcDbTrace
 10
6.982654
 20
-1.963701
 30
0.0
 11
6.982654
 21
-1.978701
 31
0.0
 12
7.027654
 22
-1.971201
 32
0.0
 13
7.027654
 23
-1.971201
 33
0.0
  0
MTEXT
  5
2486
330
1369
100
AcDbEntity
  8
Level 55
  6
Continuous
 62
     0
370
     0
100
AcDbMText
 10
6.796065
 20
-1.971201
 30
0.0
 40
0.03
 41
0.0
 46
0.0
 71
     5
 72
     1
  1
\H1x;\W0.916667;.100\P [2.54] TYP\H1x;\W0.916667;
  7
Style-WORKING
 73
     1
 44
1.0
  0
POINT
  5
2487
330
1369
100
AcDbEntity
  8
Defpoints
  6
Continuous
 62
     0
370
     0
100
AcDbPoint
 10
7.127654
 20
-1.410088
 30
0.0
  0
POINT
  5
2488
330
1369
100
AcDbEntity
  8
Defpoints
  6
Continuous
 62
     0
370
     0
100
AcDbPoint
 10
7.027654
 20
-1.410088
 30
0.0
  0
POINT
  5
2489
330
1369
100
AcDbEntity
  8
Defpoints
  6
Continuous
 62
     0
370
     0
100
AcDbPoint
 10
7.027654
 20
-1.971201
 30
0.0
  0
ENDBLK
  5
136B
330
1369
100
AcDbEntity
  8
0
 62
     7
370
     0
100
AcDbBlockEnd
  0
BLOCK
  5
149B
330
1491
100
AcDbEntity
  8
0
 62
     7
370
     0
100
AcDbBlockBegin
  2
*D18
 70
     1
 10
0.0
 20
0.0
 30
0.0
  3
*D18
  1

  0
LINE
  5
1826
330
1491
100
AcDbEntity
  8
Level 55
  6
Continuous
 62
     0
370
    -2
100
AcDbLine
 10
7.387194
 20
-1.448088
 30
0.0
 11
7.658622
 21
-1.448088
 31
0.0
  0
LINE
  5
1827
330
1491
100
AcDbEntity
  8
Level 55
  6
Continuous
 62
     0
370
    -2
100
AcDbLine
 10
7.146404
 20
-1.410087
 30
0.0
 11
7.658622
 21
-1.410087
 31
0.0
  0
LINE
  5
1828
330
1491
100
AcDbEntity
  8
Level 55
  6
Continuous
 62
     0
370
    -2
100
AcDbLine
 10
7.643622
 20
-1.365087
 30
0.0
 11
7.643622
 21
-1.320087
 31
0.0
  0
LINE
  5
1829
330
1491
100
AcDbEntity
  8
Level 55
  6
Continuous
 62
     0
370
    -2
100
AcDbLine
 10
7.643622
 20
-1.493088
 30
0.0
 11
7.643622
 21
-1.69769
 31
0.0
  0
LINE
  5
182A
330
1491
100
AcDbEntity
  8
Level 55
  6
Continuous
 62
     0
370
    -2
100
AcDbLine
 10
7.643622
 20
-1.69769
 30
0.0
 11
7.598622
 21
-1.69769
 31
0.0
  0
SOLID
  5
182B
330
1491
100
AcDbEntity
  8
Level 55
  6
Continuous
 62
     0
370
     0
100
AcDbTrace
 10
7.636122
 20
-1.365087
 30
0.0
 11
7.651122
 21
-1.365087
 31
0.0
 12
7.643622
 22
-1.410087
 32
0.0
 13
7.643622
 23
-1.410087
 33
0.0
  0
SOLID
  5
182C
330
1491
100
AcDbEntity
  8
Level 55
  6
Continuous
 62
     0
370
     0
100
AcDbTrace
 10
7.636122
 20
-1.493088
 30
0.0
 11
7.651122
 21
-1.493088
 31
0.0
 12
7.643622
 22
-1.448088
 32
0.0
 13
7.643622
 23
-1.448088
 33
0.0
  0
MTEXT
  5
182D
330
1491
100
AcDbEntity
  8
Level 55
  6
Continuous
 62
     0
370
     0
100
AcDbMText
 10
7.528183
 20
-1.69769
 30
0.0
 40
0.03
 41
0.0
 46
0.0
 71
     5
 72
     1
  1
\H1x;\W0.916667;.038\P [.97]\H1x;\W0.916667;
  7
Style-WORKING
 73
     1
 44
1.0
  0
POINT
  5
182E
330
1491
100
AcDbEntity
  8
Defpoints
  6
Continuous
 62
     0
370
     0
100
AcDbPoint
 10
7.369194
 20
-1.448088
 30
0.0
  0
POINT
  5
182F
330
1491
100
AcDbEntity
  8
Defpoints
  6
Continuous
 62
     0
370
     0
100
AcDbPoint
 10
7.128404
 20
-1.410087
 30
0.0
  0
POINT
  5
1830
330
1491
100
AcDbEntity
  8
Defpoints
  6
Continuous
 62
     0
370
     0
100
AcDbPoint
 10
7.643622
 20
-1.410087
 30
0.0
  0
ENDBLK
  5
149C
330
1491
100
AcDbEntity
  8
0
 62
     7
370
     0
100
AcDbBlockEnd
  0
BLOCK
  5
14B6
330
14AC
100
AcDbEntity
  8
0
 62
     7
370
     0
100
AcDbBlockBegin
  2
*D19
 70
     1
 10
0.0
 20
0.0
 30
0.0
  3
*D19
  1

  0
LINE
  5
1831
330
14AC
100
AcDbEntity
  8
Level 55
  6
Continuous
 62
     0
370
    -2
100
AcDbLine
 10
7.310654
 20
-1.370313
 30
0.0
 11
7.310654
 21
-1.25943
 31
0.0
  0
LINE
  5
1832
330
14AC
100
AcDbEntity
  8
Level 55
  6
Continuous
 62
     0
370
    -2
100
AcDbLine
 10
7.128404
 20
-1.392087
 30
0.0
 11
7.128404
 21
-1.25943
 31
0.0
  0
LINE
  5
1833
330
14AC
100
AcDbEntity
  8
Level 55
  6
Continuous
 62
     0
370
    -2
100
AcDbLine
 10
7.355654
 20
-1.27443
 30
0.0
 11
7.400654
 21
-1.27443
 31
0.0
  0
LINE
  5
1834
330
14AC
100
AcDbEntity
  8
Level 55
  6
Continuous
 62
     0
370
    -2
100
AcDbLine
 10
7.083404
 20
-1.27443
 30
0.0
 11
7.038404
 21
-1.27443
 31
0.0
  0
SOLID
  5
1835
330
14AC
100
AcDbEntity
  8
Level 55
  6
Continuous
 62
     0
370
     0
100
AcDbTrace
 10
7.355654
 20
-1.26693
 30
0.0
 11
7.355654
 21
-1.28193
 31
0.0
 12
7.310654
 22
-1.27443
 32
0.0
 13
7.310654
 23
-1.27443
 33
0.0
  0
SOLID
  5
1836
330
14AC
100
AcDbEntity
  8
Level 55
  6
Continuous
 62
     0
370
     0
100
AcDbTrace
 10
7.083404
 20
-1.26693
 30
0.0
 11
7.083404
 21
-1.28193
 31
0.0
 12
7.128404
 22
-1.27443
 32
0.0
 13
7.128404
 23
-1.27443
 33
0.0
  0
MTEXT
  5
1837
330
14AC
100
AcDbEntity
  8
Level 55
  6
Continuous
 62
     0
370
     0
100
AcDbMText
 10
7.214059
 20
-1.27443
 30
0.0
 40
0.03
 41
0.0
 46
0.0
 71
     5
 72
     1
  1
\H1x;\W0.916667;.183\P\H1x;\W0.916667;
  7
Style-WORKING
 73
     1
 44
1.0
  0
POINT
  5
1838
330
14AC
100
AcDbEntity
  8
Defpoints
  6
Continuous
 62
     0
370
     0
100
AcDbPoint
 10
7.310654
 20
-1.388313
 30
0.0
  0
POINT
  5
1839
330
14AC
100
AcDbEntity
  8
Defpoints
  6
Continuous
 62
     0
370
     0
100
AcDbPoint
 10
7.128404
 20
-1.410087
 30
0.0
  0
POINT
  5
183A
330
14AC
100
AcDbEntity
  8
Defpoints
  6
Continuous
 62
     0
370
     0
100
AcDbPoint
 10
7.128404
 20
-1.27443
 30
0.0
  0
ENDBLK
  5
14B7
330
14AC
100
AcDbEntity
  8
0
 62
     7
370
     0
100
AcDbBlockEnd
  0
BLOCK
  5
14D0
330
14C6
100
AcDbEntity
  8
0
 62
     7
370
     0
100
AcDbBlockBegin
  2
*D20
 70
     1
 10
0.0
 20
0.0
 30
0.0
  3
*D20
  1

  0
LINE
  5
167D
330
14C6
100
AcDbEntity
  8
Level 55
  6
Continuous
 62
     0
370
    -2
100
AcDbLine
 10
7.146404
 20
-1.410087
 30
0.0
 11
7.505717
 21
-1.410087
 31
0.0
  0
LINE
  5
167E
330
14C6
100
AcDbEntity
  8
Level 55
  6
Continuous
 62
     0
370
    -2
100
AcDbLine
 10
7.121404
 20
-1.485088
 30
0.0
 11
7.505717
 21
-1.485088
 31
0.0
  0
LINE
  5
167F
330
14C6
100
AcDbEntity
  8
Level 55
  6
Continuous
 62
     0
370
    -2
100
AcDbLine
 10
7.490717
 20
-1.530088
 30
0.0
 11
7.490717
 21
-1.575088
 31
0.0
  0
LINE
  5
1680
330
14C6
100
AcDbEntity
  8
Level 55
  6
Continuous
 62
     0
370
    -2
100
AcDbLine
 10
7.490717
 20
-1.365087
 30
0.0
 11
7.490717
 21
-1.238259
 31
0.0
  0
LINE
  5
1681
330
14C6
100
AcDbEntity
  8
Level 55
  6
Continuous
 62
     0
370
    -2
100
AcDbLine
 10
7.490717
 20
-1.238259
 30
0.0
 11
7.535717
 21
-1.238259
 31
0.0
  0
SOLID
  5
1682
330
14C6
100
AcDbEntity
  8
Level 55
  6
Continuous
 62
     0
370
     0
100
AcDbTrace
 10
7.483217
 20
-1.530088
 30
0.0
 11
7.498217
 21
-1.530088
 31
0.0
 12
7.490717
 22
-1.485088
 32
0.0
 13
7.490717
 23
-1.485088
 33
0.0
  0
SOLID
  5
1683
330
14C6
100
AcDbEntity
  8
Level 55
  6
Continuous
 62
     0
370
     0
100
AcDbTrace
 10
7.483217
 20
-1.365087
 30
0.0
 11
7.498217
 21
-1.365087
 31
0.0
 12
7.490717
 22
-1.410087
 32
0.0
 13
7.490717
 23
-1.410087
 33
0.0
  0
MTEXT
  5
1684
330
14C6
100
AcDbEntity
  8
Level 55
  6
Continuous
 62
     0
370
     0
100
AcDbMText
 10
7.663993
 20
-1.238259
 30
0.0
 40
0.03
 41
0.0
 46
0.0
 71
     5
 72
     1
  1
\H1x;\W0.916667;.075\P [1.91] TYP\H1x;\W0.916667;
  7
Style-WORKING
 73
     1
 44
1.0
  0
POINT
  5
1685
330
14C6
100
AcDbEntity
  8
Defpoints
  6
Continuous
 62
     0
370
     0
100
AcDbPoint
 10
7.128404
 20
-1.410087
 30
0.0
  0
POINT
  5
1686
330
14C6
100
AcDbEntity
  8
Defpoints
  6
Continuous
 62
     0
370
     0
100
AcDbPoint
 10
7.103404
 20
-1.485088
 30
0.0
  0
POINT
  5
1687
330
14C6
100
AcDbEntity
  8
Defpoints
  6
Continuous
 62
     0
370
     0
100
AcDbPoint
 10
7.490717
 20
-1.485088
 30
0.0
  0
ENDBLK
  5
14D1
330
14C6
100
AcDbEntity
  8
0
 62
     7
370
     0
100
AcDbBlockEnd
  0
BLOCK
  5
1692
330
1688
100
AcDbEntity
  8
0
 62
     7
370
     0
100
AcDbBlockBegin
  2
*D21
 70
     1
 10
0.0
 20
0.0
 30
0.0
  3
*D21
  1

  0
LINE
  5
183B
330
1688
100
AcDbEntity
  8
Level 55
  6
Continuous
 62
     0
370
    -2
100
AcDbLine
 10
7.146404
 20
-1.410087
 30
0.0
 11
7.332441
 21
-1.410087
 31
0.0
  0
LINE
  5
183C
330
1688
100
AcDbEntity
  8
Level 55
  6
Continuous
 62
     0
370
    -2
100
AcDbLine
 10
7.121404
 20
-1.485088
 30
0.0
 11
7.332441
 21
-1.485088
 31
0.0
  0
LINE
  5
183D
330
1688
100
AcDbEntity
  8
Level 55
  6
Continuous
 62
     0
370
    -2
100
AcDbLine
 10
7.317441
 20
-1.530088
 30
0.0
 11
7.317441
 21
-1.575088
 31
0.0
  0
LINE
  5
183E
330
1688
100
AcDbEntity
  8
Level 55
  6
Continuous
 62
     0
370
    -2
100
AcDbLine
 10
7.317441
 20
-1.365087
 30
0.0
 11
7.317441
 21
-1.187035
 31
0.0
  0
LINE
  5
183F
330
1688
100
AcDbEntity
  8
Level 55
  6
Continuous
 62
     0
370
    -2
100
AcDbLine
 10
7.317441
 20
-1.187035
 30
0.0
 11
7.362441
 21
-1.187035
 31
0.0
  0
SOLID
  5
1840
330
1688
100
AcDbEntity
  8
Level 55
  6
Continuous
 62
     0
370
     0
100
AcDbTrace
 10
7.309941
 20
-1.530088
 30
0.0
 11
7.324941
 21
-1.530088
 31
0.0
 12
7.317441
 22
-1.485088
 32
0.0
 13
7.317441
 23
-1.485088
 33
0.0
  0
SOLID
  5
1841
330
1688
100
AcDbEntity
  8
Level 55
  6
Continuous
 62
     0
370
     0
100
AcDbTrace
 10
7.309941
 20
-1.365087
 30
0.0
 11
7.324941
 21
-1.365087
 31
0.0
 12
7.317441
 22
-1.410087
 32
0.0
 13
7.317441
 23
-1.410087
 33
0.0
  0
MTEXT
  5
1842
330
1688
100
AcDbEntity
  8
Level 55
  6
Continuous
 62
     0
370
     0
100
AcDbMText
 10
7.490717
 20
-1.187035
 30
0.0
 40
0.03
 41
0.0
 46
0.0
 71
     5
 72
     1
  1
\H1x;\W0.916667;.075\P [1.91] TYP\H1x;\W0.916667;
  7
Style-WORKING
 73
     1
 44
1.0
  0
POINT
  5
1843
330
1688
100
AcDbEntity
  8
Defpoints
  6
Continuous
 62
     0
370
     0
100
AcDbPoint
 10
7.128404
 20
-1.410087
 30
0.0
  0
POINT
  5
1844
330
1688
100
AcDbEntity
  8
Defpoints
  6
Continuous
 62
     0
370
     0
100
AcDbPoint
 10
7.103404
 20
-1.485088
 30
0.0
  0
POINT
  5
1845
330
1688
100
AcDbEntity
  8
Defpoints
  6
Continuous
 62
     0
370
     0
100
AcDbPoint
 10
7.317441
 20
-1.485088
 30
0.0
  0
ENDBLK
  5
1693
330
1688
100
AcDbEntity
  8
0
 62
     7
370
     0
100
AcDbBlockEnd
  0
BLOCK
  5
1850
330
1846
100
AcDbEntity
  8
0
 62
     7
370
     0
100
AcDbBlockBegin
  2
*D22
 70
     1
 10
0.0
 20
0.0
 30
0.0
  3
*D22
  1

  0
LINE
  5
1A1E
330
1846
100
AcDbEntity
  8
Level 55
  6
Continuous
 62
     0
370
    -2
100
AcDbLine
 10
7.146404
 20
-1.410087
 30
0.0
 11
7.627086
 21
-1.410087
 31
0.0
  0
LINE
  5
1A1F
330
1846
100
AcDbEntity
  8
Level 55
  6
Continuous
 62
     0
370
    -2
100
AcDbLine
 10
7.121404
 20
-1.485088
 30
0.0
 11
7.627086
 21
-1.485088
 31
0.0
  0
LINE
  5
1A20
330
1846
100
AcDbEntity
  8
Level 55
  6
Continuous
 62
     0
370
    -2
100
AcDbLine
 10
7.612086
 20
-1.530088
 30
0.0
 11
7.612086
 21
-1.575088
 31
0.0
  0
LINE
  5
1A21
330
1846
100
AcDbEntity
  8
Level 55
  6
Continuous
 62
     0
370
    -2
100
AcDbLine
 10
7.612086
 20
-1.365087
 30
0.0
 11
7.612086
 21
-1.187035
 31
0.0
  0
LINE
  5
1A22
330
1846
100
AcDbEntity
  8
Level 55
  6
Continuous
 62
     0
370
    -2
100
AcDbLine
 10
7.612086
 20
-1.187035
 30
0.0
 11
7.657086
 21
-1.187035
 31
0.0
  0
SOLID
  5
1A23
330
1846
100
AcDbEntity
  8
Level 55
  6
Continuous
 62
     0
370
     0
100
AcDbTrace
 10
7.604586
 20
-1.530088
 30
0.0
 11
7.619586
 21
-1.530088
 31
0.0
 12
7.612086
 22
-1.485088
 32
0.0
 13
7.612086
 23
-1.485088
 33
0.0
  0
SOLID
  5
1A24
330
1846
100
AcDbEntity
  8
Level 55
  6
Continuous
 62
     0
370
     0
100
AcDbTrace
 10
7.604586
 20
-1.365087
 30
0.0
 11
7.619586
 21
-1.365087
 31
0.0
 12
7.612086
 22
-1.410087
 32
0.0
 13
7.612086
 23
-1.410087
 33
0.0
  0
MTEXT
  5
1A25
330
1846
100
AcDbEntity
  8
Level 55
  6
Continuous
 62
     0
370
     0
100
AcDbMText
 10
7.785362
 20
-1.187035
 30
0.0
 40
0.03
 41
0.0
 46
0.0
 71
     5
 72
     1
  1
\H1x;\W0.916667;.075\P [1.91] TYP\H1x;\W0.916667;
  7
Style-WORKING
 73
     1
 44
1.0
  0
POINT
  5
1A26
330
1846
100
AcDbEntity
  8
Defpoints
  6
Continuous
 62
     0
370
     0
100
AcDbPoint
 10
7.128404
 20
-1.410087
 30
0.0
  0
POINT
  5
1A27
330
1846
100
AcDbEntity
  8
Defpoints
  6
Continuous
 62
     0
370
     0
100
AcDbPoint
 10
7.103404
 20
-1.485088
 30
0.0
  0
POINT
  5
1A28
330
1846
100
AcDbEntity
  8
Defpoints
  6
Continuous
 62
     0
370
     0
100
AcDbPoint
 10
7.612086
 20
-1.485088
 30
0.0
  0
ENDBLK
  5
1851
330
1846
100
AcDbEntity
  8
0
 62
     7
370
     0
100
AcDbBlockEnd
  0
BLOCK
  5
186B
330
1861
100
AcDbEntity
  8
0
 62
     7
370
     0
100
AcDbBlockBegin
  2
*D23
 70
     1
 10
0.0
 20
0.0
 30
0.0
  3
*D23
  1

  0
LINE
  5
1A29
330
1861
100
AcDbEntity
  8
Level 55
  6
Continuous
 62
     0
370
    -2
100
AcDbLine
 10
7.387194
 20
-1.448088
 30
0.0
 11
7.730057
 21
-1.448088
 31
0.0
  0
LINE
  5
1A2A
330
1861
100
AcDbEntity
  8
Level 55
  6
Continuous
 62
     0
370
    -2
100
AcDbLine
 10
7.146404
 20
-1.410087
 30
0.0
 11
7.730057
 21
-1.410087
 31
0.0
  0
LINE
  5
1A2B
330
1861
100
AcDbEntity
  8
Level 55
  6
Continuous
 62
     0
370
    -2
100
AcDbLine
 10
7.715057
 20
-1.365087
 30
0.0
 11
7.715057
 21
-1.320087
 31
0.0
  0
LINE
  5
1A2C
330
1861
100
AcDbEntity
  8
Level 55
  6
Continuous
 62
     0
370
    -2
100
AcDbLine
 10
7.715057
 20
-1.493088
 30
0.0
 11
7.715057
 21
-1.69769
 31
0.0
  0
LINE
  5
1A2D
330
1861
100
AcDbEntity
  8
Level 55
  6
Continuous
 62
     0
370
    -2
100
AcDbLine
 10
7.715057
 20
-1.69769
 30
0.0
 11
7.670057
 21
-1.69769
 31
0.0
  0
SOLID
  5
1A2E
330
1861
100
AcDbEntity
  8
Level 55
  6
Continuous
 62
     0
370
     0
100
AcDbTrace
 10
7.707557
 20
-1.365087
 30
0.0
 11
7.722557
 21
-1.365087
 31
0.0
 12
7.715057
 22
-1.410087
 32
0.0
 13
7.715057
 23
-1.410087
 33
0.0
  0
SOLID
  5
1A2F
330
1861
100
AcDbEntity
  8
Level 55
  6
Continuous
 62
     0
370
     0
100
AcDbTrace
 10
7.707557
 20
-1.493088
 30
0.0
 11
7.722557
 21
-1.493088
 31
0.0
 12
7.715057
 22
-1.448088
 32
0.0
 13
7.715057
 23
-1.448088
 33
0.0
  0
MTEXT
  5
1A30
330
1861
100
AcDbEntity
  8
Level 55
  6
Continuous
 62
     0
370
     0
100
AcDbMText
 10
7.599618
 20
-1.69769
 30
0.0
 40
0.03
 41
0.0
 46
0.0
 71
     5
 72
     1
  1
\H1x;\W0.916667;.038\P [.97]\H1x;\W0.916667;
  7
Style-WORKING
 73
     1
 44
1.0
  0
POINT
  5
1A31
330
1861
100
AcDbEntity
  8
Defpoints
  6
Continuous
 62
     0
370
     0
100
AcDbPoint
 10
7.369194
 20
-1.448088
 30
0.0
  0
POINT
  5
1A32
330
1861
100
AcDbEntity
  8
Defpoints
  6
Continuous
 62
     0
370
     0
100
AcDbPoint
 10
7.128404
 20
-1.410087
 30
0.0
  0
POINT
  5
1A33
330
1861
100
AcDbEntity
  8
Defpoints
  6
Continuous
 62
     0
370
     0
100
AcDbPoint
 10
7.715057
 20
-1.410087
 30
0.0
  0
ENDBLK
  5
186C
330
1861
100
AcDbEntity
  8
0
 62
     7
370
     0
100
AcDbBlockEnd
  0
BLOCK
  5
1886
330
187C
100
AcDbEntity
  8
0
 62
     7
370
     0
100
AcDbBlockBegin
  2
*D24
 70
     1
 10
0.0
 20
0.0
 30
0.0
  3
*D24
  1

  0
LINE
  5
1A34
330
187C
100
AcDbEntity
  8
Level 55
  6
Continuous
 62
     0
370
    -2
100
AcDbLine
 10
7.310654
 20
-1.370313
 30
0.0
 11
7.310654
 21
-1.25943
 31
0.0
  0
LINE
  5
1A35
330
187C
100
AcDbEntity
  8
Level 55
  6
Continuous
 62
     0
370
    -2
100
AcDbLine
 10
7.128404
 20
-1.392087
 30
0.0
 11
7.128404
 21
-1.25943
 31
0.0
  0
LINE
  5
1A36
330
187C
100
AcDbEntity
  8
Level 55
  6
Continuous
 62
     0
370
    -2
100
AcDbLine
 10
7.355654
 20
-1.27443
 30
0.0
 11
7.400654
 21
-1.27443
 31
0.0
  0
LINE
  5
1A37
330
187C
100
AcDbEntity
  8
Level 55
  6
Continuous
 62
     0
370
    -2
100
AcDbLine
 10
7.083404
 20
-1.27443
 30
0.0
 11
7.038404
 21
-1.27443
 31
0.0
  0
SOLID
  5
1A38
330
187C
100
AcDbEntity
  8
Level 55
  6
Continuous
 62
     0
370
     0
100
AcDbTrace
 10
7.355654
 20
-1.26693
 30
0.0
 11
7.355654
 21
-1.28193
 31
0.0
 12
7.310654
 22
-1.27443
 32
0.0
 13
7.310654
 23
-1.27443
 33
0.0
  0
SOLID
  5
1A39
330
187C
100
AcDbEntity
  8
Level 55
  6
Continuous
 62
     0
370
     0
100
AcDbTrace
 10
7.083404
 20
-1.26693
 30
0.0
 11
7.083404
 21
-1.28193
 31
0.0
 12
7.128404
 22
-1.27443
 32
0.0
 13
7.128404
 23
-1.27443
 33
0.0
  0
MTEXT
  5
1A3A
330
187C
100
AcDbEntity
  8
Level 55
  6
Continuous
 62
     0
370
     0
100
AcDbMText
 10
7.214059
 20
-1.27443
 30
0.0
 40
0.03
 41
0.0
 46
0.0
 71
     5
 72
     1
  1
\H1x;\W0.916667;.183\P\H1x;\W0.916667;
  7
Style-WORKING
 73
     1
 44
1.0
  0
POINT
  5
1A3B
330
187C
100
AcDbEntity
  8
Defpoints
  6
Continuous
 62
     0
370
     0
100
AcDbPoint
 10
7.310654
 20
-1.388313
 30
0.0
  0
POINT
  5
1A3C
330
187C
100
AcDbEntity
  8
Defpoints
  6
Continuous
 62
     0
370
     0
100
AcDbPoint
 10
7.128404
 20
-1.410087
 30
0.0
  0
POINT
  5
1A3D
330
187C
100
AcDbEntity
  8
Defpoints
  6
Continuous
 62
     0
370
     0
100
AcDbPoint
 10
7.128404
 20
-1.27443
 30
0.0
  0
ENDBLK
  5
1887
330
187C
100
AcDbEntity
  8
0
 62
     7
370
     0
100
AcDbBlockEnd
  0
BLOCK
  5
1A48
330
1A3E
100
AcDbEntity
  8
0
 62
     7
370
     0
100
AcDbBlockBegin
  2
*D25
 70
     1
 10
0.0
 20
0.0
 30
0.0
  3
*D25
  1

  0
LINE
  5
1C19
330
1A3E
100
AcDbEntity
  8
Level 55
  6
Continuous
 62
     0
370
    -2
100
AcDbLine
 10
7.146404
 20
-1.410087
 30
0.0
 11
7.652347
 21
-1.410087
 31
0.0
  0
LINE
  5
1C1A
330
1A3E
100
AcDbEntity
  8
Level 55
  6
Continuous
 62
     0
370
    -2
100
AcDbLine
 10
7.121404
 20
-1.485088
 30
0.0
 11
7.652347
 21
-1.485088
 31
0.0
  0
LINE
  5
1C1B
330
1A3E
100
AcDbEntity
  8
Level 55
  6
Continuous
 62
     0
370
    -2
100
AcDbLine
 10
7.637347
 20
-1.530088
 30
0.0
 11
7.637347
 21
-1.575088
 31
0.0
  0
LINE
  5
1C1C
330
1A3E
100
AcDbEntity
  8
Level 55
  6
Continuous
 62
     0
370
    -2
100
AcDbLine
 10
7.637347
 20
-1.365087
 30
0.0
 11
7.637347
 21
-1.187035
 31
0.0
  0
LINE
  5
1C1D
330
1A3E
100
AcDbEntity
  8
Level 55
  6
Continuous
 62
     0
370
    -2
100
AcDbLine
 10
7.637347
 20
-1.187035
 30
0.0
 11
7.682347
 21
-1.187035
 31
0.0
  0
SOLID
  5
1C1E
330
1A3E
100
AcDbEntity
  8
Level 55
  6
Continuous
 62
     0
370
     0
100
AcDbTrace
 10
7.629847
 20
-1.530088
 30
0.0
 11
7.644847
 21
-1.530088
 31
0.0
 12
7.637347
 22
-1.485088
 32
0.0
 13
7.637347
 23
-1.485088
 33
0.0
  0
SOLID
  5
1C1F
330
1A3E
100
AcDbEntity
  8
Level 55
  6
Continuous
 62
     0
370
     0
100
AcDbTrace
 10
7.629847
 20
-1.365087
 30
0.0
 11
7.644847
 21
-1.365087
 31
0.0
 12
7.637347
 22
-1.410087
 32
0.0
 13
7.637347
 23
-1.410087
 33
0.0
  0
MTEXT
  5
1C20
330
1A3E
100
AcDbEntity
  8
Level 55
  6
Continuous
 62
     0
370
     0
100
AcDbMText
 10
7.810623
 20
-1.187035
 30
0.0
 40
0.03
 41
0.0
 46
0.0
 71
     5
 72
     1
  1
\H1x;\W0.916667;.075\P [1.91] TYP\H1x;\W0.916667;
  7
Style-WORKING
 73
     1
 44
1.0
  0
POINT
  5
1C21
330
1A3E
100
AcDbEntity
  8
Defpoints
  6
Continuous
 62
     0
370
     0
100
AcDbPoint
 10
7.128404
 20
-1.410087
 30
0.0
  0
POINT
  5
1C22
330
1A3E
100
AcDbEntity
  8
Defpoints
  6
Continuous
 62
     0
370
     0
100
AcDbPoint
 10
7.103404
 20
-1.485088
 30
0.0
  0
POINT
  5
1C23
330
1A3E
100
AcDbEntity
  8
Defpoints
  6
Continuous
 62
     0
370
     0
100
AcDbPoint
 10
7.637347
 20
-1.485088
 30
0.0
  0
ENDBLK
  5
1A49
330
1A3E
100
AcDbEntity
  8
0
 62
     7
370
     0
100
AcDbBlockEnd
  0
BLOCK
  5
1A63
330
1A59
100
AcDbEntity
  8
0
 62
     7
370
     0
100
AcDbBlockBegin
  2
*D26
 70
     1
 10
0.0
 20
0.0
 30
0.0
  3
*D26
  1

  0
LINE
  5
1C24
330
1A59
100
AcDbEntity
  8
Level 55
  6
Continuous
 62
     0
370
    -2
100
AcDbLine
 10
7.387194
 20
-1.448088
 30
0.0
 11
7.676563
 21
-1.448088
 31
0.0
  0
LINE
  5
1C25
330
1A59
100
AcDbEntity
  8
Level 55
  6
Continuous
 62
     0
370
    -2
100
AcDbLine
 10
7.146404
 20
-1.410087
 30
0.0
 11
7.676563
 21
-1.410087
 31
0.0
  0
LINE
  5
1C26
330
1A59
100
AcDbEntity
  8
Level 55
  6
Continuous
 62
     0
370
    -2
100
AcDbLine
 10
7.661563
 20
-1.365087
 30
0.0
 11
7.661563
 21
-1.320087
 31
0.0
  0
LINE
  5
1C27
330
1A59
100
AcDbEntity
  8
Level 55
  6
Continuous
 62
     0
370
    -2
100
AcDbLine
 10
7.661563
 20
-1.493088
 30
0.0
 11
7.661563
 21
-1.69769
 31
0.0
  0
LINE
  5
1C28
330
1A59
100
AcDbEntity
  8
Level 55
  6
Continuous
 62
     0
370
    -2
100
AcDbLine
 10
7.661563
 20
-1.69769
 30
0.0
 11
7.616563
 21
-1.69769
 31
0.0
  0
SOLID
  5
1C29
330
1A59
100
AcDbEntity
  8
Level 55
  6
Continuous
 62
     0
370
     0
100
AcDbTrace
 10
7.654063
 20
-1.365087
 30
0.0
 11
7.669063
 21
-1.365087
 31
0.0
 12
7.661563
 22
-1.410087
 32
0.0
 13
7.661563
 23
-1.410087
 33
0.0
  0
SOLID
  5
1C2A
330
1A59
100
AcDbEntity
  8
Level 55
  6
Continuous
 62
     0
370
     0
100
AcDbTrace
 10
7.654063
 20
-1.493088
 30
0.0
 11
7.669063
 21
-1.493088
 31
0.0
 12
7.661563
 22
-1.448088
 32
0.0
 13
7.661563
 23
-1.448088
 33
0.0
  0
MTEXT
  5
1C2B
330
1A59
100
AcDbEntity
  8
Level 55
  6
Continuous
 62
     0
370
     0
100
AcDbMText
 10
7.546124
 20
-1.69769
 30
0.0
 40
0.03
 41
0.0
 46
0.0
 71
     5
 72
     1
  1
\H1x;\W0.916667;.038\P [.97]\H1x;\W0.916667;
  7
Style-WORKING
 73
     1
 44
1.0
  0
POINT
  5
1C2C
330
1A59
100
AcDbEntity
  8
Defpoints
  6
Continuous
 62
     0
370
     0
100
AcDbPoint
 10
7.369194
 20
-1.448088
 30
0.0
  0
POINT
  5
1C2D
330
1A59
100
AcDbEntity
  8
Defpoints
  6
Continuous
 62
     0
370
     0
100
AcDbPoint
 10
7.128404
 20
-1.410087
 30
0.0
  0
POINT
  5
1C2E
330
1A59
100
AcDbEntity
  8
Defpoints
  6
Continuous
 62
     0
370
     0
100
AcDbPoint
 10
7.661563
 20
-1.410087
 30
0.0
  0
ENDBLK
  5
1A64
330
1A59
100
AcDbEntity
  8
0
 62
     7
370
     0
100
AcDbBlockEnd
  0
BLOCK
  5
1A7E
330
1A74
100
AcDbEntity
  8
0
 62
     7
370
     0
100
AcDbBlockBegin
  2
*D27
 70
     1
 10
0.0
 20
0.0
 30
0.0
  3
*D27
  1

  0
LINE
  5
248A
330
1A74
100
AcDbEntity
  8
Level 1
  6
Continuous
 62
     0
370
    -2
100
AcDbLine
 10
7.310654
 20
-1.370313
 30
0.0
 11
7.310654
 21
-1.25943
 31
0.0
  0
LINE
  5
248B
330
1A74
100
AcDbEntity
  8
Level 1
  6
Continuous
 62
     0
370
    -2
100
AcDbLine
 10
7.128404
 20
-1.392087
 30
0.0
 11
7.128404
 21
-1.25943
 31
0.0
  0
LINE
  5
248C
330
1A74
100
AcDbEntity
  8
Level 1
  6
Continuous
 62
     0
370
    -2
100
AcDbLine
 10
7.355654
 20
-1.27443
 30
0.0
 11
7.400654
 21
-1.27443
 31
0.0
  0
LINE
  5
248D
330
1A74
100
AcDbEntity
  8
Level 1
  6
Continuous
 62
     0
370
    -2
100
AcDbLine
 10
7.083404
 20
-1.27443
 30
0.0
 11
7.038404
 21
-1.27443
 31
0.0
  0
SOLID
  5
248E
330
1A74
100
AcDbEntity
  8
Level 1
  6
Continuous
 62
     0
370
     0
100
AcDbTrace
 10
7.355654
 20
-1.26693
 30
0.0
 11
7.355654
 21
-1.28193
 31
0.0
 12
7.310654
 22
-1.27443
 32
0.0
 13
7.310654
 23
-1.27443
 33
0.0
  0
SOLID
  5
248F
330
1A74
100
AcDbEntity
  8
Level 1
  6
Continuous
 62
     0
370
     0
100
AcDbTrace
 10
7.083404
 20
-1.26693
 30
0.0
 11
7.083404
 21
-1.28193
 31
0.0
 12
7.128404
 22
-1.27443
 32
0.0
 13
7.128404
 23
-1.27443
 33
0.0
  0
MTEXT
  5
2490
330
1A74
100
AcDbEntity
  8
Level 1
  6
Continuous
 62
     0
370
     0
100
AcDbMText
 10
7.214059
 20
-1.27443
 30
0.0
 40
0.03
 41
0.0
 46
0.0
 71
     5
 72
     1
  1
.183
  7
Style-WORKING
 73
     1
 44
1.0
  0
POINT
  5
2491
330
1A74
100
AcDbEntity
  8
Defpoints
  6
Continuous
 62
     0
370
     0
100
AcDbPoint
 10
7.310654
 20
-1.388313
 30
0.0
  0
POINT
  5
2492
330
1A74
100
AcDbEntity
  8
Defpoints
  6
Continuous
 62
     0
370
     0
100
AcDbPoint
 10
7.128404
 20
-1.410087
 30
0.0
  0
POINT
  5
2493
330
1A74
100
AcDbEntity
  8
Defpoints
  6
Continuous
 62
     0
370
     0
100
AcDbPoint
 10
7.128404
 20
-1.27443
 30
0.0
  0
ENDBLK
  5
1A7F
330
1A74
100
AcDbEntity
  8
0
 62
     7
370
     0
100
AcDbBlockEnd
  0
BLOCK
  5
1C43
330
1C39
100
AcDbEntity
  8
0
 62
     7
370
     0
100
AcDbBlockBegin
  2
*D28
 70
     1
 10
0.0
 20
0.0
 30
0.0
  3
*D28
  1

  0
LINE
  5
1E0A
330
1C39
100
AcDbEntity
  8
Level 55
  6
Continuous
 62
     0
370
    -2
100
AcDbLine
 10
7.146404
 20
-1.410087
 30
0.0
 11
7.704355
 21
-1.410087
 31
0.0
  0
LINE
  5
1E0B
330
1C39
100
AcDbEntity
  8
Level 55
  6
Continuous
 62
     0
370
    -2
100
AcDbLine
 10
7.121404
 20
-1.485088
 30
0.0
 11
7.704355
 21
-1.485088
 31
0.0
  0
LINE
  5
1E0C
330
1C39
100
AcDbEntity
  8
Level 55
  6
Continuous
 62
     0
370
    -2
100
AcDbLine
 10
7.689355
 20
-1.530088
 30
0.0
 11
7.689355
 21
-1.575088
 31
0.0
  0
LINE
  5
1E0D
330
1C39
100
AcDbEntity
  8
Level 55
  6
Continuous
 62
     0
370
    -2
100
AcDbLine
 10
7.689355
 20
-1.365087
 30
0.0
 11
7.689355
 21
-1.187035
 31
0.0
  0
LINE
  5
1E0E
330
1C39
100
AcDbEntity
  8
Level 55
  6
Continuous
 62
     0
370
    -2
100
AcDbLine
 10
7.689355
 20
-1.187035
 30
0.0
 11
7.734355
 21
-1.187035
 31
0.0
  0
SOLID
  5
1E0F
330
1C39
100
AcDbEntity
  8
Level 55
  6
Continuous
 62
     0
370
     0
100
AcDbTrace
 10
7.681855
 20
-1.530088
 30
0.0
 11
7.696855
 21
-1.530088
 31
0.0
 12
7.689355
 22
-1.485088
 32
0.0
 13
7.689355
 23
-1.485088
 33
0.0
  0
SOLID
  5
1E10
330
1C39
100
AcDbEntity
  8
Level 55
  6
Continuous
 62
     0
370
     0
100
AcDbTrace
 10
7.681855
 20
-1.365087
 30
0.0
 11
7.696855
 21
-1.365087
 31
0.0
 12
7.689355
 22
-1.410087
 32
0.0
 13
7.689355
 23
-1.410087
 33
0.0
  0
MTEXT
  5
1E11
330
1C39
100
AcDbEntity
  8
Level 55
  6
Continuous
 62
     0
370
     0
100
AcDbMText
 10
7.862631
 20
-1.187035
 30
0.0
 40
0.03
 41
0.0
 46
0.0
 71
     5
 72
     1
  1
\H1x;\W0.916667;.075\P [1.91] TYP\H1x;\W0.916667;
  7
Style-WORKING
 73
     1
 44
1.0
  0
POINT
  5
1E12
330
1C39
100
AcDbEntity
  8
Defpoints
  6
Continuous
 62
     0
370
     0
100
AcDbPoint
 10
7.128404
 20
-1.410087
 30
0.0
  0
POINT
  5
1E13
330
1C39
100
AcDbEntity
  8
Defpoints
  6
Continuous
 62
     0
370
     0
100
AcDbPoint
 10
7.103404
 20
-1.485088
 30
0.0
  0
POINT
  5
1E14
330
1C39
100
AcDbEntity
  8
Defpoints
  6
Continuous
 62
     0
370
     0
100
AcDbPoint
 10
7.689355
 20
-1.485088
 30
0.0
  0
ENDBLK
  5
1C44
330
1C39
100
AcDbEntity
  8
0
 62
     7
370
     0
100
AcDbBlockEnd
  0
BLOCK
  5
1C5E
330
1C54
100
AcDbEntity
  8
0
 62
     7
370
     0
100
AcDbBlockBegin
  2
*D29
 70
     1
 10
0.0
 20
0.0
 30
0.0
  3
*D29
  1

  0
LINE
  5
2494
330
1C54
100
AcDbEntity
  8
Level 55
  6
Continuous
 62
     0
370
    -2
100
AcDbLine
 10
7.387194
 20
-1.448088
 30
0.0
 11
7.721142
 21
-1.448088
 31
0.0
  0
LINE
  5
2495
330
1C54
100
AcDbEntity
  8
Level 55
  6
Continuous
 62
     0
370
    -2
100
AcDbLine
 10
7.146404
 20
-1.410087
 30
0.0
 11
7.721142
 21
-1.410087
 31
0.0
  0
LINE
  5
2496
330
1C54
100
AcDbEntity
  8
Level 55
  6
Continuous
 62
     0
370
    -2
100
AcDbLine
 10
7.706142
 20
-1.365087
 30
0.0
 11
7.706142
 21
-1.320087
 31
0.0
  0
LINE
  5
2497
330
1C54
100
AcDbEntity
  8
Level 55
  6
Continuous
 62
     0
370
    -2
100
AcDbLine
 10
7.706142
 20
-1.493088
 30
0.0
 11
7.706142
 21
-1.69769
 31
0.0
  0
LINE
  5
2498
330
1C54
100
AcDbEntity
  8
Level 55
  6
Continuous
 62
     0
370
    -2
100
AcDbLine
 10
7.706142
 20
-1.69769
 30
0.0
 11
7.661142
 21
-1.69769
 31
0.0
  0
SOLID
  5
2499
330
1C54
100
AcDbEntity
  8
Level 55
  6
Continuous
 62
     0
370
     0
100
AcDbTrace
 10
7.698642
 20
-1.365087
 30
0.0
 11
7.713642
 21
-1.365087
 31
0.0
 12
7.706142
 22
-1.410087
 32
0.0
 13
7.706142
 23
-1.410087
 33
0.0
  0
SOLID
  5
249A
330
1C54
100
AcDbEntity
  8
Level 55
  6
Continuous
 62
     0
370
     0
100
AcDbTrace
 10
7.698642
 20
-1.493088
 30
0.0
 11
7.713642
 21
-1.493088
 31
0.0
 12
7.706142
 22
-1.448088
 32
0.0
 13
7.706142
 23
-1.448088
 33
0.0
  0
MTEXT
  5
249B
330
1C54
100
AcDbEntity
  8
Level 55
  6
Continuous
 62
     0
370
     0
100
AcDbMText
 10
7.590703
 20
-1.69769
 30
0.0
 40
0.03
 41
0.0
 46
0.0
 71
     5
 72
     1
  1
\H1x;\W0.916667;.038\P [.97]\H1x;\W0.916667;
  7
Style-WORKING
 73
     1
 44
1.0
  0
POINT
  5
249C
330
1C54
100
AcDbEntity
  8
Defpoints
  6
Continuous
 62
     0
370
     0
100
AcDbPoint
 10
7.369194
 20
-1.448088
 30
0.0
  0
POINT
  5
249D
330
1C54
100
AcDbEntity
  8
Defpoints
  6
Continuous
 62
     0
370
     0
100
AcDbPoint
 10
7.128404
 20
-1.410087
 30
0.0
  0
POINT
  5
249E
330
1C54
100
AcDbEntity
  8
Defpoints
  6
Continuous
 62
     0
370
     0
100
AcDbPoint
 10
7.706142
 20
-1.410087
 30
0.0
  0
ENDBLK
  5
1C5F
330
1C54
100
AcDbEntity
  8
0
 62
     7
370
     0
100
AcDbBlockEnd
  0
BLOCK
  5
1E2A
330
1E20
100
AcDbEntity
  8
0
 62
     7
370
     0
100
AcDbBlockBegin
  2
*D30
 70
     1
 10
0.0
 20
0.0
 30
0.0
  3
*D30
  1

  0
LINE
  5
1FE2
330
1E20
100
AcDbEntity
  8
Level 55
  6
Continuous
 62
     0
370
    -2
100
AcDbLine
 10
7.146404
 20
-1.410087
 30
0.0
 11
7.381904
 21
-1.410087
 31
0.0
  0
LINE
  5
1FE3
330
1E20
100
AcDbEntity
  8
Level 55
  6
Continuous
 62
     0
370
    -2
100
AcDbLine
 10
7.121404
 20
-1.485088
 30
0.0
 11
7.381904
 21
-1.485088
 31
0.0
  0
LINE
  5
1FE4
330
1E20
100
AcDbEntity
  8
Level 55
  6
Continuous
 62
     0
370
    -2
100
AcDbLine
 10
7.366904
 20
-1.530088
 30
0.0
 11
7.366904
 21
-1.575088
 31
0.0
  0
LINE
  5
1FE5
330
1E20
100
AcDbEntity
  8
Level 55
  6
Continuous
 62
     0
370
    -2
100
AcDbLine
 10
7.366904
 20
-1.365087
 30
0.0
 11
7.366904
 21
-1.187035
 31
0.0
  0
LINE
  5
1FE6
330
1E20
100
AcDbEntity
  8
Level 55
  6
Continuous
 62
     0
370
    -2
100
AcDbLine
 10
7.366904
 20
-1.187035
 30
0.0
 11
7.411904
 21
-1.187035
 31
0.0
  0
SOLID
  5
1FE7
330
1E20
100
AcDbEntity
  8
Level 55
  6
Continuous
 62
     0
370
     0
100
AcDbTrace
 10
7.359404
 20
-1.530088
 30
0.0
 11
7.374404
 21
-1.530088
 31
0.0
 12
7.366904
 22
-1.485088
 32
0.0
 13
7.366904
 23
-1.485088
 33
0.0
  0
SOLID
  5
1FE8
330
1E20
100
AcDbEntity
  8
Level 55
  6
Continuous
 62
     0
370
     0
100
AcDbTrace
 10
7.359404
 20
-1.365087
 30
0.0
 11
7.374404
 21
-1.365087
 31
0.0
 12
7.366904
 22
-1.410087
 32
0.0
 13
7.366904
 23
-1.410087
 33
0.0
  0
MTEXT
  5
1FE9
330
1E20
100
AcDbEntity
  8
Level 55
  6
Continuous
 62
     0
370
     0
100
AcDbMText
 10
7.54018
 20
-1.187035
 30
0.0
 40
0.03
 41
0.0
 46
0.0
 71
     5
 72
     1
  1
\H1x;\W0.916667;.075\P [1.91] TYP\H1x;\W0.916667;
  7
Style-WORKING
 73
     1
 44
1.0
  0
POINT
  5
1FEA
330
1E20
100
AcDbEntity
  8
Defpoints
  6
Continuous
 62
     0
370
     0
100
AcDbPoint
 10
7.128404
 20
-1.410087
 30
0.0
  0
POINT
  5
1FEB
330
1E20
100
AcDbEntity
  8
Defpoints
  6
Continuous
 62
     0
370
     0
100
AcDbPoint
 10
7.103404
 20
-1.485088
 30
0.0
  0
POINT
  5
1FEC
330
1E20
100
AcDbEntity
  8
Defpoints
  6
Continuous
 62
     0
370
     0
100
AcDbPoint
 10
7.366904
 20
-1.485088
 30
0.0
  0
ENDBLK
  5
1E2B
330
1E20
100
AcDbEntity
  8
0
 62
     7
370
     0
100
AcDbBlockEnd
  0
BLOCK
  5
1FF7
330
1FED
100
AcDbEntity
  8
0
 62
     7
370
     0
100
AcDbBlockBegin
  2
*D31
 70
     1
 10
0.0
 20
0.0
 30
0.0
  3
*D31
  1

  0
LINE
  5
249F
330
1FED
100
AcDbEntity
  8
Level 55
  6
Continuous
 62
     0
370
    -2
100
AcDbLine
 10
7.146404
 20
-1.410087
 30
0.0
 11
7.411623
 21
-1.410087
 31
0.0
  0
LINE
  5
24A0
330
1FED
100
AcDbEntity
  8
Level 55
  6
Continuous
 62
     0
370
    -2
100
AcDbLine
 10
7.121404
 20
-1.485088
 30
0.0
 11
7.411623
 21
-1.485088
 31
0.0
  0
LINE
  5
24A1
330
1FED
100
AcDbEntity
  8
Level 55
  6
Continuous
 62
     0
370
    -2
100
AcDbLine
 10
7.396623
 20
-1.530088
 30
0.0
 11
7.396623
 21
-1.575088
 31
0.0
  0
LINE
  5
24A2
330
1FED
100
AcDbEntity
  8
Level 55
  6
Continuous
 62
     0
370
    -2
100
AcDbLine
 10
7.396623
 20
-1.365087
 30
0.0
 11
7.396623
 21
-1.187035
 31
0.0
  0
LINE
  5
24A3
330
1FED
100
AcDbEntity
  8
Level 55
  6
Continuous
 62
     0
370
    -2
100
AcDbLine
 10
7.396623
 20
-1.187035
 30
0.0
 11
7.441623
 21
-1.187035
 31
0.0
  0
SOLID
  5
24A4
330
1FED
100
AcDbEntity
  8
Level 55
  6
Continuous
 62
     0
370
     0
100
AcDbTrace
 10
7.389123
 20
-1.530088
 30
0.0
 11
7.404123
 21
-1.530088
 31
0.0
 12
7.396623
 22
-1.485088
 32
0.0
 13
7.396623
 23
-1.485088
 33
0.0
  0
SOLID
  5
24A5
330
1FED
100
AcDbEntity
  8
Level 55
  6
Continuous
 62
     0
370
     0
100
AcDbTrace
 10
7.389123
 20
-1.365087
 30
0.0
 11
7.404123
 21
-1.365087
 31
0.0
 12
7.396623
 22
-1.410087
 32
0.0
 13
7.396623
 23
-1.410087
 33
0.0
  0
MTEXT
  5
24A6
330
1FED
100
AcDbEntity
  8
Level 55
  6
Continuous
 62
     0
370
     0
100
AcDbMText
 10
7.569899
 20
-1.187035
 30
0.0
 40
0.03
 41
0.0
 46
0.0
 71
     5
 72
     1
  1
\H1x;\W0.916667;.075\P [1.91] TYP\H1x;\W0.916667;
  7
Style-WORKING
 73
     1
 44
1.0
  0
POINT
  5
24A7
330
1FED
100
AcDbEntity
  8
Defpoints
  6
Continuous
 62
     0
370
     0
100
AcDbPoint
 10
7.128404
 20
-1.410087
 30
0.0
  0
POINT
  5
24A8
330
1FED
100
AcDbEntity
  8
Defpoints
  6
Continuous
 62
     0
370
     0
100
AcDbPoint
 10
7.103404
 20
-1.485088
 30
0.0
  0
POINT
  5
24A9
330
1FED
100
AcDbEntity
  8
Defpoints
  6
Continuous
 62
     0
370
     0
100
AcDbPoint
 10
7.396623
 20
-1.485088
 30
0.0
  0
ENDBLK
  5
1FF8
330
1FED
100
AcDbEntity
  8
0
 62
     7
370
     0
100
AcDbBlockEnd
  0
ENDSEC
  0
SECTION
  2
ENTITIES
  0
LINE
  5
F3C
330
1191
100
AcDbEntity
  8
Level 1
  6
DGN Style 4
 62
     7
370
     0
100
AcDbLine
 10
6.195654
 20
-1.388313
 30
0.0
 11
6.195654
 21
-1.509269
 31
0.0
  0
CIRCLE
  5
F3D
330
1191
100
AcDbEntity
  8
Level 1
  6
Continuous
 62
     7
370
     0
100
AcDbCircle
 10
-6.195654
 20
-1.448088
 30
0.0
 40
0.04649999256
210
0.0
220
0.0
230
-1.0
  0
LINE
  5
F3E
330
1191
100
AcDbEntity
  8
Level 1
  6
DGN Style 4
 62
     7
370
     0
100
AcDbLine
 10
6.254193
 20
-1.448088
 30
0.0
 11
6.137426
 21
-1.448088
 31
0.0
  0
CIRCLE
  5
F3F
330
1191
100
AcDbEntity
  8
Level 1
  6
Continuous
 62
     7
370
     0
100
AcDbCircle
 10
-7.310655
 20
-1.448088
 30
0.0
 40
0.04649999256
210
0.0
220
0.0
230
-1.0
  0
LINE
  5
F40
330
1191
100
AcDbEntity
  8
Level 55
  6
DGN Style 4
 62
     7
370
     0
100
AcDbLine
 10
7.369194
 20
-1.448088
 30
0.0
 11
7.252426
 21
-1.448088
 31
0.0
  0
CIRCLE
  5
F41
330
1191
100
AcDbEntity
  8
Level 1
  6
Continuous
 62
     7
370
     0
100
AcDbCircle
 10
-6.378403
 20
-1.335089
 30
0.0
 40
0.0099999952
210
0.0
220
0.0
230
-1.0
  0
CIRCLE
  5
F42
330
1191
100
AcDbEntity
  8
Level 1
  6
Continuous
 62
     7
370
     0
100
AcDbCircle
 10
-6.478404
 20
-1.335087
 30
0.0
 40
0.0099999952
210
0.0
220
0.0
230
-1.0
  0
CIRCLE
  5
F43
330
1191
100
AcDbEntity
  8
Level 1
  6
Continuous
 62
     7
370
     0
100
AcDbCircle
 10
-6.578404
 20
-1.335087
 30
0.0
 40
0.0099999952
210
0.0
220
0.0
230
-1.0
  0
CIRCLE
  5
F44
330
1191
100
AcDbEntity
  8
Level 1
  6
Continuous
 62
     7
370
     0
100
AcDbCircle
 10
-6.678404
 20
-1.335087
 30
0.0
 40
0.0099999952
210
0.0
220
0.0
230
-1.0
  0
CIRCLE
  5
F45
330
1191
100
AcDbEntity
  8
Level 1
  6
Continuous
 62
     7
370
     0
100
AcDbCircle
 10
-6.778404
 20
-1.335087
 30
0.0
 40
0.0099999952
210
0.0
220
0.0
230
-1.0
  0
CIRCLE
  5
F46
330
1191
100
AcDbEntity
  8
Level 1
  6
Continuous
 62
     7
370
     0
100
AcDbCircle
 10
-6.878404
 20
-1.335087
 30
0.0
 40
0.0099999952
210
0.0
220
0.0
230
-1.0
  0
CIRCLE
  5
F47
330
1191
100
AcDbEntity
  8
Level 1
  6
Continuous
 62
     7
370
     0
100
AcDbCircle
 10
-6.978404
 20
-1.335087
 30
0.0
 40
0.0099999952
210
0.0
220
0.0
230
-1.0
  0
CIRCLE
  5
F48
330
1191
100
AcDbEntity
  8
Level 1
  6
Continuous
 62
     7
370
     0
100
AcDbCircle
 10
-7.078404
 20
-1.335087
 30
0.0
 40
0.0099999952
210
0.0
220
0.0
230
-1.0
  0
CIRCLE
  5
F49
330
1191
100
AcDbEntity
  8
Level 1
  6
Continuous
 62
     7
370
     0
100
AcDbCircle
 10
-7.128404
 20
-1.410087
 30
0.0
 40
0.0099999952
210
0.0
220
0.0
230
-1.0
  0
CIRCLE
  5
F4A
330
1191
100
AcDbEntity
  8
Level 1
  6
Continuous
 62
     7
370
     0
100
AcDbCircle
 10
-7.028404
 20
-1.410087
 30
0.0
 40
0.0099999952
210
0.0
220
0.0
230
-1.0
  0
CIRCLE
  5
F4B
330
1191
100
AcDbEntity
  8
Level 1
  6
Continuous
 62
     7
370
     0
100
AcDbCircle
 10
-6.928404
 20
-1.410087
 30
0.0
 40
0.0099999952
210
0.0
220
0.0
230
-1.0
  0
CIRCLE
  5
F4C
330
1191
100
AcDbEntity
  8
Level 1
  6
Continuous
 62
     7
370
     0
100
AcDbCircle
 10
-6.828404
 20
-1.410087
 30
0.0
 40
0.0099999952
210
0.0
220
0.0
230
-1.0
  0
CIRCLE
  5
F4D
330
1191
100
AcDbEntity
  8
Level 1
  6
Continuous
 62
     7
370
     0
100
AcDbCircle
 10
-6.728404
 20
-1.410087
 30
0.0
 40
0.0099999952
210
0.0
220
0.0
230
-1.0
  0
CIRCLE
  5
F4E
330
1191
100
AcDbEntity
  8
Level 1
  6
Continuous
 62
     7
370
     0
100
AcDbCircle
 10
-6.628404
 20
-1.410087
 30
0.0
 40
0.0099999952
210
0.0
220
0.0
230
-1.0
  0
CIRCLE
  5
F4F
330
1191
100
AcDbEntity
  8
Level 1
  6
Continuous
 62
     7
370
     0
100
AcDbCircle
 10
-6.528404
 20
-1.410087
 30
0.0
 40
0.0099999952
210
0.0
220
0.0
230
-1.0
  0
CIRCLE
  5
F50
330
1191
100
AcDbEntity
  8
Level 1
  6
Continuous
 62
     7
370
     0
100
AcDbCircle
 10
-6.428404
 20
-1.410087
 30
0.0
 40
0.0099999952
210
0.0
220
0.0
230
-1.0
  0
CIRCLE
  5
F51
330
1191
100
AcDbEntity
  8
Level 1
  6
Continuous
 62
     7
370
     0
100
AcDbCircle
 10
-6.403404
 20
-1.486088
 30
0.0
 40
0.0099999952
210
0.0
220
0.0
230
-1.0
  0
CIRCLE
  5
F52
330
1191
100
AcDbEntity
  8
Level 1
  6
Continuous
 62
     7
370
     0
100
AcDbCircle
 10
-6.503404
 20
-1.486088
 30
0.0
 40
0.0099999952
210
0.0
220
0.0
230
-1.0
  0
CIRCLE
  5
F53
330
1191
100
AcDbEntity
  8
Level 1
  6
Continuous
 62
     7
370
     0
100
AcDbCircle
 10
-6.603404
 20
-1.486088
 30
0.0
 40
0.0099999952
210
0.0
220
0.0
230
-1.0
  0
CIRCLE
  5
F54
330
1191
100
AcDbEntity
  8
Level 1
  6
Continuous
 62
     7
370
     0
100
AcDbCircle
 10
-6.703404
 20
-1.486088
 30
0.0
 40
0.0099999952
210
0.0
220
0.0
230
-1.0
  0
CIRCLE
  5
F55
330
1191
100
AcDbEntity
  8
Level 1
  6
Continuous
 62
     7
370
     0
100
AcDbCircle
 10
-6.803404
 20
-1.486088
 30
0.0
 40
0.0099999952
210
0.0
220
0.0
230
-1.0
  0
CIRCLE
  5
F56
330
1191
100
AcDbEntity
  8
Level 1
  6
Continuous
 62
     7
370
     0
100
AcDbCircle
 10
-6.903404
 20
-1.486088
 30
0.0
 40
0.0099999952
210
0.0
220
0.0
230
-1.0
  0
CIRCLE
  5
F57
330
1191
100
AcDbEntity
  8
Level 1
  6
Continuous
 62
     7
370
     0
100
AcDbCircle
 10
-7.003404
 20
-1.486088
 30
0.0
 40
0.0099999952
210
0.0
220
0.0
230
-1.0
  0
CIRCLE
  5
F58
330
1191
100
AcDbEntity
  8
Level 1
  6
Continuous
 62
     7
370
     0
100
AcDbCircle
 10
-7.103404
 20
-1.485088
 30
0.0
 40
0.0099999952
210
0.0
220
0.0
230
-1.0
  0
CIRCLE
  5
F59
330
1191
100
AcDbEntity
  8
Level 1
  6
Continuous
 62
     7
370
     0
100
AcDbCircle
 10
-7.053403
 20
-1.561088
 30
0.0
 40
0.0099999952
210
0.0
220
0.0
230
-1.0
  0
CIRCLE
  5
F5A
330
1191
100
AcDbEntity
  8
Level 1
  6
Continuous
 62
     7
370
     0
100
AcDbCircle
 10
-6.953404
 20
-1.561088
 30
0.0
 40
0.0099999952
210
0.0
220
0.0
230
-1.0
  0
CIRCLE
  5
F5B
330
1191
100
AcDbEntity
  8
Level 1
  6
Continuous
 62
     7
370
     0
100
AcDbCircle
 10
-6.853404
 20
-1.561088
 30
0.0
 40
0.0099999952
210
0.0
220
0.0
230
-1.0
  0
CIRCLE
  5
F5C
330
1191
100
AcDbEntity
  8
Level 1
  6
Continuous
 62
     7
370
     0
100
AcDbCircle
 10
-6.753404
 20
-1.561088
 30
0.0
 40
0.0099999952
210
0.0
220
0.0
230
-1.0
  0
CIRCLE
  5
F5D
330
1191
100
AcDbEntity
  8
Level 1
  6
Continuous
 62
     7
370
     0
100
AcDbCircle
 10
-6.653404
 20
-1.561088
 30
0.0
 40
0.0099999952
210
0.0
220
0.0
230
-1.0
  0
CIRCLE
  5
F5E
330
1191
100
AcDbEntity
  8
Level 1
  6
Continuous
 62
     7
370
     0
100
AcDbCircle
 10
-6.553404
 20
-1.561088
 30
0.0
 40
0.0099999952
210
0.0
220
0.0
230
-1.0
  0
CIRCLE
  5
F5F
330
1191
100
AcDbEntity
  8
Level 1
  6
Continuous
 62
     7
370
     0
100
AcDbCircle
 10
-6.453404
 20
-1.561088
 30
0.0
 40
0.0099999952
210
0.0
220
0.0
230
-1.0
  0
LINE
  5
1081
330
1191
100
AcDbEntity
  8
Level 55
  6
DGN Style 4
 62
     7
370
     0
100
AcDbLine
 10
7.310654
 20
-1.388313
 30
0.0
 11
7.310654
 21
-1.509269
 31
0.0
  0
TEXT
  5
FC3
330
1191
100
AcDbEntity
  8
Level 1
  6
Continuous
 62
     7
370
     0
100
AcDbText
 10
6.374728
 20
-1.381587
 30
0.0
 40
0.0275
  1
1
 41
0.818182
  7
Style-ANSI_SYMBOLS
 72
     1
 11
6.378299
 21
-1.367837
 31
0.0
100
AcDbText
 73
     2
  0
TEXT
  5
FC4
330
1191
100
AcDbEntity
  8
Level 1
  6
Continuous
 62
     7
370
     0
100
AcDbText
 10
6.420977
 20
-1.456203
 30
0.0
 40
0.0275
  1
2
 41
0.818182
  7
Style-ANSI_SYMBOLS
 72
     1
 11
6.428298
 21
-1.442453
 31
0.0
100
AcDbText
 73
     2
  0
TEXT
  5
FC5
330
1191
100
AcDbEntity
  8
Level 1
  6
Continuous
 62
     7
370
     0
100
AcDbText
 10
6.470977
 20
-1.381587
 30
0.0
 40
0.0275
  1
3
 41
0.818182
  7
Style-ANSI_SYMBOLS
 72
     1
 11
6.478298
 21
-1.367837
 31
0.0
100
AcDbText
 73
     2
  0
TEXT
  5
FC6
330
1191
100
AcDbEntity
  8
Level 1
  6
Continuous
 62
     7
370
     0
100
AcDbText
 10
6.520977
 20
-1.456203
 30
0.0
 40
0.0275
  1
4
 41
0.818182
  7
Style-ANSI_SYMBOLS
 72
     1
 11
6.528298
 21
-1.442453
 31
0.0
100
AcDbText
 73
     2
  0
TEXT
  5
FC7
330
1191
100
AcDbEntity
  8
Level 1
  6
Continuous
 62
     7
370
     0
100
AcDbText
 10
6.570977
 20
-1.381587
 30
0.0
 40
0.0275
  1
5
 41
0.818182
  7
Style-ANSI_SYMBOLS
 72
     1
 11
6.578298
 21
-1.367837
 31
0.0
100
AcDbText
 73
     2
  0
TEXT
  5
FC8
330
1191
100
AcDbEntity
  8
Level 1
  6
Continuous
 62
     7
370
     0
100
AcDbText
 10
6.620977
 20
-1.456203
 30
0.0
 40
0.0275
  1
6
 41
0.818182
  7
Style-ANSI_SYMBOLS
 72
     1
 11
6.628298
 21
-1.442453
 31
0.0
100
AcDbText
 73
     2
  0
TEXT
  5
FC9
330
1191
100
AcDbEntity
  8
Level 1
  6
Continuous
 62
     7
370
     0
100
AcDbText
 10
6.670977
 20
-1.381587
 30
0.0
 40
0.0275
  1
7
 41
0.818182
  7
Style-ANSI_SYMBOLS
 72
     1
 11
6.678298
 21
-1.367837
 31
0.0
100
AcDbText
 73
     2
  0
TEXT
  5
FCA
330
1191
100
AcDbEntity
  8
Level 1
  6
Continuous
 62
     7
370
     0
100
AcDbText
 10
6.720977
 20
-1.456203
 30
0.0
 40
0.0275
  1
8
 41
0.818182
  7
Style-ANSI_SYMBOLS
 72
     1
 11
6.728298
 21
-1.442453
 31
0.0
100
AcDbText
 73
     2
  0
TEXT
  5
FCB
330
1191
100
AcDbEntity
  8
Level 1
  6
Continuous
 62
     7
370
     0
100
AcDbText
 10
6.770977
 20
-1.381587
 30
0.0
 40
0.0275
  1
9
 41
0.818182
  7
Style-ANSI_SYMBOLS
 72
     1
 11
6.778298
 21
-1.367837
 31
0.0
100
AcDbText
 73
     2
  0
TEXT
  5
FCC
330
1191
100
AcDbEntity
  8
Level 1
  6
Continuous
 62
     7
370
     0
100
AcDbText
 10
6.809729
 20
-1.456203
 30
0.0
 40
0.0275
  1
10
 41
0.818182
  7
Style-ANSI_SYMBOLS
 72
     1
 11
6.8283
 21
-1.442453
 31
0.0
100
AcDbText
 73
     2
  0
TEXT
  5
FCD
330
1191
100
AcDbEntity
  8
Level 1
  6
Continuous
 62
     7
370
     0
100
AcDbText
 10
6.863477
 20
-1.381587
 30
0.0
 40
0.0275
  1
11
 41
0.818182
  7
Style-ANSI_SYMBOLS
 72
     1
 11
6.878298
 21
-1.367837
 31
0.0
100
AcDbText
 73
     2
  0
TEXT
  5
FCE
330
1191
100
AcDbEntity
  8
Level 1
  6
Continuous
 62
     7
370
     0
100
AcDbText
 10
6.909729
 20
-1.456203
 30
0.0
 40
0.0275
  1
12
 41
0.818182
  7
Style-ANSI_SYMBOLS
 72
     1
 11
6.9283
 21
-1.442453
 31
0.0
100
AcDbText
 73
     2
  0
TEXT
  5
FCF
330
1191
100
AcDbEntity
  8
Level 1
  6
Continuous
 62
     7
370
     0
100
AcDbText
 10
6.959729
 20
-1.381587
 30
0.0
 40
0.0275
  1
13
 41
0.818182
  7
Style-ANSI_SYMBOLS
 72
     1
 11
6.9783
 21
-1.367837
 31
0.0
100
AcDbText
 73
     2
  0
TEXT
  5
FD0
330
1191
100
AcDbEntity
  8
Level 1
  6
Continuous
 62
     7
370
     0
100
AcDbText
 10
7.009729
 20
-1.456203
 30
0.0
 40
0.0275
  1
14
 41
0.818182
  7
Style-ANSI_SYMBOLS
 72
     1
 11
7.0283
 21
-1.442453
 31
0.0
100
AcDbText
 73
     2
  0
TEXT
  5
FD1
330
1191
100
AcDbEntity
  8
Level 1
  6
Continuous
 62
     7
370
     0
100
AcDbText
 10
7.059729
 20
-1.381587
 30
0.0
 40
0.0275
  1
15
 41
0.818182
  7
Style-ANSI_SYMBOLS
 72
     1
 11
7.0783
 21
-1.367837
 31
0.0
100
AcDbText
 73
     2
  0
TEXT
  5
FD2
330
1191
100
AcDbEntity
  8
Level 1
  6
Continuous
 62
     7
370
     0
100
AcDbText
 10
7.109729
 20
-1.456203
 30
0.0
 40
0.0275
  1
16
 41
0.818182
  7
Style-ANSI_SYMBOLS
 72
     1
 11
7.1283
 21
-1.442453
 31
0.0
100
AcDbText
 73
     2
  0
TEXT
  5
FD3
330
1191
100
AcDbEntity
  8
Level 1
  6
Continuous
 62
     7
370
     0
100
AcDbText
 10
6.388058
 20
-1.531683
 30
0.0
 40
0.0275
  1
17
 41
0.818182
  7
Style-ANSI_SYMBOLS
 72
     1
 11
6.406629
 21
-1.517933
 31
0.0
100
AcDbText
 73
     2
  0
TEXT
  5
FD4
330
1191
100
AcDbEntity
  8
Level 1
  6
Continuous
 62
     7
370
     0
100
AcDbText
 10
6.433847
 20
-1.606683
 30
0.0
 40
0.0275
  1
18
 41
0.818182
  7
Style-ANSI_SYMBOLS
 72
     1
 11
6.452418
 21
-1.592933
 31
0.0
100
AcDbText
 73
     2
  0
TEXT
  5
FD5
330
1191
100
AcDbEntity
  8
Level 1
  6
Continuous
 62
     7
370
     0
100
AcDbText
 10
6.488058
 20
-1.531683
 30
0.0
 40
0.0275
  1
19
 41
0.818182
  7
Style-ANSI_SYMBOLS
 72
     1
 11
6.506629
 21
-1.517933
 31
0.0
100
AcDbText
 73
     2
  0
TEXT
  5
FD6
330
1191
100
AcDbEntity
  8
Level 1
  6
Continuous
 62
     7
370
     0
100
AcDbText
 10
6.533847
 20
-1.606683
 30
0.0
 40
0.0275
  1
20
 41
0.818182
  7
Style-ANSI_SYMBOLS
 72
     1
 11
6.552418
 21
-1.592933
 31
0.0
100
AcDbText
 73
     2
  0
TEXT
  5
FD7
330
1191
100
AcDbEntity
  8
Level 1
  6
Continuous
 62
     7
370
     0
100
AcDbText
 10
6.591806
 20
-1.531683
 30
0.0
 40
0.0275
  1
21
 41
0.818182
  7
Style-ANSI_SYMBOLS
 72
     1
 11
6.606627
 21
-1.517933
 31
0.0
100
AcDbText
 73
     2
  0
TEXT
  5
FD8
330
1191
100
AcDbEntity
  8
Level 1
  6
Continuous
 62
     7
370
     0
100
AcDbText
 10
6.633847
 20
-1.606683
 30
0.0
 40
0.0275
  1
22
 41
0.818182
  7
Style-ANSI_SYMBOLS
 72
     1
 11
6.652418
 21
-1.592933
 31
0.0
100
AcDbText
 73
     2
  0
TEXT
  5
FD9
330
1191
100
AcDbEntity
  8
Level 1
  6
Continuous
 62
     7
370
     0
100
AcDbText
 10
6.688058
 20
-1.531683
 30
0.0
 40
0.0275
  1
23
 41
0.818182
  7
Style-ANSI_SYMBOLS
 72
     1
 11
6.706629
 21
-1.517933
 31
0.0
100
AcDbText
 73
     2
  0
TEXT
  5
FDA
330
1191
100
AcDbEntity
  8
Level 1
  6
Continuous
 62
     7
370
     0
100
AcDbText
 10
6.733847
 20
-1.606683
 30
0.0
 40
0.0275
  1
24
 41
0.818182
  7
Style-ANSI_SYMBOLS
 72
     1
 11
6.752418
 21
-1.592933
 31
0.0
100
AcDbText
 73
     2
  0
TEXT
  5
FDB
330
1191
100
AcDbEntity
  8
Level 1
  6
Continuous
 62
     7
370
     0
100
AcDbText
 10
6.788058
 20
-1.531683
 30
0.0
 40
0.0275
  1
25
 41
0.818182
  7
Style-ANSI_SYMBOLS
 72
     1
 11
6.806629
 21
-1.517933
 31
0.0
100
AcDbText
 73
     2
  0
TEXT
  5
FDC
330
1191
100
AcDbEntity
  8
Level 1
  6
Continuous
 62
     7
370
     0
100
AcDbText
 10
6.833847
 20
-1.606683
 30
0.0
 40
0.0275
  1
26
 41
0.818182
  7
Style-ANSI_SYMBOLS
 72
     1
 11
6.852418
 21
-1.592933
 31
0.0
100
AcDbText
 73
     2
  0
TEXT
  5
FDD
330
1191
100
AcDbEntity
  8
Level 1
  6
Continuous
 62
     7
370
     0
100
AcDbText
 10
6.888058
 20
-1.531683
 30
0.0
 40
0.0275
  1
27
 41
0.818182
  7
Style-ANSI_SYMBOLS
 72
     1
 11
6.906629
 21
-1.517933
 31
0.0
100
AcDbText
 73
     2
  0
TEXT
  5
FDE
330
1191
100
AcDbEntity
  8
Level 1
  6
Continuous
 62
     7
370
     0
100
AcDbText
 10
6.933847
 20
-1.606683
 30
0.0
 40
0.0275
  1
28
 41
0.818182
  7
Style-ANSI_SYMBOLS
 72
     1
 11
6.952418
 21
-1.592933
 31
0.0
100
AcDbText
 73
     2
  0
TEXT
  5
FDF
330
1191
100
AcDbEntity
  8
Level 1
  6
Continuous
 62
     7
370
     0
100
AcDbText
 10
6.988058
 20
-1.531683
 30
0.0
 40
0.0275
  1
29
 41
0.818182
  7
Style-ANSI_SYMBOLS
 72
     1
 11
7.006629
 21
-1.517933
 31
0.0
100
AcDbText
 73
     2
  0
TEXT
  5
FE0
330
1191
100
AcDbEntity
  8
Level 1
  6
Continuous
 62
     7
370
     0
100
AcDbText
 10
7.033847
 20
-1.606683
 30
0.0
 40
0.0275
  1
30
 41
0.818182
  7
Style-ANSI_SYMBOLS
 72
     1
 11
7.052418
 21
-1.592933
 31
0.0
100
AcDbText
 73
     2
  0
TEXT
  5
FE1
330
1191
100
AcDbEntity
  8
Level 1
  6
Continuous
 62
     7
370
     0
100
AcDbText
 10
7.091806
 20
-1.531683
 30
0.0
 40
0.0275
  1
31
 41
0.818182
  7
Style-ANSI_SYMBOLS
 72
     1
 11
7.106627
 21
-1.517933
 31
0.0
100
AcDbText
 73
     2
  0
DIMENSION
  5
1155
330
1191
100
AcDbEntity
  8
Level 1
  6
Continuous
 62
     7
370
     0
100
AcDbDimension
  2
*D27
 10
7.128404
 20
-1.27443
 30
0.0
 11
7.214059
 21
-1.27443
 31
0.0
 70
   160
  1
.183
 71
     5
 42
0.18225
 73
     0
 74
     0
 75
     0
  3
Standard
100
AcDbAlignedDimension
 13
7.310654
 23
-1.388313
 33
0.0
 14
7.128404
 24
-1.410087
 34
0.0
 50
180.0
100
AcDbRotatedDimension
1001
ACAD
1000
DSTYLE
1002
{
1070
    78
1070
     7
1070
   288
1070
     0
1070
   284
1070
     7
1070
   140
1040
0.03
1070
   340
1005
1286
1070
    47
1040
0.0
1070
   283
1070
     0
1070
    48
1040
0.0
1070
   272
1070
     3
1070
     3
1000
\X
1070
   147
1040
0.009
1070
   276
1070
     2
1070
    42
1040
0.018
1070
    44
1040
0.015
1070
    43
1040
0.0
1070
   271
1070
     3
1070
   289
1070
     1
1070
    41
1040
0.045
1070
   285
1070
    15
1070
   286
1070
    15
1070
   170
1070
     1
1002
}
  0
DIMENSION
  5
1082
330
1191
100
AcDbEntity
  8
Level 55
  6
Continuous
 62
     7
370
     0
100
AcDbDimension
  2
*D5
 10
7.310654
 20
-1.196555
 30
0.0
 11
6.763754
 21
-1.196555
 31
0.0
 70
   160
  1
\H1x;\W0.916667;<>\H1x;\W0.916667;
 71
     5
 42
1.115
 73
     0
 74
     0
 75
     0
  3
Standard
100
AcDbAlignedDimension
 13
6.195654
 23
-1.388313
 33
0.0
 14
7.310654
 24
-1.388313
 34
0.0
100
AcDbRotatedDimension
1001
ACAD
1000
DSTYLE
1002
{
1070
    78
1070
     7
1070
   288
1070
     1
1070
   284
1070
     7
1070
   140
1040
0.03
1070
   340
1005
1286
1070
    47
1040
0.002
1070
   283
1070
     0
1070
    48
1040
0.002
1070
   272
1070
     3
1070
     3
1000
\X
1070
   147
1040
0.009
1070
   276
1070
     2
1070
    42
1040
0.018
1070
    44
1040
0.015
1070
    43
1040
0.0
1070
   271
1070
     3
1070
   289
1070
     1
1070
    41
1040
0.045
1070
   285
1070
    15
1070
   286
1070
    15
1070
   170
1070
     1
1002
}
  0
DIMENSION
  5
1156
330
1191
100
AcDbEntity
  8
Level 55
  6
Continuous
 62
     7
370
     0
100
AcDbDimension
  2
*D31
 10
7.396623
 20
-1.485088
 30
0.0
 11
7.569899
 21
-1.187035
 31
0.0
 70
   160
  1
\H1x;\W0.916667;<> TYP\H1x;\W0.916667;
 71
     5
 42
0.075001
 73
     0
 74
     0
 75
     0
  3
Standard
100
AcDbAlignedDimension
 13
7.128404
 23
-1.410087
 33
0.0
 14
7.103404
 24
-1.485088
 34
0.0
 50
270.0
100
AcDbRotatedDimension
1001
ACAD
1000
DSTYLE
1002
{
1070
    78
1070
     7
1070
   288
1070
     0
1070
   284
1070
     7
1070
   140
1040
0.03
1070
   340
1005
1286
1070
    47
1040
0.0
1070
   283
1070
     0
1070
    48
1040
0.0
1070
   272
1070
     3
1070
     3
1000
\X
1070
   147
1040
0.009
1070
   276
1070
     2
1070
    42
1040
0.018
1070
    44
1040
0.015
1070
    43
1040
0.0
1070
   271
1070
     3
1070
   289
1070
     1
1070
    41
1040
0.045
1070
   285
1070
    15
1070
   286
1070
    15
1070
   170
1070
     1
1002
}
  0
DIMENSION
  5
1085
330
1191
100
AcDbEntity
  8
Level 55
  6
Continuous
 62
     7
370
     0
100
AcDbDimension
  2
*D9
 10
7.102654
 20
-1.667901
 30
0.0
 11
7.288638
 21
-1.667901
 31
0.0
 70
   160
  1
\H1x;\W0.916667;<>\H1x;\W0.916667;
 71
     5
 42
0.025
 73
     0
 74
     0
 75
     0
  3
Standard
100
AcDbAlignedDimension
 13
7.127654
 23
-1.410088
 33
0.0
 14
7.102654
 24
-1.485088
 34
0.0
 50
180.0
100
AcDbRotatedDimension
1001
ACAD
1000
DSTYLE
1002
{
1070
    78
1070
     7
1070
   288
1070
     1
1070
   284
1070
     7
1070
   140
1040
0.03
1070
   340
1005
1286
1070
    47
1040
0.002
1070
   283
1070
     0
1070
    48
1040
0.002
1070
   272
1070
     3
1070
     3
1000
\X
1070
   147
1040
0.009
1070
   276
1070
     2
1070
    42
1040
0.018
1070
    44
1040
0.015
1070
    43
1040
0.0
1070
   271
1070
     3
1070
   289
1070
     1
1070
    41
1040
0.045
1070
   285
1070
    15
1070
   286
1070
    15
1070
   170
1070
     1
1002
}
  0
DIMENSION
  5
1084
330
1191
100
AcDbEntity
  8
Level 55
  6
Continuous
 62
     7
370
     0
100
AcDbDimension
  2
*D11
 10
7.077654
 20
-1.766268
 30
0.0
 11
6.878425
 21
-1.766268
 31
0.0
 70
   160
  1
\H1x;\W0.916667;<>\H1x;\W0.916667;
 71
     5
 42
0.05
 73
     0
 74
     0
 75
     0
  3
Standard
100
AcDbAlignedDimension
 13
7.127654
 23
-1.410088
 33
0.0
 14
7.077654
 24
-1.335088
 34
0.0
 50
180.0
100
AcDbRotatedDimension
1001
ACAD
1000
DSTYLE
1002
{
1070
    78
1070
     7
1070
   288
1070
     1
1070
   284
1070
     7
1070
   140
1040
0.03
1070
   340
1005
1286
1070
    47
1040
0.002
1070
   283
1070
     0
1070
    48
1040
0.002
1070
   272
1070
     3
1070
     3
1000
\X
1070
   147
1040
0.009
1070
   276
1070
     2
1070
    42
1040
0.018
1070
    44
1040
0.015
1070
    43
1040
0.0
1070
   271
1070
     3
1070
   289
1070
     1
1070
    41
1040
0.045
1070
   285
1070
    15
1070
   286
1070
    15
1070
   170
1070
     1
1002
}
  0
DIMENSION
  5
1083
330
1191
100
AcDbEntity
  8
Level 55
  6
Continuous
 62
     7
370
     0
100
AcDbDimension
  2
*D29
 10
7.706142
 20
-1.410087
 30
0.0
 11
7.590703
 21
-1.69769
 31
0.0
 70
   160
  1
\H1x;\W0.916667;<>\H1x;\W0.916667;
 71
     5
 42
0.038001
 73
     0
 74
     0
 75
     0
  3
Standard
100
AcDbAlignedDimension
 13
7.369194
 23
-1.448088
 33
0.0
 14
7.128404
 24
-1.410087
 34
0.0
 50
90.0
100
AcDbRotatedDimension
1001
ACAD
1000
DSTYLE
1002
{
1070
    78
1070
     7
1070
   288
1070
     0
1070
   284
1070
     7
1070
   140
1040
0.03
1070
   340
1005
1286
1070
    47
1040
0.0
1070
   283
1070
     0
1070
    48
1040
0.0
1070
   272
1070
     3
1070
     3
1000
\X
1070
   147
1040
0.009
1070
   276
1070
     2
1070
    42
1040
0.018
1070
    44
1040
0.015
1070
    43
1040
0.0
1070
   271
1070
     3
1070
   289
1070
     1
1070
    41
1040
0.045
1070
   285
1070
    15
1070
   286
1070
    15
1070
   170
1070
     1
1002
}
  0
DIMENSION
  5
1086
330
1191
100
AcDbEntity
  8
Level 55
  6
Continuous
 62
     7
370
     0
100
AcDbDimension
  2
*D15
 10
7.052654
 20
-1.868735
 30
0.0
 11
7.291878
 21
-1.868735
 31
0.0
 70
   160
  1
\H1x;\W0.916667;<>\H1x;\W0.916667;
 71
     5
 42
0.075
 73
     0
 74
     0
 75
     0
  3
Standard
100
AcDbAlignedDimension
 13
7.127654
 23
-1.410088
 33
0.0
 14
7.052654
 24
-1.560088
 34
0.0
 50
180.0
100
AcDbRotatedDimension
1001
ACAD
1000
DSTYLE
1002
{
1070
    78
1070
     7
1070
   288
1070
     1
1070
   284
1070
     7
1070
   140
1040
0.03
1070
   340
1005
1286
1070
    47
1040
0.002
1070
   283
1070
     0
1070
    48
1040
0.002
1070
   272
1070
     3
1070
     3
1000
\X
1070
   147
1040
0.009
1070
   276
1070
     2
1070
    42
1040
0.018
1070
    44
1040
0.015
1070
    43
1040
0.0
1070
   271
1070
     3
1070
   289
1070
     1
1070
    41
1040
0.045
1070
   285
1070
    15
1070
   286
1070
    15
1070
   170
1070
     1
1002
}
  0
DIMENSION
  5
1157
330
1191
100
AcDbEntity
  8
Level 55
  6
Continuous
 62
     7
370
     0
100
AcDbDimension
  2
*D17
 10
7.027654
 20
-1.971201
 30
0.0
 11
6.796065
 21
-1.971201
 31
0.0
 70
   160
  1
\H1x;\W0.916667;<> TYP\H1x;\W0.916667;
 71
     5
 42
0.1
 73
     0
 74
     0
 75
     0
  3
Standard
100
AcDbAlignedDimension
 13
7.127654
 23
-1.410088
 33
0.0
 14
7.027654
 24
-1.410088
 34
0.0
 50
180.0
100
AcDbRotatedDimension
1001
ACAD
1000
DSTYLE
1002
{
1070
    78
1070
     7
1070
   288
1070
     1
1070
   284
1070
     7
1070
   140
1040
0.03
1070
   340
1005
1286
1070
    47
1040
0.002
1070
   283
1070
     0
1070
    48
1040
0.002
1070
   272
1070
     3
1070
     3
1000
\X
1070
   147
1040
0.009
1070
   276
1070
     2
1070
    42
1040
0.018
1070
    44
1040
0.015
1070
    43
1040
0.0
1070
   271
1070
     3
1070
   289
1070
     1
1070
    41
1040
0.045
1070
   285
1070
    15
1070
   286
1070
    15
1070
   170
1070
     1
1002
}
  0
TEXT
  5
FC2
330
1191
100
AcDbEntity
  8
Level 1
  6
Continuous
 62
     7
370
     0
100
AcDbText
 10
6.656458
 20
-2.09634
 30
0.0
 40
0.03
  1
SIZE 31
 41
0.916667
  7
Style-ANSI_SYMBOLS
 72
     1
 11
6.743323
 21
-2.08134
 31
0.0
100
AcDbText
 73
     2
  0
LEADER
  5
1176
330
1191
100
AcDbEntity
  8
Level 55
  6
Continuous
 62
     7
370
     0
100
AcDbLeader
  3
Standard
 76
     3
 10
6.154775
 20
-1.418412
 30
0.0
 10
6.0591
 20
-1.342743
 30
0.0
 10
6.045212
 20
-1.342743
 30
0.0
1001
ACAD
1000
DSTYLE
1002
{
1070
   140
1040
0.03
1070
   340
1005
1286
1070
   147
1040
0.015
1070
    41
1040
0.045
1002
}
  0
TEXT
  5
1177
330
1191
100
AcDbEntity
  8
Level 1
  6
Continuous
 62
     7
370
     0
100
AcDbText
 10
5.751014
 20
-1.357743
 30
0.0
 40
0.03
  1
%%c.096 [2.44]
 41
0.916667
 72
     1
 11
5.881639
 21
-1.342743
 31
0.0
100
AcDbText
 73
     2
  0
INSERT
  5
6F0
330
1191
100
AcDbEntity
  8
0
  6
Continuous
 62
     7
370
     0
100
AcDbBlockReference
  2
umiborder
 10
0.0
 20
0.0
 30
0.0
  0
INSERT
  5
73A
330
1191
100
AcDbEntity
  8
0
  6
Continuous
 62
     7
370
     0
100
AcDbBlockReference
  2
Style 1  PCB layouts
 10
0.0
 20
0.0
 30
0.0
  0
MTEXT
  5
1D61
330
1191
100
AcDbEntity
  8
Level 1
  6
Continuous
 62
     7
370
     0
100
AcDbMText
 10
7.156806
 20
-1.319379
 30
0.0
 40
0.03
 41
0.0
 46
0.0
 71
     4
 72
     1
  1
\FWORKING;\H1x;\W0.916667;[4.63]
 73
     2
 44
0.72
  0
VIEWPORT
  5
13B4
330
11A4
100
AcDbEntity
 67
     1
  8
0
  6
Continuous
 62
     7
370
     0
100
AcDbViewport
 10
5.250184
 20
4.000122
 30
0.0
 40
8.400879
 41
6.40091
 68
     0
 69
     2
 12
5.250184
 22
4.000122
 13
0.0
 23
0.0
 14
0.0
 24
0.0
 15
3.937008
 25
3.937008
 16
0.0
 26
0.0
 36
1.0
 17
0.0
 27
0.0
 37
0.0
 42
50.0
 43
0.0
 44
0.0
 45
6.40091
 50
0.0
 51
0.0
 72
   100
 90
    32768
  1

281
     0
 71
     1
 74
     1
110
0.0
120
0.0
130
0.0
111
1.0
121
0.0
131
0.0
112
0.0
122
1.0
132
0.0
 79
     0
146
0.0
170
     0
 61
    10
348
11B8
292
     1
282
     1
141
0.0
142
0.0
 63
   250
421
  3355443
  0
VIEWPORT
  5
1592
330
11A4
100
AcDbEntity
 67
     1
  8
0
 62
     7
370
     0
100
AcDbViewport
 10
5.250184
 20
4.000122
 30
0.0
 40
8.400879
 41
6.40091
 68
    -1
 69
     1
 12
5.250184
 22
4.000122
 13
0.0
 23
0.0
 14
0.0
 24
0.0
 15
0.0
 25
0.0
 16
0.0
 26
0.0
 36
1.0
 17
0.0
 27
0.0
 37
0.0
 42
50.0
 43
0.0
 44
0.0
 45
6.40091
 50
0.0
 51
0.0
 72
   100
 90
    32768
  1

281
     0
 71
     1
 74
     1
110
0.0
120
0.0
130
0.0
111
1.0
121
0.0
131
0.0
112
0.0
122
1.0
132
0.0
 79
     0
146
0.0
170
     0
 61
     5
292
     1
282
     1
141
0.0
142
0.0
 63
   250
421
  3355443
  0
ENDSEC
  0
SECTION
  2
OBJECTS
  0
DICTIONARY
  5
1196
330
0
100
AcDbDictionary
281
     1
  3
ACAD_COLOR
350
11D2
  3
ACAD_GROUP
350
11BF
  3
ACAD_LAYOUT
350
11A3
  3
ACAD_MATERIAL
350
1198
  3
ACAD_MLEADERSTYLE
350
11D5
  3
ACAD_MLINESTYLE
350
11C0
  3
ACAD_PLOTSETTINGS
350
11C1
  3
ACAD_PLOTSTYLENAME
350
1195
  3
ACAD_SCALELIST
350
11D3
  3
ACAD_TABLESTYLE
350
11D4
  3
ACAD_VISUALSTYLE
350
11B9
  3
AcadDim
350
1287
  3
ACDB_RECOMPOSE_DATA
350
24AB
  3
AcDbVariableDictionary
350
1379
  3
MicroStation
350
1490
  0
DICTIONARY
  5
11AC
330
11AB
100
AcDbDictionary
280
     1
281
     1
  3
ACAD_LAYERFILTERS
360
1281
  3
ACAD_LAYERSTATES
360
11AD
  0
DICTIONARY
  5
1282
330
110
100
AcDbDictionary
280
     1
281
     1
  3
ADSK_XREC_VTRVIEWINFO
360
1283
  0
DICTIONARY
  5
1284
330
112
100
AcDbDictionary
280
     1
281
     1
  3
ADSK_XREC_VTRVIEWINFO
360
1285
  0
DICTIONARY
  5
1376
330
1191
100
AcDbDictionary
280
     1
281
     1
  3
ACAD_SORTENTS
360
1377
  0
DICTIONARY
  5
171D
330
11A4
100
AcDbDictionary
280
     1
281
     1
  3
ACAD_SORTENTS
360
171E
  0
DICTIONARY
  5
11D2
102
{ACAD_REACTORS
330
1196
102
}
330
1196
100
AcDbDictionary
281
     1
  0
DICTIONARY
  5
11BF
102
{ACAD_REACTORS
330
1196
102
}
330
1196
100
AcDbDictionary
281
     1
  0
DICTIONARY
  5
11A3
102
{ACAD_REACTORS
330
1196
102
}
330
1196
100
AcDbDictionary
281
     1
  3
Layout1
350
11A7
  3
Model
350
11A2
  0
DICTIONARY
  5
1198
102
{ACAD_REACTORS
330
1196
102
}
330
1196
100
AcDbDictionary
281
     1
  3
ByBlock
350
11CA
  3
ByLayer
350
11C2
  3
Global
350
1197
  0
DICTIONARY
  5
11D5
102
{ACAD_REACTORS
330
1196
102
}
330
1196
100
AcDbDictionary
281
     1
  3
Standard
350
139E
  0
DICTIONARY
  5
11C0
102
{ACAD_REACTORS
330
1196
102
}
330
1196
100
AcDbDictionary
281
     1
  3
Standard
350
11D6
  0
DICTIONARY
  5
11C1
102
{ACAD_REACTORS
330
1196
102
}
330
1196
100
AcDbDictionary
281
     1
  0
ACDBDICTIONARYWDFLT
  5
1195
102
{ACAD_REACTORS
330
1196
102
}
330
1196
100
AcDbDictionary
281
     1
  3
Normal
350
1194
100
AcDbDictionaryWithDefault
340
1194
  0
DICTIONARY
  5
11D3
102
{ACAD_REACTORS
330
1196
102
}
330
1196
100
AcDbDictionary
281
     1
  3
A0
350
11DA
  3
A1
350
11DB
  3
A2
350
11DC
  3
A3
350
11DD
  3
A4
350
11DE
  3
A5
350
11DF
  3
A6
350
11E0
  3
A7
350
11E1
  3
A8
350
11E2
  3
A9
350
11E3
  3
B0
350
11E4
  3
B1
350
11E5
  3
B2
350
11E6
  3
B3
350
11E7
  3
B4
350
11E8
  3
B5
350
11E9
  3
B6
350
11EA
  3
B7
350
11EB
  3
B8
350
11EC
  3
B9
350
11ED
  3
C0
350
11EE
  3
C1
350
11EF
  3
C2
350
11F0
  3
C3
350
11F1
  3
C4
350
11F2
  3
C5
350
11F3
  3
C6
350
11F4
  3
C7
350
11F5
  3
C8
350
11F6
  3
C9
350
11F7
  3
D0
350
11F8
  3
D1
350
11F9
  3
D2
350
11FA
  0
DICTIONARY
  5
11D4
102
{ACAD_REACTORS
330
1196
102
}
330
1196
100
AcDbDictionary
281
     1
  3
Standard
350
11D7
  0
DICTIONARY
  5
11B9
102
{ACAD_REACTORS
330
1196
102
}
330
1196
100
AcDbDictionary
281
     1
  3
2dWireframe
350
11B8
  3
3D Hidden
350
1393
  3
3dWireframe
350
11D9
  3
Basic
350
1392
  3
Brighten
350
1396
  3
ColorChange
350
139A
  3
Conceptual
350
1394
  3
Dim
350
1395
  3
EdgeColorOff
350
139D
  3
Facepattern
350
1399
  3
Flat
350
138E
  3
FlatWithEdges
350
138F
  3
Gouraud
350
1390
  3
GouraudWithEdges
350
1391
  3
JitterOff
350
139B
  3
Linepattern
350
1398
  3
OverhangOff
350
139C
  3
Realistic
350
11D8
  3
Thicken
350
1397
  0
XRECORD
  5
1287
102
{ACAD_REACTORS
330
1196
102
}
330
1196
100
AcDbXrecord
280
     1
 90
   990106
  3
 
 60
     0
 61
     0
 62
     1
 63
     1
 64
     0
 65
     0
 66
     0
 67
     3
 68
     1
 69
     1
 70
     0
 71
     0
 72
     0
 40
0.0
170
     0
  0
XRECORD
  5
24AB
102
{ACAD_REACTORS
330
1196
102
}
330
1196
100
AcDbXrecord
280
     1
 90
        1
330
11D7
  0
DICTIONARY
  5
1379
102
{ACAD_REACTORS
330
1196
102
}
330
1196
100
AcDbDictionary
281
     1
  3
CANNOSCALE
350
137D
  3
CMLEADERSTYLE
350
137B
  3
CTABLESTYLE
350
137A
  3
LAYEREVAL
350
137F
  3
LAYERNOTIFY
350
1380
  3
LIGHTINGUNITS
350
137E
  3
MSLTSCALE
350
137C
  0
DICTIONARY
  5
1490
102
{ACAD_REACTORS
330
1196
102
}
330
1196
100
AcDbDictionary
281
     1
  0
DICTIONARY
  5
1281
102
{ACAD_REACTORS
330
11AC
102
}
330
11AC
100
AcDbDictionary
281
     1
  0
DICTIONARY
  5
11AD
102
{ACAD_REACTORS
330
11AC
102
}
330
11AC
100
AcDbDictionary
281
     1
  0
XRECORD
  5
1283
102
{ACAD_REACTORS
330
1282
102
}
330
1282
100
AcDbXrecord
280
     1
290
     0
292
     0
330
11A2
294
     0
  0
XRECORD
  5
1285
102
{ACAD_REACTORS
330
1284
102
}
330
1284
100
AcDbXrecord
280
     1
290
     0
292
     0
330
11A2
294
     0
  0
SORTENTSTABLE
  5
1377
102
{ACAD_REACTORS
330
1376
102
}
330
1376
100
AcDbSortentsTable
330
1191
331
FDD
  5
FDD
331
F3C
  5
F3C
331
FD1
  5
FD1
331
1083
  5
1086
331
F55
  5
F55
331
F45
  5
F45
331
FCA
  5
FCA
331
F4E
  5
F4E
331
F5A
  5
F5A
331
1085
  5
1084
331
FDF
  5
FDF
331
F3E
  5
F3E
331
FD3
  5
FD3
331
F57
  5
F57
331
FC3
  5
FC3
331
F47
  5
F47
331
1156
  5
1083
331
FCC
  5
FCC
331
6F0
  5
6F0
331
FD8
  5
FD8
331
F50
  5
F50
331
1177
  5
1177
331
F5C
  5
F5C
331
FE1
  5
FE1
331
F40
  5
F40
331
FD5
  5
FD5
331
FC5
  5
FC5
331
F49
  5
F49
331
73A
  5
73A
331
FCE
  5
FCE
331
FDA
  5
FDA
331
F52
  5
F52
331
F5E
  5
F5E
331
F42
  5
F42
331
FD7
  5
FD7
331
FC7
  5
FC7
331
F4B
  5
F4B
331
1082
  5
1082
331
FD0
  5
FD0
331
FDC
  5
FDC
331
F54
  5
F54
331
F44
  5
F44
331
FC9
  5
FC9
331
F59
  5
F59
331
F4D
  5
F4D
331
F3D
  5
F3D
331
1084
  5
1085
331
FD2
  5
FD2
331
FDE
  5
FDE
331
F56
  5
F56
331
FC2
  5
1157
331
F46
  5
F46
331
1155
  5
1081
331
FCB
  5
FCB
331
1176
  5
1176
331
F5B
  5
F5B
331
F4F
  5
F4F
331
F3F
  5
F3F
331
1086
  5
1155
331
FD4
  5
FD4
331
FE0
  5
FE0
331
FC4
  5
FC4
331
F48
  5
F48
331
1157
  5
1156
331
1D61
  5
1D61
331
FD9
  5
FD9
331
FCD
  5
FCD
331
F5D
  5
F5D
331
F51
  5
F51
331
F41
  5
F41
331
FD6
  5
FD6
331
FC6
  5
FC6
331
F4A
  5
F4A
331
FDB
  5
FDB
331
FCF
  5
FCF
331
1081
  5
FC2
331
F5F
  5
F5F
331
F53
  5
F53
331
F43
  5
F43
331
FC8
  5
FC8
331
F4C
  5
F4C
331
F58
  5
F58
  0
SORTENTSTABLE
  5
171E
102
{ACAD_REACTORS
330
171D
102
}
330
171D
100
AcDbSortentsTable
330
11A4
331
1592
  5
1592
331
13B4
  5
13B4
  0
LAYOUT
  5
11A7
102
{ACAD_XDICTIONARY
360
11A8
102
}
102
{ACAD_REACTORS
330
11A3
102
}
330
11A3
100
AcDbPlotSettings
  1

  2
none_device
  4
Letter_(8.50_x_11.00_Inches)
  6

 40
6.35
 41
6.35
 42
6.350006
 43
6.350006
 44
215.899994
 45
279.399994
 46
0.0
 47
0.0
 48
0.0
 49
0.0
140
0.0
141
0.0
142
1.0
143
1.0
 70
   688
 72
     0
 73
     1
 74
     5
  7

 75
    16
147
1.0
 76
     0
 77
     2
 78
   300
148
0.0
149
0.0
100
AcDbLayout
  1
Layout1
 70
     1
 71
     1
 10
-0.25
 20
-0.25
 11
10.75
 21
8.25
 12
0.0
 22
0.0
 32
0.0
 14
1.049744
 24
0.799667
 34
-0.001526
 15
9.450623
 25
7.200577
 35
0.0
146
0.0
 13
0.0
 23
0.0
 33
0.0
 16
1.0
 26
0.0
 36
0.0
 17
0.0
 27
1.0
 37
0.0
 76
     0
330
11A4
1001
ACAD_PSEXT
1000
None
1000
None
1000
Not applicable
1000
The layout will not be plotted unless a new plotter configuration name is selected.
1070
     0
  0
LAYOUT
  5
11A2
102
{ACAD_REACTORS
330
11A3
102
}
330
11A3
100
AcDbPlotSettings
  1

  2
none_device
  4
ANSI_A_(8.50_x_11.00_Inches)
  6

 40
6.35
 41
19.049999
 42
6.350006
 43
19.049988
 44
215.899994
 45
279.399994
 46
0.0
 47
0.0
 48
0.0
 49
0.0
140
0.0
141
0.0
142
1.0
143
2.584895
 70
 11952
 72
     0
 73
     1
 74
     0
  7

 75
     0
147
0.386863
 76
     0
 77
     2
 78
   300
148
0.0
149
0.0
100
AcDbLayout
  1
Model
 70
     1
 71
     0
 10
0.0
 20
0.0
 11
12.0
 21
9.0
 12
0.0
 22
0.0
 32
0.0
 14
0.0
 24
0.0
 34
0.0
 15
0.0
 25
0.0
 35
0.0
146
0.0
 13
0.0
 23
0.0
 33
0.0
 16
1.0
 26
0.0
 36
0.0
 17
0.0
 27
1.0
 37
0.0
 76
     0
330
1191
  0
MATERIAL
  5
11CA
102
{ACAD_XDICTIONARY
360
11CB
102
}
102
{ACAD_REACTORS
330
1198
102
}
330
1198
100
AcDbMaterial
  1
ByBlock
 72
     0
 43
0.020833
 43
0.0
 43
0.0
 43
0.0
 43
0.0
 43
0.020833
 43
0.0
 43
0.0
 43
0.0
 43
0.0
 43
1.0
 43
0.0
 43
0.0
 43
0.0
 43
0.0
 43
1.0
 77
     0
 47
0.020833
 47
0.0
 47
0.0
 47
0.0
 47
0.0
 47
0.020833
 47
0.0
 47
0.0
 47
0.0
 47
0.0
 47
1.0
 47
0.0
 47
0.0
 47
0.0
 47
0.0
 47
1.0
171
     0
 49
0.020833
 49
0.0
 49
0.0
 49
0.0
 49
0.0
 49
0.020833
 49
0.0
 49
0.0
 49
0.0
 49
0.0
 49
1.0
 49
0.0
 49
0.0
 49
0.0
 49
0.0
 49
1.0
175
     0
142
0.020833
142
0.0
142
0.0
142
0.0
142
0.0
142
0.020833
142
0.0
142
0.0
142
0.0
142
0.0
142
1.0
142
0.0
142
0.0
142
0.0
142
0.0
142
1.0
179
     0
144
0.020833
144
0.0
144
0.0
144
0.0
144
0.0
144
0.020833
144
0.0
144
0.0
144
0.0
144
0.0
144
1.0
144
0.0
144
0.0
144
0.0
144
0.0
144
1.0
147
0.020833
147
0.0
147
0.0
147
0.0
147
0.0
147
0.020833
147
0.0
147
0.0
147
0.0
147
0.0
147
1.0
147
0.0
147
0.0
147
0.0
147
0.0
147
1.0
  0
MATERIAL
  5
11C2
102
{ACAD_XDICTIONARY
360
11C3
102
}
102
{ACAD_REACTORS
330
1198
102
}
330
1198
100
AcDbMaterial
  1
ByLayer
 72
     0
 43
0.020833
 43
0.0
 43
0.0
 43
0.0
 43
0.0
 43
0.020833
 43
0.0
 43
0.0
 43
0.0
 43
0.0
 43
1.0
 43
0.0
 43
0.0
 43
0.0
 43
0.0
 43
1.0
 77
     0
 47
0.020833
 47
0.0
 47
0.0
 47
0.0
 47
0.0
 47
0.020833
 47
0.0
 47
0.0
 47
0.0
 47
0.0
 47
1.0
 47
0.0
 47
0.0
 47
0.0
 47
0.0
 47
1.0
171
     0
 49
0.020833
 49
0.0
 49
0.0
 49
0.0
 49
0.0
 49
0.020833
 49
0.0
 49
0.0
 49
0.0
 49
0.0
 49
1.0
 49
0.0
 49
0.0
 49
0.0
 49
0.0
 49
1.0
175
     0
142
0.020833
142
0.0
142
0.0
142
0.0
142
0.0
142
0.020833
142
0.0
142
0.0
142
0.0
142
0.0
142
1.0
142
0.0
142
0.0
142
0.0
142
0.0
142
1.0
179
     0
144
0.020833
144
0.0
144
0.0
144
0.0
144
0.0
144
0.020833
144
0.0
144
0.0
144
0.0
144
0.0
144
1.0
144
0.0
144
0.0
144
0.0
144
0.0
144
1.0
147
0.020833
147
0.0
147
0.0
147
0.0
147
0.0
147
0.020833
147
0.0
147
0.0
147
0.0
147
0.0
147
1.0
147
0.0
147
0.0
147
0.0
147
0.0
147
1.0
  0
MATERIAL
  5
1197
102
{ACAD_XDICTIONARY
360
1199
102
}
102
{ACAD_REACTORS
330
1198
102
}
330
1198
100
AcDbMaterial
  1
Global
 72
     0
 43
0.020833
 43
0.0
 43
0.0
 43
0.0
 43
0.0
 43
0.020833
 43
0.0
 43
0.0
 43
0.0
 43
0.0
 43
1.0
 43
0.0
 43
0.0
 43
0.0
 43
0.0
 43
1.0
 77
     0
 47
0.020833
 47
0.0
 47
0.0
 47
0.0
 47
0.0
 47
0.020833
 47
0.0
 47
0.0
 47
0.0
 47
0.0
 47
1.0
 47
0.0
 47
0.0
 47
0.0
 47
0.0
 47
1.0
171
     0
 49
0.020833
 49
0.0
 49
0.0
 49
0.0
 49
0.0
 49
0.020833
 49
0.0
 49
0.0
 49
0.0
 49
0.0
 49
1.0
 49
0.0
 49
0.0
 49
0.0
 49
0.0
 49
1.0
175
     0
142
0.020833
142
0.0
142
0.0
142
0.0
142
0.0
142
0.020833
142
0.0
142
0.0
142
0.0
142
0.0
142
1.0
142
0.0
142
0.0
142
0.0
142
0.0
142
1.0
179
     0
144
0.020833
144
0.0
144
0.0
144
0.0
144
0.0
144
0.020833
144
0.0
144
0.0
144
0.0
144
0.0
144
1.0
144
0.0
144
0.0
144
0.0
144
0.0
144
1.0
147
0.020833
147
0.0
147
0.0
147
0.0
147
0.0
147
0.020833
147
0.0
147
0.0
147
0.0
147
0.0
147
1.0
147
0.0
147
0.0
147
0.0
147
0.0
147
1.0
  0
MLEADERSTYLE
  5
139E
102
{ACAD_REACTORS
330
11D5
102
}
330
11D5
100
AcDbMLeaderStyle
170
     2
171
     1
172
     0
 90
        2
 40
0.0
 41
0.0
173
     1
 91
-1056964608
340
11B2
 92
       -2
290
     1
 42
0.09
291
     1
 43
0.36
  3
Standard
 44
0.18
300

342
11AF
174
     1
178
     6
175
     1
176
     0
 93
-1056964608
 45
0.18
292
     0
297
     0
 46
0.18
 94
-1056964608
 47
1.0
 49
1.0
140
1.0
293
     1
141
0.0
294
     1
177
     0
142
1.0
295
     0
296
     0
143
0.125
1001
ACAD_MLEADERVER
1070
     2
  0
MLINESTYLE
  5
11D6
102
{ACAD_REACTORS
330
11C0
102
}
330
11C0
100
AcDbMlineStyle
  2
STANDARD
 70
     0
  3

 62
   256
 51
90.0
 52
90.0
 71
     2
 49
0.5
 62
   256
  6
BYLAYER
 49
-0.5
 62
   256
  6
BYLAYER
  0
ACDBPLACEHOLDER
  5
1194
102
{ACAD_REACTORS
330
1195
102
}
330
1195
  0
SCALE
  5
11DA
102
{ACAD_REACTORS
330
11D3
102
}
330
11D3
100
AcDbScale
 70
     0
300
1:1
140
1.0
141
1.0
290
     1
  0
SCALE
  5
11DB
102
{ACAD_REACTORS
330
11D3
102
}
330
11D3
100
AcDbScale
 70
     0
300
1:2
140
1.0
141
2.0
290
     0
  0
SCALE
  5
11DC
102
{ACAD_REACTORS
330
11D3
102
}
330
11D3
100
AcDbScale
 70
     0
300
1:4
140
1.0
141
4.0
290
     0
  0
SCALE
  5
11DD
102
{ACAD_REACTORS
330
11D3
102
}
330
11D3
100
AcDbScale
 70
     0
300
1:5
140
1.0
141
5.0
290
     0
  0
SCALE
  5
11DE
102
{ACAD_REACTORS
330
11D3
102
}
330
11D3
100
AcDbScale
 70
     0
300
1:8
140
1.0
141
8.0
290
     0
  0
SCALE
  5
11DF
102
{ACAD_REACTORS
330
11D3
102
}
330
11D3
100
AcDbScale
 70
     0
300
1:10
140
1.0
141
10.0
290
     0
  0
SCALE
  5
11E0
102
{ACAD_REACTORS
330
11D3
102
}
330
11D3
100
AcDbScale
 70
     0
300
1:16
140
1.0
141
16.0
290
     0
  0
SCALE
  5
11E1
102
{ACAD_REACTORS
330
11D3
102
}
330
11D3
100
AcDbScale
 70
     0
300
1:20
140
1.0
141
20.0
290
     0
  0
SCALE
  5
11E2
102
{ACAD_REACTORS
330
11D3
102
}
330
11D3
100
AcDbScale
 70
     0
300
1:30
140
1.0
141
30.0
290
     0
  0
SCALE
  5
11E3
102
{ACAD_REACTORS
330
11D3
102
}
330
11D3
100
AcDbScale
 70
     0
300
1:40
140
1.0
141
40.0
290
     0
  0
SCALE
  5
11E4
102
{ACAD_REACTORS
330
11D3
102
}
330
11D3
100
AcDbScale
 70
     0
300
1:50
140
1.0
141
50.0
290
     0
  0
SCALE
  5
11E5
102
{ACAD_REACTORS
330
11D3
102
}
330
11D3
100
AcDbScale
 70
     0
300
1:100
140
1.0
141
100.0
290
     0
  0
SCALE
  5
11E6
102
{ACAD_REACTORS
330
11D3
102
}
330
11D3
100
AcDbScale
 70
     0
300
2:1
140
2.0
141
1.0
290
     0
  0
SCALE
  5
11E7
102
{ACAD_REACTORS
330
11D3
102
}
330
11D3
100
AcDbScale
 70
     0
300
4:1
140
4.0
141
1.0
290
     0
  0
SCALE
  5
11E8
102
{ACAD_REACTORS
330
11D3
102
}
330
11D3
100
AcDbScale
 70
     0
300
8:1
140
8.0
141
1.0
290
     0
  0
SCALE
  5
11E9
102
{ACAD_REACTORS
330
11D3
102
}
330
11D3
100
AcDbScale
 70
     0
300
10:1
140
10.0
141
1.0
290
     0
  0
SCALE
  5
11EA
102
{ACAD_REACTORS
330
11D3
102
}
330
11D3
100
AcDbScale
 70
     0
300
100:1
140
100.0
141
1.0
290
     0
  0
SCALE
  5
11EB
102
{ACAD_REACTORS
330
11D3
102
}
330
11D3
100
AcDbScale
 70
     0
300
1/128" = 1'-0"
140
0.007813
141
12.0
290
     0
  0
SCALE
  5
11EC
102
{ACAD_REACTORS
330
11D3
102
}
330
11D3
100
AcDbScale
 70
     0
300
1/64" = 1'-0"
140
0.015625
141
12.0
290
     0
  0
SCALE
  5
11ED
102
{ACAD_REACTORS
330
11D3
102
}
330
11D3
100
AcDbScale
 70
     0
300
1/32" = 1'-0"
140
0.03125
141
12.0
290
     0
  0
SCALE
  5
11EE
102
{ACAD_REACTORS
330
11D3
102
}
330
11D3
100
AcDbScale
 70
     0
300
1/16" = 1'-0"
140
0.0625
141
12.0
290
     0
  0
SCALE
  5
11EF
102
{ACAD_REACTORS
330
11D3
102
}
330
11D3
100
AcDbScale
 70
     0
300
3/32" = 1'-0"
140
0.09375
141
12.0
290
     0
  0
SCALE
  5
11F0
102
{ACAD_REACTORS
330
11D3
102
}
330
11D3
100
AcDbScale
 70
     0
300
1/8" = 1'-0"
140
0.125
141
12.0
290
     0
  0
SCALE
  5
11F1
102
{ACAD_REACTORS
330
11D3
102
}
330
11D3
100
AcDbScale
 70
     0
300
3/16" = 1'-0"
140
0.1875
141
12.0
290
     0
  0
SCALE
  5
11F2
102
{ACAD_REACTORS
330
11D3
102
}
330
11D3
100
AcDbScale
 70
     0
300
1/4" = 1'-0"
140
0.25
141
12.0
290
     0
  0
SCALE
  5
11F3
102
{ACAD_REACTORS
330
11D3
102
}
330
11D3
100
AcDbScale
 70
     0
300
3/8" = 1'-0"
140
0.375
141
12.0
290
     0
  0
SCALE
  5
11F4
102
{ACAD_REACTORS
330
11D3
102
}
330
11D3
100
AcDbScale
 70
     0
300
1/2" = 1'-0"
140
0.5
141
12.0
290
     0
  0
SCALE
  5
11F5
102
{ACAD_REACTORS
330
11D3
102
}
330
11D3
100
AcDbScale
 70
     0
300
3/4" = 1'-0"
140
0.75
141
12.0
290
     0
  0
SCALE
  5
11F6
102
{ACAD_REACTORS
330
11D3
102
}
330
11D3
100
AcDbScale
 70
     0
300
1" = 1'-0"
140
1.0
141
12.0
290
     0
  0
SCALE
  5
11F7
102
{ACAD_REACTORS
330
11D3
102
}
330
11D3
100
AcDbScale
 70
     0
300
1-1/2" = 1'-0"
140
1.5
141
12.0
290
     0
  0
SCALE
  5
11F8
102
{ACAD_REACTORS
330
11D3
102
}
330
11D3
100
AcDbScale
 70
     0
300
3" = 1'-0"
140
3.0
141
12.0
290
     0
  0
SCALE
  5
11F9
102
{ACAD_REACTORS
330
11D3
102
}
330
11D3
100
AcDbScale
 70
     0
300
6" = 1'-0"
140
6.0
141
12.0
290
     0
  0
SCALE
  5
11FA
102
{ACAD_REACTORS
330
11D3
102
}
330
11D3
100
AcDbScale
 70
     0
300
1'-0" = 1'-0"
140
12.0
141
12.0
290
     0
  0
TABLESTYLE
  5
11D7
102
{ACAD_XDICTIONARY
360
1381
102
}
102
{ACAD_REACTORS
330
11D4
102
}
330
11D4
100
AcDbTableStyle
  3
Standard
 70
     0
 71
     0
 40
0.06
 41
0.06
280
     0
281
     0
  7
Standard
140
0.18
170
     2
 62
     0
 63
     7
283
     0
 90
        4
 91
        0
  1

274
    -2
284
     1
 64
     0
275
    -2
285
     1
 65
     0
276
    -2
286
     1
 66
     0
277
    -2
287
     1
 67
     0
278
    -2
288
     1
 68
     0
279
    -2
289
     1
 69
     0
  7
Standard
140
0.25
170
     5
 62
     0
 63
     7
283
     0
 90
        4
 91
        0
  1

274
    -2
284
     1
 64
     0
275
    -2
285
     1
 65
     0
276
    -2
286
     1
 66
     0
277
    -2
287
     1
 67
     0
278
    -2
288
     1
 68
     0
279
    -2
289
     1
 69
     0
  7
Standard
140
0.18
170
     5
 62
     0
 63
     7
283
     0
 90
        4
 91
        0
  1

274
    -2
284
     1
 64
     0
275
    -2
285
     1
 65
     0
276
    -2
286
     1
 66
     0
277
    -2
287
     1
 67
     0
278
    -2
288
     1
 68
     0
279
    -2
289
     1
 69
     0
  0
VISUALSTYLE
  5
11B8
102
{ACAD_XDICTIONARY
360
24AC
102
}
102
{ACAD_REACTORS
330
11B9
102
}
330
11B9
100
AcDbVisualStyle
  2

 70
     4
 71
     0
 72
     2
 73
     0
 90
        0
 40
-0.6
 41
-30.0
 62
     5
 63
     7
421
 16777215
 74
     1
 91
        4
 64
     7
 65
   257
 75
     1
175
     1
 42
1.0
 92
        0
 66
   257
 43
1.0
 76
     1
 77
     6
 78
     2
 67
     7
 79
     5
170
     0
171
     0
290
     0
174
     0
 93
        1
 44
0.0
173
     0
291
     0
 45
0.0
1001
ACAD
1000
AcDbSavedByObjectVersion
1070
     0
  0
VISUALSTYLE
  5
1393
102
{ACAD_XDICTIONARY
360
24BC
102
}
102
{ACAD_REACTORS
330
11B9
102
}
330
11B9
100
AcDbVisualStyle
  2

 70
     6
 71
     1
 72
     2
 73
     2
 90
        0
 40
-0.6
 41
-30.0
 62
     5
 63
     7
421
 16777215
 74
     2
 91
        2
 64
     7
 65
   257
 75
     2
175
     1
 42
179.0
 92
        0
 66
   257
 43
1.0
 76
     1
 77
     6
 78
     2
 67
     7
 79
     3
170
     0
171
     0
290
     0
174
     0
 93
        1
 44
0.0
173
     0
291
     0
 45
0.0
1001
ACAD
1000
AcDbSavedByObjectVersion
1070
     0
  0
VISUALSTYLE
  5
11D9
102
{ACAD_XDICTIONARY
360
24B0
102
}
102
{ACAD_REACTORS
330
11B9
102
}
330
11B9
100
AcDbVisualStyle
  2

 70
     5
 71
     0
 72
     2
 73
     0
 90
        0
 40
-0.6
 41
-30.0
 62
     5
 63
     7
421
 16777215
 74
     1
 91
        4
 64
     7
 65
   257
 75
     1
175
     1
 42
1.0
 92
        0
 66
   257
 43
1.0
 76
     1
 77
     6
 78
     2
 67
     7
 79
     5
170
     0
171
     0
290
     0
174
     0
 93
        1
 44
0.0
173
     0
291
     0
 45
0.0
1001
ACAD
1000
AcDbSavedByObjectVersion
1070
     0
  0
VISUALSTYLE
  5
1392
102
{ACAD_XDICTIONARY
360
24BA
102
}
102
{ACAD_REACTORS
330
11B9
102
}
330
11B9
100
AcDbVisualStyle
  2

 70
     7
 71
     1
 72
     0
 73
     1
 90
        0
 40
-0.6
 41
-30.0
 62
     5
 63
     7
421
 16777215
 74
     0
 91
        4
 64
     7
 65
   257
 75
     1
175
     1
 42
1.0
 92
        8
 66
     7
 43
1.0
 76
     1
 77
     6
 78
     2
 67
     7
 79
     5
170
     0
171
     0
290
     0
174
     0
 93
        1
 44
0.0
173
     0
291
     1
 45
0.0
1001
ACAD
1000
AcDbSavedByObjectVersion
1070
     0
  0
VISUALSTYLE
  5
1396
102
{ACAD_XDICTIONARY
360
24C2
102
}
102
{ACAD_REACTORS
330
11B9
102
}
330
11B9
100
AcDbVisualStyle
  2

 70
    12
 71
     2
 72
     2
 73
     0
 90
        0
 40
-0.6
 41
-30.0
 62
     5
 63
     7
421
 16777215
 74
     1
 91
        4
 64
     7
 65
   257
 75
     1
175
     1
 42
1.0
 92
        8
 66
     7
 43
1.0
 76
     1
 77
     6
 78
     2
 67
     7
 79
     5
170
     0
171
     0
290
     0
174
     0
 93
        1
 44
50.0
173
     0
291
     1
 45
0.0
1001
ACAD
1000
AcDbSavedByObjectVersion
1070
     0
  0
VISUALSTYLE
  5
139A
102
{ACAD_XDICTIONARY
360
24CA
102
}
102
{ACAD_REACTORS
330
11B9
102
}
330
11B9
100
AcDbVisualStyle
  2

 70
    16
 71
     2
 72
     2
 73
     3
 90
        0
 40
-0.6
 41
-30.0
 62
     5
 63
     8
421
  8421504
 74
     1
 91
        4
 64
     7
 65
   257
 75
     1
175
     1
 42
1.0
 92
        8
 66
     8
424
  8421504
 43
1.0
 76
     1
 77
     6
 78
     2
 67
     7
 79
     5
170
     0
171
     0
290
     0
174
     0
 93
        1
 44
0.0
173
     0
291
     1
 45
0.0
1001
ACAD
1000
AcDbSavedByObjectVersion
1070
     0
  0
VISUALSTYLE
  5
1394
102
{ACAD_XDICTIONARY
360
24BE
102
}
102
{ACAD_REACTORS
330
11B9
102
}
330
11B9
100
AcDbVisualStyle
  2

 70
     9
 71
     3
 72
     2
 73
     0
 90
        0
 40
-0.6
 41
-30.0
 62
     5
 63
     7
421
 16777215
 74
     2
 91
        2
 64
     7
 65
   257
 75
     1
175
     1
 42
179.0
 92
        8
 66
     7
 43
1.0
 76
     1
 77
     6
 78
     2
 67
     7
 79
     3
170
     0
171
     0
290
     0
174
     0
 93
        1
 44
0.0
173
     0
291
     0
 45
0.0
1001
ACAD
1000
AcDbSavedByObjectVersion
1070
     0
  0
VISUALSTYLE
  5
1395
102
{ACAD_XDICTIONARY
360
24C0
102
}
102
{ACAD_REACTORS
330
11B9
102
}
330
11B9
100
AcDbVisualStyle
  2

 70
    11
 71
     2
 72
     2
 73
     0
 90
        0
 40
-0.6
 41
-30.0
 62
     5
 63
     7
421
 16777215
 74
     1
 91
        4
 64
     7
 65
   257
 75
     1
175
     1
 42
1.0
 92
        8
 66
     7
 43
1.0
 76
     1
 77
     6
 78
     2
 67
     7
 79
     5
170
     0
171
     0
290
     0
174
     0
 93
        1
 44
-50.0
173
     0
291
     1
 45
0.0
1001
ACAD
1000
AcDbSavedByObjectVersion
1070
     0
  0
VISUALSTYLE
  5
139D
102
{ACAD_XDICTIONARY
360
24D0
102
}
102
{ACAD_REACTORS
330
11B9
102
}
330
11B9
100
AcDbVisualStyle
  2

 70
    22
 71
     2
 72
     2
 73
     0
 90
        0
 40
-0.6
 41
-30.0
 62
     5
 63
     7
421
 16777215
 74
     1
 91
        4
 64
     7
 65
   257
 75
     1
175
     1
 42
1.0
 92
        8
 66
     7
 43
1.0
 76
     1
 77
     6
 78
     2
 67
     7
 79
     5
170
     0
171
     0
290
     0
174
     0
 93
        1
 44
0.0
173
     0
291
     1
 45
0.0
1001
ACAD
1000
AcDbSavedByObjectVersion
1070
     0
  0
VISUALSTYLE
  5
1399
102
{ACAD_XDICTIONARY
360
24C8
102
}
102
{ACAD_REACTORS
330
11B9
102
}
330
11B9
100
AcDbVisualStyle
  2

 70
    15
 71
     2
 72
     2
 73
     0
 90
        0
 40
-0.6
 41
-30.0
 62
     5
 63
     7
421
 16777215
 74
     1
 91
        4
 64
     7
 65
   257
 75
     1
175
     1
 42
1.0
 92
        8
 66
     7
 43
1.0
 76
     1
 77
     6
 78
     2
 67
     7
 79
     5
170
     0
171
     0
290
     0
174
     0
 93
        1
 44
0.0
173
     0
291
     1
 45
0.0
1001
ACAD
1000
AcDbSavedByObjectVersion
1070
     0
  0
VISUALSTYLE
  5
138E
102
{ACAD_XDICTIONARY
360
24B2
102
}
102
{ACAD_REACTORS
330
11B9
102
}
330
11B9
100
AcDbVisualStyle
  2

 70
     0
 71
     2
 72
     1
 73
     1
 90
        2
 40
-0.6
 41
30.0
 62
     5
 63
     7
421
 16777215
 74
     0
 91
        4
 64
     7
 65
   257
 75
     1
175
     1
 42
1.0
 92
        8
 66
     7
 43
1.0
 76
     1
 77
     6
 78
     2
 67
     7
 79
     5
170
     0
171
     0
290
     0
174
     0
 93
       13
 44
0.0
173
     0
291
     1
 45
0.0
1001
ACAD
1000
AcDbSavedByObjectVersion
1070
     0
  0
VISUALSTYLE
  5
138F
102
{ACAD_XDICTIONARY
360
24B4
102
}
102
{ACAD_REACTORS
330
11B9
102
}
330
11B9
100
AcDbVisualStyle
  2

 70
     1
 71
     2
 72
     1
 73
     1
 90
        2
 40
-0.6
 41
30.0
 62
     5
 63
     7
421
 16777215
 74
     1
 91
        4
 64
     7
 65
   257
 75
     1
175
     1
 42
1.0
 92
        0
 66
   257
 43
1.0
 76
     1
 77
     6
 78
     2
 67
     7
 79
     5
170
     0
171
     0
290
     0
174
     0
 93
       13
 44
0.0
173
     0
291
     1
 45
0.0
1001
ACAD
1000
AcDbSavedByObjectVersion
1070
     0
  0
VISUALSTYLE
  5
1390
102
{ACAD_XDICTIONARY
360
24B6
102
}
102
{ACAD_REACTORS
330
11B9
102
}
330
11B9
100
AcDbVisualStyle
  2

 70
     2
 71
     2
 72
     2
 73
     1
 90
        2
 40
-0.6
 41
30.0
 62
     5
 63
     7
421
 16777215
 74
     0
 91
        4
 64
     7
 65
   257
 75
     1
175
     1
 42
1.0
 92
        0
 66
     7
 43
1.0
 76
     1
 77
     6
 78
     2
 67
     7
 79
     5
170
     0
171
     0
290
     0
174
     0
 93
       13
 44
0.0
173
     0
291
     1
 45
0.0
1001
ACAD
1000
AcDbSavedByObjectVersion
1070
     0
  0
VISUALSTYLE
  5
1391
102
{ACAD_XDICTIONARY
360
24B8
102
}
102
{ACAD_REACTORS
330
11B9
102
}
330
11B9
100
AcDbVisualStyle
  2

 70
     3
 71
     2
 72
     2
 73
     1
 90
        2
 40
-0.6
 41
30.0
 62
     5
 63
     7
421
 16777215
 74
     1
 91
        4
 64
     7
 65
   257
 75
     1
175
     1
 42
1.0
 92
        0
 66
   257
 43
1.0
 76
     1
 77
     6
 78
     2
 67
     7
 79
     5
170
     0
171
     0
290
     0
174
     0
 93
       13
 44
0.0
173
     0
291
     1
 45
0.0
1001
ACAD
1000
AcDbSavedByObjectVersion
1070
     0
  0
VISUALSTYLE
  5
139B
102
{ACAD_XDICTIONARY
360
24CC
102
}
102
{ACAD_REACTORS
330
11B9
102
}
330
11B9
100
AcDbVisualStyle
  2

 70
    20
 71
     2
 72
     2
 73
     0
 90
        0
 40
-0.6
 41
-30.0
 62
     5
 63
     7
421
 16777215
 74
     1
 91
        4
 64
     7
 65
   257
 75
     1
175
     1
 42
1.0
 92
       10
 66
     7
 43
1.0
 76
     1
 77
     6
 78
     2
 67
     7
 79
     5
170
     0
171
     0
290
     0
174
     0
 93
        1
 44
0.0
173
     0
291
     1
 45
0.0
1001
ACAD
1000
AcDbSavedByObjectVersion
1070
     0
  0
VISUALSTYLE
  5
1398
102
{ACAD_XDICTIONARY
360
24C6
102
}
102
{ACAD_REACTORS
330
11B9
102
}
330
11B9
100
AcDbVisualStyle
  2

 70
    14
 71
     2
 72
     2
 73
     0
 90
        0
 40
-0.6
 41
-30.0
 62
     5
 63
     7
421
 16777215
 74
     1
 91
        4
 64
     7
 65
   257
 75
     7
175
     7
 42
1.0
 92
        8
 66
     7
 43
1.0
 76
     1
 77
     6
 78
     2
 67
     7
 79
     5
170
     0
171
     0
290
     0
174
     0
 93
        1
 44
0.0
173
     0
291
     1
 45
0.0
1001
ACAD
1000
AcDbSavedByObjectVersion
1070
     0
  0
VISUALSTYLE
  5
139C
102
{ACAD_XDICTIONARY
360
24CE
102
}
102
{ACAD_REACTORS
330
11B9
102
}
330
11B9
100
AcDbVisualStyle
  2

 70
    21
 71
     2
 72
     2
 73
     0
 90
        0
 40
-0.6
 41
-30.0
 62
     5
 63
     7
421
 16777215
 74
     1
 91
        4
 64
     7
 65
   257
 75
     1
175
     1
 42
1.0
 92
        9
 66
     7
 43
1.0
 76
     1
 77
     6
 78
     2
 67
     7
 79
     5
170
     0
171
     0
290
     0
174
     0
 93
        1
 44
0.0
173
     0
291
     1
 45
0.0
1001
ACAD
1000
AcDbSavedByObjectVersion
1070
     0
  0
VISUALSTYLE
  5
11D8
102
{ACAD_XDICTIONARY
360
24AE
102
}
102
{ACAD_REACTORS
330
11B9
102
}
330
11B9
100
AcDbVisualStyle
  2

 70
     8
 71
     2
 72
     2
 73
     0
 90
        0
 40
-0.6
 41
-30.0
 62
     5
 63
     7
421
 16777215
 74
     1
 91
        0
 64
     7
 65
   257
 75
     1
175
     1
 42
1.0
 92
        8
 66
     8
424
  7895160
 43
1.0
 76
     1
 77
     6
 78
     2
 67
     7
 79
     5
170
     0
171
     0
290
     0
174
     0
 93
       13
 44
0.0
173
     0
291
     0
 45
0.0
1001
ACAD
1000
AcDbSavedByObjectVersion
1070
     0
  0
VISUALSTYLE
  5
1397
102
{ACAD_XDICTIONARY
360
24C4
102
}
102
{ACAD_REACTORS
330
11B9
102
}
330
11B9
100
AcDbVisualStyle
  2

 70
    13
 71
     2
 72
     2
 73
     0
 90
        0
 40
-0.6
 41
-30.0
 62
     5
 63
     7
421
 16777215
 74
     1
 91
        4
 64
     7
 65
   257
 75
     1
175
     1
 42
1.0
 92
       12
 66
     7
 43
1.0
 76
     1
 77
     6
 78
     2
 67
     7
 79
     5
170
     0
171
     0
290
     0
174
     0
 93
        1
 44
0.0
173
     0
291
     1
 45
0.0
1001
ACAD
1000
AcDbSavedByObjectVersion
1070
     0
  0
DICTIONARYVAR
  5
137D
102
{ACAD_REACTORS
330
1379
102
}
330
1379
100
DictionaryVariables
280
     0
  1
1:1
  0
DICTIONARYVAR
  5
137B
102
{ACAD_REACTORS
330
1379
102
}
330
1379
100
DictionaryVariables
280
     0
  1
STANDARD
  0
DICTIONARYVAR
  5
137A
102
{ACAD_REACTORS
330
1379
102
}
330
1379
100
DictionaryVariables
280
     0
  1
STANDARD
  0
DICTIONARYVAR
  5
137F
102
{ACAD_REACTORS
330
1379
102
}
330
1379
100
DictionaryVariables
280
     0
  1
1
  0
DICTIONARYVAR
  5
1380
102
{ACAD_REACTORS
330
1379
102
}
330
1379
100
DictionaryVariables
280
     0
  1
15
  0
DICTIONARYVAR
  5
137E
102
{ACAD_REACTORS
330
1379
102
}
330
1379
100
DictionaryVariables
280
     0
  1
0
  0
DICTIONARYVAR
  5
137C
102
{ACAD_REACTORS
330
1379
102
}
330
1379
100
DictionaryVariables
280
     0
  1
0
  0
DICTIONARY
  5
11A8
330
11A7
100
AcDbDictionary
280
     1
281
     1
  3
ADSK_XREC_LAYOUTTHUMBNAIL
360
11A9
  0
DICTIONARY
  5
11CB
330
11CA
100
AcDbDictionary
280
     1
281
     1
  3
BUMPTILE
360
11CC
  3
DIFFUSETILE
360
11CD
  3
OPACITYTILE
360
11CE
  3
REFLECTIONTILE
360
11CF
  3
REFRACTIONTILE
360
11D0
  3
SPECULARTILE
360
11D1
  0
DICTIONARY
  5
11C3
330
11C2
100
AcDbDictionary
280
     1
281
     1
  3
BUMPTILE
360
11C4
  3
DIFFUSETILE
360
11C5
  3
OPACITYTILE
360
11C6
  3
REFLECTIONTILE
360
11C7
  3
REFRACTIONTILE
360
11C8
  3
SPECULARTILE
360
11C9
  0
DICTIONARY
  5
1199
330
1197
100
AcDbDictionary
280
     1
281
     1
  3
BUMPTILE
360
119A
  3
DIFFUSETILE
360
119B
  3
OPACITYTILE
360
119C
  3
REFLECTIONTILE
360
119D
  3
REFRACTIONTILE
360
119E
  3
SPECULARTILE
360
119F
  0
DICTIONARY
  5
1381
330
11D7
100
AcDbDictionary
280
     1
281
     1
  3
ACAD_ROUNDTRIP_2008_TABLESTYLE_CELLSTYLEMAP
360
24AA
  0
DICTIONARY
  5
24AC
330
11B8
100
AcDbDictionary
280
     1
281
     1
  3
ACAD_XREC_ROUNDTRIP
360
24AD
  0
DICTIONARY
  5
24BC
330
1393
100
AcDbDictionary
280
     1
281
     1
  3
ACAD_XREC_ROUNDTRIP
360
24BD
  0
DICTIONARY
  5
24B0
330
11D9
100
AcDbDictionary
280
     1
281
     1
  3
ACAD_XREC_ROUNDTRIP
360
24B1
  0
DICTIONARY
  5
24BA
330
1392
100
AcDbDictionary
280
     1
281
     1
  3
ACAD_XREC_ROUNDTRIP
360
24BB
  0
DICTIONARY
  5
24C2
330
1396
100
AcDbDictionary
280
     1
281
     1
  3
ACAD_XREC_ROUNDTRIP
360
24C3
  0
DICTIONARY
  5
24CA
330
139A
100
AcDbDictionary
280
     1
281
     1
  3
ACAD_XREC_ROUNDTRIP
360
24CB
  0
DICTIONARY
  5
24BE
330
1394
100
AcDbDictionary
280
     1
281
     1
  3
ACAD_XREC_ROUNDTRIP
360
24BF
  0
DICTIONARY
  5
24C0
330
1395
100
AcDbDictionary
280
     1
281
     1
  3
ACAD_XREC_ROUNDTRIP
360
24C1
  0
DICTIONARY
  5
24D0
330
139D
100
AcDbDictionary
280
     1
281
     1
  3
ACAD_XREC_ROUNDTRIP
360
24D1
  0
DICTIONARY
  5
24C8
330
1399
100
AcDbDictionary
280
     1
281
     1
  3
ACAD_XREC_ROUNDTRIP
360
24C9
  0
DICTIONARY
  5
24B2
330
138E
100
AcDbDictionary
280
     1
281
     1
  3
ACAD_XREC_ROUNDTRIP
360
24B3
  0
DICTIONARY
  5
24B4
330
138F
100
AcDbDictionary
280
     1
281
     1
  3
ACAD_XREC_ROUNDTRIP
360
24B5
  0
DICTIONARY
  5
24B6
330
1390
100
AcDbDictionary
280
     1
281
     1
  3
ACAD_XREC_ROUNDTRIP
360
24B7
  0
DICTIONARY
  5
24B8
330
1391
100
AcDbDictionary
280
     1
281
     1
  3
ACAD_XREC_ROUNDTRIP
360
24B9
  0
DICTIONARY
  5
24CC
330
139B
100
AcDbDictionary
280
     1
281
     1
  3
ACAD_XREC_ROUNDTRIP
360
24CD
  0
DICTIONARY
  5
24C6
330
1398
100
AcDbDictionary
280
     1
281
     1
  3
ACAD_XREC_ROUNDTRIP
360
24C7
  0
DICTIONARY
  5
24CE
330
139C
100
AcDbDictionary
280
     1
281
     1
  3
ACAD_XREC_ROUNDTRIP
360
24CF
  0
DICTIONARY
  5
24AE
330
11D8
100
AcDbDictionary
280
     1
281
     1
  3
ACAD_XREC_ROUNDTRIP
360
24AF
  0
DICTIONARY
  5
24C4
330
1397
100
AcDbDictionary
280
     1
281
     1
  3
ACAD_XREC_ROUNDTRIP
360
24C5
  0
XRECORD
  5
11A9
102
{ACAD_REACTORS
330
11A8
102
}
330
11A8
100
AcDbXrecord
280
     1
310
28000000B40000008B0000000100080000000000BC61000000000000000000000001000000000000FFFFFF0000000000FFFFFF000000000000000000000000000000000000000000000000000000000000000000330000006600000099000000CC000000FF00000000330000333300006633000099330000CC330000FF3300
310
0000660000336600006666000099660000CC660000FF66000000990000339900006699000099990000CC990000FF99000000CC000033CC000066CC000099CC0000CCCC0000FFCC000000FF000033FF000066FF000099FF0000CCFF0000FFFF000000003300330033006600330099003300CC003300FF003300003333003333
310
33006633330099333300CC333300FF33330000663300336633006666330099663300CC663300FF66330000993300339933006699330099993300CC993300FF99330000CC330033CC330066CC330099CC3300CCCC3300FFCC330000FF330033FF330066FF330099FF3300CCFF3300FFFF330000006600330066006600660099
310
006600CC006600FF00660000336600333366006633660099336600CC336600FF33660000666600336666006666660099666600CC666600FF66660000996600339966006699660099996600CC996600FF99660000CC660033CC660066CC660099CC6600CCCC6600FFCC660000FF660033FF660066FF660099FF6600CCFF6600
310
FFFF660000009900330099006600990099009900CC009900FF00990000339900333399006633990099339900CC339900FF33990000669900336699006666990099669900CC669900FF66990000999900339999006699990099999900CC999900FF99990000CC990033CC990066CC990099CC9900CCCC9900FFCC990000FF99
310
0033FF990066FF990099FF9900CCFF9900FFFF99000000CC003300CC006600CC009900CC00CC00CC00FF00CC000033CC003333CC006633CC009933CC00CC33CC00FF33CC000066CC003366CC006666CC009966CC00CC66CC00FF66CC000099CC003399CC006699CC009999CC00CC99CC00FF99CC0000CCCC0033CCCC0066CC
310
CC0099CCCC00CCCCCC00FFCCCC0000FFCC0033FFCC0066FFCC0099FFCC00CCFFCC00FFFFCC000000FF003300FF006600FF009900FF00CC00FF00FF00FF000033FF003333FF006633FF009933FF00CC33FF00FF33FF000066FF003366FF006666FF009966FF00CC66FF00FF66FF000099FF003399FF006699FF009999FF00CC
310
99FF00FF99FF0000CCFF0033CCFF0066CCFF0099CCFF00CCCCFF00FFCCFF0000FFFF0033FFFF0066FFFF0099FFFF00CCFFFF00FFFFFF00000000000D0D0D001A1A1A00282828003535350043434300505050005D5D5D006B6B6B00787878008686860093939300A1A1A100AEAEAE00BBBBBB00C9C9C900D6D6D600E4E4E400
310
F1F1F100FFFFFF0000000000000000000000000000000000000000000000000000000000000000000000000000000000E2E2E2E2E2E2E2E2E2E2E2E2E2E2E2E2E2E2E2E2E2E2E2E2E2E2E2E2E2E2E2E2E2E2E2E2E2E2E2E2E2E2E2E2E2E2E2E2E2E2E2E2E2E2E2E2E2E2E2E2E2E2E2E2E2E2E2E2E2E2E2E2E2E2E2E2E2E2E2
310
E2E2E2E2E2E2E2E2E2E2E2E2E2E2E2E2E2E2E2E2E2E2E2E2E2E2E2E2E2E2E2E2E2E2E2E2E2E2E2E2E2E2E2E2E2E2E2E2E2E2E2E2E2E2E2E2E2E2E2E2E2E2E2E2E2E2E2E2E2E2E2E2E2E2E2E2E2E2E2E2E2E2E2E2E2E2E2E2E2E2E2E2E2E2E2E2E2E2E2E2EFF5F5F5F5F5F5F5F5F5F5F5F5F5F5F5F5F5F5F5F5F5F5F5F5F5F5
310
F5F5F5F5F5F5F5F5F5F5F5F5F5F5F5F5F5F5F5F5F5F5F5F5F5F5F5F5F5F5F5F5F5F5F5F5F5F5F5F5F5F5F5F5F5F5F5F5F5F5F5F5F5F5F5F5F5F5F5F5F5F5F5F5F5F5F5F5F5F5F5F5F5F5F5F5F5F5F5F5F5F5F5F5F5F5F5F5F5F5F5F5F5F5F5F5F5F5F5F5F5F5F5F5F5F5F5F5F5F5F5F5F5F5F5F5F5F5F5F5F5F5F5F5F5F5F5
310
F5F5F5F5F5F5F5F5F5F5F5F5F5F5F5F5F5F5F5F5F5F5F5F5E2E2EFF5F5F5F5F5F5F5F5F5F5F5F5F5F5F5F5F5F5F5F5F5F5F5F5F5F5F5F5F5F5F5F5F5F5F5F5F5F5F5F5F5F5F5F5F5F5F5F5F5F5F5F5F5F5F5F5F5F5F5F5F5F5F5F5F5F5F5F5F5F5F5F5F5F5F5F5F5F5F5F5F5F5F5F5F5F5F5F5F5F5F5F5F5F5F5F5F5F5F5F5
310
F5F5F5F5F5F5F5F5F5F5F5F5F5F5F5F5F5F5F5F5F5F5F5F5F5F5F5F5F5F5F5F5F5F5F5F5F5F5F5F5F5F5F5F5F5F5F5F5F5F5F5F5F5F5F5F5F5F5F5F5F5F5F5F5F5F5F5F5F5F5F5F5F5F5F5F5F5E2E2EFF5F5F5F5F5F5F5F5F5F5F5F5F5F5F5F5F5F5F5F5F5F5F5F5F5F5F5F5F5F5F5F5F5F5F5F5F5F5F5F5F5F5F5F5F5F5F5
310
F5F5F5F5F5F5F5F5F5F5F5F5F5F5F5F5F5F5F5F5F5F5F5F5F5F5F5F5F5F5F5F5F5F5F5F5F5F5F5F5F5F5F5F5F5F5F5F5F5F5F5F5F5F5F5F5F5F5F5F5F5F5F5F5F5F5F5F5F5F5F5F5F5F5F5F5F5F5F5F5F5F5F5F5F5F5F5F5F5F5F5F5F5F5F5F5F5F5F5F5F5F5F5F5F5F5F5F5F5F5F5F5F5F5F5F5F5F5F5F5F5F5F5F5F5F5F5
310
F5F5F5E2E2EFF5F5F5E2E2E2E2E2E2E2E2F5F5F5F5F5F5F5F5F5E2E2E2E2E2E2E2E2E2E2E2E2E2E2E2E2F5F5F5F5F5F5F5F5E2E2E2E2E2E2E2E2E2E2E2E2E2E2E2E2F5F5F5F5F5F5F5F5F5E2E2E2E2E2E2E2E2E2E2E2E2E2E2E2F5F5F5F5F5F5F5F5F5E2E2E2E2E2E2E2E2E2E2E2E2E2E2E2F5F5F5F5F5F5F5F5F5E2E2E2E2
310
E2E2E2E2E2E2E2E2E2E2E2E2F5F5F5F5F5F5F5F5E2E2E2E2E2E2E2E2E2E2E2E2E2E2E2E2F5F5F5F5F5F5F5F5F5E2E2E2E2E2E2E2E2F5F5F5E2E2EFF5F5F5E2F5F5F5F5F5F5F5F5F5F5F5F5F5F5F5F5F5F5F5F5F5F5F5F5F5F5F5F5F5F5F5F5F5F5F5F5F5F5F5F5F5F5F5F5F5F5F5F5F5F5F5F5F5F5F5F5F5F5F5F5F5F5F5F5
310
F5F5F5F5F5F5F5F5F5F5F5F5F5F5F5F5F5F5F5F5F5F5F5F5F5F5F5F5F5F5F5F5F5F5F5F5F5F5F5F5F5F5F5F5F5F5F5F5F5F5F5F5F5F5F5F5F5F5F5F5F5F5F5F5F5F5F5F5F5F5F5F5F5F5F5F5F5F5F5F5F5F5F5F5F5F5F5F5F5F5F5F5F5F5F5F5F5F5F5F5F5F5F5F5F5E2F5F5F5E2E2EFF5F5F5E2F5F5F5F5F5F5F5F5F5F5F5
310
F5F5F5F5F5F5F5F5F5F5F5F5F5F5F5F5F5F5F5F5F5F5F5F5F5F5F5F5F5F5F5F5F5F5F5F5F5F5F5F5F5F5F5F5F5F5F5F5F5F5F5F5F5F5F5F5F5F5F5F5F5F5F5F5F5F5F5F5F5F5F5F5F5F5F5F5F5F5F5F5F5F5F5F5F5F5F5F5F5F5F5F5F5F5F5F5F5F5F5F5F5F5F5F5F5F5F5F5F5F5F5F5F5F5F5F5F5F5F5F5F5F5F5F5F5F5F5
310
F5F5F5F5F5F5F5F5F5F5F5F5F5F5F5F5F5F5F5F5F5F5F5F5F5F5F5F5F5F5F5E2F5F5F5E2E2EFF5F5F5E2F5F5F5F5F5F5F5F5F5F5F5F5F5F5F5F5F5F5F5F5F5F5F5F5F5F5F5F5F5F5F5F5F5F5F5F5F5F5F5F5F5F5F5F5F5F5F5F5F5F5F5F5F5F5F5F5F5F5F5F5F5F5F5F5F5F5F5F5F5F5F5F5F5F5F5F5F5F5F5F5F5F5F5F5F5
310
F5F5F5F5F5F5F5F5F5F5F5F5F5F5F5F5F5F5F5F5F5F5F5F5F5F5F5F5F5F5F5F5F5F5F5F5F5F5F5F5F5F5F5F5F5F5F5F5F5F5F5F5F5F5F5F5F5F5F5F5F5F5F5F5F5F5F5F5F5F5F5F5F5F5F5F5F5F5F5F5F5F5F5F5E2F5F5F5E2E2EFF5F5F5E2F5F5F5F5F5F5F5F5F5F5F5F5F5F5F5F5F5F5F5F5F5F5F5F5F5F5F5F5F5F5F5F5
310
F5F5F5F5F5F5F5F5F5F5F5F5F5F5F5F5F5F5F5F5F5F5F5F5F5F5F5F5F5F5F5F5F5F5F5F5F5F5F5F5F5F5F5F5F5F5F5F5F5F5F5F5F5F5F5F5F5F5F5F5F5F5F5F5F5F5F5F5F5F5F5F5F5F5F5F5F5F5F5F5F5F5F5F5F5F5F5F5F5F5F5F5F5F5F5F5F5F5F5F5F5F5F5F5F5F5F5F5F5F5F5F5F5F5F5F5F5F5F5F5F5F5F5F5F5F5F5
310
F5F5F5F5F5F5F5F5F5F5E2F5F5F5E2E2EFF5F5F5E2F5F5F5F5F5F5F5F5F5F5F5F5F5F5F5F5F5F5F5F5F5F5F5F5F5F5F5F5F5F5F5F5F5F5F5F5F5F5F5F5F5F5F5F5F5F5F5F5F5F5F5F5F5F5F5F5F5F5F5F5F5F5F5F5F5F5F5F5F5F5F5F5F5F5F5F5F5F5F5F5F5F5F5F5F5F5F5F5F5F5F5F5F5F5F5F5F5F5F5F5F5F5F5F5F5F5
310
F5F5F5F5F5F5F5F5F5F5F5F5F5F5F5F5F5F5F5F5F5F5F5F5F5F5F5F5F5F5F5F5F5F5F5F5F5F5F5F5F5F5F5F5F5F5F5F5F5F5F5F5F5F5F5F5F5F5F5F5F5F5F5E2F5F5F5E2E2EFF5F5F5E2F5F5F5F5F5F5F5F5F5F5F5F5F5F5F5F5F5F5F5F5F5F5F5F5F5F5F5F5F5F5F5F5F5F5F5F5F5F5F5F5F5F5F5F5F5F5F5F5F5F5F5F5F5
310
F5F5F5F5F5F5F5F5F5F5F5F5F5F5F5F5F5F5F5F5F5F5F5F5F5F5F5F5F5F5F5F5F5F5F5F5F5F5F5F5F5F5F5F5F5F5F5F5F5F5F5F5F5F5F5F5F5F5F5F5F5F5F5F5F5F5F5F5F5F5F5F5F5F5F5F5F5F5F5F5F5F5F5F5F5F5F5F5F5F5F5F5F5F5F5F5F5F5F5F5F5F5F5F5F5F5F5F5F5F5F5F5F5F5F5F5E2F5F5F5E2E2EFF5F5F5E2
310
F5F5F5F5F5F5F5F5F5F5F5F5F5F5F5F5F5F5F5F5F5F5F5F5F5F5F5F5F5F5F5F5F5F5F5F5F5F5F5F5F5F5F5F5F5F5F5F5F5F5F5F5F5F5F5F5F5F5F5F5F5F5F5F5F5F5F5F5F5F5F5F5F5F5F5F5F5F5F5F5F5F5F5F5F5F5F5F5F5F5F5F5F5F5F5F5F5F5F5F5F5F5F5F5F5F5F5F5F5F5F5F5F5F5F5F5F5F5F5F5F5F5F5F5F5F5F5
310
F5F5F5F5F5F5F5F5F5F5F5F5F5F5F5F5F5F5F5F5F5F5F5F5F5F5F5F5F5F5F5F5F5F5F5F5F5F5F5F5F5F5E2F5F5F5E2E2EFF5F5F5E2F5F5F5F5F5F5F5F5F5F5F5F5F5F5F5F5F5F5F5F5F5F5F5F5F5F5F5F5F5F5F5F5F5F5F5F5F5F5F5F5F5F5F5F5F5F5F5F5F5F5F5F5F5F5F5F5F5F5F5F5F5F5F5F5F5F5F5F5F5F5F5F5F5F5
310
F5F5F5F5F5F5F5F5F5F5F5F5F5F5F5F5F5F5F5F5F5F5F5F5F5F5F5F5F5F5F5F5F5F5F5F5F5F5F5F5F5F5F5F5F5F5F5F5F5F5F5F5F5F5F5F5F5F5F5F5F5F5F5F5F5F5F5F5F5F5F5F5F5F5F5F5F5F5F5F5F5F5F5F5F5F5F5F5F5F5F5F5F5F5F5E2F5F5F5E2E2EFF5F5F5F5F5F5F5F5F5F5F5F5F5F5F5F5F5F5F5F5F5F5F5F5F5
310
F5F5F5F5F5F5F5F5F5F5F5F5F5F5F5F5F5F5F5F5F5F5F5F5F5F5F5F5F5F5F5F5F5F5F5F5F5F5F5F5F5F5F5F5F5F5F5F5F5F5F5F5F5F5F5F5F5F5F5F5F5F5F5F5F5F5F5F5F5F5F5F5F5F5F5F5F5F5F5F5F5F5F5F5F5F5F5F5F5F5F5F5F5F5F5F5F5F5F5F5F5F5F5F5F5F5F5F5F5F5F5F5F5F5F5F5F5F5F5F5F5F5F5F5F5F5F5
310
F5F5F5F5F5F5F5F5F5F5F5F5F5F5F5F5F5F5F5F5F5F5F5F5F5E2E2EFF5F5F5F5F5F5F5F5F5F5F5F5F5F5F5F5F5F5F5F5F5F5F5F5F5F5F5F5F5F5F5F5F5F5F5F5F5F5F5F5F5F5F5F5F5F5F5F5F5F5F5F5F5F5F5F5F5F5F5F5F5F5F5F5F5F5F5F5F5F5F5F5F5F5F5F5F5F5F5F5F5F5F5F5F5F5F5F5F5F5F5F5F5F5F5F5F5F5F5
310
F5F5F5F5F5F5F5F5F5F5F5F5F5F5F5F5F5F5F5F5F5F5F5F5F5F5F5F5F5F5F5F5F5F5F5F5F5F5F5F5F5F5F5F5F5F5F5F5F5F5F5F5F5F5F5F5F5F5F5F5F5F5F5F5F5F5F5F5F5F5F5F5F5F5F5F5F5F5E2E2EFF5F5F5F5F5F5F5F5F5F5F5F5F5F5F5F5F5F5F5F5F5F5F5F5F5F5F5F5F5F5F5F5F5F5F5F5F5F5F5F5F5F5F5F5F5F5
310
F5F5F5F5F5F5F5F5F5F5F5F5F5F5F5F5F5F5F5F5F5F5F5F5F5F5F5F5F5F5F5F5F5F5F5F5F5F5F5F5F5F5F5F5F5F5F5F5F5F5F5F5F5F5F5F5F5F5F5F5F5F5F5F5F5F5F5F5F5F5F5F5F5F5F5F5F5F5F5F5F5F5F5F5F5F5F5F5F5F5F5F5F5F5F5F5F5F5F5F5F5F5F5F5F5F5F5F5F5F5F5F5F5F5F5F5F5F5F5F5F5F5F5F5F5F5F5
310
F5F5F5F5E2E2EFF5F5F5F5F5F5F5F5F5F5F5F5F5F5F5F5F5F5F5F5F5F5F5F5F5F5F5F5F5F5F5F5F5F5F5F5F5F5F5F5F5F5F5F5F5F5F5F5F5F5F5F5F5F5F5F5F5F5F5F5F5F5F5F5F5F5F5F5F5F5F5F5F5F5F5F5F5F5F5F5F5F5F5F5F5F5F5F5F5F5F5F5F5F5F5F5F5F5F5F5F5F5F5F5F5F5F5F5F5F5F5F5F5F5F5F5F5F5F5F5
310
F5F5F5F5F5F5F5F5F5F5F5F5F5F5F5F5F5F5F5F5F5F5F5F5F5F5F5F5F5F5F5F5F5F5F5F5F5F5F5F5F5F5F5F5F5F5F5F5F5F5F5F5F5F5F5F5F5E2E2EFF5F5F5F5F5F5F5F5F5F5F5F5F5F5F5F5F5F5F5F5E2E2E2E2E2E2E2E2E2E2E2E2E2E2E2E2E2E2E2E2E2E2E2E2E2E2E2E2E2E2E2E2E2E2E2E2E2E2E2E2E2E2E2E2E2E2E2
310
E2E2E2E2E2E2E2E2E2E2E2E2E2E2E2E2E2E2E2E2E2E2E2E2E2E2E2E2E2E2E2E2E2E2E2E2E2E2E2E2E2E2E2E2E2E2E2E2E2E2E2E2E2E2E2E2E2E2E2E2E2E2E2E2E2E2E2E2E2E2E2E2E2E2E2E2E2E2E2E2E2E2E2E2E2E2E2E2E2E2F5F5F5F5F5F5F5F5F5F5F5F5F5F5F5F5F5F5F5F5E2E2EFF5F5F5F5F5F5F5F5F5F5F5F5F5F5
310
F5F5F5F5F5F5E2F5F5F5F5F5F5F5F5F5F5F5F5F5F5F5F5F5F5F5F5F5F5F5F5F5F5F5F5F5F5F5F5F5F5F5F5F5F5F5F5F5F5F5F5F5F5F5F5F5F5F5F5F5F5F5F5F5F5F5F5F5F5F5F5F5F5F5F5F5F5F5F5F5F5F5F5F5F5F5F5F5F5F5F5F5F5F5F5F5F5F5F5F5F5F5F5F5F5F5F5F5F5F5F5F5F5F5F5F5F5F5F5F5F5F5F5F5F5F5F5
310
F5F5F5F5F5F5F5F5F5F5F5F5F5F5F5E2F5F5F5F5F5F5F5F5F5F5F5F5F5F5F5F5F5F5F5F5E2E2EFF5F5F5F5F5F5F5F5F5F5F5F5F5F5F5F5F5F5F5F5E2F5F5F5F5F5F5F5F5F5F5F5F5F5F5F5F5F5F5F5F5F5F5F5F5F5F5F5F5F5F5F5F5F5F5F5F5F5F5F5F5F5F5F5F5F5F5F5F5F5F5F5F5F5F5F5F5F5F5F5F5F5F5F5F5F5F5F5
310
F5F5F5F5F5F5F5F5F5F5F5F5F5F5F5F5F5F5F5F5F5F5F5F5F5F5F5F5F5F5F5F5F5F5F5F5F5F5F5F5F5F5F5F5F5F5F5F5F5F5F5F5F5F5F5F5F5F5F5F5F5F5F5F5F5F5F5F5E2F5F5F5F5F5F5F5F5F5F5F5F5F5F5F5F5F5F5F5F5E2E2EFF5F5F5F5F5F5F5F5F5F5F5F5F5F5F5F5F5F5F5F5E2F5F5F5F5F5F5F5F5F5F5F5F5F5F5
310
F5F5F5F5F5F5F5F5F5F5F5F5F5F5F5F5F5F5F5F5F5F5F5F5F5F5F5F5F5F5F5F5F5F5F5F5F5F5F5F5F5F5F5F5F5F5F5F5F5F5F5F5F5F5F5F5F5F5F5F5F5F5F5F5F5F5F5F5F5F5F5F5F5F5F5F5F5F5F5F5F5F5F5F5F5F5F5F5F5F5F5F5F5F5F5F5F5F5F5F5F5F5F5F5F5F5F5F5F5F5F5F5F5F5F5F5F5F5F5F5F5E2F5F5F5F5F5
310
F5F5F5F5F5F5F5F5F5F5F5F5F5F5F5E2E2EFF5F5F5F5F5F5F5F5F5F5F5F5F5F5F5F5F5F5F5F5E2F5F5F5F5F5F5F5F5F5F5F5F5F5F5F5F5F5F5F5F5F5F5F5F5F5F5F5F5F5F5F5F5F5F5F5F5F5F5F5F5F5F5F5F5F5F5F5F5F5F5F5F5F5F5F5F5F5F5F5F5F5F5F5F5F5F5F5F5F5F5F5F5F5F5F5F5F5F5F5F5F5F5F5F5F5F5F5F5
310
F5F5F5F5F5F5F5F5F5F5F5F5F5F5F5F5F5F5F5F5F5F5F5F5F5F5F5F5F5F5F5F5F5F5F5F5F5F5F5F5F5F5F5F5F5F5F5E2F5F5F5F5F5F5F5F5F5F5F5F5F5F5F5F5F5F5F5F5E2E2EFF5F5F5E2F5F5F5F5F5F5F5F5F5F5F5F5F5F5F5F5E2F5F5F5F5F5F5F5F5F5F5F5F5F5F5F5F5F5F5F5F5F5F5F5F5F5F5F5F5F5F5F5F5F5F5F5
310
F5F5F5F5F5F5F5F5F5F5F5F5F5F5F5F5F5F5F5F5F5F5F5F5F5F5F5F5F5F5F5F5F5F5F5F5F5F5F5F5F5F5F5F5F5F5F5F5F5F5F5F5F5F5F5F5F5F5F5F5F5F5F5F5F5F5F5F5F5F5F5F5F5F5F5F5F5F5F5F5F5F5F5F5F5F5F5F5F5F5F5F5F5F5F5F5F5F5F5F5E2F5F5F5F5F5F5F5F5F5F5F5F5F5F5F5F5E2F5F5F5E2E2EFF5F5F5
310
E2F5F5F5F5F5F5F5F5F5F5F5F5F5F5F5F5E2F5F5F5F5F5F5F5F5F5F5F5F5F5F5F5F5F5F5F5F5F5F5F5F5F5F5F5F5F5F5F5F5F5F5F5F5F5F5F5F5F5F5F5F5F5F5F5F5F5F5F5F5F5F5F5F5F5F5F5F5F5F5F5F5F5F5F5F5F5F5F5F5F5F5F5F5F5F5F5F5F5F5F5F5F5F5F5F5F5F5F5F5F5F5F5F5F5F5F5F5F5F5F5F5F5F5F5F5F5
310
F5F5F5F5F5F5F5F5F5F5F5F5F5F5F5F5F5F5F5F5F5F5F5F5F5F5E2F5F5F5F5F5F5F5F5F5F5F5F5F5F5F5F5E2F5F5F5E2E2EFF5F5F5E2F5F5F5F5F5F5F5F5F5F5F5F5F5F5F5F5E2F5F5F5F5F5F5F5F5F5F5F5F5F5F5F5F5F5F5F5F5F5F5F5F5F5F5F5F5F5F5F5F5F5F5F5F5F5F5F5F5F5F5F5F5F5F5F5F5F5F5F5F5F5F5F5F5
310
F5F5F5F5F5F5F5F5F5F5F5F5F5F5F5F5F5F5F5F5F5F5F5F5F5F5F5F5F5F5F5F5F5F5F5F5F5F5F5F5F5F5F5F5F5F5F5F5F5F5F5F5F5F5F5F5F5F5F5F5F5F5F5F5F5F5F5F5F5F5F5F5F5F5F5F5F5F5F5E2F5F5F5F5F5F5F5F5F5F5F5F5F5F5F5F5E2F5F5F5E2E2EFF5F5F5E2F5F5F5F5F5F5F5F5F5F5F5F5F5F5F5F5E2F5F5F5
310
F5F5F5F5F5F5F5F5F5F5F5F5F5F5F5F5F5F5F5F5F5F5F5F5F5F5F5F5F5F5F5F5F5F5F5F5F5F5F5F5F5F5F5F5F5F5F5F5F5F5F5F5F5F5F5F5F5F5F5F5F5F5F5F5F5F5F5F5F5F5F5F5F5F5F5F5F5F5F5F5F5F5F5F5F5F5F5F5F5F5F5F5F5F5F5F5F5F5F5F5F5F5F5F5F5F5F5F5F5F5F5F5F5F5F5F5F5F5F5F5F5F5F5F5F5F5F5
310
F5F5F5F5F5E2F5F5F5F5F5F5F5F5F5F5F5F5F5F5F5F5E2F5F5F5E2E2EFF5F5F5E2F5F5F5F5F5F5F5F5F5F5F5F5F5F5F5F5E2F5F5F5F5F5F5F5F5F5F5F5F5F5F5F5F5F5F5F5F5F5F5F5F5F5F5F5F5F5F5F5F5F5F5F5F5F5F5F5F5F5F5F5F5F5F5F5F5F5F5F5F5F5F5F5F5F5F5F5F5F5F5F5F5F5F5F5F5F5F5F5F5F5F5F5F5F5
310
F5F5F5F5F5F5F5F5F5F5F5F5F5F5F5F5F5F5F5F5F5F5F5F5F5F5F5F5F5F5F5F5F5F5F5F5F5F5F5F5F5F5F5F5F5F5F5F5F5F5F5F5F5F5F5F5F5F5E2F5F5F5F5F5F5F5F5F5F5F5F5F5F5F5F5E2F5F5F5E2E2EFF5F5F5E2F5F5F5F5F5F5F5F5F5F5F5F5F5F5F5F5E2F5F5F5F5F5F5F5F5F5F5F5F5F5F5F5F5F5F5F5F5F5F5F5F5
310
F5F5F5F5F5F5F5F5F5F5F5F5F5F5F5F5F5F5F5F5F5F5F5F5F5F5F5F5F5F5F5F5F5F5F5F5F5F5F5F5F5F5F5F5F5F5F5F5F5F5F5F5F5F5F5F5F5F5F5F5F5F5F5F5F5F5F5F5F5F5F5F5F5F5F5F5F5F5F5F5F5F5F5F5F5F5F5F5F5F5F5F5F5F5F5F5F5F5F5F5F5F5F5F5F5F5F5F5F5F5F5E2F5F5F5F5F5F5F5F5F5F5F5F5F5F5F5
310
F5E2F5F5F5E2E2EFF5F5F5E2F5F5F5F5F5F5F5F5F5F5F5F5F5F5F5F5E2F5F5F5F5F5F5F5F5F5F5F5F5F5F5F5F5F5F5F5F5F5F5F5F5F5F5F5F5F5F5F5F5F5F5F5F5F5F5F5F5F5F5F5F5F5F5F5F5F5F5F5F5F5F5F5F5F5F5F5F5F5F5F5F5F5F5F5F5F5F5F5F5F5F5F5F5F5F5F5F5F5F5F5F5F5F5F5F5F5F5F5F5F5F5F5F5F5F5
310
F5F5F5F5F5F5F5F5F5F5F5F5F5F5F5F5F5F5F5F5F5F5F5F5F5F5F5F5F5F5F5F5F5F5F5F5F5E2F5F5F5F5F5F5F5F5F5F5F5F5F5F5F5F5E2F5F5F5E2E2EFF5F5F5E2F5F5F5F5F5F5F5F5F5F5F5F5F5F5F5F5E2F5F5F5F5F5F5F5F5F5F5F5F5F5F5F5F5F5F5F5F5F5F5F5F5F5F5F5F5F5F5F5F5F5F5F5F5F5F5F5F5F5F5F5F5F5
310
F5F5F5F5F5F5F5F5F5F5F5F5F5F5F5F5F5F5F5F5F5F5F5F5F5F5F5F5F5F5F5F5F5F5F5F5F5F5F5F5F5F5F5F5F5F5F5F5F5F5F5F5F5F5F5F5F5F5F5F5F5F5F5F5F5F5F5F5F5F5F5F5F5F5F5F5F5F5F5F5F5F5F5F5F5F5F5F5F5F5E2F5F5F5F5F5F5F5F5F5F5F5F5F5F5F5F5E2F5F5F5E2E2EFF5F5F5E2F5F5F5F5F5F5F5F5F5
310
F5F5F5F5F5F5F5E2F5F5F5F5F5F5F5F5F5F5F5F5F5F5F5F5F5F5F5F5F5F5F5F5F5F5F5F5F5F5F5F5F5F5F5F5F5F5F5F5F5F5F5F5F5F5F5F5F5F5F5F5F5F5F5F5F5F5F5F5F5F5F5F5F5F5F5F5F5F5F5F5F5F5F5F5F5F5F5F5F5F5F5F5F5F5F5F5F5F5F5F5F5F5F5F5F5F5F5F5F5F5F5F5F5F5F5F5F5F5F5F5F5F5F5F5F5F5F5
310
F5F5F5F5F5F5F5F5F5F5F5F5F5F5F5F5E2F5F5F5F5F5F5F5F5F5F5F5F5F5F5F5F5E2F5F5F5E2E2EFF5F5F5E2F5F5F5F5F5F5F5F5F5F5F5F5F5F5F5F5E2F5F5F5F5F5F5F5F5F5F5F5F5F5F5F5F5F5F5F5F5F5F5F5F5F5F5F5F5F5F5F5F5F5F5F5F5F5F5F5F5F5F5F5F5F5F5F5F5F5F5F5F5F5F5F5F5F5F5F5F5F5F5F5F5F5F5
310
F5F5F5F5F5F5F5F5F5F5F5F5F5F5F5F5F5F5F5F5F5F5F5F5F5F5F5F5F5F5F5F5F5F5F5F5F5F5F5F5F5F5F5F5F5F5F5F5F5F5F5F5F5F5F5F5F5F5F5F5F5F5F5F5F5F5F5F5F5E2F5F5F5F5F5F5F5F5F5F5F5F5F5F5F5F5E2F5F5F5E2E2EFF5F5F5E2F5F5F5F5F5F5F5F5F5F5F5F5F5F5F5F5E2F5F5F5F5F5F5F5F5F5F5F5F5F5
310
F5F5F5F5F5F5F5F5F5F5F5F5F5F5F5F5F5F5F5F5F5F5F5F5F5F5F5F5F5F5F5F5F5F5F5F5F5F5F5F5F5F5F5F5F5F5F5F5F5F5F5F5F5F5F5F5F5F5F5F5F5F5F5F5F5F5F5F5F5F5F5F5F5F5F5F5F5F5F5F5F5F5F5F5F5F5F5F5F5F5F5F5F5F5F5F5F5F5F5F5F5F5F5F5F5F5F5F5F5F5F5F5F5F5F5F5F5F5F5F5F5F5E2F5F5F5F5
310
F5F5F5F5F5F5F5F5F5F5F5F5E2F5F5F5E2E2EFF5F5F5E2F5F5F5F5F5F5F5F5F5F5F5F5F5F5F5F5E2F5F5F5F5F5F5F5F5F5F5F5F5F5F5F5F5F5F5F5F5F5F5F5F5F5F5F5F5F5F5F5F5F5F5F5F5F5F5F5F5F5F5F5F5F5F5F5F5F5F5F5F5F5F5F5F5F5F5F5F5F5F5F5F5F5F5F5F5F5F5F5F5F5F5F5F5F5F5F5F5F5F5F5F5F5F5F5
310
F5F5F5F5F5F5F5F5F5F5F5F5F5F5F5F5F5F5F5F5F5F5F5F5F5F5F5F5F5F5F5F5F5F5F5F5F5F5F5F5F5F5F5F5F5F5F5F5E2F5F5F5F5F5F5F5F5F5F5F5F5F5F5F5F5E2F5F5F5E2E2EFF5F5F5E2F5F5F5F5F5F5F5F5F5F5F5F5F5F5F5F5E2F5F5F5F5F5F5F5F5F5F5F5F5F5F5F5F5F5F5F5F5F5F5F5F5F5F5F5F5F5F5F5F5F5F5
310
F5F5F5F5F5F5F5F5F5F5F5F5F5F5F5F5F5F5F5F5F5F5F5F5F5F5F5F5F5F5F5F5F5F5F5F5F5F5F5F5F5F5F5F5F5F5F5F5F5F5F5F5F5F5F5F5F5F5F5F5F5F5F5F5F5F5F5F5F5F5F5F5F5F5F5F5F5F5F5F5F5F5F5F5F5F5F5F5F5F5F5F5F5F5F5F5F5F5F5F5F5E2F5F5F5F5F5F5F5F5F5F5F5F5F5F5F5F5E2F5F5F5E2E2EFF5F5
310
F5E2F5F5F5F5F5F5F5F5F5F5F5F5F5F5F5F5E2F5F5F5F5F5F5F5F5F5F5F5F5F5F5F5F5F5F5F5F5F5F5F5F5F5F5F5F5F5F5F5F5F5F5F5F5F5F5F5F5F5F5F5F5F5F5F5F5F5F5F5F5F5F5F5F5F5F5F5F5F5F5F5F5F5F5F5F5F5F5F5F5F5F5F5F5F5F5F5F5F5F5F5F5F5F5F5F5F5F5F5F5F5F5F5F5F5F5F5F5F5F5F5F5F5F5F5F5
310
F5F5F5F5F5F5F5F5F5F5F5F5F5F5F5F5F5F5F5F5F5F5F5F5F5F5F5E2F5F5F5F5F5F5F5F5F5F5F5F5F5F5F5F5E2F5F5F5E2E2EFF5F5F5E2F5F5F5F5F5F5F5F5F5F5F5F5F5F5F5F5E2F5F5F5F5F5F5F5F5F5F5F5F5F5F5F5F5F5F5F5F5F5F5F5F5F5F5F5F5F5F5F5F5F5F5F5F5F5F5F5F5F5F5F5F5F5F5F5F5F5F5F5F5F5F5F5
310
F5F5F5F5F5F5F5F5F5F5F5F5F5F5F5F5F5F5F5F5F5F5F5F5F5F5F5F5F5F5F5F5F5F5F5F5F5F5F5F5F5F5F5F5F5F5F5F5F5F5F5F5F5F5F5F5F5F5F5F5F5F5F5F5F5F5F5F5F5F5F5F5F5F5F5F5F5F5F5F5E2F5F5F5F5F5F5F5F5F5F5F5F5F5F5F5F5E2F5F5F5E2E2EFF5F5F5E2F5F5F5F5F5F5F5F5F5F5F5F5F5F5F5F5E2F5F5
310
F5F5F5F5F5F5F5F5F5F5F5F5F5F5F5F5F5F5F5F5F5F5F5F5F5F5F5F5F5F5F5F5F5F5F5F5F5F5F5F5F5F5F5F5F5F5F5F5F5F5F5F5F5F5F5F5F5F5F5F5F5F5F5F5F5F5F5F5F5F5F5F5F5F5F5F5F5F5F5F5F5F5F5F5F5F5F5F5F5F5F5F5F5F5F5F5F5F5F5F5F5F5F5F5F5F5F5F5F5F5F5F5F5F5F5F5F5F5F5F5F5F5F5F5F5F5F5
310
F5F5F5F5F5F5E2F5F5F5F5F5F5F5F5F5F5F5F5F5F5F5F5E2F5F5F5E2E2EFF5F5F5E2F5F5F5F5F5F5F5F5F5F5F5F5F5F5F5F5E2F5F5F5F5F5F5F5F5F5F5F5F5F5F5F5F5F5F5F5F5F5F5F5F5F5F5F5F5F5F5F5F5F5F5F5F5F5F5F5F5F5F5F5F5F5F5F5F5F5F5F5F5F5F5F5F5F5F5F5F5F5F5F5F5F5F5F5F5F5F5F5F5F5F5F5F5
310
F5F5F5F5F5F5F5F5F5F5F5F5F5F5F5F5F5F5F5F5F5F5F5F5F5F5F5F5F5F5F5F5F5F5F5F5F5F5F5F5F5F5F5F5F5F5F5F5F5F5F5F5F5F5F5F5F5F5F5E2F5F5F5F5F5F5F5F5F5F5F5F5F5F5F5F5E2F5F5F5E2E2EFF5F5F5F5F5F5F5F5F5F5F5F5F5F5F5F5F5F5F5F5E2F5F5F5F5F5F5F5F5F5F5F5F5F5F5F5F5F5F5F5F5F5F5F5
310
F5F5F5F5F5F5F5F5F5F5F5F5F5F5F5F5F5F5F5F5F5F5F5F5F5F5F5F5F5F5F5F5F5F5F5F5F5F5F5F5F5F5F5F5F5F5F5F5F5F5F5F5F5F5F5F5F5F5F5F5F5F5F5F5F5F5F5F5F5F5F5F5F5F5F5F5F5F5F5F5F5F5F5F5F5F5F5F5F5F5F5F5F5F5F5F5F5F5F5F5F5F5F5F5F5F5F5F5F5F5F5F5E2F5F5F5F5F5F5F5F5F5F5F5F5F5F5
310
F5F5F5F5F5F5E2E2EFF5F5F5F5F5F5F5F5F5F5F5F5F5F5F5F5F5F5F5F5E2F5F5F5F5F5F5F5F5F5F5F5F5F5F5F5F5F5F5F5F5F5F5F5F5F5F5F5F5F5F5F5F5F5F5F5F5F5F5F5F5F5F5F5F5F5F5F5F5F5F5F5F5F5F5F5F5F5F5F5F5F5F5F5F5F5F5F5F5F5F5F5F5F5F5F5F5F5F5F5F5F5F5F5F5F5F5F5F5F5F5F5F5F5F5F5F5F5
310
F5F5F5F5F5F5F5F5F5F5F5F5F5F5F5F5F5F5F5F5F5F5F5F5F5F5F5F5F5F5F5F5F5F5F5F5F5F5E2F5F5F5F5F5F5F5F5F5F5F5F5F5F5F5F5F5F5F5F5E2E2EFF5F5F5F5F5F5F5F5F5F5F5F5F5F5F5F5F5F5F5F5E2F5F5F5F5F5F5F5F5F5F5F5F5F5F5F5F5F5F5F5F5F5F5F5F5F5F5F5F5F5F5F5F5F5F5F5F5F5F5F5F5F5F5F5F5
310
F5F5F5F5F5F5F5F5F5F5F5F5F5F5F5F5F5F5F5F5F5F5F5F5F5F5F5F5F5F5F5F5F5F5F5F5F5F5F5F5F5F5F5F5F5F5F5F5F5F5F5F5F5F5F5F5F5F5F5F5F5F5F5F5F5F5F5F5F5F5F5F5F5F5F5F5F5F5F5F5F5F5F5F5F5F5F5F5F5F5F5E2F5F5F5F5F5F5F5F5F5F5F5F5F5F5F5F5F5F5F5F5E2E2EFF5F5F5F5F5F5F5F5F5F5F5F5
310
F5F5F5F5F5F5F5F5E2F5F5F5F5F5F5F5F5F5F5F5F5F5F5F5F5F5F5F5F5F5F5F5F5F5F5F5F5F5F5F5F5F5F5F5F5F5F5F5F5F5F5F5F5F5F5F5F5F5F5F5F5F5F5F5F5F5F5F5F5F5F5F5F5F5F5F5F5F5F5F5F5F5F5F5F5F5F5F5F5F5F5F5F5F5F5F5F5F5F5F5F5F5F5F5F5F5F5F5F5F5F5F5F5F5F5F5F5F5F5F5F5F5F5F5F5F5F5
310
F5F5F5F5F5F5F5F5F5F5F5F5F5F5F5F5F5E2F5F5F5F5F5F5F5F5F5F5F5F5F5F5F5F5F5F5F5F5E2E2EFF5F5F5F5F5F5F5F5F5F5F5F5F5F5F5F5F5F5F5F5E2F5F5F5F5F5F5F5F5F5F5F5F5F5F5F5F5F5F5F5F5F5F5F5F5F5F5F5F5F5F5F5F5F5F5F5F5F5F5F5F5F5F5F5F5F5F5F5F5F5F5F5F5F5F5F5F5F5F5F5F5F5F5F5F5F5
310
F5F5F5F5F5F5F5F5F5F5F5F5F5F5F5F5F5F5F5F5F5F5F5F5F5F5F5F5F5F5F5F5F5F5F5F5F5F5F5F5F5F5F5F5F5F5F5F5F5F5F5F5F5F5F5F5F5F5F5F5F5F5F5F5F5F5F5F5F5F5E2F5F5F5F5F5F5F5F5F5F5F5F5F5F5F5F5F5F5F5F5E2E2EFF5F5F5F5F5F5F5F5F5F5F5F5F5F5F5F5F5F5F5F5E2F5F5F5F5F5F5F5F5F5F5F5F5
310
F5F5F5F5F5F5F5F5F5F5F5F5F5F5F5F5F5F5F5F5F5F5F5F5F5F5F5F5F5F5F5F5F5F5F5F5F5F5F5F5F5F5F5F5F5F5F5F5F5F5F5F5F5F5F5F5F5F5F5F5F5F5F5F5F5F5F5F5F5F5F5F5F5F5F5F5F5F5F5F5F5F5F5F5F5F5F5F5F5F5F5F5F5F5F5F5F5F5F5F5F5F5F5F5F5F5F5F5F5F5F5F5F5F5F5F5F5F5F5F5F5F5F5E2F5F5F5
310
F5F5F5F5F5F5F5F5F5F5F5F5F5F5F5F5F5E2E2EFF5F5F5F5F5F5F5F5F5F5F5F5F5F5F5F5F5F5F5F5E2F5F5F5F5F5F5F5F5F5F5F5F5F5F5F5F5F5F5F5F5F5F5F5F5F5F5F5F5F5F5F5F5F5F5F5F5F5F5F5F5F5F5F5F5F5F5F5F5F5F5F5F5F5F5F5F5F5F5F5F5F5F5F5F5F5F5F5F5F5F5F5F5F5F5F5F5F5F5F5F5F5F5F5F5F5F5
310
F5F5F5F5F5F5F5F5F5F5F5F5F5F5F5F5F5F5F5F5F5F5F5F5F5F5F5F5F5F5F5F5F5F5F5F5F5F5F5F5F5F5F5F5F5F5F5F5F5E2F5F5F5F5F5F5F5F5F5F5F5F5F5F5F5F5F5F5F5F5E2E2EFF5F5F5F5F5F5F5F5F5F5F5F5F5F5F5F5F5F5F5F5E2F5F5F5F5F5F5F5F5F5F5F5F5F5F5F5F5F5F5F5F5F5F5F5F5F5F5F5F5F5F5F5F5F5
310
F5F5F5F5F5F5F5F5F5F5F5F5F5F5F5F5F5F5F5F5F5F5F5F5F5F5F5F5F5F5F5F5F5F5F5F5F5F5F5F5F5F5F5F5F5F5F5F5F5F5F5F5F5F5F5F5F5F5F5F5F5F5F5F5F5F5F5F5F5F5F5F5F5F5F5F5F5F5F5F5F5F5F5F5F5F5F5F5F5F5F5F5F5F5F5F5F5F5F5F5F5F5E2F5F5F5F5F5F5F5F5F5F5F5F5F5F5F5F5F5F5F5F5E2E2EFF5
310
F5F5F5F5F5F5F5F5F5F5F5F5F5F5F5F5F5F5F5E2F5F5F5F5F5F5F5F5F5F5F5F5F5F5F5F5F5F5F5F5F5F5F5F5F5F5F5F5F5F5F5F5F5F5F5F5F5F5F5F5F5F5F5F5F5F5F5F5F5F5F5F5F5F5F5F5F5F5F5F5F5F5F5F5F5F5F5F5F5F5F5F5F5F5F5F5F5F5F5F5F5F5F5F5F5F5F5F5F5F5F5F5F5F5F5F5F5F5F5F5F5F5F5F5F5F5F5
310
F5F5F5F5F5F5F5F5F5F5F5F5F5F5F5F5F5F5F5F5F5F5F5F5F5F5F5F5E2F5F5F5F5F5F5F5F5F5F5F5F5F5F5F5F5F5F5F5F5E2E2EFF5F5F5E2F5F5F5F5F5F5F5F5F5F5F5F5F5F5F5F5E2F5F5F5F5F5F5F5F5F5F5F5F5F5F5F5F5F5F5F5F5F5F5F5F5F5F5F5F5F5F5F5F5F5F5F5F5F5F5F5F5F5F5F5F5F5F5F5F5F5F5F5F5F5F5
310
F5F5F5F5F5F5F5F5F5F5F5F5F5F5F5F5F5F5F5F5F5F5F5F5F5F5F5F5F5F5F5F5F5F5F5F5F5F5F5F5F5F5F5F5F5F5F5F5F5F5F5F5F5F5F5F5F5F5F5F5F5F5F5F5F5F5F5F5F5F5F5F5F5F5F5F5F5F5F5F5F5E2F5F5F5F5F5F5F5F5F5F5F5F5F5F5F5F5E2F5F5F5E2E2EFF5F5F5E2F5F5F5F5F5F5F5F5F5F5F5F5F5F5F5F5E2F5
310
F5F5F5F5F5F5F5F5F5F5F5F5F5F5F5F5F5F5F5F5F5F5F5F5F5F5F5F5F5F5F5F5F5F5F5F5F5F5F5F5F5F5F5F5F5F5F5F5F5F5F5F5F5F5F5F5F5F5F5F5F5F5F5F5F5F5F5F5F5F5F5F5F5F5F5F5F5F5F5F5F5F5F5F5F5F5F5F5F5F5F5F5F5F5F5F5F5F5F5F5F5F5F5F5F5F5F5F5F5F5F5F5F5F5F5F5F5F5F5F5F5F5F5F5F5F5F5
310
F5F5F5F5F5F5F5E2F5F5F5F5F5F5F5F5F5F5F5F5F5F5F5F5E2F5F5F5E2E2EFF5F5F5E2F5F5F5F5F5F5F5F5F5F5F5F5F5F5F5F5E2F5F5F5F5F5F5F5F5F5F5F5F5F5F5F5F5F5F5F5F5F5F5F5F5F5F5F5F5F5F5F5F5F5F5F5F5F5F5F5F5F5F5F5F5F5F5F5F5F5F5F5F5F5F5F5F5F5F5F5F5F5F5F5F5F5F5F5F5F5F5F5F5F5F5F5
310
F5F5F5F5F5F5F5F5F5F5F5F5F5F5F5F5F5F5F5F5F5F5F5F5F5F5F5F5F5F5F5F5F5F5F5F5F5F5F5F5F5F5F5F5F5F5F5F5F5F5F5F5F5F5F5F5F5F5F5F5E2F5F5F5F5F5F5F5F5F5F5F5F5F5F5F5F5E2F5F5F5E2E2EFF5F5F5E2F5F5F5F5F5F5F5F5F5F5F5F5F5F5F5F5E2F5F5F5F5F5F5F5F5F5F5F5F5F5F5F5F5F5F5F5F5F5F5
310
F5F5F5F5F5F5F5F5F5F5F5F5F5F5F5F5F5F5F5F5F5F5F5F5F5F5F5F5F5F5F5F5F5F5F5F5F5F5F5F5F5F5F5F5F5F5F5F5F5F5F5F5F5F5F5F5F5F5F5F5F5F5F5F5F5F5F5F5F5F5F5F5F5F5F5F5F5F5F5F5F5F5F5F5F5F5F5F5F5F5F5F5F5F5F5F5F5F5F5F5F5F5F5F5F5F5F5F5F5F5F5F5F5E2F5F5F5F5F5F5F5F5F5F5F5F5F5
310
F5F5F5E2F5F5F5E2E2EFF5F5F5E2F5F5F5F5F5F5F5F5F5F5F5F5F5F5F5F5E2F5F5F5F5F5F5F5F5F5F5F5F5F5F5F5F5F5F5F5F5F5F5F5F5F5F5F5F5F5F5F5F5F5F5F5F5F5F5F5F5F5F5F5F5F5F5F5F5F5F5F5F5F5F5F5F5F5F5F5F5F5F5F5F5F5F5F5F5F5F5F5F5F5F5F5F5F5F5F5F5F5F5F5F5F5F5F5F5F5F5F5F5F5F5F5F5
310
F5F5F5F5F5F5F5F5F5F5F5F5F5F5F5F5F5F5F5F5F5F5F5F5F5F5F5F5F5F5F5F5F5F5F5F5F5F5F5E2F5F5F5F5F5F5F5F5F5F5F5F5F5F5F5F5E2F5F5F5E2E2EFF5F5F5E2F5F5F5F5F5F5F5F5F5F5F5F5F5F5F5F5E2F5F5F5F5F5F5F5F5F5F5F5F5F5F5F5F5F5F5F5F5F5F5F5F5F5F5F5F5F5F5F5F5F5F5F5F5F5F5F5F5F5F5F5
310
F5F5F5F5F5F5F5F5F5F5F5F5F5F5F5F5F5F5F5F5F5F5F5F5F5F5F5F5F5F5F5F5F5F5F5F5F5F5F5F5F5F5F5F5F5F5F5F5F5F5F5F5F5F5F5F5F5F5F5F5F5F5F5F5F5F5F5F5F5F5F5F5F5F5F5F5F5F5F5F5F5F5F5F5F5F5F5F5F5F5F5F5E2F5F5F5F5F5F5F5F5F5F5F5F5F5F5F5F5E2F5F5F5E2E2EFF5F5F5E2F5F5F5F5F5F5F5
310
F5F5F5F5F5F5F5F5F5E2F5F5F5F5F5F5F5F5F5F5F5F5F5F5F5F5F5F5F5F5F5F5F5F5F5F5F5F5F5F5F5F5F5F5F5F5F5F5F5F5F5F5F5F5F5F5F5F5F5F5F5F5F5F5F5F5F5F5F5F5F5F5F5F5F5F5F5F5F5F5F5F5F5F5F5F5F5F5F5F5F5F5F5F5F5F5F5F5F5F5F5F5F5F5F5F5F5F5F5F5F5F5F5F5F5F5F5F5F5F5F5F5F5F5F5F5F5
310
F5F5F5F5F5F5F5F5F5F5F5F5F5F5F5F5F5F5E2F5F5F5F5F5F5F5F5F5F5F5F5F5F5F5F5E2F5F5F5E2E2EFF5F5F5E2F5F5F5F5F5F5F5F5F5F5F5F5F5F5F5F5E2F5F5F5F5F5F5F5F5F5F5F5F5F5F5F5F5F5F5F5F5F5F5F5F5F5F5F5F5F5F5F5F5F5F5F5F5F5F5F5F5F5F5F5F5F5F5F5F5F5F5F5F5F5F5F5F5F5F5F5F5F5F5F5F5
310
F5F5F5F5F5F5F5F5F5F5F5F5F5F5F5F5F5F5F5F5F5F5F5F5F5F5F5F5F5F5F5F5F5F5F5F5F5F5F5F5F5F5F5F5F5F5F5F5F5F5F5F5F5F5F5F5F5F5F5F5F5F5F5F5F5F5F5F5F5F5F5E2F5F5F5F5F5F5F5F5F5F5F5F5F5F5F5F5E2F5F5F5E2E2EFF5F5F5E2F5F5F5F5F5F5F5F5F5F5F5F5F5F5F5F5E2F5F5F5F5F5F5F5F5F5F5F5
310
F5F5F5F5F5F5F5F5F5F5F5F5F5F5F5F5F5F5F5F5F5F5F5F5F5F5F5F5F5F5F5F5F5F5F5F5F5F5F5F5F5F5F5F5F5F5F5F5F5F5F5F5F5F5F5F5F5F5F5F5F5F5F5F5F5F5F5F5F5F5F5F5F5F5F5F5F5F5F5F5F5F5F5F5F5F5F5F5F5F5F5F5F5F5F5F5F5F5F5F5F5F5F5F5F5F5F5F5F5F5F5F5F5F5F5F5F5F5F5F5F5F5F5F5E2F5F5
310
F5F5F5F5F5F5F5F5F5F5F5F5F5F5E2F5F5F5E2E2EFF5F5F5E2F5F5F5F5F5F5F5F5F5F5F5F5F5F5F5F5E2F5F5F5F5F5F5F5F5F5F5F5F5F5F5F5F5F5F5F5F5F5F5F5F5F5F5F5F5F5F5F5F5F5F5F5F5F5F5F5F5F5F5F5F5F5F5F5F5F5F5F5F5F5F5F5F5F5F5F5F5F5F5F5F5F5F5F5F5F5F5F5F5F5F5F5F5F5F5F5F5F5F5F5F5F5
310
F5F5F5F5F5F5F5F5F5F5F5F5F5F5F5F5F5F5F5F5F5F5F5F5F5F5F5F5F5F5F5F5F5F5F5F5F5F5F5F5F5F5F5F5F5F5F5F5F5F5E2F5F5F5F5F5F5F5F5F5F5F5F5F5F5F5F5E2F5F5F5E2E2EFF5F5F5E2F5F5F5F5F5F5F5F5F5F5F5F5F5F5F5F5E2F5F5F5F5F5F5F5F5F5F5F5F5F5F5F5F5F5F5F5F5F5F5F5F5F5F5F5F5F5F5F5F5
310
F5F5F5F5F5F5F5F5F5F5F5F5F5F5F5F5F5F5F5F5F5F5F5F5F5F5F5F5F5F5F5F5F5F5F5F5F5F5F5F5F5F5F5F5F5F5F5F5F5F5F5F5F5F5F5F5F5F5F5F5F5F5F5F5F5F5F5F5F5F5F5F5F5F5F5F5F5F5F5F5F5F5F5F5F5F5F5F5F5F5F5F5F5F5F5F5F5F5F5F5F5F5F5E2F5F5F5F5F5F5F5F5F5F5F5F5F5F5F5F5E2F5F5F5E2E2EF
310
F5F5F5E2F5F5F5F5F5F5F5F5F5F5F5F5F5F5F5F5E2F5F5F5F5F5F5F5F5F5F5F5F5F5F5F5F5F5F5F5F5F5F5F5F5F5F5F5F5F5F5F5F5F5F5F5F5F5F5F5F5F5F5F5F5F5F5F5F5F5F5F5F5F5F5F5F5F5F5F5F5F5F5F5F5F5F5F5F5F5F5F5F5F5F5F5F5F5F5F5F5F5F5F5F5F5F5F5F5F5F5F5F5F5F5F5F5F5F5F5F5F5F5F5F5F5F5
310
F5F5F5F5F5F5F5F5F5F5F5F5F5F5F5F5F5F5F5F5F5F5F5F5F5F5F5F5F5E2F5F5F5F5F5F5F5F5F5F5F5F5F5F5F5F5E2F5F5F5E2E2EFF5F5F5E2F5F5F5F5F5F5F5F5F5F5F5F5F5F5F5F5E2F5F5F5F5F5F5F5F5F5F5F5F5F5F5F5F5F5F5F5F5F5F5F5F5F5F5F5F5F5F5F5F5F5F5F5F5F5F5F5F5F5F5F5F5F5F5F5F5F5F5F5F5F5
310
F5F5F5F5F5F5F5F5F5F5F5F5F5F5F5F5F5F5F5F5F5F5F5F5F5F5F5F5F5F5F5F5F5F5F5F5F5F5F5F5F5F5F5F5F5F5F5F5F5F5F5F5F5F5F5F5F5F5F5F5F5F5F5F5F5F5F5F5F5F5F5F5F5F5F5F5F5F5F5F5F5F5E2F5F5F5F5F5F5F5F5F5F5F5F5F5F5F5F5E2F5F5F5E2E2EFF5F5F5E2F5F5F5F5F5F5F5F5F5F5F5F5F5F5F5F5E2
310
F5F5F5F5F5F5F5F5F5F5F5F5F5F5F5F5F5F5F5F5F5F5F5F5F5F5F5F5F5F5F5F5F5F5F5F5F5F5F5F5F5F5F5F5F5F5F5F5F5F5F5F5F5F5F5F5F5F5F5F5F5F5F5F5F5F5F5F5F5F5F5F5F5F5F5F5F5F5F5F5F5F5F5F5F5F5F5F5F5F5F5F5F5F5F5F5F5F5F5F5F5F5F5F5F5F5F5F5F5F5F5F5F5F5F5F5F5F5F5F5F5F5F5F5F5F5F5
310
F5F5F5F5F5F5F5F5E2F5F5F5F5F5F5F5F5F5F5F5F5F5F5F5F5E2F5F5F5E2E2EFF5F5F5E2F5F5F5F5F5F5F5F5F5F5F5F5F5F5F5F5E2F5F5F5F5F5F5F5F5F5F5F5F5F5F5F5F5F5F5F5F5F5F5F5F5F5F5F5F5F5F5F5F5F5F5F5F5F5F5F5F5F5F5F5F5F5F5F5F5F5F5F5F5F5F5F5F5F5F5F5F5F5F5F5F5F5F5F5F5F5F5F5F5F5F5
310
F5F5F5F5F5F5F5F5F5F5F5F5F5F5F5F5F5F5F5F5F5F5F5F5F5F5F5F5F5F5F5F5F5F5F5F5F5F5F5F5F5F5F5F5F5F5F5F5F5F5F5F5F5F5F5F5F5F5F5F5F5E2F5F5F5F5F5F5F5F5F5F5F5F5F5F5F5F5E2F5F5F5E2E2EFF5F5F5E2F5F5F5F5F5F5F5F5F5F5F5F5F5F5F5F5E2F5F5F5F5F5F5F5F5F5F5F5F5F5F5F5F5F5F5F5F5F5
310
F5F5F5F5F5F5F5F5F5F5F5F5F5F5F5F5F5F5F5F5F5F5F5F5F5F5F5F5F5F5F5F5F5F5F5F5F5F5F5F5F5F5F5F5F5F5F5F5F5F5F5F5F5F5F5F5F5F5F5F5F5F5F5F5F5F5F5F5F5F5F5F5F5F5F5F5F5F5F5F5F5F5F5F5F5F5F5F5F5F5F5F5F5F5F5F5F5F5F5F5F5F5F5F5F5F5F5F5F5F5F5F5F5F5E2F5F5F5F5F5F5F5F5F5F5F5F5
310
F5F5F5F5E2F5F5F5E2E2EFF5F5F5E2F5F5F5F5F5F5F5F5F5F5F5F5F5F5F5F5E2F5F5F5F5F5F5F5F5F5F5F5F5F5F5F5F5F5F5F5F5F5F5F5F5F5F5F5F5F5F5F5F5F5F5F5F5F5F5F5F5F5F5F5F5F5F5F5F5F5F5F5F5F5F5F5F5F5F5F5F5F5F5F5F5F5F5F5F5F5F5F5F5F5F5F5F5F5F5F5F5F5F5F5F5F5F5F5F5F5F5F5F5F5F5F5
310
F5F5F5F5F5F5F5F5F5F5F5F5F5F5F5F5F5F5F5F5F5F5F5F5F5F5F5F5F5F5F5F5F5F5F5F5F5F5F5F5E2F5F5F5F5F5F5F5F5F5F5F5F5F5F5F5F5E2F5F5F5E2E2EFF5F5F5F5F5F5F5F5F5F5F5F5F5F5F5F5F5F5F5F5E2F5F5F5F5F5F5F5F5F5F5F5F5F5F5F5F5F5F5F5F5F5F5F5F5F5F5F5F5F5F5F5F5F5F5F5F5F5F5F5F5F5F5
310
F5F5F5F5F5F5F5F5F5F5F5F5F5F5F5F5F5F5F5F5F5F5F5F5F5F5F5F5F5F5F5F5F5F5F5F5F5F5F5F5F5F5F5F5F5F5F5F5F5F5F5F5F5F5F5F5F5F5F5F5F5F5F5F5F5F5F5F5F5F5F5F5F5F5F5F5F5F5F5F5F5F5F5F5F5F5F5F5F5F5F5F5F5E2F5F5F5F5F5F5F5F5F5F5F5F5F5F5F5F5F5F5F5F5E2E2EFF5F5F5F5F5F5F5F5F5F5
310
F5F5F5F5F5F5F5F5F5F5E2F5F5F5F5F5F5F5F5F5F5F5F5F5F5F5F5F5F5F5F5F5F5F5F5F5F5F5F5F5F5F5F5F5F5F5F5F5F5F5F5F5F5F5F5F5F5F5F5F5F5F5F5F5F5F5F5F5F5F5F5F5F5F5F5F5F5F5F5F5F5F5F5F5F5F5F5F5F5F5F5F5F5F5F5F5F5F5F5F5F5F5F5F5F5F5F5F5F5F5F5F5F5F5F5F5F5F5F5F5F5F5F5F5F5F5F5
310
F5F5F5F5F5F5F5F5F5F5F5F5F5F5F5F5F5F5F5E2F5F5F5F5F5F5F5F5F5F5F5F5F5F5F5F5F5F5F5F5E2E2EFF5F5F5F5F5F5F5F5F5F5F5F5F5F5F5F5F5F5F5F5E2F5F5F5F5F5F5F5F5F5F5F5F5F5F5F5F5F5F5F5F5F5F5F5F5F5F5F5F5F5F5F5F5F5F5F5F5F5F5F5F5F5F5F5F5F5F5F5F5F5F5F5F5F5F5F5F5F5F5F5F5F5F5F5
310
F5F5F5F5F5F5F5F5F5F5F5F5F5F5F5F5F5F5F5F5F5F5F5F5F5F5F5F5F5F5F5F5F5F5F5F5F5F5F5F5F5F5F5F5F5F5F5F5F5F5F5F5F5F5F5F5F5F5F5F5F5F5F5F5F5F5F5F5F5F5F5F5E2F5F5F5F5F5F5F5F5F5F5F5F5F5F5F5F5F5F5F5F5E2E2EFF5F5F5F5F5F5F5F5F5F5F5F5F5F5F5F5F5F5F5F5E2F5F5F5F5F5F5F5F5F5F5
310
F5F5F5F5F5F5F5F5F5F5F5F5F5F5F5F5F5F5F5F5F5F5F5F5F5F5F5F5F5F5F5F5F5F5F5F5F5F5F5F5F5F5F5F5F5F5F5F5F5F5F5F5F5F5F5F5F5F5F5F5F5F5F5F5F5F5F5F5F5F5F5F5F5F5F5F5F5F5F5F5F5F5F5F5F5F5F5F5F5F5F5F5F5F5F5F5F5F5F5F5F5F5F5F5F5F5F5F5F5F5F5F5F5F5F5F5F5F5F5F5F5F5F5F5F5E2F5
310
F5F5F5F5F5F5F5F5F5F5F5F5F5F5F5F5F5F5F5E2E2EFF5F5F5F5F5F5F5F5F5F5F5F5F5F5F5F5F5F5F5F5E2F5F5F5F5F5F5F5F5F5F5F5F5F5F5F5F5F5F5F5F5F5F5F5F5F5F5F5F5F5F5F5F5F5F5F5F5F5F5F5F5F5F5F5F5F5F5F5F5F5F5F5F5F5F5F5F5F5F5F5F5F5F5F5F5F5F5F5F5F5F5F5F5F5F5F5F5F5F5F5F5F5F5F5F5
310
F5F5F5F5F5F5F5F5F5F5F5F5F5F5F5F5F5F5F5F5F5F5F5F5F5F5F5F5F5F5F5F5F5F5F5F5F5F5F5F5F5F5F5F5F5F5F5F5F5F5F5E2F5F5F5F5F5F5F5F5F5F5F5F5F5F5F5F5F5F5F5F5E2E2EFF5F5F5F5F5F5F5F5F5F5F5F5F5F5F5F5F5F5F5F5E2F5F5F5F5F5F5F5F5F5F5F5F5F5F5F5F5F5F5F5F5F5F5F5F5F5F5F5F5F5F5F5
310
F5F5F5F5F5F5F5F5F5F5F5F5F5F5F5F5F5F5F5F5F5F5F5F5F5F5F5F5F5F5F5F5F5F5F5F5F5F5F5F5F5F5F5F5F5F5F5F5F5F5F5F5F5F5F5F5F5F5F5F5F5F5F5F5F5F5F5F5F5F5F5F5F5F5F5F5F5F5F5F5F5F5F5F5F5F5F5F5F5F5F5F5F5F5F5F5F5F5F5F5F5F5F5F5E2F5F5F5F5F5F5F5F5F5F5F5F5F5F5F5F5F5F5F5F5E2E2
310
EFF5F5F5F5F5F5F5F5F5F5F5F5F5F5F5F5F5F5F5F5E2F5F5F5F5F5F5F5F5F5F5F5F5F5F5F5F5F5F5F5F5F5F5F5F5F5F5F5F5F5F5F5F5F5F5F5F5F5F5F5F5F5F5F5F5F5F5F5F5F5F5F5F5F5F5F5F5F5F5F5F5F5F5F5F5F5F5F5F5F5F5F5F5F5F5F5F5F5F5F5F5F5F5F5F5F5F5F5F5F5F5F5F5F5F5F5F5F5F5F5F5F5F5F5F5F5
310
F5F5F5F5F5F5F5F5F5F5F5F5F5F5F5F5F5F5F5F5F5F5F5F5F5F5F5F5F5F5E2F5F5F5F5F5F5F5F5F5F5F5F5F5F5F5F5F5F5F5F5E2E2EFF5F5F5F5F5F5F5F5F5F5F5F5F5F5F5F5F5F5F5F5E2F5F5F5F5F5F5F5F5F5F5F5F5F5F5F5F5F5F5F5F5F5F5F5F5F5F5F5F5F5F5F5F5F5F5F5F5F5F5F5F5F5F5F5F5F5F5F5F5F5F5F5F5
310
F5F5F5F5F5F5F5F5F5F5F5F5F5F5F5F5F5F5F5F5F5F5F5F5F5F5F5F5F5F5F5F5F5F5F5F5F5F5F5F5F5F5F5F5F5F5F5F5F5F5F5F5F5F5F5F5F5F5F5F5F5F5F5F5F5F5F5F5F5F5F5F5F5F5F5F5F5F5F5F5F5F5F5E2F5F5F5F5F5F5F5F5F5F5F5F5F5F5F5F5F5F5F5F5E2E2EFF5F5F5F5F5F5F5F5F5F5F5F5F5F5F5F5F5F5F5F5
310
E2F5F5F5F5F5F5F5F5F5F5F5F5F5F5F5F5F5F5F5F5F5F5F5F5F5F5F5F5F5F5F5F5F5F5F5F5F5F5F5F5F5F5F5F5F5F5F5F5F5F5F5F5F5F5F5F5F5F5F5F5F5F5F5F5F5F5F5F5F5F5F5F5F5F5F5F5F5F5F5F5F5F5F5F5F5F5F5F5F5F5F5F5F5F5F5F5F5F5F5F5F5F5F5F5F5F5F5F5F5F5F5F5F5F5F5F5F5F5F5F5F5F5F5F5F5F5
310
F5F5F5F5F5F5F5F5F5E2F5F5F5F5F5F5F5F5F5F5F5F5F5F5F5F5F5F5F5F5E2E2EFF5F5F5E2F5F5F5F5F5F5F5F5F5F5F5F5F5F5F5F5E2F5F5F5F5F5F5F5F5F5F5F5F5F5F5F5F5F5F5F5F5F5F5F5F5F5F5F5F5F5F5F5F5F5F5F5F5F5F5F5F5F5F5F5F5F5F5F5F5F5F5F5F5F5F5F5F5F5F5F5F5F5F5F5F5F5F5F5F5F5F5F5F5F5
310
F5F5F5F5F5F5F5F5F5F5F5F5F5F5F5F5F5F5F5F5F5F5F5F5F5F5F5F5F5F5F5F5F5F5F5F5F5F5F5F5F5F5F5F5F5F5F5F5F5F5F5F5F5F5F5F5F5F5F5F5F5F5E2F5F5F5F5F5F5F5F5F5F5F5F5F5F5F5F5E2F5F5F5E2E2EFF5F5F5E2F5F5F5F5F5F5F5F5F5F5F5F5F5F5F5F5E2F5F5F5F5F5F5F5F5F5F5F5F5F5F5F5F5F5F5F5F5
310
F5F5F5F5F5F5F5F5F5F5F5F5F5F5F5F5F5F5F5F5F5F5F5F5F5F5F5F5F5F5F5F5F5F5F5F5F5F5F5F5F5F5F5F5F5F5F5F5F5F5F5F5F5F5F5F5F5F5F5F5F5F5F5F5F5F5F5F5F5F5F5F5F5F5F5F5F5F5F5F5F5F5F5F5F5F5F5F5F5F5F5F5F5F5F5F5F5F5F5F5F5F5F5F5F5F5F5F5F5F5F5F5F5F5F5E2F5F5F5F5F5F5F5F5F5F5F5
310
F5F5F5F5F5E2F5F5F5E2E2EFF5F5F5E2F5F5F5F5F5F5F5F5F5F5F5F5F5F5F5F5E2F5F5F5F5F5F5F5F5F5F5F5F5F5F5F5F5F5F5F5F5F5F5F5F5F5F5F5F5F5F5F5F5F5F5F5F5F5F5F5F5F5F5F5F5F5F5F5F5F5F5F5F5F5F5F5F5F5F5F5F5F5F5F5F5F5F5F5F5F5F5F5F5F5F5F5F5F5F5F5F5F5F5F5F5F5F5F5F5F5F5F5F5F5F5
310
F5F5F5F5F5F5F5F5F5F5F5F5F5F5F5F5F5F5F5F5F5F5F5F5F5F5F5F5F5F5F5F5F5F5F5F5F5F5F5F5F5E2F5F5F5F5F5F5F5F5F5F5F5F5F5F5F5F5E2F5F5F5E2E2EFF5F5F5E2F5F5F5F5F5F5F5F5F5F5F5F5F5F5F5F5E2F5F5F5F5F5F5F5F5F5F5F5F5F5F5F5F5F5F5F5F5F5F5F5F5F5F5F5F5F5F5F5F5F5F5F5F5F5F5F5F5F5
310
F5F5F5F5F5F5F5F5F5F5F5F5F5F5F5F5F5F5F5F5F5F5F5F5F5F5F5F5F5F5F5F5F5F5F5F5F5F5F5F5F5F5F5F5F5F5F5F5F5F5F5F5F5F5F5F5F5F5F5F5F5F5F5F5F5F5F5F5F5F5F5F5F5F5F5F5F5F5F5F5F5F5F5F5F5F5F5F5F5F5F5F5F5F5E2F5F5F5F5F5F5F5F5F5F5F5F5F5F5F5F5E2F5F5F5E2E2EFF5F5F5E2F5F5F5F5F5
310
F5F5F5F5F5F5F5F5F5F5F5E2F5F5F5F5F5F5F5F5F5F5F5F5F5F5F5F5F5F5F5F5F5F5F5F5F5F5F5F5F5F5F5F5F5F5F5F5F5F5F5F5F5F5F5F5F5F5F5F5F5F5F5F5F5F5F5F5F5F5F5F5F5F5F5F5F5F5F5F5F5F5F5F5F5F5F5F5F5F5F5F5F5F5F5F5F5F5F5F5F5F5F5F5F5F5F5F5F5F5F5F5F5F5F5F5F5F5F5F5F5F5F5F5F5F5F5
310
F5F5F5F5F5F5F5F5F5F5F5F5F5F5F5F5F5F5F5F5E2F5F5F5F5F5F5F5F5F5F5F5F5F5F5F5F5E2F5F5F5E2E2EFF5F5F5E2F5F5F5F5F5F5F5F5F5F5F5F5F5F5F5F5E2F5F5F5F5F5F5F5F5F5F5F5F5F5F5F5F5F5F5F5F5F5F5F5F5F5F5F5F5F5F5F5F5F5F5F5F5F5F5F5F5F5F5F5F5F5F5F5F5F5F5F5F5F5F5F5F5F5F5F5F5F5F5
310
F5F5F5F5F5F5F5F5F5F5F5F5F5F5F5F5F5F5F5F5F5F5F5F5F5F5F5F5F5F5F5F5F5F5F5F5F5F5F5F5F5F5F5F5F5F5F5F5F5F5F5F5F5F5F5F5F5F5F5F5F5F5F5F5F5F5F5F5F5F5F5F5F5E2F5F5F5F5F5F5F5F5F5F5F5F5F5F5F5F5E2F5F5F5E2E2EFF5F5F5E2F5F5F5F5F5F5F5F5F5F5F5F5F5F5F5F5E2F5F5F5F5F5F5F5F5F5
310
F5F5F5F5F5F5F5F5F5F5F5F5F5F5F5F5F5F5F5F5F5F5F5F5F5F5F5F5F5F5F5F5F5F5F5F5F5F5F5F5F5F5F5F5F5F5F5F5F5F5F5F5F5F5F5F5F5F5F5F5F5F5F5F5F5F5F5F5F5F5F5F5F5F5F5F5F5F5F5F5F5F5F5F5F5F5F5F5F5F5F5F5F5F5F5F5F5F5F5F5F5F5F5F5F5F5F5F5F5F5F5F5F5F5F5F5F5F5F5F5F5F5F5F5F5F5E2
310
F5F5F5F5F5F5F5F5F5F5F5F5F5F5F5F5E2F5F5F5E2E2EFF5F5F5E2F5F5F5F5F5F5F5F5F5F5F5F5F5F5F5F5E2F5F5F5F5F5F5F5F5F5F5F5F5F5F5F5F5F5F5F5F5F5F5F5F5F5F5F5F5F5F5F5F5F5F5F5F5F5F5F5F5F5F5F5F5F5F5F5F5F5F5F5F5F5F5F5F5F5F5F5F5F5F5F5F5F5F5F5F5F5F5F5F5F5F5F5F5F5F5F5F5F5F5F5
310
F5F5F5F5F5F5F5F5F5F5F5F5F5F5F5F5F5F5F5F5F5F5F5F5F5F5F5F5F5F5F5F5F5F5F5F5F5F5F5F5F5F5F5F5F5F5F5F5F5F5F5F5E2F5F5F5F5F5F5F5F5F5F5F5F5F5F5F5F5E2F5F5F5E2E2EFF5F5F5E2F5F5F5F5F5F5F5F5F5F5F5F5F5F5F5F5E2F5F5F5F5F5F5F5F5F5F5F5F5F5F5F5F5F5F5F5F5F5F5F5F5F5F5F5F5F5F5
310
F5F5F5F5F5F5F5F5F5F5F5F5F5F5F5F5F5F5F5F5F5F5F5F5F5F5F5F5F5F5F5F5F5F5F5F5F5F5F5F5F5F5F5F5F5F5F5F5F5F5F5F5F5F5F5F5F5F5F5F5F5F5F5F5F5F5F5F5F5F5F5F5F5F5F5F5F5F5F5F5F5F5F5F5F5F5F5F5F5F5F5F5F5F5F5F5F5F5F5F5F5F5F5F5F5E2F5F5F5F5F5F5F5F5F5F5F5F5F5F5F5F5E2F5F5F5E2
310
E2EFF5F5F5E2F5F5F5F5F5F5F5F5F5F5F5F5F5F5F5F5E2F5F5F5F5F5F5F5F5F5F5F5F5F5F5F5F5F5F5F5F5F5F5F5F5F5F5F5F5F5F5F5F5F5F5F5F5F5F5F5F5F5F5F5F5F5F5F5F5F5F5F5F5F5F5F5F5F5F5F5F5F5F5F5F5F5F5F5F5F5F5F5F5F5F5F5F5F5F5F5F5F5F5F5F5F5F5F5F5F5F5F5F5F5F5F5F5F5F5F5F5F5F5F5F5
310
F5F5F5F5F5F5F5F5F5F5F5F5F5F5F5F5F5F5F5F5F5F5F5F5F5F5F5F5F5F5F5E2F5F5F5F5F5F5F5F5F5F5F5F5F5F5F5F5E2F5F5F5E2E2EFF5F5F5E2F5F5F5F5F5F5F5F5F5F5F5F5F5F5F5F5E2F5F5F5F5F5F5F5F5F5F5F5F5F5F5F5F5F5F5F5F5F5F5F5F5F5F5F5F5F5F5F5F5F5F5F5F5F5F5F5F5F5F5F5F5F5F5F5F5F5F5F5
310
F5F5F5F5F5F5F5F5F5F5F5F5F5F5F5F5F5F5F5F5F5F5F5F5F5F5F5F5F5F5F5F5F5F5F5F5F5F5F5F5F5F5F5F5F5F5F5F5F5F5F5F5F5F5F5F5F5F5F5F5F5F5F5F5F5F5F5F5F5F5F5F5F5F5F5F5F5F5F5F5F5F5F5F5E2F5F5F5F5F5F5F5F5F5F5F5F5F5F5F5F5E2F5F5F5E2E2EFF5F5F5E2F5F5F5F5F5F5F5F5F5F5F5F5F5F5F5
310
F5E2F5F5F5F5F5F5F5F5F5F5F5F5F5F5F5F5F5F5F5F5F5F5F5F5F5F5F5F5F5F5F5F5F5F5F5F5F5F5F5F5F5F5F5F5F5F5F5F5F5F5F5F5F5F5F5F5F5F5F5F5F5F5F5F5F5F5F5F5F5F5F5F5F5F5F5F5F5F5F5F5F5F5F5F5F5F5F5F5F5F5F5F5F5F5F5F5F5F5F5F5F5F5F5F5F5F5F5F5F5F5F5F5F5F5F5F5F5F5F5F5F5F5F5F5F5
310
F5F5F5F5F5F5F5F5F5F5E2F5F5F5F5F5F5F5F5F5F5F5F5F5F5F5F5E2F5F5F5E2E2EFF5F5F5E2F5F5F5F5F5F5F5F5F5F5F5F5F5F5F5F5E2F5F5F5F5F5F5F5F5F5F5F5F5F5F5F5F5F5F5F5F5F5F5F5F5F5F5F5F5F5F5F5F5F5F5F5F5F5F5F5F5F5F5F5F5F5F5F5F5F5F5F5F5F5F5F5F5F5F5F5F5F5F5F5F5F5F5F5F5F5F5F5F5
310
F5F5F5F5F5F5F5F5F5F5F5F5F5F5F5F5F5F5F5F5F5F5F5F5F5F5F5F5F5F5F5F5F5F5F5F5F5F5F5F5F5F5F5F5F5F5F5F5F5F5F5F5F5F5F5F5F5F5F5F5F5F5F5E2F5F5F5F5F5F5F5F5F5F5F5F5F5F5F5F5E2F5F5F5E2E2EFF5F5F5E2F5F5F5F5F5F5F5F5F5F5F5F5F5F5F5F5E2F5F5F5F5F5F5F5F5F5F5F5F5F5F5F5F5F5F5F5
310
F5F5F5F5F5F5F5F5F5F5F5F5F5F5F5F5F5F5F5F5F5F5F5F5F5F5F5F5F5F5F5F5F5F5F5F5F5F5F5F5F5F5F5F5F5F5F5F5F5F5F5F5F5F5F5F5F5F5F5F5F5F5F5F5F5F5F5F5F5F5F5F5F5F5F5F5F5F5F5F5F5F5F5F5F5F5F5F5F5F5F5F5F5F5F5F5F5F5F5F5F5F5F5F5F5F5F5F5F5F5F5F5F5F5F5F5E2F5F5F5F5F5F5F5F5F5F5
310
F5F5F5F5F5F5E2F5F5F5E2E2EFF5F5F5E2F5F5F5F5F5F5F5F5F5F5F5F5F5F5F5F5E2F5F5F5F5F5F5F5F5F5F5F5F5F5F5F5F5F5F5F5F5F5F5F5F5F5F5F5F5F5F5F5F5F5F5F5F5F5F5F5F5F5F5F5F5F5F5F5F5F5F5F5F5F5F5F5F5F5F5F5F5F5F5F5F5F5F5F5F5F5F5F5F5F5F5F5F5F5F5F5F5F5F5F5F5F5F5F5F5F5F5F5F5F5
310
F5F5F5F5F5F5F5F5F5F5F5F5F5F5F5F5F5F5F5F5F5F5F5F5F5F5F5F5F5F5F5F5F5F5F5F5F5F5F5F5F5F5E2F5F5F5F5F5F5F5F5F5F5F5F5F5F5F5F5E2F5F5F5E2E2EFF5F5F5E2F5F5F5F5F5F5F5F5F5F5F5F5F5F5F5F5E2F5F5F5F5F5F5F5F5F5F5F5F5F5F5F5F5F5F5F5F5F5F5F5F5F5F5F5F5F5F5F5F5F5F5F5F5F5F5F5F5
310
F5F5F5F5F5F5F5F5F5F5F5F5F5F5F5F5F5F5F5F5F5F5F5F5F5F5F5F5F5F5F5F5F5F5F5F5F5F5F5F5F5F5F5F5F5F5F5F5F5F5F5F5F5F5F5F5F5F5F5F5F5F5F5F5F5F5F5F5F5F5F5F5F5F5F5F5F5F5F5F5F5F5F5F5F5F5F5F5F5F5F5F5F5F5F5E2F5F5F5F5F5F5F5F5F5F5F5F5F5F5F5F5E2F5F5F5E2E2EFF5F5F5E2F5F5F5F5
310
F5F5F5F5F5F5F5F5F5F5F5F5E2F5F5F5F5F5F5F5F5F5F5F5F5F5F5F5F5F5F5F5F5F5F5F5F5F5F5F5F5F5F5F5F5F5F5F5F5F5F5F5F5F5F5F5F5F5F5F5F5F5F5F5F5F5F5F5F5F5F5F5F5F5F5F5F5F5F5F5F5F5F5F5F5F5F5F5F5F5F5F5F5F5F5F5F5F5F5F5F5F5F5F5F5F5F5F5F5F5F5F5F5F5F5F5F5F5F5F5F5F5F5F5F5F5F5
310
F5F5F5F5F5F5F5F5F5F5F5F5F5F5F5F5F5F5F5F5F5E2F5F5F5F5F5F5F5F5F5F5F5F5F5F5F5F5E2F5F5F5E2E2EFF5F5F5F5F5F5F5F5F5F5F5F5F5F5F5F5F5F5F5F5E2F5F5F5F5F5F5F5F5F5F5F5F5F5F5F5F5F5F5F5F5F5F5F5F5F5F5F5F5F5F5F5F5F5F5F5F5F5F5F5F5F5F5F5F5F5F5F5F5F5F5F5F5F5F5F5F5F5F5F5F5F5
310
F5F5F5F5F5F5F5F5F5F5F5F5F5F5F5F5F5F5F5F5F5F5F5F5F5F5F5F5F5F5F5F5F5F5F5F5F5F5F5F5F5F5F5F5F5F5F5F5F5F5F5F5F5F5F5F5F5F5F5F5F5F5F5F5F5F5F5F5F5F5F5F5F5F5E2F5F5F5F5F5F5F5F5F5F5F5F5F5F5F5F5F5F5F5F5E2E2EFF5F5F5F5F5F5F5F5F5F5F5F5F5F5F5F5F5F5F5F5E2F5F5F5F5F5F5F5F5
310
F5F5F5F5F5F5F5F5F5F5F5F5F5F5F5F5F5F5F5F5F5F5F5F5F5F5F5F5F5F5F5F5F5F5F5F5F5F5F5F5F5F5F5F5F5F5F5F5F5F5F5F5F5F5F5F5F5F5F5F5F5F5F5F5F5F5F5F5F5F5F5F5F5F5F5F5F5F5F5F5F5F5F5F5F5F5F5F5F5F5F5F5F5F5F5F5F5F5F5F5F5F5F5F5F5F5F5F5F5F5F5F5F5F5F5F5F5F5F5F5F5F5F5F5F5F5F5
310
E2F5F5F5F5F5F5F5F5F5F5F5F5F5F5F5F5F5F5F5F5E2E2EFF5F5F5F5F5F5F5F5F5F5F5F5F5F5F5F5F5F5F5F5E2F5F5F5F5F5F5F5F5F5F5F5F5F5F5F5F5F5F5F5F5F5F5F5F5F5F5F5F5F5F5F5F5F5F5F5F5F5F5F5F5F5F5F5F5F5F5F5F5F5F5F5F5F5F5F5F5F5F5F5F5F5F5F5F5F5F5F5F5F5F5F5F5F5F5F5F5F5F5F5F5F5F5
310
F5F5F5F5F5F5F5F5F5F5F5F5F5F5F5F5F5F5F5F5F5F5F5F5F5F5F5F5F5F5F5F5F5F5F5F5F5F5F5F5F5F5F5F5F5F5F5F5F5F5F5F5F5E2F5F5F5F5F5F5F5F5F5F5F5F5F5F5F5F5F5F5F5F5E2E2EFF5F5F5F5F5F5F5F5F5F5F5F5F5F5F5F5F5F5F5F5E2F5F5F5F5F5F5F5F5F5F5F5F5F5F5F5F5F5F5F5F5F5F5F5F5F5F5F5F5F5
310
F5F5F5F5F5F5F5F5F5F5F5F5F5F5F5F5F5F5F5F5F5F5F5F5F5F5F5F5F5F5F5F5F5F5F5F5F5F5F5F5F5F5F5F5F5F5F5F5F5F5F5F5F5F5F5F5F5F5F5F5F5F5F5F5F5F5F5F5F5F5F5F5F5F5F5F5F5F5F5F5F5F5F5F5F5F5F5F5F5F5F5F5F5F5F5F5F5F5F5F5F5F5F5F5F5F5E2F5F5F5F5F5F5F5F5F5F5F5F5F5F5F5F5F5F5F5F5
310
E2E2EFF5F5F5F5F5F5F5F5F5F5F5F5F5F5F5F5F5F5F5F5E2F5F5F5F5F5F5F5F5F5F5F5F5F5F5F5F5F5F5F5F5F5F5F5F5F5F5F5F5F5F5F5F5F5F5F5F5F5F5F5F5F5F5F5F5F5F5F5F5F5F5F5F5F5F5F5F5F5F5F5F5F5F5F5F5F5F5F5F5F5F5F5F5F5F5F5F5F5F5F5F5F5F5F5F5F5F5F5F5F5F5F5F5F5F5F5F5F5F5F5F5F5F5F5
310
F5F5F5F5F5F5F5F5F5F5F5F5F5F5F5F5F5F5F5F5F5F5F5F5F5F5F5F5F5F5F5F5E2F5F5F5F5F5F5F5F5F5F5F5F5F5F5F5F5F5F5F5F5E2E2EFF5F5F5F5F5F5F5F5F5F5F5F5F5F5F5F5F5F5F5F5E2F5F5F5F5F5F5F5F5F5F5F5F5F5F5F5F5F5F5F5F5F5F5F5F5F5F5F5F5F5F5F5F5F5F5F5F5F5F5F5F5F5F5F5F5F5F5F5F5F5F5
310
F5F5F5F5F5F5F5F5F5F5F5F5F5F5F5F5F5F5F5F5F5F5F5F5F5F5F5F5F5F5F5F5F5F5F5F5F5F5F5F5F5F5F5F5F5F5F5F5F5F5F5F5F5F5F5F5F5F5F5F5F5F5F5F5F5F5F5F5F5F5F5F5F5F5F5F5F5F5F5F5F5F5F5F5F5E2F5F5F5F5F5F5F5F5F5F5F5F5F5F5F5F5F5F5F5F5E2E2EFF5F5F5F5F5F5F5F5F5F5F5F5F5F5F5F5F5F5
310
F5F5E2F5F5F5F5F5F5F5F5F5F5F5F5F5F5F5F5F5F5F5F5F5F5F5F5F5F5F5F5F5F5F5F5F5F5F5F5F5F5F5F5F5F5F5F5F5F5F5F5F5F5F5F5F5F5F5F5F5F5F5F5F5F5F5F5F5F5F5F5F5F5F5F5F5F5F5F5F5F5F5F5F5F5F5F5F5F5F5F5F5F5F5F5F5F5F5F5F5F5F5F5F5F5F5F5F5F5F5F5F5F5F5F5F5F5F5F5F5F5F5F5F5F5F5F5
310
F5F5F5F5F5F5F5F5F5F5F5E2F5F5F5F5F5F5F5F5F5F5F5F5F5F5F5F5F5F5F5F5E2E2EFF5F5F5F5F5F5F5F5F5F5F5F5F5F5F5F5F5F5F5F5E2F5F5F5F5F5F5F5F5F5F5F5F5F5F5F5F5F5F5F5F5F5F5F5F5F5F5F5F5F5F5F5F5F5F5F5F5F5F5F5F5F5F5F5F5F5F5F5F5F5F5F5F5F5F5F5F5F5F5F5F5F5F5F5F5F5F5F5F5F5F5F5
310
F5F5F5F5F5F5F5F5F5F5F5F5F5F5F5F5F5F5F5F5F5F5F5F5F5F5F5F5F5F5F5F5F5F5F5F5F5F5F5F5F5F5F5F5F5F5F5F5F5F5F5F5F5F5F5F5F5F5F5F5F5F5F5F5E2F5F5F5F5F5F5F5F5F5F5F5F5F5F5F5F5F5F5F5F5E2E2EFF5F5F5F5F5F5F5F5F5F5F5F5F5F5F5F5F5F5F5F5E2F5F5F5F5F5F5F5F5F5F5F5F5F5F5F5F5F5F5
310
F5F5F5F5F5F5F5F5F5F5F5F5F5F5F5F5F5F5F5F5F5F5F5F5F5F5F5F5F5F5F5F5F5F5F5F5F5F5F5F5F5F5F5F5F5F5F5F5F5F5F5F5F5F5F5F5F5F5F5F5F5F5F5F5F5F5F5F5F5F5F5F5F5F5F5F5F5F5F5F5F5F5F5F5F5F5F5F5F5F5F5F5F5F5F5F5F5F5F5F5F5F5F5F5F5F5F5F5F5F5F5F5F5F5F5F5F5E2F5F5F5F5F5F5F5F5F5
310
F5F5F5F5F5F5F5F5F5F5F5E2E2EFF5F5F5E2F5F5F5F5F5F5F5F5F5F5F5F5F5F5F5F5E2F5F5F5F5F5F5F5F5F5F5F5F5F5F5F5F5F5F5F5F5F5F5F5F5F5F5F5F5F5F5F5F5F5F5F5F5F5F5F5F5F5F5F5F5F5F5F5F5F5F5F5F5F5F5F5F5F5F5F5F5F5F5F5F5F5F5F5F5F5F5F5F5F5F5F5F5F5F5F5F5F5F5F5F5F5F5F5F5F5F5F5F5
310
F5F5F5F5F5F5F5F5F5F5F5F5F5F5F5F5F5F5F5F5F5F5F5F5F5F5F5F5F5F5F5F5F5F5F5F5F5F5F5F5F5F5F5E2F5F5F5F5F5F5F5F5F5F5F5F5F5F5F5F5E2F5F5F5E2E2EFF5F5F5E2F5F5F5F5F5F5F5F5F5F5F5F5F5F5F5F5E2F5F5F5F5F5F5F5F5F5F5F5F5F5F5F5F5F5F5F5F5F5F5F5F5F5F5F5F5F5F5F5F5F5F5F5F5F5F5F5
310
F5F5F5F5F5F5F5F5F5F5F5F5F5F5F5F5F5F5F5F5F5F5F5F5F5F5F5F5F5F5F5F5F5F5F5F5F5F5F5F5F5F5F5F5F5F5F5F5F5F5F5F5F5F5F5F5F5F5F5F5F5F5F5F5F5F5F5F5F5F5F5F5F5F5F5F5F5F5F5F5F5F5F5F5F5F5F5F5F5F5F5F5F5F5F5F5E2F5F5F5F5F5F5F5F5F5F5F5F5F5F5F5F5E2F5F5F5E2E2EFF5F5F5E2F5F5F5
310
F5F5F5F5F5F5F5F5F5F5F5F5F5E2F5F5F5F5F5F5F5F5F5F5F5F5F5F5F5F5F5F5F5F5F5F5F5F5F5F5F5F5F5F5F5F5F5F5F5F5F5F5F5F5F5F5F5F5F5F5F5F5F5F5F5F5F5F5F5F5F5F5F5F5F5F5F5F5F5F5F5F5F5F5F5F5F5F5F5F5F5F5F5F5F5F5F5F5F5F5F5F5F5F5F5F5F5F5F5F5F5F5F5F5F5F5F5F5F5F5F5F5F5F5F5F5F5
310
F5F5F5F5F5F5F5F5F5F5F5F5F5F5F5F5F5F5F5F5F5F5E2F5F5F5F5F5F5F5F5F5F5F5F5F5F5F5F5E2F5F5F5E2E2EFF5F5F5E2F5F5F5F5F5F5F5F5F5F5F5F5F5F5F5F5E2F5F5F5F5F5F5F5F5F5F5F5F5F5F5F5F5F5F5F5F5F5F5F5F5F5F5F5F5F5F5F5F5F5F5F5F5F5F5F5F5F5F5F5F5F5F5F5F5F5F5F5F5F5F5F5F5F5F5F5F5
310
F5F5F5F5F5F5F5F5F5F5F5F5F5F5F5F5F5F5F5F5F5F5F5F5F5F5F5F5F5F5F5F5F5F5F5F5F5F5F5F5F5F5F5F5F5F5F5F5F5F5F5F5F5F5F5F5F5F5F5F5F5F5F5F5F5F5F5F5F5F5F5F5F5F5F5E2F5F5F5F5F5F5F5F5F5F5F5F5F5F5F5F5E2F5F5F5E2E2EFF5F5F5E2F5F5F5F5F5F5F5F5F5F5F5F5F5F5F5F5E2F5F5F5F5F5F5F5
310
F5F5F5F5F5F5F5F5F5F5F5F5F5F5F5F5F5F5F5F5F5F5F5F5F5F5F5F5F5F5F5F5F5F5F5F5F5F5F5F5F5F5F5F5F5F5F5F5F5F5F5F5F5F5F5F5F5F5F5F5F5F5F5F5F5F5F5F5F5F5F5F5F5F5F5F5F5F5F5F5F5F5F5F5F5F5F5F5F5F5F5F5F5F5F5F5F5F5F5F5F5F5F5F5F5F5F5F5F5F5F5F5F5F5F5F5F5F5F5F5F5F5F5F5F5F5F5
310
F5E2F5F5F5F5F5F5F5F5F5F5F5F5F5F5F5F5E2F5F5F5E2E2EFF5F5F5E2F5F5F5F5F5F5F5F5F5F5F5F5F5F5F5F5E2F5F5F5F5F5F5F5F5F5F5F5F5F5F5F5F5F5F5F5F5F5F5F5F5F5F5F5F5F5F5F5F5F5F5F5F5F5F5F5F5F5F5F5F5F5F5F5F5F5F5F5F5F5F5F5F5F5F5F5F5F5F5F5F5F5F5F5F5F5F5F5F5F5F5F5F5F5F5F5F5F5
310
F5F5F5F5F5F5F5F5F5F5F5F5F5F5F5F5F5F5F5F5F5F5F5F5F5F5F5F5F5F5F5F5F5F5F5F5F5F5F5F5F5F5F5F5F5F5F5F5F5F5F5F5F5F5E2F5F5F5F5F5F5F5F5F5F5F5F5F5F5F5F5E2F5F5F5E2E2EFF5F5F5E2F5F5F5F5F5F5F5F5F5F5F5F5F5F5F5F5E2F5F5F5F5F5F5F5F5F5F5F5F5F5F5F5F5F5F5F5F5F5F5F5F5F5F5F5F5
310
F5F5F5F5F5F5F5F5F5F5F5F5F5F5F5F5F5F5F5F5F5F5F5F5F5F5F5F5F5F5F5F5F5F5F5F5F5F5F5F5F5F5F5F5F5F5F5F5F5F5F5F5F5F5F5F5F5F5F5F5F5F5F5F5F5F5F5F5F5F5F5F5F5F5F5F5F5F5F5F5F5F5F5F5F5F5F5F5F5F5F5F5F5F5F5F5F5F5F5F5F5F5F5F5F5F5F5E2F5F5F5F5F5F5F5F5F5F5F5F5F5F5F5F5E2F5F5
310
F5E2E2EFF5F5F5E2F5F5F5F5F5F5F5F5F5F5F5F5F5F5F5F5E2F5F5F5F5F5F5F5F5F5F5F5F5F5F5F5F5F5F5F5F5F5F5F5F5F5F5F5F5F5F5F5F5F5F5F5F5F5F5F5F5F5F5F5F5F5F5F5F5F5F5F5F5F5F5F5F5F5F5F5F5F5F5F5F5F5F5F5F5F5F5F5F5F5F5F5F5F5F5F5F5F5F5F5F5F5F5F5F5F5F5F5F5F5F5F5F5F5F5F5F5F5F5
310
F5F5F5F5F5F5F5F5F5F5F5F5F5F5F5F5F5F5F5F5F5F5F5F5F5F5F5F5F5F5F5F5F5E2F5F5F5F5F5F5F5F5F5F5F5F5F5F5F5F5E2F5F5F5E2E2EFF5F5F5E2F5F5F5F5F5F5F5F5F5F5F5F5F5F5F5F5E2F5F5F5F5F5F5F5F5F5F5F5F5F5F5F5F5F5F5F5F5F5F5F5F5F5F5F5F5F5F5F5F5F5F5F5F5F5F5F5F5F5F5F5F5F5F5F5F5F5
310
F5F5F5F5F5F5F5F5F5F5F5F5F5F5F5F5F5F5F5F5F5F5F5F5F5F5F5F5F5F5F5F5F5F5F5F5F5F5F5F5F5F5F5F5F5F5F5F5F5F5F5F5F5F5F5F5F5F5F5F5F5F5F5F5F5F5F5F5F5F5F5F5F5F5F5F5F5F5F5F5F5F5F5F5F5F5E2F5F5F5F5F5F5F5F5F5F5F5F5F5F5F5F5E2F5F5F5E2E2EFF5F5F5E2F5F5F5F5F5F5F5F5F5F5F5F5F5
310
F5F5F5E2F5F5F5F5F5F5F5F5F5F5F5F5F5F5F5F5F5F5F5F5F5F5F5F5F5F5F5F5F5F5F5F5F5F5F5F5F5F5F5F5F5F5F5F5F5F5F5F5F5F5F5F5F5F5F5F5F5F5F5F5F5F5F5F5F5F5F5F5F5F5F5F5F5F5F5F5F5F5F5F5F5F5F5F5F5F5F5F5F5F5F5F5F5F5F5F5F5F5F5F5F5F5F5F5F5F5F5F5F5F5F5F5F5F5F5F5F5F5F5F5F5F5F5
310
F5F5F5F5F5F5F5F5F5F5F5F5E2F5F5F5F5F5F5F5F5F5F5F5F5F5F5F5F5E2F5F5F5E2E2EFF5F5F5E2F5F5F5F5F5F5F5F5F5F5F5F5F5F5F5F5E2F5F5F5F5F5F5F5F5F5F5F5F5F5F5F5F5F5F5F5F5F5F5F5F5F5F5F5F5F5F5F5F5F5F5F5F5F5F5F5F5F5F5F5F5F5F5F5F5F5F5F5F5F5F5F5F5F5F5F5F5F5F5F5F5F5F5F5F5F5F5
310
F5F5F5F5F5F5F5F5F5F5F5F5F5F5F5F5F5F5F5F5F5F5F5F5F5F5F5F5F5F5F5F5F5F5F5F5F5F5F5F5F5F5F5F5F5F5F5F5F5F5F5F5F5F5F5F5F5F5F5F5F5F5F5F5F5E2F5F5F5F5F5F5F5F5F5F5F5F5F5F5F5F5E2F5F5F5E2E2EFF5F5F5E2F5F5F5F5F5F5F5F5F5F5F5F5F5F5F5F5E2F5F5F5F5F5F5F5F5F5F5F5F5F5F5F5F5F5
310
F5F5F5F5F5F5F5F5F5F5F5F5F5F5F5F5F5F5F5F5F5F5F5F5F5F5F5F5F5F5F5F5F5F5F5F5F5F5F5F5F5F5F5F5F5F5F5F5F5F5F5F5F5F5F5F5F5F5F5F5F5F5F5F5F5F5F5F5F5F5F5F5F5F5F5F5F5F5F5F5F5F5F5F5F5F5F5F5F5F5F5F5F5F5F5F5F5F5F5F5F5F5F5F5F5F5F5F5F5F5F5F5F5F5F5F5F5F5E2F5F5F5F5F5F5F5F5
310
F5F5F5F5F5F5F5F5E2F5F5F5E2E2EFF5F5F5E2F5F5F5F5F5F5F5F5F5F5F5F5F5F5F5F5E2F5F5F5F5F5F5F5F5F5F5F5F5F5F5F5F5F5F5F5F5F5F5F5F5F5F5F5F5F5F5F5F5F5F5F5F5F5F5F5F5F5F5F5F5F5F5F5F5F5F5F5F5F5F5F5F5F5F5F5F5F5F5F5F5F5F5F5F5F5F5F5F5F5F5F5F5F5F5F5F5F5F5F5F5F5F5F5F5F5F5F5
310
F5F5F5F5F5F5F5F5F5F5F5F5F5F5F5F5F5F5F5F5F5F5F5F5F5F5F5F5F5F5F5F5F5F5F5F5F5F5F5F5F5F5F5F5E2F5F5F5F5F5F5F5F5F5F5F5F5F5F5F5F5E2F5F5F5E2E2EFF5F5F5E2F5F5F5F5F5F5F5F5F5F5F5F5F5F5F5F5E2F5F5F5F5F5F5F5F5F5F5F5F5F5F5F5F5F5F5F5F5F5F5F5F5F5F5F5F5F5F5F5F5F5F5F5F5F5F5
310
F5F5F5F5F5F5F5F5F5F5F5F5F5F5F5F5F5F5F5F5F5F5F5F5F5F5F5F5F5F5F5F5F5F5F5F5F5F5F5F5F5F5F5F5F5F5F5F5F5F5F5F5F5F5F5F5F5F5F5F5F5F5F5F5F5F5F5F5F5F5F5F5F5F5F5F5F5F5F5F5F5F5F5F5F5F5F5F5F5F5F5F5F5F5F5F5F5E2F5F5F5F5F5F5F5F5F5F5F5F5F5F5F5F5E2F5F5F5E2E2EFF5F5F5E2F5F5
310
F5F5F5F5F5F5F5F5F5F5F5F5F5F5E2F5F5F5F5F5F5F5F5F5F5F5F5F5F5F5F5F5F5F5F5F5F5F5F5F5F5F5F5F5F5F5F5F5F5F5F5F5F5F5F5F5F5F5F5F5F5F5F5F5F5F5F5F5F5F5F5F5F5F5F5F5F5F5F5F5F5F5F5F5F5F5F5F5F5F5F5F5F5F5F5F5F5F5F5F5F5F5F5F5F5F5F5F5F5F5F5F5F5F5F5F5F5F5F5F5F5F5F5F5F5F5F5
310
F5F5F5F5F5F5F5F5F5F5F5F5F5F5F5F5F5F5F5F5F5F5F5E2F5F5F5F5F5F5F5F5F5F5F5F5F5F5F5F5E2F5F5F5E2E2EFF5F5F5E2F5F5F5F5F5F5F5F5F5F5F5F5F5F5F5F5E2F5F5F5F5F5F5F5F5F5F5F5F5F5F5F5F5F5F5F5F5F5F5F5F5F5F5F5F5F5F5F5F5F5F5F5F5F5F5F5F5F5F5F5F5F5F5F5F5F5F5F5F5F5F5F5F5F5F5F5
310
F5F5F5F5F5F5F5F5F5F5F5F5F5F5F5F5F5F5F5F5F5F5F5F5F5F5F5F5F5F5F5F5F5F5F5F5F5F5F5F5F5F5F5F5F5F5F5F5F5F5F5F5F5F5F5F5F5F5F5F5F5F5F5F5F5F5F5F5F5F5F5F5F5F5F5F5E2F5F5F5F5F5F5F5F5F5F5F5F5F5F5F5F5E2F5F5F5E2E2EFF5F5F5E2F5F5F5F5F5F5F5F5F5F5F5F5F5F5F5F5E2F5F5F5F5F5F5
310
F5F5F5F5F5F5F5F5F5F5F5F5F5F5F5F5F5F5F5F5F5F5F5F5F5F5F5F5F5F5F5F5F5F5F5F5F5F5F5F5F5F5F5F5F5F5F5F5F5F5F5F5F5F5F5F5F5F5F5F5F5F5F5F5F5F5F5F5F5F5F5F5F5F5F5F5F5F5F5F5F5F5F5F5F5F5F5F5F5F5F5F5F5F5F5F5F5F5F5F5F5F5F5F5F5F5F5F5F5F5F5F5F5F5F5F5F5F5F5F5F5F5F5F5F5F5F5
310
F5F5E2F5F5F5F5F5F5F5F5F5F5F5F5F5F5F5F5E2F5F5F5E2E2EFF5F5F5F5F5F5F5F5F5F5F5F5F5F5F5F5F5F5F5F5E2F5F5F5F5F5F5F5F5F5F5F5F5F5F5F5F5F5F5F5F5F5F5F5F5F5F5F5F5F5F5F5F5F5F5F5F5F5F5F5F5F5F5F5F5F5F5F5F5F5F5F5F5F5F5F5F5F5F5F5F5F5F5F5F5F5F5F5F5F5F5F5F5F5F5F5F5F5F5F5F5
310
F5F5F5F5F5F5F5F5F5F5F5F5F5F5F5F5F5F5F5F5F5F5F5F5F5F5F5F5F5F5F5F5F5F5F5F5F5F5F5F5F5F5F5F5F5F5F5F5F5F5F5F5F5F5F5E2F5F5F5F5F5F5F5F5F5F5F5F5F5F5F5F5F5F5F5F5E2E2EFF5F5F5F5F5F5F5F5F5F5F5F5F5F5F5F5F5F5F5F5E2F5F5F5F5F5F5F5F5F5F5F5F5F5F5F5F5F5F5F5F5F5F5F5F5F5F5F5
310
F5F5F5F5F5F5F5F5F5F5F5F5F5F5F5F5F5F5F5F5F5F5F5F5F5F5F5F5F5F5F5F5F5F5F5F5F5F5F5F5F5F5F5F5F5F5F5F5F5F5F5F5F5F5F5F5F5F5F5F5F5F5F5F5F5F5F5F5F5F5F5F5F5F5F5F5F5F5F5F5F5F5F5F5F5F5F5F5F5F5F5F5F5F5F5F5F5F5F5F5F5F5F5F5F5F5F5F5E2F5F5F5F5F5F5F5F5F5F5F5F5F5F5F5F5F5F5
310
F5F5E2E2EFF5F5F5F5F5F5F5F5F5F5F5F5F5F5F5F5F5F5F5F5E2F5F5F5F5F5F5F5F5F5F5F5F5F5F5F5F5F5F5F5F5F5F5F5F5F5F5F5F5F5F5F5F5F5F5F5F5F5F5F5F5F5F5F5F5F5F5F5F5F5F5F5F5F5F5F5F5F5F5F5F5F5F5F5F5F5F5F5F5F5F5F5F5F5F5F5F5F5F5F5F5F5F5F5F5F5F5F5F5F5F5F5F5F5F5F5F5F5F5F5F5F5
310
F5F5F5F5F5F5F5F5F5F5F5F5F5F5F5F5F5F5F5F5F5F5F5F5F5F5F5F5F5F5F5F5F5F5E2F5F5F5F5F5F5F5F5F5F5F5F5F5F5F5F5F5F5F5F5E2E2EFF5F5F5F5F5F5F5F5F5F5F5F5F5F5F5F5F5F5F5F5E2F5F5F5F5F5F5F5F5F5F5F5F5F5F5F5F5F5F5F5F5F5F5F5F5F5F5F5F5F5F5F5F5F5F5F5F5F5F5F5F5F5F5F5F5F5F5F5F5
310
F5F5F5F5F5F5F5F5F5F5F5F5F5F5F5F5F5F5F5F5F5F5F5F5F5F5F5F5F5F5F5F5F5F5F5F5F5F5F5F5F5F5F5F5F5F5F5F5F5F5F5F5F5F5F5F5F5F5F5F5F5F5F5F5F5F5F5F5F5F5F5F5F5F5F5F5F5F5F5F5F5F5F5F5F5F5F5E2F5F5F5F5F5F5F5F5F5F5F5F5F5F5F5F5F5F5F5F5E2E2EFF5F5F5F5F5F5F5F5F5F5F5F5F5F5F5F5
310
F5F5F5F5E2E2E2E2E2E2E2E2E2E2E2E2E2E2E2E2E2E2E2E2E2E2E2E2E2E2E2E2E2E2E2E2E2E2E2E2E2E2E2E2E2E2E2E2E2E2E2E2E2E2E2E2E2E2E2E2E2E2E2E2E2E2E2E2E2E2E2E2E2E2E2E2E2E2E2E2E2E2E2E2E2E2E2E2E2E2E2E2E2E2E2E2E2E2E2E2E2E2E2E2E2E2E2E2E2E2E2E2E2E2E2E2E2E2E2E2E2E2E2E2E2E2E2
310
E2E2E2E2E2E2E2E2E2E2E2E2E2E2F5F5F5F5F5F5F5F5F5F5F5F5F5F5F5F5F5F5F5F5E2E2EFF5F5F5F5F5F5F5F5F5F5F5F5F5F5F5F5F5F5F5F5F5F5F5F5F5F5F5F5F5F5F5F5F5F5F5F5F5F5F5F5F5F5F5F5F5F5F5F5F5F5F5F5F5F5F5F5F5F5F5F5F5F5F5F5F5F5F5F5F5F5F5F5F5F5F5F5F5F5F5F5F5F5F5F5F5F5F5F5F5F5
310
F5F5F5F5F5F5F5F5F5F5F5F5F5F5F5F5F5F5F5F5F5F5F5F5F5F5F5F5F5F5F5F5F5F5F5F5F5F5F5F5F5F5F5F5F5F5F5F5F5F5F5F5F5F5F5F5F5F5F5F5F5F5F5F5F5F5F5F5F5F5F5F5F5F5F5F5F5F5F5F5F5F5F5F5F5F5F5E2E2EFF5F5F5F5F5F5F5F5F5F5F5F5F5F5F5F5F5F5F5F5F5F5F5F5F5F5F5F5F5F5F5F5F5F5F5F5F5
310
F5F5F5F5F5F5F5F5F5F5F5F5F5F5F5F5F5F5F5F5F5F5F5F5F5F5F5F5F5F5F5F5F5F5F5F5F5F5F5F5F5F5F5F5F5F5F5F5F5F5F5F5F5F5F5F5F5F5F5F5F5F5F5F5F5F5F5F5F5F5F5F5F5F5F5F5F5F5F5F5F5F5F5F5F5F5F5F5F5F5F5F5F5F5F5F5F5F5F5F5F5F5F5F5F5F5F5F5F5F5F5F5F5F5F5F5F5F5F5F5F5F5F5F5F5F5F5
310
F5F5F5F5F5F5F5F5F5F5F5F5F5E2E2EFF5F5F5F5F5F5F5F5F5F5F5F5F5F5F5F5F5F5F5F5F5F5F5F5F5F5F5F5F5F5F5F5F5F5F5F5F5F5F5F5F5F5F5F5F5F5F5F5F5F5F5F5F5F5F5F5F5F5F5F5F5F5F5F5F5F5F5F5F5F5F5F5F5F5F5F5F5F5F5F5F5F5F5F5F5F5F5F5F5F5F5F5F5F5F5F5F5F5F5F5F5F5F5F5F5F5F5F5F5F5F5
310
F5F5F5F5F5F5F5F5F5F5F5F5F5F5F5F5F5F5F5F5F5F5F5F5F5F5F5F5F5F5F5F5F5F5F5F5F5F5F5F5F5F5F5F5F5F5F5F5F5F5F5F5F5F5F5F5F5F5F5F5F5F5F5F5F5F5E2E2EFF5F5F5F5F5F5F5F5F5F5F5F5F5F5F5F5F5F5F5F5F5F5F5F5F5F5F5F5F5F5F5F5F5F5F5F5F5F5F5F5F5F5F5F5F5F5F5F5F5F5F5F5F5F5F5F5F5F5
310
F5F5F5F5F5F5F5F5F5F5F5F5F5F5F5F5F5F5F5F5F5F5F5F5F5F5F5F5F5F5F5F5F5F5F5F5F5F5F5F5F5F5F5F5F5F5F5F5F5F5F5F5F5F5F5F5F5F5F5F5F5F5F5F5F5F5F5F5F5F5F5F5F5F5F5F5F5F5F5F5F5F5F5F5F5F5F5F5F5F5F5F5F5F5F5F5F5F5F5F5F5F5F5F5F5F5F5F5F5F5F5F5F5F5F5F5F5F5F5E2E2EFF5F5F5E2F5
310
F5F5F5F5F5F5F5F5F5F5F5F5F5F5F5F5F5F5F5F5F5F5F5F5F5F5F5F5F5F5F5F5F5F5F5F5F5F5F5F5F5F5F5F5F5F5F5F5F5F5F5F5F5F5F5F5F5F5F5F5F5F5F5F5F5F5F5F5F5F5F5F5F5F5F5F5F5F5F5F5F5F5F5F5F5F5F5F5F5F5F5F5F5F5F5F5F5F5F5F5F5F5F5F5F5F5F5F5F5F5F5F5F5F5F5F5F5F5F5F5F5F5F5F5F5F5F5
310
F5F5F5F5F5F5F5F5F5F5F5F5F5F5F5F5F5F5F5F5F5F5F5F5F5F5F5F5F5F5F5F5F5F5F5F5F5F5F5F5F5E2F5F5F5E2E2EFF5F5F5E2F5F5F5F5F5F5F5F5F5F5F5F5F5F5F5F5F5F5F5F5F5F5F5F5F5F5F5F5F5F5F5F5F5F5F5F5F5F5F5F5F5F5F5F5F5F5F5F5F5F5F5F5F5F5F5F5F5F5F5F5F5F5F5F5F5F5F5F5F5F5F5F5F5F5F5
310
F5F5F5F5F5F5F5F5F5F5F5F5F5F5F5F5F5F5F5F5F5F5F5F5F5F5F5F5F5F5F5F5F5F5F5F5F5F5F5F5F5F5F5F5F5F5F5F5F5F5F5F5F5F5F5F5F5F5F5F5F5F5F5F5F5F5F5F5F5F5F5F5F5F5F5F5F5F5F5F5F5F5F5F5F5F5F5F5F5F5F5F5F5F5E2F5F5F5E2E2EFF5F5F5E2F5F5F5F5F5F5F5F5F5F5F5F5F5F5F5F5F5F5F5F5F5F5
310
F5F5F5F5F5F5F5F5F5F5F5F5F5F5F5F5F5F5F5F5F5F5F5F5F5F5F5F5F5F5F5F5F5F5F5F5F5F5F5F5F5F5F5F5F5F5F5F5F5F5F5F5F5F5F5F5F5F5F5F5F5F5F5F5F5F5F5F5F5F5F5F5F5F5F5F5F5F5F5F5F5F5F5F5F5F5F5F5F5F5F5F5F5F5F5F5F5F5F5F5F5F5F5F5F5F5F5F5F5F5F5F5F5F5F5F5F5F5F5F5F5F5F5F5F5F5F5
310
F5F5F5F5F5F5F5F5F5F5F5F5F5F5F5F5F5F5F5F5E2F5F5F5E2E2EFF5F5F5E2F5F5F5F5F5F5F5F5F5F5F5F5F5F5F5F5F5F5F5F5F5F5F5F5F5F5F5F5F5F5F5F5F5F5F5F5F5F5F5F5F5F5F5F5F5F5F5F5F5F5F5F5F5F5F5F5F5F5F5F5F5F5F5F5F5F5F5F5F5F5F5F5F5F5F5F5F5F5F5F5F5F5F5F5F5F5F5F5F5F5F5F5F5F5F5F5
310
F5F5F5F5F5F5F5F5F5F5F5F5F5F5F5F5F5F5F5F5F5F5F5F5F5F5F5F5F5F5F5F5F5F5F5F5F5F5F5F5F5F5F5F5F5F5F5F5F5F5F5F5F5F5F5F5F5F5F5F5F5F5F5F5F5F5F5F5F5F5F5F5F5E2F5F5F5E2E2EFF5F5F5E2F5F5F5F5F5F5F5F5F5F5F5F5F5F5F5F5F5F5F5F5F5F5F5F5F5F5F5F5F5F5F5F5F5F5F5F5F5F5F5F5F5F5F5
310
F5F5F5F5F5F5F5F5F5F5F5F5F5F5F5F5F5F5F5F5F5F5F5F5F5F5F5F5F5F5F5F5F5F5F5F5F5F5F5F5F5F5F5F5F5F5F5F5F5F5F5F5F5F5F5F5F5F5F5F5F5F5F5F5F5F5F5F5F5F5F5F5F5F5F5F5F5F5F5F5F5F5F5F5F5F5F5F5F5F5F5F5F5F5F5F5F5F5F5F5F5F5F5F5F5F5F5F5F5F5F5F5F5F5F5F5F5F5F5F5F5F5F5F5F5F5E2
310
F5F5F5E2E2EFF5F5F5E2F5F5F5F5F5F5F5F5F5F5F5F5F5F5F5F5F5F5F5F5F5F5F5F5F5F5F5F5F5F5F5F5F5F5F5F5F5F5F5F5F5F5F5F5F5F5F5F5F5F5F5F5F5F5F5F5F5F5F5F5F5F5F5F5F5F5F5F5F5F5F5F5F5F5F5F5F5F5F5F5F5F5F5F5F5F5F5F5F5F5F5F5F5F5F5F5F5F5F5F5F5F5F5F5F5F5F5F5F5F5F5F5F5F5F5F5F5
310
F5F5F5F5F5F5F5F5F5F5F5F5F5F5F5F5F5F5F5F5F5F5F5F5F5F5F5F5F5F5F5F5F5F5F5F5F5F5F5F5F5F5F5F5F5F5F5F5F5F5F5F5E2F5F5F5E2E2EFF5F5F5E2F5F5F5F5F5F5F5F5F5F5F5F5F5F5F5F5F5F5F5F5F5F5F5F5F5F5F5F5F5F5F5F5F5F5F5F5F5F5F5F5F5F5F5F5F5F5F5F5F5F5F5F5F5F5F5F5F5F5F5F5F5F5F5F5
310
F5F5F5F5F5F5F5F5F5F5F5F5F5F5F5F5F5F5F5F5F5F5F5F5F5F5F5F5F5F5F5F5F5F5F5F5F5F5F5F5F5F5F5F5F5F5F5F5F5F5F5F5F5F5F5F5F5F5F5F5F5F5F5F5F5F5F5F5F5F5F5F5F5F5F5F5F5F5F5F5F5F5F5F5F5F5F5F5F5F5F5F5F5F5F5F5F5F5F5F5F5F5F5F5F5E2F5F5F5E2E2EFF5F5F5E2F5F5F5F5F5F5F5F5F5F5F5
310
F5F5F5F5F5F5F5F5F5F5F5F5F5F5F5F5F5F5F5F5F5F5F5F5F5F5F5F5F5F5F5F5F5F5F5F5F5F5F5F5F5F5F5F5F5F5F5F5F5F5F5F5F5F5F5F5F5F5F5F5F5F5F5F5F5F5F5F5F5F5F5F5F5F5F5F5F5F5F5F5F5F5F5F5F5F5F5F5F5F5F5F5F5F5F5F5F5F5F5F5F5F5F5F5F5F5F5F5F5F5F5F5F5F5F5F5F5F5F5F5F5F5F5F5F5F5F5
310
F5F5F5F5F5F5F5F5F5F5F5F5F5F5F5F5F5F5F5F5F5F5F5F5F5F5F5F5F5F5F5E2F5F5F5E2E2EFF5F5F5E2E2E2E2E2E2E2E2F5F5F5F5F5F5F5F5F5E2E2E2E2E2E2E2E2E2E2E2E2E2E2E2E2F5F5F5F5F5F5F5F5E2E2E2E2E2E2E2E2E2E2E2E2E2E2E2E2F5F5F5F5F5F5F5F5F5E2E2E2E2E2E2E2E2E2E2E2E2E2E2E2F5F5F5F5F5
310
F5F5F5F5E2E2E2E2E2E2E2E2E2E2E2E2E2E2E2F5F5F5F5F5F5F5F5F5E2E2E2E2E2E2E2E2E2E2E2E2E2E2E2E2F5F5F5F5F5F5F5F5E2E2E2E2E2E2E2E2E2E2E2E2E2E2E2E2F5F5F5F5F5F5F5F5F5E2E2E2E2E2E2E2E2F5F5F5E2E2EFF5F5F5F5F5F5F5F5F5F5F5F5F5F5F5F5F5F5F5F5F5F5F5F5F5F5F5F5F5F5F5F5F5F5F5F5
310
F5F5F5F5F5F5F5F5F5F5F5F5F5F5F5F5F5F5F5F5F5F5F5F5F5F5F5F5F5F5F5F5F5F5F5F5F5F5F5F5F5F5F5F5F5F5F5F5F5F5F5F5F5F5F5F5F5F5F5F5F5F5F5F5F5F5F5F5F5F5F5F5F5F5F5F5F5F5F5F5F5F5F5F5F5F5F5F5F5F5F5F5F5F5F5F5F5F5F5F5F5F5F5F5F5F5F5F5F5F5F5F5F5F5F5F5F5F5F5F5F5F5F5F5F5F5F5
310
F5F5F5F5F5F5F5F5F5F5F5F5F5F5E2E2EFF5F5F5F5F5F5F5F5F5F5F5F5F5F5F5F5F5F5F5F5F5F5F5F5F5F5F5F5F5F5F5F5F5F5F5F5F5F5F5F5F5F5F5F5F5F5F5F5F5F5F5F5F5F5F5F5F5F5F5F5F5F5F5F5F5F5F5F5F5F5F5F5F5F5F5F5F5F5F5F5F5F5F5F5F5F5F5F5F5F5F5F5F5F5F5F5F5F5F5F5F5F5F5F5F5F5F5F5F5F5
310
F5F5F5F5F5F5F5F5F5F5F5F5F5F5F5F5F5F5F5F5F5F5F5F5F5F5F5F5F5F5F5F5F5F5F5F5F5F5F5F5F5F5F5F5F5F5F5F5F5F5F5F5F5F5F5F5F5F5F5F5F5F5F5F5F5F5F5E2EFEFF5F5F5F5F5F5F5F5F5F5F5F5F5F5F5F5F5F5F5F5F5F5F5F5F5F5F5F5F5F5F5F5F5F5F5F5F5F5F5F5F5F5F5F5F5F5F5F5F5F5F5F5F5F5F5F5F5
310
F5F5F5F5F5F5F5F5F5F5F5F5F5F5F5F5F5F5F5F5F5F5F5F5F5F5F5F5F5F5F5F5F5F5F5F5F5F5F5F5F5F5F5F5F5F5F5F5F5F5F5F5F5F5F5F5F5F5F5F5F5F5F5F5F5F5F5F5F5F5F5F5F5F5F5F5F5F5F5F5F5F5F5F5F5F5F5F5F5F5F5F5F5F5F5F5F5F5F5F5F5F5F5F5F5F5F5F5F5F5F5F5F5F5F5F5F5F5F5F5E2EFEFE2E2E2E2
310
E2E2E2E2E2E2E2E2E2E2E2E2E2E2E2E2E2E2E2E2E2E2E2E2E2E2E2E2E2E2E2E2E2E2E2E2E2E2E2E2E2E2E2E2E2E2E2E2E2E2E2E2E2E2E2E2E2E2E2E2E2E2E2E2E2E2E2E2E2E2E2E2E2E2E2E2E2E2E2E2E2E2E2E2E2E2E2E2E2E2E2E2E2E2E2E2E2E2E2E2E2E2E2E2E2E2E2E2E2E2E2E2E2E2E2E2E2E2E2E2E2E2E2E2E2E2E2
310
E2E2E2E2E2E2E2E2E2E2E2E2E2E2E2E2E2E2E2E2E2E2E2E2E2E2E2E2E2E2E2E2E2E2E2E2E2E2E2E2E2E2E2E2E2E2E2EFEF
  0
XRECORD
  5
11CC
102
{ACAD_REACTORS
330
11CB
102
}
330
11CB
100
AcDbXrecord
280
     1
270
     1
271
     1
  0
XRECORD
  5
11CD
102
{ACAD_REACTORS
330
11CB
102
}
330
11CB
100
AcDbXrecord
280
     1
270
     1
271
     1
  0
XRECORD
  5
11CE
102
{ACAD_REACTORS
330
11CB
102
}
330
11CB
100
AcDbXrecord
280
     1
270
     1
271
     1
  0
XRECORD
  5
11CF
102
{ACAD_REACTORS
330
11CB
102
}
330
11CB
100
AcDbXrecord
280
     1
270
     1
271
     1
  0
XRECORD
  5
11D0
102
{ACAD_REACTORS
330
11CB
102
}
330
11CB
100
AcDbXrecord
280
     1
270
     1
271
     1
  0
XRECORD
  5
11D1
102
{ACAD_REACTORS
330
11CB
102
}
330
11CB
100
AcDbXrecord
280
     1
270
     1
271
     1
  0
XRECORD
  5
11C4
102
{ACAD_REACTORS
330
11C3
102
}
330
11C3
100
AcDbXrecord
280
     1
270
     1
271
     1
  0
XRECORD
  5
11C5
102
{ACAD_REACTORS
330
11C3
102
}
330
11C3
100
AcDbXrecord
280
     1
270
     1
271
     1
  0
XRECORD
  5
11C6
102
{ACAD_REACTORS
330
11C3
102
}
330
11C3
100
AcDbXrecord
280
     1
270
     1
271
     1
  0
XRECORD
  5
11C7
102
{ACAD_REACTORS
330
11C3
102
}
330
11C3
100
AcDbXrecord
280
     1
270
     1
271
     1
  0
XRECORD
  5
11C8
102
{ACAD_REACTORS
330
11C3
102
}
330
11C3
100
AcDbXrecord
280
     1
270
     1
271
     1
  0
XRECORD
  5
11C9
102
{ACAD_REACTORS
330
11C3
102
}
330
11C3
100
AcDbXrecord
280
     1
270
     1
271
     1
  0
XRECORD
  5
119A
102
{ACAD_REACTORS
330
1199
102
}
330
1199
100
AcDbXrecord
280
     1
270
     1
271
     1
  0
XRECORD
  5
119B
102
{ACAD_REACTORS
330
1199
102
}
330
1199
100
AcDbXrecord
280
     1
270
     1
271
     1
  0
XRECORD
  5
119C
102
{ACAD_REACTORS
330
1199
102
}
330
1199
100
AcDbXrecord
280
     1
270
     1
271
     1
  0
XRECORD
  5
119D
102
{ACAD_REACTORS
330
1199
102
}
330
1199
100
AcDbXrecord
280
     1
270
     1
271
     1
  0
XRECORD
  5
119E
102
{ACAD_REACTORS
330
1199
102
}
330
1199
100
AcDbXrecord
280
     1
270
     1
271
     1
  0
XRECORD
  5
119F
102
{ACAD_REACTORS
330
1199
102
}
330
1199
100
AcDbXrecord
280
     1
270
     1
271
     1
  0
CELLSTYLEMAP
  5
24AA
102
{ACAD_REACTORS
330
1381
102
}
330
1381
100
AcDbCellStyleMap
 90
        3
300
CELLSTYLE
  1
TABLEFORMAT_BEGIN
 90
        5
170
     1
 91
        0
 92
    32768
 62
   257
 93
        1
300
CONTENTFORMAT
  1
CONTENTFORMAT_BEGIN
 90
        0
 91
        0
 92
        4
 93
        0
300

 40
0.0
140
1.0
 94
        5
 62
     0
340
11AF
144
0.25
309
CONTENTFORMAT_END
171
     1
301
MARGIN
  1
CELLMARGIN_BEGIN
 40
0.06
 40
0.06
 40
0.06
 40
0.06
 40
0.18
 40
0.18
309
CELLMARGIN_END
 94
        6
 95
        1
302
GRIDFORMAT
  1
GRIDFORMAT_BEGIN
 90
        0
 91
        1
 62
     0
 92
       -2
340
0
 93
        0
 40
0.045
309
GRIDFORMAT_END
 95
        2
302
GRIDFORMAT
  1
GRIDFORMAT_BEGIN
 90
        0
 91
        1
 62
     0
 92
       -2
340
0
 93
        0
 40
0.045
309
GRIDFORMAT_END
 95
        4
302
GRIDFORMAT
  1
GRIDFORMAT_BEGIN
 90
        0
 91
        1
 62
     0
 92
       -2
340
0
 93
        0
 40
0.045
309
GRIDFORMAT_END
 95
        8
302
GRIDFORMAT
  1
GRIDFORMAT_BEGIN
 90
        0
 91
        1
 62
     0
 92
       -2
340
0
 93
        0
 40
0.045
309
GRIDFORMAT_END
 95
       16
302
GRIDFORMAT
  1
GRIDFORMAT_BEGIN
 90
        0
 91
        1
 62
     0
 92
       -2
340
0
 93
        0
 40
0.045
309
GRIDFORMAT_END
 95
       32
302
GRIDFORMAT
  1
GRIDFORMAT_BEGIN
 90
        0
 91
        1
 62
     0
 92
       -2
340
0
 93
        0
 40
0.045
309
GRIDFORMAT_END
309
TABLEFORMAT_END
  1
CELLSTYLE_BEGIN
 90
        1
 91
        1
300
_TITLE
309
CELLSTYLE_END
300
CELLSTYLE
  1
TABLEFORMAT_BEGIN
 90
        5
170
     1
 91
        0
 92
        0
 62
   257
 93
        1
300
CONTENTFORMAT
  1
CONTENTFORMAT_BEGIN
 90
        0
 91
        0
 92
        4
 93
        0
300

 40
0.0
140
1.0
 94
        5
 62
     0
340
11AF
144
0.18
309
CONTENTFORMAT_END
171
     1
301
MARGIN
  1
CELLMARGIN_BEGIN
 40
0.06
 40
0.06
 40
0.06
 40
0.06
 40
0.18
 40
0.18
309
CELLMARGIN_END
 94
        6
 95
        1
302
GRIDFORMAT
  1
GRIDFORMAT_BEGIN
 90
        0
 91
        1
 62
     0
 92
       -2
340
0
 93
        0
 40
0.045
309
GRIDFORMAT_END
 95
        2
302
GRIDFORMAT
  1
GRIDFORMAT_BEGIN
 90
        0
 91
        1
 62
     0
 92
       -2
340
0
 93
        0
 40
0.045
309
GRIDFORMAT_END
 95
        4
302
GRIDFORMAT
  1
GRIDFORMAT_BEGIN
 90
        0
 91
        1
 62
     0
 92
       -2
340
0
 93
        0
 40
0.045
309
GRIDFORMAT_END
 95
        8
302
GRIDFORMAT
  1
GRIDFORMAT_BEGIN
 90
        0
 91
        1
 62
     0
 92
       -2
340
0
 93
        0
 40
0.045
309
GRIDFORMAT_END
 95
       16
302
GRIDFORMAT
  1
GRIDFORMAT_BEGIN
 90
        0
 91
        1
 62
     0
 92
       -2
340
0
 93
        0
 40
0.045
309
GRIDFORMAT_END
 95
       32
302
GRIDFORMAT
  1
GRIDFORMAT_BEGIN
 90
        0
 91
        1
 62
     0
 92
       -2
340
0
 93
        0
 40
0.045
309
GRIDFORMAT_END
309
TABLEFORMAT_END
  1
CELLSTYLE_BEGIN
 90
        2
 91
        1
300
_HEADER
309
CELLSTYLE_END
300
CELLSTYLE
  1
TABLEFORMAT_BEGIN
 90
        5
170
     1
 91
        0
 92
        0
 62
   257
 93
        1
300
CONTENTFORMAT
  1
CONTENTFORMAT_BEGIN
 90
        0
 91
        0
 92
        4
 93
        0
300

 40
0.0
140
1.0
 94
        2
 62
     0
340
11AF
144
0.18
309
CONTENTFORMAT_END
171
     1
301
MARGIN
  1
CELLMARGIN_BEGIN
 40
0.06
 40
0.06
 40
0.06
 40
0.06
 40
0.18
 40
0.18
309
CELLMARGIN_END
 94
        6
 95
        1
302
GRIDFORMAT
  1
GRIDFORMAT_BEGIN
 90
        0
 91
        1
 62
     0
 92
       -2
340
0
 93
        0
 40
0.045
309
GRIDFORMAT_END
 95
        2
302
GRIDFORMAT
  1
GRIDFORMAT_BEGIN
 90
        0
 91
        1
 62
     0
 92
       -2
340
0
 93
        0
 40
0.045
309
GRIDFORMAT_END
 95
        4
302
GRIDFORMAT
  1
GRIDFORMAT_BEGIN
 90
        0
 91
        1
 62
     0
 92
       -2
340
0
 93
        0
 40
0.045
309
GRIDFORMAT_END
 95
        8
302
GRIDFORMAT
  1
GRIDFORMAT_BEGIN
 90
        0
 91
        1
 62
     0
 92
       -2
340
0
 93
        0
 40
0.045
309
GRIDFORMAT_END
 95
       16
302
GRIDFORMAT
  1
GRIDFORMAT_BEGIN
 90
        0
 91
        1
 62
     0
 92
       -2
340
0
 93
        0
 40
0.045
309
GRIDFORMAT_END
 95
       32
302
GRIDFORMAT
  1
GRIDFORMAT_BEGIN
 90
        0
 91
        1
 62
     0
 92
       -2
340
0
 93
        0
 40
0.045
309
GRIDFORMAT_END
309
TABLEFORMAT_END
  1
CELLSTYLE_BEGIN
 90
        3
 91
        2
300
_DATA
309
CELLSTYLE_END
  0
XRECORD
  5
24AD
102
{ACAD_REACTORS
330
24AC
102
}
330
24AC
100
AcDbXrecord
280
     1
102
RTVSPropertyOp0
 70
     1
102
RTVSPropertyOp1
 70
     1
102
RTVSPropertyOp2
 70
     1
102
RTVSPropertyOp3
 70
     1
102
RTVSPropertyOp4
 70
     1
102
RTVSPropertyOp5
 70
     1
102
RTVSPropertyOp6
 70
     1
102
RTVSPropertyOp7
 70
     1
102
RTVSPropertyOp8
 70
     1
102
RTVSPropertyOp9
 70
     1
102
RTVSPropertyOp10
 70
     1
102
RTVSPropertyOp11
 70
     1
102
RTVSPropertyOp12
 70
     1
102
RTVSPropertyOp13
 70
     1
102
RTVSPropertyOp14
 70
     1
102
RTVSPropertyOp15
 70
     1
102
RTVSPropertyOp16
 70
     1
102
RTVSPropertyOp17
 70
     1
102
RTVSPropertyOp18
 70
     1
102
RTVSPropertyOp19
 70
     1
102
RTVSPropertyOp20
 70
     1
102
RTVSPropertyOp21
 70
     1
102
RTVSPropertyOp22
 70
     1
102
RTVSPropertyOp23
 70
     1
102
RTVSPropertyOp24
 70
     1
102
RTVSPropertyOp25
 70
     1
102
RTVSPropertyOp26
 70
     1
102
RTVSPropertyOp27
 70
     1
  0
XRECORD
  5
24BD
102
{ACAD_REACTORS
330
24BC
102
}
330
24BC
100
AcDbXrecord
280
     1
102
RTVSPropertyOp0
 70
     1
102
RTVSPropertyOp1
 70
     1
102
RTVSPropertyOp2
 70
     1
102
RTVSPropertyOp3
 70
     1
102
RTVSPropertyOp4
 70
     1
102
RTVSPropertyOp5
 70
     1
102
RTVSPropertyOp6
 70
     1
102
RTVSPropertyOp7
 70
     1
102
RTVSPropertyOp8
 70
     1
102
RTVSPropertyOp9
 70
     1
102
RTVSPropertyOp10
 70
     1
102
RTVSPropertyOp11
 70
     1
102
RTVSPropertyOp12
 70
     1
102
RTVSPropertyOp13
 70
     1
102
RTVSPropertyOp14
 70
     1
102
RTVSPropertyOp15
 70
     1
102
RTVSPropertyOp16
 70
     1
102
RTVSPropertyOp17
 70
     1
102
RTVSPropertyOp18
 70
     1
102
RTVSPropertyOp19
 70
     1
102
RTVSPropertyOp20
 70
     1
102
RTVSPropertyOp21
 70
     1
102
RTVSPropertyOp22
 70
     1
102
RTVSPropertyOp23
 70
     1
102
RTVSPropertyOp24
 70
     1
102
RTVSPropertyOp25
 70
     1
102
RTVSPropertyOp26
 70
     1
102
RTVSPropertyOp27
 70
     1
  0
XRECORD
  5
24B1
102
{ACAD_REACTORS
330
24B0
102
}
330
24B0
100
AcDbXrecord
280
     1
102
RTVSPropertyOp0
 70
     1
102
RTVSPropertyOp1
 70
     1
102
RTVSPropertyOp2
 70
     1
102
RTVSPropertyOp3
 70
     1
102
RTVSPropertyOp4
 70
     1
102
RTVSPropertyOp5
 70
     1
102
RTVSPropertyOp6
 70
     1
102
RTVSPropertyOp7
 70
     1
102
RTVSPropertyOp8
 70
     1
102
RTVSPropertyOp9
 70
     1
102
RTVSPropertyOp10
 70
     1
102
RTVSPropertyOp11
 70
     1
102
RTVSPropertyOp12
 70
     1
102
RTVSPropertyOp13
 70
     1
102
RTVSPropertyOp14
 70
     1
102
RTVSPropertyOp15
 70
     1
102
RTVSPropertyOp16
 70
     1
102
RTVSPropertyOp17
 70
     1
102
RTVSPropertyOp18
 70
     1
102
RTVSPropertyOp19
 70
     1
102
RTVSPropertyOp20
 70
     1
102
RTVSPropertyOp21
 70
     1
102
RTVSPropertyOp22
 70
     1
102
RTVSPropertyOp23
 70
     1
102
RTVSPropertyOp24
 70
     1
102
RTVSPropertyOp25
 70
     1
102
RTVSPropertyOp26
 70
     1
102
RTVSPropertyOp27
 70
     1
  0
XRECORD
  5
24BB
102
{ACAD_REACTORS
330
24BA
102
}
330
24BA
100
AcDbXrecord
280
     1
102
RTVSPropertyOp0
 70
     1
102
RTVSPropertyOp1
 70
     1
102
RTVSPropertyOp2
 70
     1
102
RTVSPropertyOp3
 70
     1
102
RTVSPropertyOp4
 70
     1
102
RTVSPropertyOp5
 70
     1
102
RTVSPropertyOp6
 70
     1
102
RTVSPropertyOp7
 70
     1
102
RTVSPropertyOp8
 70
     1
102
RTVSPropertyOp9
 70
     1
102
RTVSPropertyOp10
 70
     1
102
RTVSPropertyOp11
 70
     1
102
RTVSPropertyOp12
 70
     1
102
RTVSPropertyOp13
 70
     1
102
RTVSPropertyOp14
 70
     1
102
RTVSPropertyOp15
 70
     1
102
RTVSPropertyOp16
 70
     1
102
RTVSPropertyOp17
 70
     1
102
RTVSPropertyOp18
 70
     1
102
RTVSPropertyOp19
 70
     1
102
RTVSPropertyOp20
 70
     1
102
RTVSPropertyOp21
 70
     1
102
RTVSPropertyOp22
 70
     1
102
RTVSPropertyOp23
 70
     1
102
RTVSPropertyOp24
 70
     1
102
RTVSPropertyOp25
 70
     1
102
RTVSPropertyOp26
 70
     1
102
RTVSPropertyOp27
 70
     1
  0
XRECORD
  5
24C3
102
{ACAD_REACTORS
330
24C2
102
}
330
24C2
100
AcDbXrecord
280
     1
102
RTVSPropertyOp0
 70
     1
102
RTVSPropertyOp1
 70
     1
102
RTVSPropertyOp2
 70
     1
102
RTVSPropertyOp3
 70
     1
102
RTVSPropertyOp4
 70
     1
102
RTVSPropertyOp5
 70
     1
102
RTVSPropertyOp6
 70
     1
102
RTVSPropertyOp7
 70
     1
102
RTVSPropertyOp8
 70
     1
102
RTVSPropertyOp9
 70
     1
102
RTVSPropertyOp10
 70
     1
102
RTVSPropertyOp11
 70
     1
102
RTVSPropertyOp12
 70
     1
102
RTVSPropertyOp13
 70
     1
102
RTVSPropertyOp14
 70
     1
102
RTVSPropertyOp15
 70
     1
102
RTVSPropertyOp16
 70
     1
102
RTVSPropertyOp17
 70
     1
102
RTVSPropertyOp18
 70
     1
102
RTVSPropertyOp19
 70
     1
102
RTVSPropertyOp20
 70
     1
102
RTVSPropertyOp21
 70
     1
102
RTVSPropertyOp22
 70
     1
102
RTVSPropertyOp23
 70
     1
102
RTVSPropertyOp24
 70
     1
102
RTVSPropertyOp25
 70
     1
102
RTVSPropertyOp26
 70
     1
102
RTVSPropertyOp27
 70
     1
  0
XRECORD
  5
24CB
102
{ACAD_REACTORS
330
24CA
102
}
330
24CA
100
AcDbXrecord
280
     1
102
RTVSPropertyOp0
 70
     1
102
RTVSPropertyOp1
 70
     1
102
RTVSPropertyOp2
 70
     1
102
RTVSPropertyOp3
 70
     1
102
RTVSPropertyOp4
 70
     1
102
RTVSPropertyOp5
 70
     1
102
RTVSPropertyOp6
 70
     1
102
RTVSPropertyOp7
 70
     1
102
RTVSPropertyOp8
 70
     1
102
RTVSPropertyOp9
 70
     1
102
RTVSPropertyOp10
 70
     1
102
RTVSPropertyOp11
 70
     1
102
RTVSPropertyOp12
 70
     1
102
RTVSPropertyOp13
 70
     1
102
RTVSPropertyOp14
 70
     1
102
RTVSPropertyOp15
 70
     1
102
RTVSPropertyOp16
 70
     1
102
RTVSPropertyOp17
 70
     1
102
RTVSPropertyOp18
 70
     1
102
RTVSPropertyOp19
 70
     1
102
RTVSPropertyOp20
 70
     1
102
RTVSPropertyOp21
 70
     1
102
RTVSPropertyOp22
 70
     1
102
RTVSPropertyOp23
 70
     1
102
RTVSPropertyOp24
 70
     1
102
RTVSPropertyOp25
 70
     1
102
RTVSPropertyOp26
 70
     1
102
RTVSPropertyOp27
 70
     1
  0
XRECORD
  5
24BF
102
{ACAD_REACTORS
330
24BE
102
}
330
24BE
100
AcDbXrecord
280
     1
102
RTVSPropertyOp0
 70
     1
102
RTVSPropertyOp1
 70
     1
102
RTVSPropertyOp2
 70
     1
102
RTVSPropertyOp3
 70
     1
102
RTVSPropertyOp4
 70
     1
102
RTVSPropertyOp5
 70
     1
102
RTVSPropertyOp6
 70
     1
102
RTVSPropertyOp7
 70
     1
102
RTVSPropertyOp8
 70
     1
102
RTVSPropertyOp9
 70
     1
102
RTVSPropertyOp10
 70
     1
102
RTVSPropertyOp11
 70
     1
102
RTVSPropertyOp12
 70
     1
102
RTVSPropertyOp13
 70
     1
102
RTVSPropertyOp14
 70
     1
102
RTVSPropertyOp15
 70
     1
102
RTVSPropertyOp16
 70
     1
102
RTVSPropertyOp17
 70
     1
102
RTVSPropertyOp18
 70
     1
102
RTVSPropertyOp19
 70
     1
102
RTVSPropertyOp20
 70
     1
102
RTVSPropertyOp21
 70
     1
102
RTVSPropertyOp22
 70
     1
102
RTVSPropertyOp23
 70
     1
102
RTVSPropertyOp24
 70
     1
102
RTVSPropertyOp25
 70
     1
102
RTVSPropertyOp26
 70
     1
102
RTVSPropertyOp27
 70
     1
  0
XRECORD
  5
24C1
102
{ACAD_REACTORS
330
24C0
102
}
330
24C0
100
AcDbXrecord
280
     1
102
RTVSPropertyOp0
 70
     1
102
RTVSPropertyOp1
 70
     1
102
RTVSPropertyOp2
 70
     1
102
RTVSPropertyOp3
 70
     1
102
RTVSPropertyOp4
 70
     1
102
RTVSPropertyOp5
 70
     1
102
RTVSPropertyOp6
 70
     1
102
RTVSPropertyOp7
 70
     1
102
RTVSPropertyOp8
 70
     1
102
RTVSPropertyOp9
 70
     1
102
RTVSPropertyOp10
 70
     1
102
RTVSPropertyOp11
 70
     1
102
RTVSPropertyOp12
 70
     1
102
RTVSPropertyOp13
 70
     1
102
RTVSPropertyOp14
 70
     1
102
RTVSPropertyOp15
 70
     1
102
RTVSPropertyOp16
 70
     1
102
RTVSPropertyOp17
 70
     1
102
RTVSPropertyOp18
 70
     1
102
RTVSPropertyOp19
 70
     1
102
RTVSPropertyOp20
 70
     1
102
RTVSPropertyOp21
 70
     1
102
RTVSPropertyOp22
 70
     1
102
RTVSPropertyOp23
 70
     1
102
RTVSPropertyOp24
 70
     1
102
RTVSPropertyOp25
 70
     1
102
RTVSPropertyOp26
 70
     1
102
RTVSPropertyOp27
 70
     1
  0
XRECORD
  5
24D1
102
{ACAD_REACTORS
330
24D0
102
}
330
24D0
100
AcDbXrecord
280
     1
102
RTVSPropertyOp0
 70
     0
102
RTVSPropertyOp1
 70
     0
102
RTVSPropertyOp2
 70
     0
102
RTVSPropertyOp3
 70
     0
102
RTVSPropertyOp4
 70
     0
102
RTVSPropertyOp5
 70
     0
102
RTVSPropertyOp6
 70
     0
102
RTVSPropertyOp7
 70
     0
102
RTVSPropertyOp8
 70
     0
102
RTVSPropertyOp9
 70
     0
102
RTVSPropertyOp10
 70
     0
102
RTVSPropertyOp11
 70
     0
102
RTVSPropertyOp12
 70
     0
102
RTVSPropertyOp13
 70
     0
102
RTVSPropertyOp14
 70
     2
102
RTVSPropertyOp15
 70
     0
102
RTVSPropertyOp16
 70
     0
102
RTVSPropertyOp17
 70
     0
102
RTVSPropertyOp18
 70
     0
102
RTVSPropertyOp19
 70
     0
102
RTVSPropertyOp20
 70
     0
102
RTVSPropertyOp21
 70
     0
102
RTVSPropertyOp22
 70
     0
102
RTVSPropertyOp23
 70
     0
102
RTVSPropertyOp24
 70
     0
102
RTVSPropertyOp25
 70
     0
102
RTVSPropertyOp26
 70
     0
102
RTVSPropertyOp27
 70
     0
  0
XRECORD
  5
24C9
102
{ACAD_REACTORS
330
24C8
102
}
330
24C8
100
AcDbXrecord
280
     1
102
RTVSPropertyOp0
 70
     1
102
RTVSPropertyOp1
 70
     1
102
RTVSPropertyOp2
 70
     1
102
RTVSPropertyOp3
 70
     1
102
RTVSPropertyOp4
 70
     1
102
RTVSPropertyOp5
 70
     1
102
RTVSPropertyOp6
 70
     1
102
RTVSPropertyOp7
 70
     1
102
RTVSPropertyOp8
 70
     1
102
RTVSPropertyOp9
 70
     1
102
RTVSPropertyOp10
 70
     1
102
RTVSPropertyOp11
 70
     1
102
RTVSPropertyOp12
 70
     1
102
RTVSPropertyOp13
 70
     1
102
RTVSPropertyOp14
 70
     1
102
RTVSPropertyOp15
 70
     1
102
RTVSPropertyOp16
 70
     1
102
RTVSPropertyOp17
 70
     1
102
RTVSPropertyOp18
 70
     1
102
RTVSPropertyOp19
 70
     1
102
RTVSPropertyOp20
 70
     1
102
RTVSPropertyOp21
 70
     1
102
RTVSPropertyOp22
 70
     1
102
RTVSPropertyOp23
 70
     1
102
RTVSPropertyOp24
 70
     1
102
RTVSPropertyOp25
 70
     1
102
RTVSPropertyOp26
 70
     1
102
RTVSPropertyOp27
 70
     1
  0
XRECORD
  5
24B3
102
{ACAD_REACTORS
330
24B2
102
}
330
24B2
100
AcDbXrecord
280
     1
102
RTVSPropertyOp0
 70
     1
102
RTVSPropertyOp1
 70
     1
102
RTVSPropertyOp2
 70
     1
102
RTVSPropertyOp3
 70
     1
102
RTVSPropertyOp4
 70
     1
102
RTVSPropertyOp5
 70
     1
102
RTVSPropertyOp6
 70
     1
102
RTVSPropertyOp7
 70
     1
102
RTVSPropertyOp8
 70
     1
102
RTVSPropertyOp9
 70
     1
102
RTVSPropertyOp10
 70
     1
102
RTVSPropertyOp11
 70
     1
102
RTVSPropertyOp12
 70
     1
102
RTVSPropertyOp13
 70
     1
102
RTVSPropertyOp14
 70
     1
102
RTVSPropertyOp15
 70
     1
102
RTVSPropertyOp16
 70
     1
102
RTVSPropertyOp17
 70
     1
102
RTVSPropertyOp18
 70
     1
102
RTVSPropertyOp19
 70
     1
102
RTVSPropertyOp20
 70
     1
102
RTVSPropertyOp21
 70
     1
102
RTVSPropertyOp22
 70
     1
102
RTVSPropertyOp23
 70
     1
102
RTVSPropertyOp24
 70
     1
102
RTVSPropertyOp25
 70
     1
102
RTVSPropertyOp26
 70
     1
102
RTVSPropertyOp27
 70
     1
  0
XRECORD
  5
24B5
102
{ACAD_REACTORS
330
24B4
102
}
330
24B4
100
AcDbXrecord
280
     1
102
RTVSPropertyOp0
 70
     1
102
RTVSPropertyOp1
 70
     1
102
RTVSPropertyOp2
 70
     1
102
RTVSPropertyOp3
 70
     1
102
RTVSPropertyOp4
 70
     1
102
RTVSPropertyOp5
 70
     1
102
RTVSPropertyOp6
 70
     1
102
RTVSPropertyOp7
 70
     1
102
RTVSPropertyOp8
 70
     1
102
RTVSPropertyOp9
 70
     1
102
RTVSPropertyOp10
 70
     1
102
RTVSPropertyOp11
 70
     1
102
RTVSPropertyOp12
 70
     1
102
RTVSPropertyOp13
 70
     1
102
RTVSPropertyOp14
 70
     1
102
RTVSPropertyOp15
 70
     1
102
RTVSPropertyOp16
 70
     1
102
RTVSPropertyOp17
 70
     1
102
RTVSPropertyOp18
 70
     1
102
RTVSPropertyOp19
 70
     1
102
RTVSPropertyOp20
 70
     1
102
RTVSPropertyOp21
 70
     1
102
RTVSPropertyOp22
 70
     1
102
RTVSPropertyOp23
 70
     1
102
RTVSPropertyOp24
 70
     1
102
RTVSPropertyOp25
 70
     1
102
RTVSPropertyOp26
 70
     1
102
RTVSPropertyOp27
 70
     1
  0
XRECORD
  5
24B7
102
{ACAD_REACTORS
330
24B6
102
}
330
24B6
100
AcDbXrecord
280
     1
102
RTVSPropertyOp0
 70
     1
102
RTVSPropertyOp1
 70
     1
102
RTVSPropertyOp2
 70
     1
102
RTVSPropertyOp3
 70
     1
102
RTVSPropertyOp4
 70
     1
102
RTVSPropertyOp5
 70
     1
102
RTVSPropertyOp6
 70
     1
102
RTVSPropertyOp7
 70
     1
102
RTVSPropertyOp8
 70
     1
102
RTVSPropertyOp9
 70
     1
102
RTVSPropertyOp10
 70
     1
102
RTVSPropertyOp11
 70
     1
102
RTVSPropertyOp12
 70
     1
102
RTVSPropertyOp13
 70
     1
102
RTVSPropertyOp14
 70
     1
102
RTVSPropertyOp15
 70
     1
102
RTVSPropertyOp16
 70
     1
102
RTVSPropertyOp17
 70
     1
102
RTVSPropertyOp18
 70
     1
102
RTVSPropertyOp19
 70
     1
102
RTVSPropertyOp20
 70
     1
102
RTVSPropertyOp21
 70
     1
102
RTVSPropertyOp22
 70
     1
102
RTVSPropertyOp23
 70
     1
102
RTVSPropertyOp24
 70
     1
102
RTVSPropertyOp25
 70
     1
102
RTVSPropertyOp26
 70
     1
102
RTVSPropertyOp27
 70
     1
  0
XRECORD
  5
24B9
102
{ACAD_REACTORS
330
24B8
102
}
330
24B8
100
AcDbXrecord
280
     1
102
RTVSPropertyOp0
 70
     1
102
RTVSPropertyOp1
 70
     1
102
RTVSPropertyOp2
 70
     1
102
RTVSPropertyOp3
 70
     1
102
RTVSPropertyOp4
 70
     1
102
RTVSPropertyOp5
 70
     1
102
RTVSPropertyOp6
 70
     1
102
RTVSPropertyOp7
 70
     1
102
RTVSPropertyOp8
 70
     1
102
RTVSPropertyOp9
 70
     1
102
RTVSPropertyOp10
 70
     1
102
RTVSPropertyOp11
 70
     1
102
RTVSPropertyOp12
 70
     1
102
RTVSPropertyOp13
 70
     1
102
RTVSPropertyOp14
 70
     1
102
RTVSPropertyOp15
 70
     1
102
RTVSPropertyOp16
 70
     1
102
RTVSPropertyOp17
 70
     1
102
RTVSPropertyOp18
 70
     1
102
RTVSPropertyOp19
 70
     1
102
RTVSPropertyOp20
 70
     1
102
RTVSPropertyOp21
 70
     1
102
RTVSPropertyOp22
 70
     1
102
RTVSPropertyOp23
 70
     1
102
RTVSPropertyOp24
 70
     1
102
RTVSPropertyOp25
 70
     1
102
RTVSPropertyOp26
 70
     1
102
RTVSPropertyOp27
 70
     1
  0
XRECORD
  5
24CD
102
{ACAD_REACTORS
330
24CC
102
}
330
24CC
100
AcDbXrecord
280
     1
102
RTVSPropertyOp0
 70
     0
102
RTVSPropertyOp1
 70
     0
102
RTVSPropertyOp2
 70
     0
102
RTVSPropertyOp3
 70
     0
102
RTVSPropertyOp4
 70
     0
102
RTVSPropertyOp5
 70
     0
102
RTVSPropertyOp6
 70
     0
102
RTVSPropertyOp7
 70
     0
102
RTVSPropertyOp8
 70
     0
102
RTVSPropertyOp9
 70
     0
102
RTVSPropertyOp10
 70
     0
102
RTVSPropertyOp11
 70
     0
102
RTVSPropertyOp12
 70
     0
102
RTVSPropertyOp13
 70
     0
102
RTVSPropertyOp14
 70
     2
102
RTVSPropertyOp15
 70
     0
102
RTVSPropertyOp16
 70
     0
102
RTVSPropertyOp17
 70
     0
102
RTVSPropertyOp18
 70
     0
102
RTVSPropertyOp19
 70
     0
102
RTVSPropertyOp20
 70
     0
102
RTVSPropertyOp21
 70
     0
102
RTVSPropertyOp22
 70
     0
102
RTVSPropertyOp23
 70
     0
102
RTVSPropertyOp24
 70
     0
102
RTVSPropertyOp25
 70
     0
102
RTVSPropertyOp26
 70
     0
102
RTVSPropertyOp27
 70
     0
  0
XRECORD
  5
24C7
102
{ACAD_REACTORS
330
24C6
102
}
330
24C6
100
AcDbXrecord
280
     1
102
RTVSPropertyOp0
 70
     1
102
RTVSPropertyOp1
 70
     1
102
RTVSPropertyOp2
 70
     1
102
RTVSPropertyOp3
 70
     1
102
RTVSPropertyOp4
 70
     1
102
RTVSPropertyOp5
 70
     1
102
RTVSPropertyOp6
 70
     1
102
RTVSPropertyOp7
 70
     1
102
RTVSPropertyOp8
 70
     1
102
RTVSPropertyOp9
 70
     1
102
RTVSPropertyOp10
 70
     1
102
RTVSPropertyOp11
 70
     1
102
RTVSPropertyOp12
 70
     1
102
RTVSPropertyOp13
 70
     1
102
RTVSPropertyOp14
 70
     1
102
RTVSPropertyOp15
 70
     1
102
RTVSPropertyOp16
 70
     1
102
RTVSPropertyOp17
 70
     1
102
RTVSPropertyOp18
 70
     1
102
RTVSPropertyOp19
 70
     1
102
RTVSPropertyOp20
 70
     1
102
RTVSPropertyOp21
 70
     1
102
RTVSPropertyOp22
 70
     1
102
RTVSPropertyOp23
 70
     1
102
RTVSPropertyOp24
 70
     1
102
RTVSPropertyOp25
 70
     1
102
RTVSPropertyOp26
 70
     1
102
RTVSPropertyOp27
 70
     1
  0
XRECORD
  5
24CF
102
{ACAD_REACTORS
330
24CE
102
}
330
24CE
100
AcDbXrecord
280
     1
102
RTVSPropertyOp0
 70
     0
102
RTVSPropertyOp1
 70
     0
102
RTVSPropertyOp2
 70
     0
102
RTVSPropertyOp3
 70
     0
102
RTVSPropertyOp4
 70
     0
102
RTVSPropertyOp5
 70
     0
102
RTVSPropertyOp6
 70
     0
102
RTVSPropertyOp7
 70
     0
102
RTVSPropertyOp8
 70
     0
102
RTVSPropertyOp9
 70
     0
102
RTVSPropertyOp10
 70
     0
102
RTVSPropertyOp11
 70
     0
102
RTVSPropertyOp12
 70
     0
102
RTVSPropertyOp13
 70
     0
102
RTVSPropertyOp14
 70
     2
102
RTVSPropertyOp15
 70
     0
102
RTVSPropertyOp16
 70
     0
102
RTVSPropertyOp17
 70
     0
102
RTVSPropertyOp18
 70
     0
102
RTVSPropertyOp19
 70
     0
102
RTVSPropertyOp20
 70
     0
102
RTVSPropertyOp21
 70
     0
102
RTVSPropertyOp22
 70
     0
102
RTVSPropertyOp23
 70
     0
102
RTVSPropertyOp24
 70
     0
102
RTVSPropertyOp25
 70
     0
102
RTVSPropertyOp26
 70
     0
102
RTVSPropertyOp27
 70
     0
  0
XRECORD
  5
24AF
102
{ACAD_REACTORS
330
24AE
102
}
330
24AE
100
AcDbXrecord
280
     1
102
RTVSPropertyOp0
 70
     1
102
RTVSPropertyOp1
 70
     1
102
RTVSPropertyOp2
 70
     1
102
RTVSPropertyOp3
 70
     1
102
RTVSPropertyOp4
 70
     1
102
RTVSPropertyOp5
 70
     1
102
RTVSPropertyOp6
 70
     1
102
RTVSPropertyOp7
 70
     1
102
RTVSPropertyOp8
 70
     1
102
RTVSPropertyOp9
 70
     1
102
RTVSPropertyOp10
 70
     1
102
RTVSPropertyOp11
 70
     1
102
RTVSPropertyOp12
 70
     1
102
RTVSPropertyOp13
 70
     1
102
RTVSPropertyOp14
 70
     1
102
RTVSPropertyOp15
 70
     1
102
RTVSPropertyOp16
 70
     1
102
RTVSPropertyOp17
 70
     1
102
RTVSPropertyOp18
 70
     1
102
RTVSPropertyOp19
 70
     1
102
RTVSPropertyOp20
 70
     1
102
RTVSPropertyOp21
 70
     1
102
RTVSPropertyOp22
 70
     1
102
RTVSPropertyOp23
 70
     1
102
RTVSPropertyOp24
 70
     1
102
RTVSPropertyOp25
 70
     1
102
RTVSPropertyOp26
 70
     1
102
RTVSPropertyOp27
 70
     1
  0
XRECORD
  5
24C5
102
{ACAD_REACTORS
330
24C4
102
}
330
24C4
100
AcDbXrecord
280
     1
102
RTVSPropertyOp0
 70
     1
102
RTVSPropertyOp1
 70
     1
102
RTVSPropertyOp2
 70
     1
102
RTVSPropertyOp3
 70
     1
102
RTVSPropertyOp4
 70
     1
102
RTVSPropertyOp5
 70
     1
102
RTVSPropertyOp6
 70
     1
102
RTVSPropertyOp7
 70
     1
102
RTVSPropertyOp8
 70
     1
102
RTVSPropertyOp9
 70
     1
102
RTVSPropertyOp10
 70
     1
102
RTVSPropertyOp11
 70
     1
102
RTVSPropertyOp12
 70
     1
102
RTVSPropertyOp13
 70
     1
102
RTVSPropertyOp14
 70
     1
102
RTVSPropertyOp15
 70
     1
102
RTVSPropertyOp16
 70
     1
102
RTVSPropertyOp17
 70
     1
102
RTVSPropertyOp18
 70
     1
102
RTVSPropertyOp19
 70
     1
102
RTVSPropertyOp20
 70
     1
102
RTVSPropertyOp21
 70
     1
102
RTVSPropertyOp22
 70
     1
102
RTVSPropertyOp23
 70
     1
102
RTVSPropertyOp24
 70
     1
102
RTVSPropertyOp25
 70
     1
102
RTVSPropertyOp26
 70
     1
102
RTVSPropertyOp27
 70
     1
  0
ENDSEC
  0
EOF
