  0
SECTION
  2
HEADER
  9
$ACADVER
  1
AC1024
  9
$ACADMAINTVER
 70
   109
  9
$DWGCODEPAGE
  3
ANSI_1252
  9
$LASTSAVEDBY
  1
Paul
  9
$INSBASE
 10
0.0
 20
0.0
 30
0.0
  9
$EXTMIN
 10
0.9453684862810796
 20
2.051393048987577
 30
-0.0000000122513689
  9
$EXTMAX
 10
2.471553257168093
 20
2.639850703235548
 30
0.0000000048704969
  9
$LIMMIN
 10
0.0
 20
0.0
  9
$LIMMAX
 10
12.0
 20
9.0
  9
$ORTHOMODE
 70
     1
  9
$REGENMODE
 70
     1
  9
$FILLMODE
 70
     1
  9
$QTEXTMODE
 70
     0
  9
$MIRRTEXT
 70
     0
  9
$LTSCALE
 40
0.075
  9
$ATTMODE
 70
     1
  9
$TEXTSIZE
 40
0.2
  9
$TRACEWID
 40
0.05
  9
$TEXTSTYLE
  7
Standard
  9
$CLAYER
  8
Dims
  9
$CELTYPE
  6
ByLayer
  9
$CECOLOR
 62
   256
  9
$CELTSCALE
 40
1.0
  9
$DISPSILH
 70
     0
  9
$DIMSCALE
 40
0.2
  9
$DIMASZ
 40
0.125
  9
$DIMEXO
 40
0.0625
  9
$DIMDLI
 40
0.38
  9
$DIMRND
 40
0.0
  9
$DIMDLE
 40
0.0
  9
$DIMEXE
 40
0.1
  9
$DIMTP
 40
0.0
  9
$DIMTM
 40
0.0
  9
$DIMTXT
 40
0.1
  9
$DIMCEN
 40
0.0
  9
$DIMTSZ
 40
0.0
  9
$DIMTOL
 70
     0
  9
$DIMLIM
 70
     0
  9
$DIMTIH
 70
     1
  9
$DIMTOH
 70
     1
  9
$DIMSE1
 70
     0
  9
$DIMSE2
 70
     0
  9
$DIMTAD
 70
     0
  9
$DIMZIN
 70
     4
  9
$DIMBLK
  1

  9
$DIMASO
 70
     1
  9
$DIMSHO
 70
     1
  9
$DIMPOST
  1

  9
$DIMAPOST
  1

  9
$DIMALT
 70
     1
  9
$DIMALTD
 70
     2
  9
$DIMALTF
 40
25.4
  9
$DIMLFAC
 40
1.0
  9
$DIMTOFL
 70
     0
  9
$DIMTVP
 40
0.0
  9
$DIMTIX
 70
     0
  9
$DIMSOXD
 70
     0
  9
$DIMSAH
 70
     0
  9
$DIMBLK1
  1

  9
$DIMBLK2
  1

  9
$DIMSTYLE
  2
Standard
  9
$DIMCLRD
 70
   256
  9
$DIMCLRE
 70
   256
  9
$DIMCLRT
 70
     3
  9
$DIMTFAC
 40
1.0
  9
$DIMGAP
 40
0.09
  9
$DIMJUST
 70
     0
  9
$DIMSD1
 70
     0
  9
$DIMSD2
 70
     0
  9
$DIMTOLJ
 70
     1
  9
$DIMTZIN
 70
     0
  9
$DIMALTZ
 70
     4
  9
$DIMALTTZ
 70
     0
  9
$DIMUPT
 70
     0
  9
$DIMDEC
 70
     3
  9
$DIMTDEC
 70
     3
  9
$DIMALTU
 70
     2
  9
$DIMALTTD
 70
     2
  9
$DIMTXSTY
  7
Standard
  9
$DIMAUNIT
 70
     0
  9
$DIMADEC
 70
     0
  9
$DIMALTRND
 40
0.0
  9
$DIMAZIN
 70
     1
  9
$DIMDSEP
 70
    46
  9
$DIMATFIT
 70
     3
  9
$DIMFRAC
 70
     0
  9
$DIMLDRBLK
  1

  9
$DIMLUNIT
 70
     2
  9
$DIMLWD
 70
    -2
  9
$DIMLWE
 70
    -2
  9
$DIMTMOVE
 70
     0
  9
$DIMFXL
 40
1.0
  9
$DIMFXLON
 70
     0
  9
$DIMJOGANG
 40
0.7853981633974483
  9
$DIMTFILL
 70
     0
  9
$DIMTFILLCLR
 70
     0
  9
$DIMARCSYM
 70
     0
  9
$DIMLTYPE
  6

  9
$DIMLTEX1
  6

  9
$DIMLTEX2
  6

  9
$DIMTXTDIRECTION
 70
     0
  9
$LUNITS
 70
     2
  9
$LUPREC
 70
     4
  9
$SKETCHINC
 40
0.1
  9
$FILLETRAD
 40
0.0
  9
$AUNITS
 70
     0
  9
$AUPREC
 70
     0
  9
$MENU
  1
.
  9
$ELEVATION
 40
0.0
  9
$PELEVATION
 40
0.0
  9
$THICKNESS
 40
0.0
  9
$LIMCHECK
 70
     0
  9
$CHAMFERA
 40
0.006
  9
$CHAMFERB
 40
0.006
  9
$CHAMFERC
 40
0.0
  9
$CHAMFERD
 40
0.0
  9
$SKPOLY
 70
     0
  9
$TDCREATE
 40
2454574.423453044
  9
$TDUCREATE
 40
2454574.673453044
  9
$TDUPDATE
 40
2458473.424712431
  9
$TDUUPDATE
 40
2458473.674712431
  9
$TDINDWG
 40
14.7183723611
  9
$TDUSRTIMER
 40
14.7183721875
  9
$USRTIMER
 70
     1
  9
$ANGBASE
 50
0.0
  9
$ANGDIR
 70
     0
  9
$PDMODE
 70
     0
  9
$PDSIZE
 40
0.0
  9
$PLINEWID
 40
0.0
  9
$SPLFRAME
 70
     0
  9
$SPLINETYPE
 70
     6
  9
$SPLINESEGS
 70
     8
  9
$HANDSEED
  5
118BF
  9
$SURFTAB1
 70
     6
  9
$SURFTAB2
 70
     6
  9
$SURFTYPE
 70
     6
  9
$SURFU
 70
     6
  9
$SURFV
 70
     6
  9
$UCSBASE
  2

  9
$UCSNAME
  2

  9
$UCSORG
 10
0.0
 20
0.0
 30
0.0
  9
$UCSXDIR
 10
1.0
 20
0.0
 30
0.0
  9
$UCSYDIR
 10
0.0
 20
1.0
 30
0.0
  9
$UCSORTHOREF
  2

  9
$UCSORTHOVIEW
 70
     0
  9
$UCSORGTOP
 10
0.0
 20
0.0
 30
0.0
  9
$UCSORGBOTTOM
 10
0.0
 20
0.0
 30
0.0
  9
$UCSORGLEFT
 10
0.0
 20
0.0
 30
0.0
  9
$UCSORGRIGHT
 10
0.0
 20
0.0
 30
0.0
  9
$UCSORGFRONT
 10
0.0
 20
0.0
 30
0.0
  9
$UCSORGBACK
 10
0.0
 20
0.0
 30
0.0
  9
$PUCSBASE
  2

  9
$PUCSNAME
  2

  9
$PUCSORG
 10
0.0
 20
0.0
 30
0.0
  9
$PUCSXDIR
 10
1.0
 20
0.0
 30
0.0
  9
$PUCSYDIR
 10
0.0
 20
1.0
 30
0.0
  9
$PUCSORTHOREF
  2

  9
$PUCSORTHOVIEW
 70
     0
  9
$PUCSORGTOP
 10
0.0
 20
0.0
 30
0.0
  9
$PUCSORGBOTTOM
 10
0.0
 20
0.0
 30
0.0
  9
$PUCSORGLEFT
 10
0.0
 20
0.0
 30
0.0
  9
$PUCSORGRIGHT
 10
0.0
 20
0.0
 30
0.0
  9
$PUCSORGFRONT
 10
0.0
 20
0.0
 30
0.0
  9
$PUCSORGBACK
 10
0.0
 20
0.0
 30
0.0
  9
$USERI1
 70
     0
  9
$USERI2
 70
     0
  9
$USERI3
 70
     0
  9
$USERI4
 70
     0
  9
$USERI5
 70
     0
  9
$USERR1
 40
0.0
  9
$USERR2
 40
0.0
  9
$USERR3
 40
0.0
  9
$USERR4
 40
0.0
  9
$USERR5
 40
0.0
  9
$WORLDVIEW
 70
     1
  9
$SHADEDGE
 70
     3
  9
$SHADEDIF
 70
    70
  9
$TILEMODE
 70
     1
  9
$MAXACTVP
 70
    64
  9
$PINSBASE
 10
0.0
 20
0.0
 30
0.0
  9
$PLIMCHECK
 70
     0
  9
$PEXTMIN
 10
0.0
 20
0.0
 30
0.0
  9
$PEXTMAX
 10
0.0
 20
0.0
 30
0.0
  9
$PLIMMIN
 10
0.0
 20
0.0
  9
$PLIMMAX
 10
12.0
 20
9.0
  9
$UNITMODE
 70
     0
  9
$VISRETAIN
 70
     1
  9
$PLINEGEN
 70
     0
  9
$PSLTSCALE
 70
     1
  9
$TREEDEPTH
 70
  3020
  9
$CMLSTYLE
  2
Standard
  9
$CMLJUST
 70
     0
  9
$CMLSCALE
 40
1.0
  9
$PROXYGRAPHICS
 70
     1
  9
$MEASUREMENT
 70
     0
  9
$CELWEIGHT
370
    -1
  9
$ENDCAPS
280
     0
  9
$JOINSTYLE
280
     0
  9
$LWDISPLAY
290
     0
  9
$INSUNITS
 70
     1
  9
$HYPERLINKBASE
  1

  9
$STYLESHEET
  1
monochrome.ctb
  9
$XEDIT
290
     1
  9
$CEPSNTYPE
380
     0
  9
$PSTYLEMODE
290
     1
  9
$FINGERPRINTGUID
  2
{FEE04F6B-7EB7-48DE-A248-36E84D2478E4}
  9
$VERSIONGUID
  2
{2E8893BA-C36B-481C-BCE4-21FE049F9500}
  9
$EXTNAMES
290
     1
  9
$PSVPSCALE
 40
0.0
  9
$OLESTARTUP
290
     0
  9
$SORTENTS
280
   127
  9
$INDEXCTL
280
     0
  9
$HIDETEXT
280
     1
  9
$XCLIPFRAME
280
     0
  9
$HALOGAP
280
     0
  9
$OBSCOLOR
 70
   257
  9
$OBSLTYPE
280
     0
  9
$INTERSECTIONDISPLAY
280
     0
  9
$INTERSECTIONCOLOR
 70
   257
  9
$DIMASSOC
280
     2
  9
$PROJECTNAME
  1

  9
$CAMERADISPLAY
290
     0
  9
$LENSLENGTH
 40
50.0
  9
$CAMERAHEIGHT
 40
0.0
  9
$STEPSPERSEC
 40
2.0
  9
$STEPSIZE
 40
6.0
  9
$3DDWFPREC
 40
2.0
  9
$PSOLWIDTH
 40
0.25
  9
$PSOLHEIGHT
 40
4.0
  9
$LOFTANG1
 40
1.570796326794896
  9
$LOFTANG2
 40
1.570796326794896
  9
$LOFTMAG1
 40
0.0
  9
$LOFTMAG2
 40
0.0
  9
$LOFTPARAM
 70
     7
  9
$LOFTNORMALS
280
     1
  9
$LATITUDE
 40
37.795
  9
$LONGITUDE
 40
-122.394
  9
$NORTHDIRECTION
 40
0.0
  9
$TIMEZONE
 70
 -8000
  9
$LIGHTGLYPHDISPLAY
280
     1
  9
$TILEMODELIGHTSYNCH
280
     1
  9
$CMATERIAL
347
96
  9
$SOLIDHIST
280
     1
  9
$SHOWHIST
280
     1
  9
$DWFFRAME
280
     2
  9
$DGNFRAME
280
     0
  9
$REALWORLDSCALE
290
     1
  9
$INTERFERECOLOR
 62
     1
  9
$INTERFEREOBJVS
345
A3
  9
$INTERFEREVPVS
346
A0
  9
$CSHADOW
280
     0
  9
$SHADOWPLANELOCATION
 40
0.0
  0
ENDSEC
  0
SECTION
  2
CLASSES
  0
CLASS
  1
ACDBDICTIONARYWDFLT
  2
AcDbDictionaryWithDefault
  3
ObjectDBX Classes
 90
        0
 91
        1
280
     0
281
     0
  0
CLASS
  1
DICTIONARYVAR
  2
AcDbDictionaryVar
  3
ObjectDBX Classes
 90
        0
 91
       13
280
     0
281
     0
  0
CLASS
  1
TABLESTYLE
  2
AcDbTableStyle
  3
ObjectDBX Classes
 90
     4095
 91
        1
280
     0
281
     0
  0
CLASS
  1
MATERIAL
  2
AcDbMaterial
  3
ObjectDBX Classes
 90
     1153
 91
        3
280
     0
281
     0
  0
CLASS
  1
VISUALSTYLE
  2
AcDbVisualStyle
  3
ObjectDBX Classes
 90
     4095
 91
       26
280
     0
281
     0
  0
CLASS
  1
SCALE
  2
AcDbScale
  3
ObjectDBX Classes
 90
     1153
 91
       33
280
     0
281
     0
  0
CLASS
  1
MLEADERSTYLE
  2
AcDbMLeaderStyle
  3
ACDB_MLEADERSTYLE_CLASS
 90
     4095
 91
        1
280
     0
281
     0
  0
CLASS
  1
CELLSTYLEMAP
  2
AcDbCellStyleMap
  3
ObjectDBX Classes
 90
     1152
 91
        1
280
     0
281
     0
  0
CLASS
  1
SORTENTSTABLE
  2
AcDbSortentsTable
  3
ObjectDBX Classes
 90
        0
 91
        1
280
     0
281
     0
  0
CLASS
  1
DIMASSOC
  2
AcDbDimAssoc
  3
"AcDbDimAssoc|Product Desc:     AcDim ARX App For Dimension|Company:          Autodesk, Inc.|WEB Address:      www.autodesk.com"
 90
        0
 91
        5
280
     0
281
     0
  0
CLASS
  1
PLOTSETTINGS
  2
AcDbPlotSettings
  3
ObjectDBX Classes
 90
        0
 91
        1
280
     0
281
     0
  0
CLASS
  1
ACDBSECTIONVIEWSTYLE
  2
AcDbSectionViewStyle
  3
ObjectDBX Classes
 90
     1025
 91
        1
280
     0
281
     0
  0
CLASS
  1
ACDBDETAILVIEWSTYLE
  2
AcDbDetailViewStyle
  3
ObjectDBX Classes
 90
     1025
 91
        1
280
     0
281
     0
  0
ENDSEC
  0
SECTION
  2
TABLES
  0
TABLE
  2
VPORT
  5
8
102
{ACAD_XDICTIONARY
360
1B1E
102
}
330
0
100
AcDbSymbolTable
 70
     1
  0
VPORT
  5
94
330
8
100
AcDbSymbolTableRecord
100
AcDbViewportTableRecord
  2
*Active
 70
     0
 10
0.0
 20
0.0
 11
1.0
 21
1.0
 12
1.708460871724586
 22
2.345621876111563
 13
0.0
 23
0.0
 14
0.5
 24
0.5
 15
0.5
 25
0.5
 16
0.0
 26
0.0
 36
1.0
 17
0.0
 27
0.0
 37
0.0
 40
0.6635495880825804
 41
2.30722891566265
 42
50.0
 43
0.0
 44
0.0
 50
0.0
 51
0.0
 71
     0
 72
  1000
 73
     1
 74
     3
 75
     0
 76
     0
 77
     0
 78
     0
281
     0
 65
     1
110
0.0
120
0.0
130
0.0
111
1.0
121
0.0
131
0.0
112
0.0
122
1.0
132
0.0
 79
     0
146
0.0
348
9F
 60
     2
 61
     5
292
     1
282
     1
141
0.0
142
0.0
 63
   250
421
  3355443
1001
ACAD_NAV_VCDISPLAY
1070
     3
  0
ENDTAB
  0
TABLE
  2
LTYPE
  5
5
330
0
100
AcDbSymbolTable
 70
     2
  0
LTYPE
  5
14
330
5
100
AcDbSymbolTableRecord
100
AcDbLinetypeTableRecord
  2
ByBlock
 70
     0
  3

 72
    65
 73
     0
 40
0.0
  0
LTYPE
  5
15
330
5
100
AcDbSymbolTableRecord
100
AcDbLinetypeTableRecord
  2
ByLayer
 70
     0
  3

 72
    65
 73
     0
 40
0.0
  0
LTYPE
  5
16
330
5
100
AcDbSymbolTableRecord
100
AcDbLinetypeTableRecord
  2
Continuous
 70
     0
  3
Solid line
 72
    65
 73
     0
 40
0.0
  0
LTYPE
  5
104C7
330
5
100
AcDbSymbolTableRecord
100
AcDbLinetypeTableRecord
  2
PHANTOM2
 70
     0
  3
Phantom (.5x) ___ _ _ ___ _ _ ___ _ _ ___ _ _
 72
    65
 73
     6
 40
1.25
 49
0.625
 74
     0
 49
-0.125
 74
     0
 49
0.125
 74
     0
 49
-0.125
 74
     0
 49
0.125
 74
     0
 49
-0.125
 74
     0
  0
ENDTAB
  0
TABLE
  2
LAYER
  5
2
102
{ACAD_XDICTIONARY
360
3D3
102
}
330
0
100
AcDbSymbolTable
 70
     7
  0
LAYER
  5
10
102
{ACAD_XDICTIONARY
360
E6
102
}
330
2
100
AcDbSymbolTableRecord
100
AcDbLayerTableRecord
  2
0
 70
     0
 62
     7
  6
Continuous
370
    -3
390
F
347
98
  0
LAYER
  5
3C9
330
2
100
AcDbSymbolTableRecord
100
AcDbLayerTableRecord
  2
Dims
 70
     0
 62
     4
  6
Continuous
370
    -3
390
F
347
98
1001
AcAecLayerStandard
1000

1000

  0
LAYER
  5
3CA
330
2
100
AcDbSymbolTableRecord
100
AcDbLayerTableRecord
  2
Text
 70
     0
 62
     3
  6
Continuous
370
    -3
390
F
347
98
1001
AcAecLayerStandard
1000

1000

  0
LAYER
  5
3CD
330
2
100
AcDbSymbolTableRecord
100
AcDbLayerTableRecord
  2
Defpoints
 70
     0
 62
     7
  6
Continuous
290
     0
370
    -3
390
F
347
98
  0
LAYER
  5
3CE
330
2
100
AcDbSymbolTableRecord
100
AcDbLayerTableRecord
  2
21
 70
     0
 62
     7
  6
Continuous
370
    -3
390
F
347
98
  0
LAYER
  5
3CF
330
2
100
AcDbSymbolTableRecord
100
AcDbLayerTableRecord
  2
23
 70
     0
 62
     7
  6
Continuous
370
    -3
390
F
347
98
  0
LAYER
  5
1CE2
330
2
100
AcDbSymbolTableRecord
100
AcDbLayerTableRecord
  2
1
 70
     0
 62
     7
  6
Continuous
370
    -3
390
F
347
98
  0
ENDTAB
  0
TABLE
  2
STYLE
  5
3
330
0
100
AcDbSymbolTable
 70
     3
  0
STYLE
  5
11
330
3
100
AcDbSymbolTableRecord
100
AcDbTextStyleTableRecord
  2
Standard
 70
     0
 40
0.0
 41
1.0
 50
0.0
 71
     0
 42
0.2
  3
romans.shx
  4

  0
STYLE
  5
3D0
330
3
100
AcDbSymbolTableRecord
100
AcDbTextStyleTableRecord
  2
MONOTXT
 70
     0
 40
0.2
 41
1.0
 50
0.0
 71
     0
 42
0.2
  3
MONOTXT
  4

  0
STYLE
  5
DD58
330
3
100
AcDbSymbolTableRecord
100
AcDbTextStyleTableRecord
  2
style1
 70
     0
 40
0.0
 41
1.0
 50
0.0
 71
     0
 42
0.2
  3
arial.ttf
  4

1001
ACAD
1000
Arial
1071
       34
  0
ENDTAB
  0
TABLE
  2
VIEW
  5
6
330
0
100
AcDbSymbolTable
 70
     0
  0
ENDTAB
  0
TABLE
  2
UCS
  5
7
330
0
100
AcDbSymbolTable
 70
     0
  0
ENDTAB
  0
TABLE
  2
APPID
  5
9
330
0
100
AcDbSymbolTable
 70
    12
  0
APPID
  5
12
330
9
100
AcDbSymbolTableRecord
100
AcDbRegAppTableRecord
  2
ACAD
 70
     0
  0
APPID
  5
DD
330
9
100
AcDbSymbolTableRecord
100
AcDbRegAppTableRecord
  2
AcadAnnoPO
 70
     0
  0
APPID
  5
DE
330
9
100
AcDbSymbolTableRecord
100
AcDbRegAppTableRecord
  2
AcadAnnotative
 70
     0
  0
APPID
  5
DF
330
9
100
AcDbSymbolTableRecord
100
AcDbRegAppTableRecord
  2
ACAD_DSTYLE_DIMJAG
 70
     0
  0
APPID
  5
E0
330
9
100
AcDbSymbolTableRecord
100
AcDbRegAppTableRecord
  2
ACAD_DSTYLE_DIMTALN
 70
     0
  0
APPID
  5
107
330
9
100
AcDbSymbolTableRecord
100
AcDbRegAppTableRecord
  2
ACAD_MLEADERVER
 70
     0
  0
APPID
  5
14C
330
9
100
AcDbSymbolTableRecord
100
AcDbRegAppTableRecord
  2
ACAD_EXEMPT_FROM_CAD_STANDARDS
 70
     0
  0
APPID
  5
3D1
330
9
100
AcDbSymbolTableRecord
100
AcDbRegAppTableRecord
  2
AcAecLayerStandard
 70
     0
  0
APPID
  5
3D2
330
9
100
AcDbSymbolTableRecord
100
AcDbRegAppTableRecord
  2
ACAD_DSTYLE_DIMRADIAL_EXTENSION
 70
     0
  0
APPID
  5
AC0
330
9
100
AcDbSymbolTableRecord
100
AcDbRegAppTableRecord
  2
ACAD_DSTYLE_DIMBREAK
 70
     0
  0
APPID
  5
15F5
330
9
100
AcDbSymbolTableRecord
100
AcDbRegAppTableRecord
  2
ACAD_PSEXT
 70
     0
  0
APPID
  5
104D2
330
9
100
AcDbSymbolTableRecord
100
AcDbRegAppTableRecord
  2
ACAD_NAV_VCDISPLAY
 70
     0
  0
ENDTAB
  0
TABLE
  2
DIMSTYLE
  5
A
330
0
100
AcDbSymbolTable
 70
     1
100
AcDbDimStyleTable
 71
     1
340
27
  0
DIMSTYLE
105
27
102
{ACAD_REACTORS
330
10D43
330
10D44
330
10D45
330
10D46
330
10D47
330
10D48
330
10D49
330
10D56
102
}
330
A
100
AcDbSymbolTableRecord
100
AcDbDimStyleTableRecord
  2
Standard
 70
     0
 40
0.2
 41
0.125
 44
0.1
 78
     4
 79
     1
140
0.1
141
0.0
170
     1
176
   256
177
   256
178
     3
271
     3
272
     3
285
     4
340
11
1001
ACAD_DSTYLE_DIMJAG
1070
   388
1040
1.5
1001
ACAD_DSTYLE_DIMTALN
1070
   392
1070
     0
  0
ENDTAB
  0
TABLE
  2
BLOCK_RECORD
  5
1
330
0
100
AcDbSymbolTable
 70
    63
  0
BLOCK_RECORD
  5
1F
102
{ACAD_XDICTIONARY
360
158
102
}
330
1
100
AcDbSymbolTableRecord
100
AcDbBlockTableRecord
  2
*Model_Space
340
22
 70
     0
280
     1
281
     0
  0
BLOCK_RECORD
  5
58
330
1
100
AcDbSymbolTableRecord
100
AcDbBlockTableRecord
  2
*Paper_Space
340
59
 70
     0
280
     1
281
     0
  0
BLOCK_RECORD
  5
5D
330
1
100
AcDbSymbolTableRecord
100
AcDbBlockTableRecord
  2
*Paper_Space0
340
5E
 70
     0
280
     1
281
     0
  0
BLOCK_RECORD
  5
395
330
1
100
AcDbSymbolTableRecord
100
AcDbBlockTableRecord
  2
MAJDIM
340
0
 70
     0
280
     1
281
     0
  0
BLOCK_RECORD
  5
10E68
330
1
100
AcDbSymbolTableRecord
100
AcDbBlockTableRecord
  2
*D2
340
0
 70
     0
280
     1
281
     0
  0
BLOCK_RECORD
  5
10E76
330
1
100
AcDbSymbolTableRecord
100
AcDbBlockTableRecord
  2
*D3
340
0
 70
     0
280
     1
281
     0
  0
BLOCK_RECORD
  5
10E7F
330
1
100
AcDbSymbolTableRecord
100
AcDbBlockTableRecord
  2
*D4
340
0
 70
     0
280
     1
281
     0
  0
BLOCK_RECORD
  5
10E8C
330
1
100
AcDbSymbolTableRecord
100
AcDbBlockTableRecord
  2
*D5
340
0
 70
     0
280
     1
281
     0
  0
BLOCK_RECORD
  5
10E9A
330
1
100
AcDbSymbolTableRecord
100
AcDbBlockTableRecord
  2
*D6
340
0
 70
     0
280
     1
281
     0
  0
BLOCK_RECORD
  5
10EA7
330
1
100
AcDbSymbolTableRecord
100
AcDbBlockTableRecord
  2
*D7
340
0
 70
     0
280
     1
281
     0
  0
BLOCK_RECORD
  5
10EB4
330
1
100
AcDbSymbolTableRecord
100
AcDbBlockTableRecord
  2
*D8
340
0
 70
     0
280
     1
281
     0
  0
BLOCK_RECORD
  5
10EC1
330
1
100
AcDbSymbolTableRecord
100
AcDbBlockTableRecord
  2
*D9
340
0
 70
     0
280
     1
281
     0
  0
BLOCK_RECORD
  5
10ECE
330
1
100
AcDbSymbolTableRecord
100
AcDbBlockTableRecord
  2
*D10
340
0
 70
     0
280
     1
281
     0
  0
BLOCK_RECORD
  5
10EDB
330
1
100
AcDbSymbolTableRecord
100
AcDbBlockTableRecord
  2
*D11
340
0
 70
     0
280
     1
281
     0
  0
BLOCK_RECORD
  5
10EE8
330
1
100
AcDbSymbolTableRecord
100
AcDbBlockTableRecord
  2
*D12
340
0
 70
     0
280
     1
281
     0
  0
BLOCK_RECORD
  5
10EF6
330
1
100
AcDbSymbolTableRecord
100
AcDbBlockTableRecord
  2
*D13
340
0
 70
     0
280
     1
281
     0
  0
BLOCK_RECORD
  5
10F03
330
1
100
AcDbSymbolTableRecord
100
AcDbBlockTableRecord
  2
*D14
340
0
 70
     0
280
     1
281
     0
  0
BLOCK_RECORD
  5
10F10
330
1
100
AcDbSymbolTableRecord
100
AcDbBlockTableRecord
  2
*D15
340
0
 70
     0
280
     1
281
     0
  0
BLOCK_RECORD
  5
10F1D
330
1
100
AcDbSymbolTableRecord
100
AcDbBlockTableRecord
  2
*D16
340
0
 70
     0
280
     1
281
     0
  0
BLOCK_RECORD
  5
10F2B
330
1
100
AcDbSymbolTableRecord
100
AcDbBlockTableRecord
  2
*D17
340
0
 70
     0
280
     1
281
     0
  0
BLOCK_RECORD
  5
10F34
330
1
100
AcDbSymbolTableRecord
100
AcDbBlockTableRecord
  2
*D18
340
0
 70
     0
280
     1
281
     0
  0
BLOCK_RECORD
  5
10F41
330
1
100
AcDbSymbolTableRecord
100
AcDbBlockTableRecord
  2
*D19
340
0
 70
     0
280
     1
281
     0
  0
BLOCK_RECORD
  5
10F4E
330
1
100
AcDbSymbolTableRecord
100
AcDbBlockTableRecord
  2
*D20
340
0
 70
     0
280
     1
281
     0
  0
BLOCK_RECORD
  5
10F5C
330
1
100
AcDbSymbolTableRecord
100
AcDbBlockTableRecord
  2
*D21
340
0
 70
     0
280
     1
281
     0
  0
BLOCK_RECORD
  5
10F69
330
1
100
AcDbSymbolTableRecord
100
AcDbBlockTableRecord
  2
*D22
340
0
 70
     0
280
     1
281
     0
  0
BLOCK_RECORD
  5
10F76
330
1
100
AcDbSymbolTableRecord
100
AcDbBlockTableRecord
  2
*D23
340
0
 70
     0
280
     1
281
     0
  0
BLOCK_RECORD
  5
10F83
330
1
100
AcDbSymbolTableRecord
100
AcDbBlockTableRecord
  2
*D24
340
0
 70
     0
280
     1
281
     0
  0
BLOCK_RECORD
  5
10F91
330
1
100
AcDbSymbolTableRecord
100
AcDbBlockTableRecord
  2
*D25
340
0
 70
     0
280
     1
281
     0
  0
BLOCK_RECORD
  5
10F9A
330
1
100
AcDbSymbolTableRecord
100
AcDbBlockTableRecord
  2
*D26
340
0
 70
     0
280
     1
281
     0
  0
BLOCK_RECORD
  5
10FA7
330
1
100
AcDbSymbolTableRecord
100
AcDbBlockTableRecord
  2
*D27
340
0
 70
     0
280
     1
281
     0
  0
BLOCK_RECORD
  5
10FB5
330
1
100
AcDbSymbolTableRecord
100
AcDbBlockTableRecord
  2
*D28
340
0
 70
     0
280
     1
281
     0
  0
BLOCK_RECORD
  5
10FC2
330
1
100
AcDbSymbolTableRecord
100
AcDbBlockTableRecord
  2
*D29
340
0
 70
     0
280
     1
281
     0
  0
BLOCK_RECORD
  5
10FCF
330
1
100
AcDbSymbolTableRecord
100
AcDbBlockTableRecord
  2
*D30
340
0
 70
     0
280
     1
281
     0
  0
BLOCK_RECORD
  5
10FDC
330
1
100
AcDbSymbolTableRecord
100
AcDbBlockTableRecord
  2
*D31
340
0
 70
     0
280
     1
281
     0
  0
BLOCK_RECORD
  5
10FEA
330
1
100
AcDbSymbolTableRecord
100
AcDbBlockTableRecord
  2
*D32
340
0
 70
     0
280
     1
281
     0
  0
BLOCK_RECORD
  5
10FF3
330
1
100
AcDbSymbolTableRecord
100
AcDbBlockTableRecord
  2
*D33
340
0
 70
     0
280
     1
281
     0
  0
BLOCK_RECORD
  5
11000
330
1
100
AcDbSymbolTableRecord
100
AcDbBlockTableRecord
  2
*D34
340
0
 70
     0
280
     1
281
     0
  0
BLOCK_RECORD
  5
1100D
330
1
100
AcDbSymbolTableRecord
100
AcDbBlockTableRecord
  2
*D35
340
0
 70
     0
280
     1
281
     0
  0
BLOCK_RECORD
  5
1101A
330
1
100
AcDbSymbolTableRecord
100
AcDbBlockTableRecord
  2
*D36
340
0
 70
     0
280
     1
281
     0
  0
BLOCK_RECORD
  5
11028
330
1
100
AcDbSymbolTableRecord
100
AcDbBlockTableRecord
  2
*D37
340
0
 70
     0
280
     1
281
     0
  0
BLOCK_RECORD
  5
11035
330
1
100
AcDbSymbolTableRecord
100
AcDbBlockTableRecord
  2
*D38
340
0
 70
     0
280
     1
281
     0
  0
BLOCK_RECORD
  5
11042
330
1
100
AcDbSymbolTableRecord
100
AcDbBlockTableRecord
  2
*D39
340
0
 70
     0
280
     1
281
     0
  0
BLOCK_RECORD
  5
1104F
330
1
100
AcDbSymbolTableRecord
100
AcDbBlockTableRecord
  2
*D40
340
0
 70
     0
280
     1
281
     0
  0
BLOCK_RECORD
  5
1105D
330
1
100
AcDbSymbolTableRecord
100
AcDbBlockTableRecord
  2
*D41
340
0
 70
     0
280
     1
281
     0
  0
BLOCK_RECORD
  5
11066
330
1
100
AcDbSymbolTableRecord
100
AcDbBlockTableRecord
  2
*D42
340
0
 70
     0
280
     1
281
     0
  0
BLOCK_RECORD
  5
11073
330
1
100
AcDbSymbolTableRecord
100
AcDbBlockTableRecord
  2
*D43
340
0
 70
     0
280
     1
281
     0
  0
BLOCK_RECORD
  5
11080
330
1
100
AcDbSymbolTableRecord
100
AcDbBlockTableRecord
  2
*D44
340
0
 70
     0
280
     1
281
     0
  0
BLOCK_RECORD
  5
1108E
330
1
100
AcDbSymbolTableRecord
100
AcDbBlockTableRecord
  2
*D45
340
0
 70
     0
280
     1
281
     0
  0
BLOCK_RECORD
  5
1109B
330
1
100
AcDbSymbolTableRecord
100
AcDbBlockTableRecord
  2
*D46
340
0
 70
     0
280
     1
281
     0
  0
BLOCK_RECORD
  5
110A8
330
1
100
AcDbSymbolTableRecord
100
AcDbBlockTableRecord
  2
*D47
340
0
 70
     0
280
     1
281
     0
  0
BLOCK_RECORD
  5
110B5
330
1
100
AcDbSymbolTableRecord
100
AcDbBlockTableRecord
  2
*D48
340
0
 70
     0
280
     1
281
     0
  0
BLOCK_RECORD
  5
110C3
330
1
100
AcDbSymbolTableRecord
100
AcDbBlockTableRecord
  2
*D49
340
0
 70
     0
280
     1
281
     0
  0
BLOCK_RECORD
  5
110CC
330
1
100
AcDbSymbolTableRecord
100
AcDbBlockTableRecord
  2
*D50
340
0
 70
     0
280
     1
281
     0
  0
BLOCK_RECORD
  5
110D9
330
1
100
AcDbSymbolTableRecord
100
AcDbBlockTableRecord
  2
*D51
340
0
 70
     0
280
     1
281
     0
  0
BLOCK_RECORD
  5
110E6
330
1
100
AcDbSymbolTableRecord
100
AcDbBlockTableRecord
  2
*D52
340
0
 70
     0
280
     1
281
     0
  0
BLOCK_RECORD
  5
110F4
330
1
100
AcDbSymbolTableRecord
100
AcDbBlockTableRecord
  2
*D53
340
0
 70
     0
280
     1
281
     0
  0
BLOCK_RECORD
  5
11101
330
1
100
AcDbSymbolTableRecord
100
AcDbBlockTableRecord
  2
*D54
340
0
 70
     0
280
     1
281
     0
  0
BLOCK_RECORD
  5
1110E
330
1
100
AcDbSymbolTableRecord
100
AcDbBlockTableRecord
  2
*D55
340
0
 70
     0
280
     1
281
     0
  0
BLOCK_RECORD
  5
1111B
330
1
100
AcDbSymbolTableRecord
100
AcDbBlockTableRecord
  2
*D56
340
0
 70
     0
280
     1
281
     0
  0
BLOCK_RECORD
  5
11129
330
1
100
AcDbSymbolTableRecord
100
AcDbBlockTableRecord
  2
*D57
340
0
 70
     0
280
     1
281
     0
  0
BLOCK_RECORD
  5
11143
330
1
100
AcDbSymbolTableRecord
100
AcDbBlockTableRecord
  2
*D58
340
0
 70
     0
280
     1
281
     0
  0
BLOCK_RECORD
  5
1135B
330
1
100
AcDbSymbolTableRecord
100
AcDbBlockTableRecord
  2
*D59
340
0
 70
     0
280
     1
281
     0
  0
BLOCK_RECORD
  5
11368
330
1
100
AcDbSymbolTableRecord
100
AcDbBlockTableRecord
  2
*D60
340
0
 70
     0
280
     1
281
     0
  0
BLOCK_RECORD
  5
11375
330
1
100
AcDbSymbolTableRecord
100
AcDbBlockTableRecord
  2
*D61
340
0
 70
     0
280
     1
281
     0
  0
BLOCK_RECORD
  5
11382
330
1
100
AcDbSymbolTableRecord
100
AcDbBlockTableRecord
  2
*D62
340
0
 70
     0
280
     1
281
     0
  0
ENDTAB
  0
ENDSEC
  0
SECTION
  2
BLOCKS
  0
BLOCK
  5
20
330
1F
100
AcDbEntity
  8
0
100
AcDbBlockBegin
  2
*Model_Space
 70
     0
 10
0.0
 20
0.0
 30
0.0
  3
*Model_Space
  1

  0
ENDBLK
  5
21
330
1F
100
AcDbEntity
  8
0
100
AcDbBlockEnd
  0
BLOCK
  5
5A
330
58
100
AcDbEntity
 67
     1
  8
0
100
AcDbBlockBegin
  2
*Paper_Space
 70
     0
 10
0.0
 20
0.0
 30
0.0
  3
*Paper_Space
  1

  0
ENDBLK
  5
5B
330
58
100
AcDbEntity
 67
     1
  8
0
100
AcDbBlockEnd
  0
BLOCK
  5
5F
330
5D
100
AcDbEntity
 67
     1
  8
0
100
AcDbBlockBegin
  2
*Paper_Space0
 70
     0
 10
0.0
 20
0.0
 30
0.0
  3
*Paper_Space0
  1

  0
ENDBLK
  5
60
330
5D
100
AcDbEntity
 67
     1
  8
0
100
AcDbBlockEnd
  0
BLOCK
  5
396
330
395
100
AcDbEntity
  8
21
  6
Continuous
 62
     7
100
AcDbBlockBegin
  2
MAJDIM
 70
     0
 10
0.0
 20
0.0
 30
0.0
  3
MAJDIM
  1

  0
3DFACE
  5
397
330
395
100
AcDbEntity
  8
21
  6
Continuous
 62
     7
100
AcDbFace
 10
0.0605590551181103
 20
0.1156338582677165
 30
0.0
 11
0.3105708661417323
 21
0.1156338582677165
 31
0.0
 12
0.1855669291338583
 22
-0.1009055118110236
 32
0.0
 13
0.0605590551181103
 23
0.1156338582677165
 33
0.0
  0
LINE
  5
398
330
395
100
AcDbEntity
  8
21
  6
Continuous
 62
     7
100
AcDbLine
 10
0.0654566929133858
 20
0.1071417322834646
 30
0.0
 11
0.0739488188976378
 21
0.1156338582677165
 31
0.0
  0
LINE
  5
399
330
395
100
AcDbEntity
  8
21
  6
Continuous
 62
     7
100
AcDbLine
 10
0.0706338582677165
 20
0.0981811023622048
 30
0.0
 11
0.0880905511811024
 21
0.1156338582677165
 31
0.0
  0
LINE
  5
39A
330
395
100
AcDbEntity
  8
21
  6
Continuous
 62
     7
100
AcDbLine
 10
0.0758110236220473
 20
0.0892086614173229
 30
0.0
 11
0.1022322834645669
 21
0.1156338582677165
 31
0.0
  0
LINE
  5
39B
330
395
100
AcDbEntity
  8
21
  6
Continuous
 62
     7
100
AcDbLine
 10
0.080984251968504
 20
0.080244094488189
 30
0.0
 11
0.1163740157480315
 21
0.1156338582677165
 31
0.0
  0
LINE
  5
39C
330
395
100
AcDbEntity
  8
21
  6
Continuous
 62
     7
100
AcDbLine
 10
0.0861614173228347
 20
0.0712834645669291
 30
0.0
 11
0.1305157480314961
 21
0.1156338582677165
 31
0.0
  0
LINE
  5
39D
330
395
100
AcDbEntity
  8
21
  6
Continuous
 62
     7
100
AcDbLine
 10
0.0913385826771654
 20
0.0623110236220473
 30
0.0
 11
0.1446574803149606
 21
0.1156338582677165
 31
0.0
  0
LINE
  5
39E
330
395
100
AcDbEntity
  8
21
  6
Continuous
 62
     7
100
AcDbLine
 10
0.0965157480314961
 20
0.0533464566929134
 30
0.0
 11
0.1587992125984252
 21
0.1156338582677165
 31
0.0
  0
LINE
  5
39F
330
395
100
AcDbEntity
  8
21
  6
Continuous
 62
     7
100
AcDbLine
 10
0.1016889763779527
 20
0.0443779527559055
 30
0.0
 11
0.1729409448818898
 21
0.1156338582677165
 31
0.0
  0
LINE
  5
3A0
330
395
100
AcDbEntity
  8
21
  6
Continuous
 62
     7
100
AcDbLine
 10
0.1068661417322835
 20
0.0354133858267717
 30
0.0
 11
0.1870866141732284
 21
0.1156338582677165
 31
0.0
  0
LINE
  5
3A1
330
395
100
AcDbEntity
  8
21
  6
Continuous
 62
     7
100
AcDbLine
 10
0.1120433070866142
 20
0.0264488188976378
 30
0.0
 11
0.2012283464566929
 21
0.1156338582677165
 31
0.0
  0
LINE
  5
3A2
330
395
100
AcDbEntity
  8
21
  6
Continuous
 62
     7
100
AcDbLine
 10
0.1172165354330709
 20
0.0174803149606299
 30
0.0
 11
0.2153700787401575
 21
0.1156338582677165
 31
0.0
  0
LINE
  5
3A3
330
395
100
AcDbEntity
  8
21
  6
Continuous
 62
     7
100
AcDbLine
 10
0.1223937007874016
 20
0.0085157480314961
 30
0.0
 11
0.2295118110236221
 21
0.1156338582677165
 31
0.0
  0
LINE
  5
3A4
330
395
100
AcDbEntity
  8
21
  6
Continuous
 62
     7
100
AcDbLine
 10
0.1275708661417323
 20
-0.0004488188976378
 30
0.0
 11
0.2436535433070866
 21
0.1156338582677165
 31
0.0
  0
LINE
  5
3A5
330
395
100
AcDbEntity
  8
21
  6
Continuous
 62
     7
100
AcDbLine
 10
0.132748031496063
 20
-0.0094173228346457
 30
0.0
 11
0.2577952755905512
 21
0.1156338582677165
 31
0.0
  0
LINE
  5
3A6
330
395
100
AcDbEntity
  8
21
  6
Continuous
 62
     7
100
AcDbLine
 10
0.1379212598425197
 20
-0.0183818897637795
 30
0.0
 11
0.2719370078740158
 21
0.1156338582677165
 31
0.0
  0
LINE
  5
3A7
330
395
100
AcDbEntity
  8
21
  6
Continuous
 62
     7
100
AcDbLine
 10
0.1430984251968504
 20
-0.0273464566929134
 30
0.0
 11
0.2860787401574803
 21
0.1156338582677165
 31
0.0
  0
LINE
  5
3A8
330
395
100
AcDbEntity
  8
21
  6
Continuous
 62
     7
100
AcDbLine
 10
0.1482755905511811
 20
-0.0363149606299213
 30
0.0
 11
0.3002204724409449
 21
0.1156338582677165
 31
0.0
  0
LINE
  5
3A9
330
395
100
AcDbEntity
  8
21
  6
Continuous
 62
     7
100
AcDbLine
 10
0.1534488188976378
 20
-0.0452834645669291
 30
0.0
 11
0.3053858267716536
 21
0.1066535433070866
 31
0.0
  0
LINE
  5
3AA
330
395
100
AcDbEntity
  8
21
  6
Continuous
 62
     7
100
AcDbLine
 10
0.1586259842519685
 20
-0.054244094488189
 30
0.0
 11
0.2860748031496063
 21
0.0732047244094488
 31
0.0
  0
LINE
  5
3AB
330
395
100
AcDbEntity
  8
21
  6
Continuous
 62
     7
100
AcDbLine
 10
0.1638031496062992
 20
-0.0632125984251969
 30
0.0
 11
0.2667637795275591
 21
0.039744094488189
 31
0.0
  0
LINE
  5
3AC
330
395
100
AcDbEntity
  8
21
  6
Continuous
 62
     7
100
AcDbLine
 10
0.1689803149606299
 20
-0.0721811023622047
 30
0.0
 11
0.2474488188976378
 21
0.0062913385826772
 31
0.0
  0
LINE
  5
3AD
330
395
100
AcDbEntity
  8
21
  6
Continuous
 62
     7
100
AcDbLine
 10
0.1741535433070866
 20
-0.0811417322834646
 30
0.0
 11
0.2281377952755906
 21
-0.0271574803149606
 31
0.0
  0
LINE
  5
3AE
330
395
100
AcDbEntity
  8
21
  6
Continuous
 62
     7
100
AcDbLine
 10
0.1793307086614173
 20
-0.0901102362204725
 30
0.0
 11
0.2088267716535433
 21
-0.0606181102362205
 31
0.0
  0
LINE
  5
3AF
330
395
100
AcDbEntity
  8
21
  6
Continuous
 62
     7
100
AcDbLine
 10
0.184507874015748
 20
-0.0990787401574803
 30
0.0
 11
0.189511811023622
 21
-0.0940708661417323
 31
0.0
  0
LINE
  5
3B0
330
395
100
AcDbEntity
  8
21
  6
Continuous
 62
     7
100
AcDbLine
 10
0.3008307086614173
 20
0.1156338582677165
 30
0.0
 11
0.307007874015748
 21
0.1094566929133858
 31
0.0
  0
LINE
  5
3B1
330
395
100
AcDbEntity
  8
21
  6
Continuous
 62
     7
100
AcDbLine
 10
0.2866889763779528
 20
0.1156338582677165
 30
0.0
 11
0.3018307086614173
 21
0.100492125984252
 31
0.0
  0
LINE
  5
3B2
330
395
100
AcDbEntity
  8
21
  6
Continuous
 62
     7
100
AcDbLine
 10
0.2725472440944882
 20
0.1156338582677165
 30
0.0
 11
0.2966535433070866
 21
0.0915236220472441
 31
0.0
  0
LINE
  5
3B3
330
395
100
AcDbEntity
  8
21
  6
Continuous
 62
     7
100
AcDbLine
 10
0.2584055118110236
 20
0.1156338582677165
 30
0.0
 11
0.2914803149606299
 21
0.0825590551181103
 31
0.0
  0
LINE
  5
3B4
330
395
100
AcDbEntity
  8
21
  6
Continuous
 62
     7
100
AcDbLine
 10
0.2442637795275591
 20
0.1156338582677165
 30
0.0
 11
0.2863031496062992
 21
0.0735944881889764
 31
0.0
  0
LINE
  5
3B5
330
395
100
AcDbEntity
  8
21
  6
Continuous
 62
     7
100
AcDbLine
 10
0.2301181102362205
 20
0.1156338582677165
 30
0.0
 11
0.2811259842519685
 21
0.0646259842519685
 31
0.0
  0
LINE
  5
3B6
330
395
100
AcDbEntity
  8
21
  6
Continuous
 62
     7
100
AcDbLine
 10
0.2159763779527559
 20
0.1156338582677165
 30
0.0
 11
0.2759527559055118
 21
0.0556614173228347
 31
0.0
  0
LINE
  5
3B7
330
395
100
AcDbEntity
  8
21
  6
Continuous
 62
     7
100
AcDbLine
 10
0.2018346456692913
 20
0.1156338582677165
 30
0.0
 11
0.2707755905511811
 21
0.0466968503937008
 31
0.0
  0
LINE
  5
3B8
330
395
100
AcDbEntity
  8
21
  6
Continuous
 62
     7
100
AcDbLine
 10
0.1876929133858268
 20
0.1156338582677165
 30
0.0
 11
0.2655984251968504
 21
0.0377244094488189
 31
0.0
  0
LINE
  5
3B9
330
395
100
AcDbEntity
  8
21
  6
Continuous
 62
     7
100
AcDbLine
 10
0.1735511811023622
 20
0.1156338582677165
 30
0.0
 11
0.2604251968503937
 21
0.0287637795275591
 31
0.0
  0
LINE
  5
3BA
330
395
100
AcDbEntity
  8
21
  6
Continuous
 62
     7
100
AcDbLine
 10
0.1594094488188976
 20
0.1156338582677165
 30
0.0
 11
0.255248031496063
 21
0.0197913385826772
 31
0.0
  0
LINE
  5
3BB
330
395
100
AcDbEntity
  8
21
  6
Continuous
 62
     7
100
AcDbLine
 10
0.1452677165354331
 20
0.1156338582677165
 30
0.0
 11
0.2500708661417323
 21
0.0108267716535433
 31
0.0
  0
LINE
  5
3BC
330
395
100
AcDbEntity
  8
21
  6
Continuous
 62
     7
100
AcDbLine
 10
0.1311259842519685
 20
0.1156338582677165
 30
0.0
 11
0.2448976377952756
 21
0.0018661417322835
 31
0.0
  0
LINE
  5
3BD
330
395
100
AcDbEntity
  8
21
  6
Continuous
 62
     7
100
AcDbLine
 10
0.1169842519685039
 20
0.1156338582677165
 30
0.0
 11
0.2397204724409449
 21
-0.0071062992125984
 31
0.0
  0
LINE
  5
3BE
330
395
100
AcDbEntity
  8
21
  6
Continuous
 62
     7
100
AcDbLine
 10
0.1028425196850394
 20
0.1156338582677165
 30
0.0
 11
0.2345433070866142
 21
-0.0160708661417323
 31
0.0
  0
LINE
  5
3BF
330
395
100
AcDbEntity
  8
21
  6
Continuous
 62
     7
100
AcDbLine
 10
0.0886968503937008
 20
0.1156338582677165
 30
0.0
 11
0.2293700787401575
 21
-0.0250393700787402
 31
0.0
  0
LINE
  5
3C0
330
395
100
AcDbEntity
  8
21
  6
Continuous
 62
     7
100
AcDbLine
 10
0.0745551181102362
 20
0.1156338582677165
 30
0.0
 11
0.2241929133858268
 21
-0.034003937007874
 31
0.0
  0
LINE
  5
3C1
330
395
100
AcDbEntity
  8
21
  6
Continuous
 62
     7
100
AcDbLine
 10
0.0607598425196851
 20
0.1152834645669291
 30
0.0
 11
0.2190157480314961
 21
-0.0429685039370079
 31
0.0
  0
LINE
  5
3C2
330
395
100
AcDbEntity
  8
21
  6
Continuous
 62
     7
100
AcDbLine
 10
0.0800748031496063
 20
0.0818346456692914
 30
0.0
 11
0.2138425196850394
 21
-0.0519370078740158
 31
0.0
  0
LINE
  5
3C3
330
395
100
AcDbEntity
  8
21
  6
Continuous
 62
     7
100
AcDbLine
 10
0.0993897637795276
 20
0.0483740157480315
 30
0.0
 11
0.2086653543307087
 21
-0.0609015748031496
 31
0.0
  0
LINE
  5
3C4
330
395
100
AcDbEntity
  8
21
  6
Continuous
 62
     7
100
AcDbLine
 10
0.1187007874015748
 20
0.0149212598425197
 30
0.0
 11
0.2034881889763779
 21
-0.0698661417322835
 31
0.0
  0
LINE
  5
3C5
330
395
100
AcDbEntity
  8
21
  6
Continuous
 62
     7
100
AcDbLine
 10
0.1380157480314961
 20
-0.0185393700787402
 30
0.0
 11
0.1983110236220472
 21
-0.0788346456692914
 31
0.0
  0
LINE
  5
3C6
330
395
100
AcDbEntity
  8
21
  6
Continuous
 62
     7
100
AcDbLine
 10
0.1573307086614173
 20
-0.051992125984252
 30
0.0
 11
0.1931377952755905
 21
-0.0878031496062992
 31
0.0
  0
LINE
  5
3C7
330
395
100
AcDbEntity
  8
21
  6
Continuous
 62
     7
100
AcDbLine
 10
0.1766417322834646
 20
-0.0854488188976378
 30
0.0
 11
0.1879606299212598
 21
-0.0967637795275591
 31
0.0
  0
ENDBLK
  5
3C8
330
395
100
AcDbEntity
  8
21
  6
Continuous
 62
     7
100
AcDbBlockEnd
  0
BLOCK
  5
10E69
330
10E68
100
AcDbEntity
  8
0
100
AcDbBlockBegin
  2
*D2
 70
     1
 10
0.0
 20
0.0
 30
0.0
  3
*D2
  1

  0
LINE
  5
115FD
330
10E68
100
AcDbEntity
  8
Dims
440
 16777216
370
    -2
100
AcDbLine
 10
3.01450232373957
 20
1.415677065569684
 30
0.0
 11
2.804165104243689
 21
1.415677065569684
 31
0.0
  0
LINE
  5
115FE
330
10E68
100
AcDbEntity
  8
Dims
440
 16777216
370
    -2
100
AcDbLine
 10
2.929502323739569
 20
1.43367706556968
 30
0.0
 11
2.804165104243689
 21
1.43367706556968
 31
0.0
  0
LINE
  5
115FF
330
10E68
100
AcDbEntity
  8
Dims
440
 16777216
370
    -2
100
AcDbLine
 10
2.824165104243689
 20
1.45867706556968
 30
0.0
 11
2.824165104243689
 21
1.48367706556968
 31
0.0
  0
LINE
  5
11600
330
10E68
100
AcDbEntity
  8
Dims
440
 16777216
370
    -2
100
AcDbLine
 10
2.824165104243689
 20
1.390677065569684
 30
0.0
 11
2.824165104243689
 21
1.365677065569683
 31
0.0
  0
LINE
  5
11601
330
10E68
100
AcDbEntity
  8
Dims
440
 16777216
370
    -2
100
AcDbLine
 10
2.824165104243689
 20
1.365677065569683
 30
0.0
 11
2.799165104243689
 21
1.365677065569683
 31
0.0
  0
SOLID
  5
11602
330
10E68
100
AcDbEntity
  8
Dims
440
 16777216
100
AcDbTrace
 10
2.819998437577022
 20
1.45867706556968
 30
0.0
 11
2.828331770910356
 21
1.45867706556968
 31
0.0
 12
2.824165104243689
 22
1.43367706556968
 32
0.0
 13
2.824165104243689
 23
1.43367706556968
 33
0.0
  0
SOLID
  5
11603
330
10E68
100
AcDbEntity
  8
Dims
440
 16777216
100
AcDbTrace
 10
2.819998437577022
 20
1.390677065569684
 30
0.0
 11
2.828331770910356
 21
1.390677065569684
 31
0.0
 12
2.824165104243689
 22
1.415677065569684
 32
0.0
 13
2.824165104243689
 23
1.415677065569684
 33
0.0
  0
MTEXT
  5
11604
330
10E68
100
AcDbEntity
  8
Dims
 62
     3
440
 16777216
100
AcDbMText
 10
2.704974628053212
 20
1.365677065569684
 30
0.0
 40
0.02
 41
0.0
 46
0.0
 71
     5
 72
     1
  1
\A1;.018 [.46]
 73
     1
 44
1.0
  0
POINT
  5
11605
330
10E68
100
AcDbEntity
  8
Defpoints
 62
     0
440
 16777216
100
AcDbPoint
 10
3.02700232373957
 20
1.415677065569684
 30
0.0
  0
POINT
  5
11606
330
10E68
100
AcDbEntity
  8
Defpoints
 62
     0
440
 16777216
100
AcDbPoint
 10
2.942002323739569
 20
1.43367706556968
 30
0.0
  0
POINT
  5
11607
330
10E68
100
AcDbEntity
  8
Defpoints
 62
     0
440
 16777216
100
AcDbPoint
 10
2.824165104243689
 20
1.43367706556968
 30
0.0
  0
ENDBLK
  5
10E6A
330
10E68
100
AcDbEntity
  8
0
100
AcDbBlockEnd
  0
BLOCK
  5
10E77
330
10E76
100
AcDbEntity
  8
0
100
AcDbBlockBegin
  2
*D3
 70
     1
 10
0.0
 20
0.0
 30
0.0
  3
*D3
  1

  0
LINE
  5
11608
330
10E76
100
AcDbEntity
  8
Dims
440
 16777216
370
    -2
100
AcDbLine
 10
2.967043305335647
 20
1.600275722594656
 30
0.0
 11
2.99204330533565
 21
1.600275722594656
 31
0.0
  0
LINE
  5
11609
330
10E76
100
AcDbEntity
  8
Dims
440
 16777216
370
    -2
100
AcDbLine
 10
2.99204330533565
 20
1.600275722594656
 30
0.0
 11
3.043035452189581
 21
1.540740453725636
 31
0.0
  0
MTEXT
  5
1160A
330
10E76
100
AcDbEntity
  8
Dims
 62
     3
440
 16777216
100
AcDbMText
 10
2.804757591049933
 20
1.600275722594656
 30
0.0
 40
0.02
 41
0.0
 46
0.0
 71
     5
 72
     1
  1
\A1;∅.016 [∅.41] (TYP)
 73
     1
 44
1.0
  0
SOLID
  5
1160B
330
10E76
100
AcDbEntity
  8
Dims
440
 16777216
100
AcDbTrace
 10
3.046200021401192
 20
1.543450917305181
 30
0.0
 11
3.03987088297797
 21
1.538029990146092
 31
0.0
 12
3.059298233666849
 22
1.521753038455973
 32
0.0
 13
3.059298233666849
 23
1.521753038455973
 33
0.0
  0
POINT
  5
1160C
330
10E76
100
AcDbEntity
  8
Defpoints
 62
     0
440
 16777216
100
AcDbPoint
 10
3.059298233666849
 20
1.521753038455973
 30
0.0
  0
POINT
  5
1160D
330
10E76
100
AcDbEntity
  8
Defpoints
 62
     0
440
 16777216
100
AcDbPoint
 10
3.0697064138123
 20
1.509601092683389
 30
0.0
  0
ENDBLK
  5
10E78
330
10E76
100
AcDbEntity
  8
0
100
AcDbBlockEnd
  0
BLOCK
  5
10E80
330
10E7F
100
AcDbEntity
  8
0
100
AcDbBlockBegin
  2
*D4
 70
     1
 10
0.0
 20
0.0
 30
0.0
  3
*D4
  1

  0
LINE
  5
11618
330
10E7F
100
AcDbEntity
  8
Dims
440
 16777216
370
    -2
100
AcDbLine
 10
3.912002323739566
 20
1.42117706556968
 30
0.0
 11
3.912002323739566
 21
1.346199473989499
 31
0.0
  0
LINE
  5
11619
330
10E7F
100
AcDbEntity
  8
Dims
440
 16777216
370
    -2
100
AcDbLine
 10
3.827002323739572
 20
1.403177065569681
 30
0.0
 11
3.827002323739572
 21
1.346199473989499
 31
0.0
  0
LINE
  5
1161A
330
10E7F
100
AcDbEntity
  8
Dims
440
 16777216
370
    -2
100
AcDbLine
 10
3.802002323739572
 20
1.366199473989499
 30
0.0
 11
3.777002323739572
 21
1.366199473989499
 31
0.0
  0
LINE
  5
1161B
330
10E7F
100
AcDbEntity
  8
Dims
440
 16777216
370
    -2
100
AcDbLine
 10
3.937002323739566
 20
1.366199473989499
 30
0.0
 11
3.962002323739566
 21
1.366199473989499
 31
0.0
  0
SOLID
  5
1161C
330
10E7F
100
AcDbEntity
  8
Dims
440
 16777216
100
AcDbTrace
 10
3.802002323739572
 20
1.370366140656166
 30
0.0
 11
3.802002323739572
 21
1.362032807322832
 31
0.0
 12
3.827002323739572
 22
1.366199473989499
 32
0.0
 13
3.827002323739572
 23
1.366199473989499
 33
0.0
  0
SOLID
  5
1161D
330
10E7F
100
AcDbEntity
  8
Dims
440
 16777216
100
AcDbTrace
 10
3.937002323739566
 20
1.370366140656166
 30
0.0
 11
3.937002323739566
 21
1.362032807322832
 31
0.0
 12
3.912002323739566
 22
1.366199473989499
 32
0.0
 13
3.912002323739566
 23
1.366199473989499
 33
0.0
  0
MTEXT
  5
1161E
330
10E7F
100
AcDbEntity
  8
Dims
 62
     3
440
 16777216
100
AcDbMText
 10
4.065716609453851
 20
1.366199473989499
 30
0.0
 40
0.02
 41
0.0
 46
0.0
 71
     5
 72
     1
  1
\A1;.085 [2.16]
 73
     1
 44
1.0
  0
POINT
  5
1161F
330
10E7F
100
AcDbEntity
  8
Defpoints
 62
     0
440
 16777216
100
AcDbPoint
 10
3.912002323739566
 20
1.43367706556968
 30
0.0
  0
POINT
  5
11620
330
10E7F
100
AcDbEntity
  8
Defpoints
 62
     0
440
 16777216
100
AcDbPoint
 10
3.827002323739572
 20
1.415677065569681
 30
0.0
  0
POINT
  5
11621
330
10E7F
100
AcDbEntity
  8
Defpoints
 62
     0
440
 16777216
100
AcDbPoint
 10
3.827002323739572
 20
1.366199473989499
 30
0.0
  0
ENDBLK
  5
10E81
330
10E7F
100
AcDbEntity
  8
0
100
AcDbBlockEnd
  0
BLOCK
  5
10E8D
330
10E8C
100
AcDbEntity
  8
0
100
AcDbBlockBegin
  2
*D5
 70
     1
 10
0.0
 20
0.0
 30
0.0
  3
*D5
  1

  0
LINE
  5
11622
330
10E8C
100
AcDbEntity
  8
Dims
440
 16777216
370
    -2
100
AcDbLine
 10
3.827002323739576
 20
1.565677065569679
 30
0.0
 11
3.992215651855856
 21
1.565677065569679
 31
0.0
  0
LINE
  5
11623
330
10E8C
100
AcDbEntity
  8
Dims
440
 16777216
370
    -2
100
AcDbLine
 10
3.827002323739562
 20
1.515677065569681
 30
0.0
 11
3.992215651855856
 21
1.515677065569681
 31
0.0
  0
LINE
  5
11624
330
10E8C
100
AcDbEntity
  8
Dims
440
 16777216
370
    -2
100
AcDbLine
 10
3.972215651855856
 20
1.490677065569681
 30
0.0
 11
3.972215651855856
 21
1.465677065569681
 31
0.0
  0
LINE
  5
11625
330
10E8C
100
AcDbEntity
  8
Dims
440
 16777216
370
    -2
100
AcDbLine
 10
3.972215651855856
 20
1.590677065569679
 30
0.0
 11
3.972215651855856
 21
1.61567706556968
 31
0.0
  0
LINE
  5
11626
330
10E8C
100
AcDbEntity
  8
Dims
440
 16777216
370
    -2
100
AcDbLine
 10
3.972215651855856
 20
1.61567706556968
 30
0.0
 11
3.997215651855856
 21
1.61567706556968
 31
0.0
  0
SOLID
  5
11627
330
10E8C
100
AcDbEntity
  8
Dims
440
 16777216
100
AcDbTrace
 10
3.968048985189189
 20
1.490677065569681
 30
0.0
 11
3.976382318522523
 21
1.490677065569681
 31
0.0
 12
3.972215651855856
 22
1.515677065569681
 32
0.0
 13
3.972215651855856
 23
1.515677065569681
 33
0.0
  0
SOLID
  5
11628
330
10E8C
100
AcDbEntity
  8
Dims
440
 16777216
100
AcDbTrace
 10
3.968048985189189
 20
1.590677065569679
 30
0.0
 11
3.976382318522523
 21
1.590677065569679
 31
0.0
 12
3.972215651855856
 22
1.565677065569679
 32
0.0
 13
3.972215651855856
 23
1.565677065569679
 33
0.0
  0
MTEXT
  5
11629
330
10E8C
100
AcDbEntity
  8
Dims
 62
     3
440
 16777216
100
AcDbMText
 10
4.100929937570141
 20
1.615677065569681
 30
0.0
 40
0.02
 41
0.0
 46
0.0
 71
     5
 72
     1
  1
\A1;.050 [1.27]
 73
     1
 44
1.0
  0
POINT
  5
1162A
330
10E8C
100
AcDbEntity
  8
Defpoints
 62
     0
440
 16777216
100
AcDbPoint
 10
3.814502323739576
 20
1.565677065569679
 30
0.0
  0
POINT
  5
1162B
330
10E8C
100
AcDbEntity
  8
Defpoints
 62
     0
440
 16777216
100
AcDbPoint
 10
3.814502323739562
 20
1.515677065569681
 30
0.0
  0
POINT
  5
1162C
330
10E8C
100
AcDbEntity
  8
Defpoints
 62
     0
440
 16777216
100
AcDbPoint
 10
3.972215651855856
 20
1.515677065569681
 30
0.0
  0
ENDBLK
  5
10E8E
330
10E8C
100
AcDbEntity
  8
0
100
AcDbBlockEnd
  0
BLOCK
  5
10E9B
330
10E9A
100
AcDbEntity
  8
0
100
AcDbBlockBegin
  2
*D6
 70
     1
 10
0.0
 20
0.0
 30
0.0
  3
*D6
  1

  0
LINE
  5
1162D
330
10E9A
100
AcDbEntity
  8
Dims
440
 16777216
370
    -2
100
AcDbLine
 10
3.827002323739572
 20
1.428177065569681
 30
0.0
 11
3.827002323739572
 21
1.649723377726223
 31
0.0
  0
LINE
  5
1162E
330
10E9A
100
AcDbEntity
  8
Dims
440
 16777216
370
    -2
100
AcDbLine
 10
3.814502323739562
 20
1.528177065569681
 30
0.0
 11
3.814502323739562
 21
1.649723377726223
 31
0.0
  0
LINE
  5
1162F
330
10E9A
100
AcDbEntity
  8
Dims
440
 16777216
370
    -2
100
AcDbLine
 10
3.852002323739572
 20
1.629723377726223
 30
0.0
 11
3.877002323739572
 21
1.629723377726223
 31
0.0
  0
LINE
  5
11630
330
10E9A
100
AcDbEntity
  8
Dims
440
 16777216
370
    -2
100
AcDbLine
 10
3.789502323739562
 20
1.629723377726223
 30
0.0
 11
3.764502323739561
 21
1.629723377726223
 31
0.0
  0
SOLID
  5
11631
330
10E9A
100
AcDbEntity
  8
Dims
440
 16777216
100
AcDbTrace
 10
3.852002323739572
 20
1.63389004439289
 30
0.0
 11
3.852002323739572
 21
1.625556711059556
 31
0.0
 12
3.827002323739572
 22
1.629723377726223
 32
0.0
 13
3.827002323739572
 23
1.629723377726223
 33
0.0
  0
SOLID
  5
11632
330
10E9A
100
AcDbEntity
  8
Dims
440
 16777216
100
AcDbTrace
 10
3.789502323739562
 20
1.63389004439289
 30
0.0
 11
3.789502323739562
 21
1.625556711059556
 31
0.0
 12
3.814502323739562
 22
1.629723377726223
 32
0.0
 13
3.814502323739562
 23
1.629723377726223
 33
0.0
  0
MTEXT
  5
11633
330
10E9A
100
AcDbEntity
  8
Dims
 62
     3
440
 16777216
100
AcDbMText
 10
3.660788038025275
 20
1.629723377726223
 30
0.0
 40
0.02
 41
0.0
 46
0.0
 71
     5
 72
     1
  1
\A1;.0125 [.32]
 73
     1
 44
1.0
  0
POINT
  5
11634
330
10E9A
100
AcDbEntity
  8
Defpoints
 62
     0
440
 16777216
100
AcDbPoint
 10
3.827002323739572
 20
1.415677065569681
 30
0.0
  0
POINT
  5
11635
330
10E9A
100
AcDbEntity
  8
Defpoints
 62
     0
440
 16777216
100
AcDbPoint
 10
3.814502323739562
 20
1.515677065569681
 30
0.0
  0
POINT
  5
11636
330
10E9A
100
AcDbEntity
  8
Defpoints
 62
     0
440
 16777216
100
AcDbPoint
 10
3.814502323739562
 20
1.629723377726223
 30
0.0
  0
ENDBLK
  5
10E9C
330
10E9A
100
AcDbEntity
  8
0
100
AcDbBlockEnd
  0
BLOCK
  5
10EA8
330
10EA7
100
AcDbEntity
  8
0
100
AcDbBlockBegin
  2
*D7
 70
     1
 10
0.0
 20
0.0
 30
0.0
  3
*D7
  1

  0
LINE
  5
11637
330
10EA7
100
AcDbEntity
  8
Dims
440
 16777216
370
    -2
100
AcDbLine
 10
3.827002323739572
 20
1.428177065569681
 30
0.0
 11
3.827002323739572
 21
1.707721304136184
 31
0.0
  0
LINE
  5
11638
330
10EA7
100
AcDbEntity
  8
Dims
440
 16777216
370
    -2
100
AcDbLine
 10
3.802002323739573
 20
1.478177065569678
 30
0.0
 11
3.802002323739573
 21
1.707721304136184
 31
0.0
  0
LINE
  5
11639
330
10EA7
100
AcDbEntity
  8
Dims
440
 16777216
370
    -2
100
AcDbLine
 10
3.852002323739572
 20
1.687721304136184
 30
0.0
 11
3.877002323739572
 21
1.687721304136184
 31
0.0
  0
LINE
  5
1163A
330
10EA7
100
AcDbEntity
  8
Dims
440
 16777216
370
    -2
100
AcDbLine
 10
3.777002323739573
 20
1.687721304136184
 30
0.0
 11
3.752002323739572
 21
1.687721304136184
 31
0.0
  0
SOLID
  5
1163B
330
10EA7
100
AcDbEntity
  8
Dims
440
 16777216
100
AcDbTrace
 10
3.852002323739572
 20
1.691887970802851
 30
0.0
 11
3.852002323739572
 21
1.683554637469518
 31
0.0
 12
3.827002323739572
 22
1.687721304136184
 32
0.0
 13
3.827002323739572
 23
1.687721304136184
 33
0.0
  0
SOLID
  5
1163C
330
10EA7
100
AcDbEntity
  8
Dims
440
 16777216
100
AcDbTrace
 10
3.777002323739573
 20
1.691887970802851
 30
0.0
 11
3.777002323739573
 21
1.683554637469518
 31
0.0
 12
3.802002323739573
 22
1.687721304136184
 32
0.0
 13
3.802002323739573
 23
1.687721304136184
 33
0.0
  0
MTEXT
  5
1163D
330
10EA7
100
AcDbEntity
  8
Dims
 62
     3
440
 16777216
100
AcDbMText
 10
3.657811847549096
 20
1.687721304136184
 30
0.0
 40
0.02
 41
0.0
 46
0.0
 71
     5
 72
     1
  1
\A1;.025 [.64]
 73
     1
 44
1.0
  0
POINT
  5
1163E
330
10EA7
100
AcDbEntity
  8
Defpoints
 62
     0
440
 16777216
100
AcDbPoint
 10
3.827002323739572
 20
1.415677065569681
 30
0.0
  0
POINT
  5
1163F
330
10EA7
100
AcDbEntity
  8
Defpoints
 62
     0
440
 16777216
100
AcDbPoint
 10
3.802002323739573
 20
1.465677065569678
 30
0.0
  0
POINT
  5
11640
330
10EA7
100
AcDbEntity
  8
Defpoints
 62
     0
440
 16777216
100
AcDbPoint
 10
3.802002323739573
 20
1.687721304136184
 30
0.0
  0
ENDBLK
  5
10EA9
330
10EA7
100
AcDbEntity
  8
0
100
AcDbBlockEnd
  0
BLOCK
  5
10EB5
330
10EB4
100
AcDbEntity
  8
0
100
AcDbBlockBegin
  2
*D8
 70
     1
 10
0.0
 20
0.0
 30
0.0
  3
*D8
  1

  0
LINE
  5
11641
330
10EB4
100
AcDbEntity
  8
Dims
440
 16777216
370
    -2
100
AcDbLine
 10
3.827002323739572
 20
1.428177065569681
 30
0.0
 11
3.827002323739572
 21
1.763719299891215
 31
0.0
  0
LINE
  5
11642
330
10EB4
100
AcDbEntity
  8
Dims
440
 16777216
370
    -2
100
AcDbLine
 10
3.789502323739563
 20
1.578177065569682
 30
0.0
 11
3.789502323739563
 21
1.763719299891215
 31
0.0
  0
LINE
  5
11643
330
10EB4
100
AcDbEntity
  8
Dims
440
 16777216
370
    -2
100
AcDbLine
 10
3.852002323739572
 20
1.743719299891214
 30
0.0
 11
3.877002323739572
 21
1.743719299891214
 31
0.0
  0
LINE
  5
11644
330
10EB4
100
AcDbEntity
  8
Dims
440
 16777216
370
    -2
100
AcDbLine
 10
3.764502323739563
 20
1.743719299891214
 30
0.0
 11
3.739502323739562
 21
1.743719299891214
 31
0.0
  0
SOLID
  5
11645
330
10EB4
100
AcDbEntity
  8
Dims
440
 16777216
100
AcDbTrace
 10
3.852002323739572
 20
1.747885966557881
 30
0.0
 11
3.852002323739572
 21
1.739552633224548
 31
0.0
 12
3.827002323739572
 22
1.743719299891214
 32
0.0
 13
3.827002323739572
 23
1.743719299891214
 33
0.0
  0
SOLID
  5
11646
330
10EB4
100
AcDbEntity
  8
Dims
440
 16777216
100
AcDbTrace
 10
3.764502323739563
 20
1.747885966557881
 30
0.0
 11
3.764502323739563
 21
1.739552633224548
 31
0.0
 12
3.789502323739563
 22
1.743719299891214
 32
0.0
 13
3.789502323739563
 23
1.743719299891214
 33
0.0
  0
MTEXT
  5
11647
330
10EB4
100
AcDbEntity
  8
Dims
 62
     3
440
 16777216
100
AcDbMText
 10
3.635788038025276
 20
1.743719299891214
 30
0.0
 40
0.02
 41
0.0
 46
0.0
 71
     5
 72
     1
  1
\A1;.0375 [.95]
 73
     1
 44
1.0
  0
POINT
  5
11648
330
10EB4
100
AcDbEntity
  8
Defpoints
 62
     0
440
 16777216
100
AcDbPoint
 10
3.827002323739572
 20
1.415677065569681
 30
0.0
  0
POINT
  5
11649
330
10EB4
100
AcDbEntity
  8
Defpoints
 62
     0
440
 16777216
100
AcDbPoint
 10
3.789502323739563
 20
1.565677065569682
 30
0.0
  0
POINT
  5
1164A
330
10EB4
100
AcDbEntity
  8
Defpoints
 62
     0
440
 16777216
100
AcDbPoint
 10
3.789502323739563
 20
1.743719299891214
 30
0.0
  0
ENDBLK
  5
10EB6
330
10EB4
100
AcDbEntity
  8
0
100
AcDbBlockEnd
  0
BLOCK
  5
10EC2
330
10EC1
100
AcDbEntity
  8
0
100
AcDbBlockBegin
  2
*D9
 70
     1
 10
0.0
 20
0.0
 30
0.0
  3
*D9
  1

  0
LINE
  5
1164B
330
10EC1
100
AcDbEntity
  8
Dims
440
 16777216
370
    -2
100
AcDbLine
 10
3.737002323739561
 20
2.016032711290616
 30
0.0
 11
3.737002323739561
 21
1.863634995506139
 31
0.0
  0
LINE
  5
1164C
330
10EC1
100
AcDbEntity
  8
Dims
440
 16777216
370
    -2
100
AcDbLine
 10
2.942002323739569
 20
2.016032711290615
 30
0.0
 11
2.942002323739569
 21
1.863634995506139
 31
0.0
  0
LINE
  5
1164D
330
10EC1
100
AcDbEntity
  8
Dims
440
 16777216
370
    -2
100
AcDbLine
 10
3.712002323739561
 20
1.883634995506139
 30
0.0
 11
3.452740418977661
 21
1.883634995506139
 31
0.0
  0
LINE
  5
1164E
330
10EC1
100
AcDbEntity
  8
Dims
440
 16777216
370
    -2
100
AcDbLine
 10
2.967002323739569
 20
1.883634995506139
 30
0.0
 11
3.226264228501471
 21
1.883634995506139
 31
0.0
  0
SOLID
  5
1164F
330
10EC1
100
AcDbEntity
  8
Dims
440
 16777216
100
AcDbTrace
 10
3.712002323739561
 20
1.887801662172806
 30
0.0
 11
3.712002323739561
 21
1.879468328839472
 31
0.0
 12
3.737002323739561
 22
1.883634995506139
 32
0.0
 13
3.737002323739561
 23
1.883634995506139
 33
0.0
  0
SOLID
  5
11650
330
10EC1
100
AcDbEntity
  8
Dims
440
 16777216
100
AcDbTrace
 10
2.967002323739569
 20
1.887801662172806
 30
0.0
 11
2.967002323739569
 21
1.879468328839472
 31
0.0
 12
2.942002323739569
 22
1.883634995506139
 32
0.0
 13
2.942002323739569
 23
1.883634995506139
 33
0.0
  0
MTEXT
  5
11651
330
10EC1
100
AcDbEntity
  8
Dims
 62
     3
440
 16777216
100
AcDbMText
 10
3.339502323739566
 20
1.883634995506139
 30
0.0
 40
0.02
 41
0.0
 46
0.0
 71
     5
 72
     1
  1
\A1;.795 [20.19]
 73
     1
 44
1.0
  0
POINT
  5
11652
330
10EC1
100
AcDbEntity
  8
Defpoints
 62
     0
440
 16777216
100
AcDbPoint
 10
3.737002323739561
 20
2.028532711290616
 30
0.0
  0
POINT
  5
11653
330
10EC1
100
AcDbEntity
  8
Defpoints
 62
     0
440
 16777216
100
AcDbPoint
 10
2.942002323739569
 20
2.028532711290615
 30
0.0
  0
POINT
  5
11654
330
10EC1
100
AcDbEntity
  8
Defpoints
 62
     0
440
 16777216
100
AcDbPoint
 10
2.942002323739569
 20
1.883634995506139
 30
0.0
  0
ENDBLK
  5
10EC3
330
10EC1
100
AcDbEntity
  8
0
100
AcDbBlockEnd
  0
BLOCK
  5
10ECF
330
10ECE
100
AcDbEntity
  8
0
100
AcDbBlockBegin
  2
*D10
 70
     1
 10
0.0
 20
0.0
 30
0.0
  3
*D10
  1

  0
LINE
  5
11655
330
10ECE
100
AcDbEntity
  8
Dims
440
 16777216
370
    -2
100
AcDbLine
 10
2.325327591146521
 20
1.069775452879975
 30
0.0
 11
2.325327591146521
 21
0.9115469212042505
 31
0.0
  0
LINE
  5
11656
330
10ECE
100
AcDbEntity
  8
Dims
440
 16777216
370
    -2
100
AcDbLine
 10
1.705327591146525
 20
1.069775452879975
 30
0.0
 11
1.705327591146525
 21
0.9115469212042505
 31
0.0
  0
LINE
  5
11657
330
10ECE
100
AcDbEntity
  8
Dims
440
 16777216
370
    -2
100
AcDbLine
 10
2.300327591146521
 20
0.9315469212042506
 30
0.0
 11
2.128565686384618
 21
0.9315469212042506
 31
0.0
  0
LINE
  5
11658
330
10ECE
100
AcDbEntity
  8
Dims
440
 16777216
370
    -2
100
AcDbLine
 10
1.730327591146525
 20
0.9315469212042506
 30
0.0
 11
1.902089495908428
 21
0.9315469212042506
 31
0.0
  0
SOLID
  5
11659
330
10ECE
100
AcDbEntity
  8
Dims
440
 16777216
100
AcDbTrace
 10
2.300327591146521
 20
0.9357135878709172
 30
0.0
 11
2.300327591146521
 21
0.927380254537584
 31
0.0
 12
2.325327591146521
 22
0.9315469212042506
 32
0.0
 13
2.325327591146521
 23
0.9315469212042506
 33
0.0
  0
SOLID
  5
1165A
330
10ECE
100
AcDbEntity
  8
Dims
440
 16777216
100
AcDbTrace
 10
1.730327591146525
 20
0.9357135878709172
 30
0.0
 11
1.730327591146525
 21
0.927380254537584
 31
0.0
 12
1.705327591146525
 22
0.9315469212042506
 32
0.0
 13
1.705327591146525
 23
0.9315469212042506
 33
0.0
  0
MTEXT
  5
1165B
330
10ECE
100
AcDbEntity
  8
Dims
 62
     3
440
 16777216
100
AcDbMText
 10
2.015327591146523
 20
0.9315469212042506
 30
0.0
 40
0.02
 41
0.0
 46
0.0
 71
     5
 72
     1
  1
\A1;.620 [15.75]
 73
     1
 44
1.0
  0
POINT
  5
1165C
330
10ECE
100
AcDbEntity
  8
Defpoints
 62
     0
440
 16777216
100
AcDbPoint
 10
2.325327591146521
 20
1.082275452879975
 30
0.0
  0
POINT
  5
1165D
330
10ECE
100
AcDbEntity
  8
Defpoints
 62
     0
440
 16777216
100
AcDbPoint
 10
1.705327591146525
 20
1.082275452879975
 30
0.0
  0
POINT
  5
1165E
330
10ECE
100
AcDbEntity
  8
Defpoints
 62
     0
440
 16777216
100
AcDbPoint
 10
1.705327591146525
 20
0.9315469212042506
 30
0.0
  0
ENDBLK
  5
10ED0
330
10ECE
100
AcDbEntity
  8
0
100
AcDbBlockEnd
  0
BLOCK
  5
10EDC
330
10EDB
100
AcDbEntity
  8
0
100
AcDbBlockBegin
  2
*D11
 70
     1
 10
0.0
 20
0.0
 30
0.0
  3
*D11
  1

  0
LINE
  5
1165F
330
10EDB
100
AcDbEntity
  8
Dims
440
 16777216
370
    -2
100
AcDbLine
 10
2.325327591146521
 20
1.069775452879975
 30
0.0
 11
2.325327591146521
 21
0.9947978612997941
 31
0.0
  0
LINE
  5
11660
330
10EDB
100
AcDbEntity
  8
Dims
440
 16777216
370
    -2
100
AcDbLine
 10
2.240327591146527
 20
1.051775452879976
 30
0.0
 11
2.240327591146527
 21
0.9947978612997941
 31
0.0
  0
LINE
  5
11661
330
10EDB
100
AcDbEntity
  8
Dims
440
 16777216
370
    -2
100
AcDbLine
 10
2.215327591146527
 20
1.014797861299794
 30
0.0
 11
2.190327591146528
 21
1.014797861299794
 31
0.0
  0
LINE
  5
11662
330
10EDB
100
AcDbEntity
  8
Dims
440
 16777216
370
    -2
100
AcDbLine
 10
2.350327591146521
 20
1.014797861299794
 30
0.0
 11
2.375327591146521
 21
1.014797861299794
 31
0.0
  0
SOLID
  5
11663
330
10EDB
100
AcDbEntity
  8
Dims
440
 16777216
100
AcDbTrace
 10
2.215327591146527
 20
1.01896452796646
 30
0.0
 11
2.215327591146527
 21
1.010631194633127
 31
0.0
 12
2.240327591146527
 22
1.014797861299794
 32
0.0
 13
2.240327591146527
 23
1.014797861299794
 33
0.0
  0
SOLID
  5
11664
330
10EDB
100
AcDbEntity
  8
Dims
440
 16777216
100
AcDbTrace
 10
2.350327591146521
 20
1.01896452796646
 30
0.0
 11
2.350327591146521
 21
1.010631194633127
 31
0.0
 12
2.325327591146521
 22
1.014797861299794
 32
0.0
 13
2.325327591146521
 23
1.014797861299794
 33
0.0
  0
MTEXT
  5
11665
330
10EDB
100
AcDbEntity
  8
Dims
 62
     3
440
 16777216
100
AcDbMText
 10
2.479041876860807
 20
1.014797861299794
 30
0.0
 40
0.02
 41
0.0
 46
0.0
 71
     5
 72
     1
  1
\A1;.085 [2.16]
 73
     1
 44
1.0
  0
POINT
  5
11666
330
10EDB
100
AcDbEntity
  8
Defpoints
 62
     0
440
 16777216
100
AcDbPoint
 10
2.325327591146521
 20
1.082275452879975
 30
0.0
  0
POINT
  5
11667
330
10EDB
100
AcDbEntity
  8
Defpoints
 62
     0
440
 16777216
100
AcDbPoint
 10
2.240327591146527
 20
1.064275452879976
 30
0.0
  0
POINT
  5
11668
330
10EDB
100
AcDbEntity
  8
Defpoints
 62
     0
440
 16777216
100
AcDbPoint
 10
2.240327591146527
 20
1.014797861299794
 30
0.0
  0
ENDBLK
  5
10EDD
330
10EDB
100
AcDbEntity
  8
0
100
AcDbBlockEnd
  0
BLOCK
  5
10EE9
330
10EE8
100
AcDbEntity
  8
0
100
AcDbBlockBegin
  2
*D12
 70
     1
 10
0.0
 20
0.0
 30
0.0
  3
*D12
  1

  0
LINE
  5
11669
330
10EE8
100
AcDbEntity
  8
Dims
440
 16777216
370
    -2
100
AcDbLine
 10
2.240327591146532
 20
1.214275452879974
 30
0.0
 11
2.405540919262812
 21
1.214275452879974
 31
0.0
  0
LINE
  5
1166A
330
10EE8
100
AcDbEntity
  8
Dims
440
 16777216
370
    -2
100
AcDbLine
 10
2.240327591146518
 20
1.164275452879976
 30
0.0
 11
2.405540919262812
 21
1.164275452879976
 31
0.0
  0
LINE
  5
1166B
330
10EE8
100
AcDbEntity
  8
Dims
440
 16777216
370
    -2
100
AcDbLine
 10
2.385540919262812
 20
1.139275452879976
 30
0.0
 11
2.385540919262812
 21
1.114275452879976
 31
0.0
  0
LINE
  5
1166C
330
10EE8
100
AcDbEntity
  8
Dims
440
 16777216
370
    -2
100
AcDbLine
 10
2.385540919262812
 20
1.239275452879974
 30
0.0
 11
2.385540919262812
 21
1.264275452879975
 31
0.0
  0
LINE
  5
1166D
330
10EE8
100
AcDbEntity
  8
Dims
440
 16777216
370
    -2
100
AcDbLine
 10
2.385540919262812
 20
1.264275452879975
 30
0.0
 11
2.410540919262812
 21
1.264275452879975
 31
0.0
  0
SOLID
  5
1166E
330
10EE8
100
AcDbEntity
  8
Dims
440
 16777216
100
AcDbTrace
 10
2.381374252596145
 20
1.139275452879976
 30
0.0
 11
2.389707585929479
 21
1.139275452879976
 31
0.0
 12
2.385540919262812
 22
1.164275452879976
 32
0.0
 13
2.385540919262812
 23
1.164275452879976
 33
0.0
  0
SOLID
  5
1166F
330
10EE8
100
AcDbEntity
  8
Dims
440
 16777216
100
AcDbTrace
 10
2.381374252596145
 20
1.239275452879974
 30
0.0
 11
2.389707585929479
 21
1.239275452879974
 31
0.0
 12
2.385540919262812
 22
1.214275452879974
 32
0.0
 13
2.385540919262812
 23
1.214275452879974
 33
0.0
  0
MTEXT
  5
11670
330
10EE8
100
AcDbEntity
  8
Dims
 62
     3
440
 16777216
100
AcDbMText
 10
2.514255204977097
 20
1.264275452879975
 30
0.0
 40
0.02
 41
0.0
 46
0.0
 71
     5
 72
     1
  1
\A1;.050 [1.27]
 73
     1
 44
1.0
  0
POINT
  5
11671
330
10EE8
100
AcDbEntity
  8
Defpoints
 62
     0
440
 16777216
100
AcDbPoint
 10
2.227827591146532
 20
1.214275452879974
 30
0.0
  0
POINT
  5
11672
330
10EE8
100
AcDbEntity
  8
Defpoints
 62
     0
440
 16777216
100
AcDbPoint
 10
2.227827591146517
 20
1.164275452879976
 30
0.0
  0
POINT
  5
11673
330
10EE8
100
AcDbEntity
  8
Defpoints
 62
     0
440
 16777216
100
AcDbPoint
 10
2.385540919262812
 20
1.164275452879976
 30
0.0
  0
ENDBLK
  5
10EEA
330
10EE8
100
AcDbEntity
  8
0
100
AcDbBlockEnd
  0
BLOCK
  5
10EF7
330
10EF6
100
AcDbEntity
  8
0
100
AcDbBlockBegin
  2
*D13
 70
     1
 10
0.0
 20
0.0
 30
0.0
  3
*D13
  1

  0
LINE
  5
11674
330
10EF6
100
AcDbEntity
  8
Dims
440
 16777216
370
    -2
100
AcDbLine
 10
2.240327591146527
 20
1.076775452879976
 30
0.0
 11
2.240327591146527
 21
1.298321765036517
 31
0.0
  0
LINE
  5
11675
330
10EF6
100
AcDbEntity
  8
Dims
440
 16777216
370
    -2
100
AcDbLine
 10
2.227827591146517
 20
1.176775452879976
 30
0.0
 11
2.227827591146517
 21
1.298321765036517
 31
0.0
  0
LINE
  5
11676
330
10EF6
100
AcDbEntity
  8
Dims
440
 16777216
370
    -2
100
AcDbLine
 10
2.265327591146527
 20
1.278321765036517
 30
0.0
 11
2.290327591146527
 21
1.278321765036517
 31
0.0
  0
LINE
  5
11677
330
10EF6
100
AcDbEntity
  8
Dims
440
 16777216
370
    -2
100
AcDbLine
 10
2.202827591146518
 20
1.278321765036517
 30
0.0
 11
2.177827591146517
 21
1.278321765036517
 31
0.0
  0
SOLID
  5
11678
330
10EF6
100
AcDbEntity
  8
Dims
440
 16777216
100
AcDbTrace
 10
2.265327591146527
 20
1.282488431703184
 30
0.0
 11
2.265327591146527
 21
1.274155098369851
 31
0.0
 12
2.240327591146527
 22
1.278321765036517
 32
0.0
 13
2.240327591146527
 23
1.278321765036517
 33
0.0
  0
SOLID
  5
11679
330
10EF6
100
AcDbEntity
  8
Dims
440
 16777216
100
AcDbTrace
 10
2.202827591146518
 20
1.282488431703184
 30
0.0
 11
2.202827591146518
 21
1.274155098369851
 31
0.0
 12
2.227827591146517
 22
1.278321765036517
 32
0.0
 13
2.227827591146517
 23
1.278321765036517
 33
0.0
  0
MTEXT
  5
1167A
330
10EF6
100
AcDbEntity
  8
Dims
 62
     3
440
 16777216
100
AcDbMText
 10
2.074113305432232
 20
1.278321765036517
 30
0.0
 40
0.02
 41
0.0
 46
0.0
 71
     5
 72
     1
  1
\A1;.0125 [.32]
 73
     1
 44
1.0
  0
POINT
  5
1167B
330
10EF6
100
AcDbEntity
  8
Defpoints
 62
     0
440
 16777216
100
AcDbPoint
 10
2.240327591146527
 20
1.064275452879976
 30
0.0
  0
POINT
  5
1167C
330
10EF6
100
AcDbEntity
  8
Defpoints
 62
     0
440
 16777216
100
AcDbPoint
 10
2.227827591146517
 20
1.164275452879976
 30
0.0
  0
POINT
  5
1167D
330
10EF6
100
AcDbEntity
  8
Defpoints
 62
     0
440
 16777216
100
AcDbPoint
 10
2.227827591146517
 20
1.278321765036517
 30
0.0
  0
ENDBLK
  5
10EF8
330
10EF6
100
AcDbEntity
  8
0
100
AcDbBlockEnd
  0
BLOCK
  5
10F04
330
10F03
100
AcDbEntity
  8
0
100
AcDbBlockBegin
  2
*D14
 70
     1
 10
0.0
 20
0.0
 30
0.0
  3
*D14
  1

  0
LINE
  5
1167E
330
10F03
100
AcDbEntity
  8
Dims
440
 16777216
370
    -2
100
AcDbLine
 10
2.240327591146527
 20
1.076775452879976
 30
0.0
 11
2.240327591146527
 21
1.356319691446479
 31
0.0
  0
LINE
  5
1167F
330
10F03
100
AcDbEntity
  8
Dims
440
 16777216
370
    -2
100
AcDbLine
 10
2.215327591146529
 20
1.126775452879973
 30
0.0
 11
2.215327591146529
 21
1.356319691446479
 31
0.0
  0
LINE
  5
11680
330
10F03
100
AcDbEntity
  8
Dims
440
 16777216
370
    -2
100
AcDbLine
 10
2.265327591146527
 20
1.336319691446479
 30
0.0
 11
2.290327591146527
 21
1.336319691446479
 31
0.0
  0
LINE
  5
11681
330
10F03
100
AcDbEntity
  8
Dims
440
 16777216
370
    -2
100
AcDbLine
 10
2.190327591146529
 20
1.336319691446479
 30
0.0
 11
2.165327591146529
 21
1.336319691446479
 31
0.0
  0
SOLID
  5
11682
330
10F03
100
AcDbEntity
  8
Dims
440
 16777216
100
AcDbTrace
 10
2.265327591146527
 20
1.340486358113146
 30
0.0
 11
2.265327591146527
 21
1.332153024779812
 31
0.0
 12
2.240327591146527
 22
1.336319691446479
 32
0.0
 13
2.240327591146527
 23
1.336319691446479
 33
0.0
  0
SOLID
  5
11683
330
10F03
100
AcDbEntity
  8
Dims
440
 16777216
100
AcDbTrace
 10
2.190327591146529
 20
1.340486358113146
 30
0.0
 11
2.190327591146529
 21
1.332153024779812
 31
0.0
 12
2.215327591146529
 22
1.336319691446479
 32
0.0
 13
2.215327591146529
 23
1.336319691446479
 33
0.0
  0
MTEXT
  5
11684
330
10F03
100
AcDbEntity
  8
Dims
 62
     3
440
 16777216
100
AcDbMText
 10
2.071137114956052
 20
1.336319691446479
 30
0.0
 40
0.02
 41
0.0
 46
0.0
 71
     5
 72
     1
  1
\A1;.025 [.64]
 73
     1
 44
1.0
  0
POINT
  5
11685
330
10F03
100
AcDbEntity
  8
Defpoints
 62
     0
440
 16777216
100
AcDbPoint
 10
2.240327591146527
 20
1.064275452879976
 30
0.0
  0
POINT
  5
11686
330
10F03
100
AcDbEntity
  8
Defpoints
 62
     0
440
 16777216
100
AcDbPoint
 10
2.215327591146529
 20
1.114275452879973
 30
0.0
  0
POINT
  5
11687
330
10F03
100
AcDbEntity
  8
Defpoints
 62
     0
440
 16777216
100
AcDbPoint
 10
2.215327591146529
 20
1.336319691446479
 30
0.0
  0
ENDBLK
  5
10F05
330
10F03
100
AcDbEntity
  8
0
100
AcDbBlockEnd
  0
BLOCK
  5
10F11
330
10F10
100
AcDbEntity
  8
0
100
AcDbBlockBegin
  2
*D15
 70
     1
 10
0.0
 20
0.0
 30
0.0
  3
*D15
  1

  0
LINE
  5
11688
330
10F10
100
AcDbEntity
  8
Dims
440
 16777216
370
    -2
100
AcDbLine
 10
2.240327591146527
 20
1.076775452879976
 30
0.0
 11
2.240327591146527
 21
1.412317687201509
 31
0.0
  0
LINE
  5
11689
330
10F10
100
AcDbEntity
  8
Dims
440
 16777216
370
    -2
100
AcDbLine
 10
2.202827591146519
 20
1.226775452879977
 30
0.0
 11
2.202827591146519
 21
1.412317687201509
 31
0.0
  0
LINE
  5
1168A
330
10F10
100
AcDbEntity
  8
Dims
440
 16777216
370
    -2
100
AcDbLine
 10
2.265327591146527
 20
1.392317687201509
 30
0.0
 11
2.290327591146527
 21
1.392317687201509
 31
0.0
  0
LINE
  5
1168B
330
10F10
100
AcDbEntity
  8
Dims
440
 16777216
370
    -2
100
AcDbLine
 10
2.177827591146519
 20
1.392317687201509
 30
0.0
 11
2.152827591146519
 21
1.392317687201509
 31
0.0
  0
SOLID
  5
1168C
330
10F10
100
AcDbEntity
  8
Dims
440
 16777216
100
AcDbTrace
 10
2.265327591146527
 20
1.396484353868176
 30
0.0
 11
2.265327591146527
 21
1.388151020534842
 31
0.0
 12
2.240327591146527
 22
1.392317687201509
 32
0.0
 13
2.240327591146527
 23
1.392317687201509
 33
0.0
  0
SOLID
  5
1168D
330
10F10
100
AcDbEntity
  8
Dims
440
 16777216
100
AcDbTrace
 10
2.177827591146519
 20
1.396484353868176
 30
0.0
 11
2.177827591146519
 21
1.388151020534842
 31
0.0
 12
2.202827591146519
 22
1.392317687201509
 32
0.0
 13
2.202827591146519
 23
1.392317687201509
 33
0.0
  0
MTEXT
  5
1168E
330
10F10
100
AcDbEntity
  8
Dims
 62
     3
440
 16777216
100
AcDbMText
 10
2.049113305432233
 20
1.392317687201509
 30
0.0
 40
0.02
 41
0.0
 46
0.0
 71
     5
 72
     1
  1
\A1;.0375 [.95]
 73
     1
 44
1.0
  0
POINT
  5
1168F
330
10F10
100
AcDbEntity
  8
Defpoints
 62
     0
440
 16777216
100
AcDbPoint
 10
2.240327591146527
 20
1.064275452879976
 30
0.0
  0
POINT
  5
11690
330
10F10
100
AcDbEntity
  8
Defpoints
 62
     0
440
 16777216
100
AcDbPoint
 10
2.202827591146519
 20
1.214275452879977
 30
0.0
  0
POINT
  5
11691
330
10F10
100
AcDbEntity
  8
Defpoints
 62
     0
440
 16777216
100
AcDbPoint
 10
2.202827591146519
 20
1.392317687201509
 30
0.0
  0
ENDBLK
  5
10F12
330
10F10
100
AcDbEntity
  8
0
100
AcDbBlockEnd
  0
BLOCK
  5
10F1E
330
10F1D
100
AcDbEntity
  8
0
100
AcDbBlockBegin
  2
*D16
 70
     1
 10
0.0
 20
0.0
 30
0.0
  3
*D16
  1

  0
LINE
  5
11692
330
10F1D
100
AcDbEntity
  8
Dims
440
 16777216
370
    -2
100
AcDbLine
 10
1.777827591146526
 20
1.064275452879979
 30
0.0
 11
1.567490371650646
 21
1.064275452879979
 31
0.0
  0
LINE
  5
11693
330
10F1D
100
AcDbEntity
  8
Dims
440
 16777216
370
    -2
100
AcDbLine
 10
1.692827591146525
 20
1.082275452879975
 30
0.0
 11
1.567490371650646
 21
1.082275452879975
 31
0.0
  0
LINE
  5
11694
330
10F1D
100
AcDbEntity
  8
Dims
440
 16777216
370
    -2
100
AcDbLine
 10
1.587490371650646
 20
1.107275452879975
 30
0.0
 11
1.587490371650646
 21
1.132275452879975
 31
0.0
  0
LINE
  5
11695
330
10F1D
100
AcDbEntity
  8
Dims
440
 16777216
370
    -2
100
AcDbLine
 10
1.587490371650646
 20
1.039275452879979
 30
0.0
 11
1.587490371650646
 21
1.014275452879978
 31
0.0
  0
LINE
  5
11696
330
10F1D
100
AcDbEntity
  8
Dims
440
 16777216
370
    -2
100
AcDbLine
 10
1.587490371650646
 20
1.014275452879978
 30
0.0
 11
1.562490371650646
 21
1.014275452879978
 31
0.0
  0
SOLID
  5
11697
330
10F1D
100
AcDbEntity
  8
Dims
440
 16777216
100
AcDbTrace
 10
1.583323704983979
 20
1.107275452879975
 30
0.0
 11
1.591657038317312
 21
1.107275452879975
 31
0.0
 12
1.587490371650646
 22
1.082275452879975
 32
0.0
 13
1.587490371650646
 23
1.082275452879975
 33
0.0
  0
SOLID
  5
11698
330
10F1D
100
AcDbEntity
  8
Dims
440
 16777216
100
AcDbTrace
 10
1.583323704983979
 20
1.039275452879979
 30
0.0
 11
1.591657038317312
 21
1.039275452879979
 31
0.0
 12
1.587490371650646
 22
1.064275452879979
 32
0.0
 13
1.587490371650646
 23
1.064275452879979
 33
0.0
  0
MTEXT
  5
11699
330
10F1D
100
AcDbEntity
  8
Dims
 62
     3
440
 16777216
100
AcDbMText
 10
1.46829989546017
 20
1.014275452879978
 30
0.0
 40
0.02
 41
0.0
 46
0.0
 71
     5
 72
     1
  1
\A1;.018 [.46]
 73
     1
 44
1.0
  0
POINT
  5
1169A
330
10F1D
100
AcDbEntity
  8
Defpoints
 62
     0
440
 16777216
100
AcDbPoint
 10
1.790327591146526
 20
1.064275452879979
 30
0.0
  0
POINT
  5
1169B
330
10F1D
100
AcDbEntity
  8
Defpoints
 62
     0
440
 16777216
100
AcDbPoint
 10
1.705327591146525
 20
1.082275452879975
 30
0.0
  0
POINT
  5
1169C
330
10F1D
100
AcDbEntity
  8
Defpoints
 62
     0
440
 16777216
100
AcDbPoint
 10
1.587490371650646
 20
1.082275452879975
 30
0.0
  0
ENDBLK
  5
10F1F
330
10F1D
100
AcDbEntity
  8
0
100
AcDbBlockEnd
  0
BLOCK
  5
10F2C
330
10F2B
100
AcDbEntity
  8
0
100
AcDbBlockBegin
  2
*D17
 70
     1
 10
0.0
 20
0.0
 30
0.0
  3
*D17
  1

  0
LINE
  5
1169D
330
10F2B
100
AcDbEntity
  8
Dims
440
 16777216
370
    -2
100
AcDbLine
 10
1.730368572742616
 20
1.248874109904948
 30
0.0
 11
1.755368572742632
 21
1.248874109904948
 31
0.0
  0
LINE
  5
1169E
330
10F2B
100
AcDbEntity
  8
Dims
440
 16777216
370
    -2
100
AcDbLine
 10
1.755368572742632
 20
1.248874109904948
 30
0.0
 11
1.806360719596541
 21
1.189338841035934
 31
0.0
  0
MTEXT
  5
1169F
330
10F2B
100
AcDbEntity
  8
Dims
 62
     3
440
 16777216
100
AcDbMText
 10
1.568082858456902
 20
1.248874109904949
 30
0.0
 40
0.02
 41
0.0
 46
0.0
 71
     5
 72
     1
  1
\A1;∅.016 [∅.41] (TYP)
 73
     1
 44
1.0
  0
SOLID
  5
116A0
330
10F2B
100
AcDbEntity
  8
Dims
440
 16777216
100
AcDbTrace
 10
1.809525288808152
 20
1.192049304615478
 30
0.0
 11
1.80319615038493
 21
1.18662837745639
 31
0.0
 12
1.822623501073806
 22
1.170351425766268
 32
0.0
 13
1.822623501073806
 23
1.170351425766268
 33
0.0
  0
POINT
  5
116A1
330
10F2B
100
AcDbEntity
  8
Defpoints
 62
     0
440
 16777216
100
AcDbPoint
 10
1.822623501073806
 20
1.170351425766268
 30
0.0
  0
POINT
  5
116A2
330
10F2B
100
AcDbEntity
  8
Defpoints
 62
     0
440
 16777216
100
AcDbPoint
 10
1.833031681219255
 20
1.158199479993682
 30
0.0
  0
ENDBLK
  5
10F2D
330
10F2B
100
AcDbEntity
  8
0
100
AcDbBlockEnd
  0
BLOCK
  5
10F35
330
10F34
100
AcDbEntity
  8
0
100
AcDbBlockBegin
  2
*D18
 70
     1
 10
0.0
 20
0.0
 30
0.0
  3
*D18
  1

  0
LINE
  5
116A3
330
10F34
100
AcDbEntity
  8
Dims
440
 16777216
370
    -2
100
AcDbLine
 10
2.250327591146521
 20
1.662390667249659
 30
0.0
 11
2.250327591146521
 21
1.499812809576603
 31
0.0
  0
LINE
  5
116A4
330
10F34
100
AcDbEntity
  8
Dims
440
 16777216
370
    -2
100
AcDbLine
 10
1.780327591146526
 20
1.662390667249659
 30
0.0
 11
1.780327591146526
 21
1.499812809576603
 31
0.0
  0
LINE
  5
116A5
330
10F34
100
AcDbEntity
  8
Dims
440
 16777216
370
    -2
100
AcDbLine
 10
2.225327591146521
 20
1.519812809576603
 30
0.0
 11
2.128565686384618
 21
1.519812809576603
 31
0.0
  0
LINE
  5
116A6
330
10F34
100
AcDbEntity
  8
Dims
440
 16777216
370
    -2
100
AcDbLine
 10
1.805327591146525
 20
1.519812809576603
 30
0.0
 11
1.902089495908428
 21
1.519812809576603
 31
0.0
  0
SOLID
  5
116A7
330
10F34
100
AcDbEntity
  8
Dims
440
 16777216
100
AcDbTrace
 10
2.225327591146521
 20
1.52397947624327
 30
0.0
 11
2.225327591146521
 21
1.515646142909937
 31
0.0
 12
2.250327591146521
 22
1.519812809576603
 32
0.0
 13
2.250327591146521
 23
1.519812809576603
 33
0.0
  0
SOLID
  5
116A8
330
10F34
100
AcDbEntity
  8
Dims
440
 16777216
100
AcDbTrace
 10
1.805327591146525
 20
1.52397947624327
 30
0.0
 11
1.805327591146525
 21
1.515646142909937
 31
0.0
 12
1.780327591146526
 22
1.519812809576603
 32
0.0
 13
1.780327591146526
 23
1.519812809576603
 33
0.0
  0
MTEXT
  5
116A9
330
10F34
100
AcDbEntity
  8
Dims
 62
     3
440
 16777216
100
AcDbMText
 10
2.015327591146523
 20
1.519812809576603
 30
0.0
 40
0.02
 41
0.0
 46
0.0
 71
     5
 72
     1
  1
\A1;.470 [11.94]
 73
     1
 44
1.0
  0
POINT
  5
116AA
330
10F34
100
AcDbEntity
  8
Defpoints
 62
     0
440
 16777216
100
AcDbPoint
 10
2.250327591146521
 20
1.674890667249659
 30
0.0
  0
POINT
  5
116AB
330
10F34
100
AcDbEntity
  8
Defpoints
 62
     0
440
 16777216
100
AcDbPoint
 10
1.780327591146526
 20
1.674890667249659
 30
0.0
  0
POINT
  5
116AC
330
10F34
100
AcDbEntity
  8
Defpoints
 62
     0
440
 16777216
100
AcDbPoint
 10
1.780327591146526
 20
1.519812809576603
 30
0.0
  0
ENDBLK
  5
10F36
330
10F34
100
AcDbEntity
  8
0
100
AcDbBlockEnd
  0
BLOCK
  5
10F42
330
10F41
100
AcDbEntity
  8
0
100
AcDbBlockBegin
  2
*D19
 70
     1
 10
0.0
 20
0.0
 30
0.0
  3
*D19
  1

  0
LINE
  5
116AD
330
10F41
100
AcDbEntity
  8
Dims
440
 16777216
370
    -2
100
AcDbLine
 10
2.250327591146521
 20
1.662390667249659
 30
0.0
 11
2.250327591146521
 21
1.587413075669478
 31
0.0
  0
LINE
  5
116AE
330
10F41
100
AcDbEntity
  8
Dims
440
 16777216
370
    -2
100
AcDbLine
 10
2.165327591146527
 20
1.64439066724966
 30
0.0
 11
2.165327591146527
 21
1.587413075669478
 31
0.0
  0
LINE
  5
116AF
330
10F41
100
AcDbEntity
  8
Dims
440
 16777216
370
    -2
100
AcDbLine
 10
2.140327591146527
 20
1.607413075669478
 30
0.0
 11
2.115327591146527
 21
1.607413075669478
 31
0.0
  0
LINE
  5
116B0
330
10F41
100
AcDbEntity
  8
Dims
440
 16777216
370
    -2
100
AcDbLine
 10
2.275327591146521
 20
1.607413075669478
 30
0.0
 11
2.300327591146521
 21
1.607413075669478
 31
0.0
  0
SOLID
  5
116B1
330
10F41
100
AcDbEntity
  8
Dims
440
 16777216
100
AcDbTrace
 10
2.140327591146527
 20
1.611579742336145
 30
0.0
 11
2.140327591146527
 21
1.603246409002811
 31
0.0
 12
2.165327591146527
 22
1.607413075669478
 32
0.0
 13
2.165327591146527
 23
1.607413075669478
 33
0.0
  0
SOLID
  5
116B2
330
10F41
100
AcDbEntity
  8
Dims
440
 16777216
100
AcDbTrace
 10
2.275327591146521
 20
1.611579742336145
 30
0.0
 11
2.275327591146521
 21
1.603246409002811
 31
0.0
 12
2.250327591146521
 22
1.607413075669478
 32
0.0
 13
2.250327591146521
 23
1.607413075669478
 33
0.0
  0
MTEXT
  5
116B3
330
10F41
100
AcDbEntity
  8
Dims
 62
     3
440
 16777216
100
AcDbMText
 10
2.404041876860807
 20
1.607413075669478
 30
0.0
 40
0.02
 41
0.0
 46
0.0
 71
     5
 72
     1
  1
\A1;.085 [2.16]
 73
     1
 44
1.0
  0
POINT
  5
116B4
330
10F41
100
AcDbEntity
  8
Defpoints
 62
     0
440
 16777216
100
AcDbPoint
 10
2.250327591146521
 20
1.674890667249659
 30
0.0
  0
POINT
  5
116B5
330
10F41
100
AcDbEntity
  8
Defpoints
 62
     0
440
 16777216
100
AcDbPoint
 10
2.165327591146527
 20
1.65689066724966
 30
0.0
  0
POINT
  5
116B6
330
10F41
100
AcDbEntity
  8
Defpoints
 62
     0
440
 16777216
100
AcDbPoint
 10
2.165327591146527
 20
1.607413075669478
 30
0.0
  0
ENDBLK
  5
10F43
330
10F41
100
AcDbEntity
  8
0
100
AcDbBlockEnd
  0
BLOCK
  5
10F4F
330
10F4E
100
AcDbEntity
  8
0
100
AcDbBlockBegin
  2
*D20
 70
     1
 10
0.0
 20
0.0
 30
0.0
  3
*D20
  1

  0
LINE
  5
116B7
330
10F4E
100
AcDbEntity
  8
Dims
440
 16777216
370
    -2
100
AcDbLine
 10
2.165327591146532
 20
1.806890667249659
 30
0.0
 11
2.330540919262812
 21
1.806890667249659
 31
0.0
  0
LINE
  5
116B8
330
10F4E
100
AcDbEntity
  8
Dims
440
 16777216
370
    -2
100
AcDbLine
 10
2.165327591146517
 20
1.75689066724966
 30
0.0
 11
2.330540919262812
 21
1.75689066724966
 31
0.0
  0
LINE
  5
116B9
330
10F4E
100
AcDbEntity
  8
Dims
440
 16777216
370
    -2
100
AcDbLine
 10
2.310540919262812
 20
1.73189066724966
 30
0.0
 11
2.310540919262812
 21
1.70689066724966
 31
0.0
  0
LINE
  5
116BA
330
10F4E
100
AcDbEntity
  8
Dims
440
 16777216
370
    -2
100
AcDbLine
 10
2.310540919262812
 20
1.831890667249658
 30
0.0
 11
2.310540919262812
 21
1.856890667249659
 31
0.0
  0
LINE
  5
116BB
330
10F4E
100
AcDbEntity
  8
Dims
440
 16777216
370
    -2
100
AcDbLine
 10
2.310540919262812
 20
1.856890667249659
 30
0.0
 11
2.335540919262812
 21
1.856890667249659
 31
0.0
  0
SOLID
  5
116BC
330
10F4E
100
AcDbEntity
  8
Dims
440
 16777216
100
AcDbTrace
 10
2.306374252596145
 20
1.73189066724966
 30
0.0
 11
2.314707585929479
 21
1.73189066724966
 31
0.0
 12
2.310540919262812
 22
1.75689066724966
 32
0.0
 13
2.310540919262812
 23
1.75689066724966
 33
0.0
  0
SOLID
  5
116BD
330
10F4E
100
AcDbEntity
  8
Dims
440
 16777216
100
AcDbTrace
 10
2.306374252596145
 20
1.831890667249658
 30
0.0
 11
2.314707585929479
 21
1.831890667249658
 31
0.0
 12
2.310540919262812
 22
1.806890667249659
 32
0.0
 13
2.310540919262812
 23
1.806890667249659
 33
0.0
  0
MTEXT
  5
116BE
330
10F4E
100
AcDbEntity
  8
Dims
 62
     3
440
 16777216
100
AcDbMText
 10
2.439255204977097
 20
1.85689066724966
 30
0.0
 40
0.02
 41
0.0
 46
0.0
 71
     5
 72
     1
  1
\A1;.050 [1.27]
 73
     1
 44
1.0
  0
POINT
  5
116BF
330
10F4E
100
AcDbEntity
  8
Defpoints
 62
     0
440
 16777216
100
AcDbPoint
 10
2.152827591146531
 20
1.806890667249659
 30
0.0
  0
POINT
  5
116C0
330
10F4E
100
AcDbEntity
  8
Defpoints
 62
     0
440
 16777216
100
AcDbPoint
 10
2.152827591146517
 20
1.75689066724966
 30
0.0
  0
POINT
  5
116C1
330
10F4E
100
AcDbEntity
  8
Defpoints
 62
     0
440
 16777216
100
AcDbPoint
 10
2.310540919262812
 20
1.75689066724966
 30
0.0
  0
ENDBLK
  5
10F50
330
10F4E
100
AcDbEntity
  8
0
100
AcDbBlockEnd
  0
BLOCK
  5
10F5D
330
10F5C
100
AcDbEntity
  8
0
100
AcDbBlockBegin
  2
*D21
 70
     1
 10
0.0
 20
0.0
 30
0.0
  3
*D21
  1

  0
LINE
  5
116C2
330
10F5C
100
AcDbEntity
  8
Dims
440
 16777216
370
    -2
100
AcDbLine
 10
2.165327591146527
 20
1.66939066724966
 30
0.0
 11
2.165327591146527
 21
1.890936979406202
 31
0.0
  0
LINE
  5
116C3
330
10F5C
100
AcDbEntity
  8
Dims
440
 16777216
370
    -2
100
AcDbLine
 10
2.152827591146517
 20
1.76939066724966
 30
0.0
 11
2.152827591146517
 21
1.890936979406202
 31
0.0
  0
LINE
  5
116C4
330
10F5C
100
AcDbEntity
  8
Dims
440
 16777216
370
    -2
100
AcDbLine
 10
2.190327591146527
 20
1.870936979406202
 30
0.0
 11
2.215327591146527
 21
1.870936979406202
 31
0.0
  0
LINE
  5
116C5
330
10F5C
100
AcDbEntity
  8
Dims
440
 16777216
370
    -2
100
AcDbLine
 10
2.127827591146517
 20
1.870936979406202
 30
0.0
 11
2.102827591146517
 21
1.870936979406202
 31
0.0
  0
SOLID
  5
116C6
330
10F5C
100
AcDbEntity
  8
Dims
440
 16777216
100
AcDbTrace
 10
2.190327591146527
 20
1.875103646072868
 30
0.0
 11
2.190327591146527
 21
1.866770312739535
 31
0.0
 12
2.165327591146527
 22
1.870936979406202
 32
0.0
 13
2.165327591146527
 23
1.870936979406202
 33
0.0
  0
SOLID
  5
116C7
330
10F5C
100
AcDbEntity
  8
Dims
440
 16777216
100
AcDbTrace
 10
2.127827591146517
 20
1.875103646072868
 30
0.0
 11
2.127827591146517
 21
1.866770312739535
 31
0.0
 12
2.152827591146517
 22
1.870936979406202
 32
0.0
 13
2.152827591146517
 23
1.870936979406202
 33
0.0
  0
MTEXT
  5
116C8
330
10F5C
100
AcDbEntity
  8
Dims
 62
     3
440
 16777216
100
AcDbMText
 10
1.999113305432231
 20
1.870936979406202
 30
0.0
 40
0.02
 41
0.0
 46
0.0
 71
     5
 72
     1
  1
\A1;.0125 [.32]
 73
     1
 44
1.0
  0
POINT
  5
116C9
330
10F5C
100
AcDbEntity
  8
Defpoints
 62
     0
440
 16777216
100
AcDbPoint
 10
2.165327591146527
 20
1.65689066724966
 30
0.0
  0
POINT
  5
116CA
330
10F5C
100
AcDbEntity
  8
Defpoints
 62
     0
440
 16777216
100
AcDbPoint
 10
2.152827591146517
 20
1.75689066724966
 30
0.0
  0
POINT
  5
116CB
330
10F5C
100
AcDbEntity
  8
Defpoints
 62
     0
440
 16777216
100
AcDbPoint
 10
2.152827591146517
 20
1.870936979406202
 30
0.0
  0
ENDBLK
  5
10F5E
330
10F5C
100
AcDbEntity
  8
0
100
AcDbBlockEnd
  0
BLOCK
  5
10F6A
330
10F69
100
AcDbEntity
  8
0
100
AcDbBlockBegin
  2
*D22
 70
     1
 10
0.0
 20
0.0
 30
0.0
  3
*D22
  1

  0
LINE
  5
116CC
330
10F69
100
AcDbEntity
  8
Dims
440
 16777216
370
    -2
100
AcDbLine
 10
2.165327591146527
 20
1.66939066724966
 30
0.0
 11
2.165327591146527
 21
1.948934905816163
 31
0.0
  0
LINE
  5
116CD
330
10F69
100
AcDbEntity
  8
Dims
440
 16777216
370
    -2
100
AcDbLine
 10
2.140327591146529
 20
1.719390667249657
 30
0.0
 11
2.140327591146529
 21
1.948934905816163
 31
0.0
  0
LINE
  5
116CE
330
10F69
100
AcDbEntity
  8
Dims
440
 16777216
370
    -2
100
AcDbLine
 10
2.190327591146527
 20
1.928934905816163
 30
0.0
 11
2.215327591146527
 21
1.928934905816163
 31
0.0
  0
LINE
  5
116CF
330
10F69
100
AcDbEntity
  8
Dims
440
 16777216
370
    -2
100
AcDbLine
 10
2.115327591146529
 20
1.928934905816163
 30
0.0
 11
2.090327591146528
 21
1.928934905816163
 31
0.0
  0
SOLID
  5
116D0
330
10F69
100
AcDbEntity
  8
Dims
440
 16777216
100
AcDbTrace
 10
2.190327591146527
 20
1.93310157248283
 30
0.0
 11
2.190327591146527
 21
1.924768239149497
 31
0.0
 12
2.165327591146527
 22
1.928934905816163
 32
0.0
 13
2.165327591146527
 23
1.928934905816163
 33
0.0
  0
SOLID
  5
116D1
330
10F69
100
AcDbEntity
  8
Dims
440
 16777216
100
AcDbTrace
 10
2.115327591146529
 20
1.93310157248283
 30
0.0
 11
2.115327591146529
 21
1.924768239149497
 31
0.0
 12
2.140327591146529
 22
1.928934905816163
 32
0.0
 13
2.140327591146529
 23
1.928934905816163
 33
0.0
  0
MTEXT
  5
116D2
330
10F69
100
AcDbEntity
  8
Dims
 62
     3
440
 16777216
100
AcDbMText
 10
1.996137114956052
 20
1.928934905816163
 30
0.0
 40
0.02
 41
0.0
 46
0.0
 71
     5
 72
     1
  1
\A1;.025 [.64]
 73
     1
 44
1.0
  0
POINT
  5
116D3
330
10F69
100
AcDbEntity
  8
Defpoints
 62
     0
440
 16777216
100
AcDbPoint
 10
2.165327591146527
 20
1.65689066724966
 30
0.0
  0
POINT
  5
116D4
330
10F69
100
AcDbEntity
  8
Defpoints
 62
     0
440
 16777216
100
AcDbPoint
 10
2.140327591146529
 20
1.706890667249657
 30
0.0
  0
POINT
  5
116D5
330
10F69
100
AcDbEntity
  8
Defpoints
 62
     0
440
 16777216
100
AcDbPoint
 10
2.140327591146529
 20
1.928934905816163
 30
0.0
  0
ENDBLK
  5
10F6B
330
10F69
100
AcDbEntity
  8
0
100
AcDbBlockEnd
  0
BLOCK
  5
10F77
330
10F76
100
AcDbEntity
  8
0
100
AcDbBlockBegin
  2
*D23
 70
     1
 10
0.0
 20
0.0
 30
0.0
  3
*D23
  1

  0
LINE
  5
116D6
330
10F76
100
AcDbEntity
  8
Dims
440
 16777216
370
    -2
100
AcDbLine
 10
2.165327591146527
 20
1.66939066724966
 30
0.0
 11
2.165327591146527
 21
2.004932901571193
 31
0.0
  0
LINE
  5
116D7
330
10F76
100
AcDbEntity
  8
Dims
440
 16777216
370
    -2
100
AcDbLine
 10
2.127827591146519
 20
1.819390667249661
 30
0.0
 11
2.127827591146519
 21
2.004932901571193
 31
0.0
  0
LINE
  5
116D8
330
10F76
100
AcDbEntity
  8
Dims
440
 16777216
370
    -2
100
AcDbLine
 10
2.190327591146527
 20
1.984932901571193
 30
0.0
 11
2.215327591146527
 21
1.984932901571193
 31
0.0
  0
LINE
  5
116D9
330
10F76
100
AcDbEntity
  8
Dims
440
 16777216
370
    -2
100
AcDbLine
 10
2.102827591146519
 20
1.984932901571193
 30
0.0
 11
2.077827591146518
 21
1.984932901571193
 31
0.0
  0
SOLID
  5
116DA
330
10F76
100
AcDbEntity
  8
Dims
440
 16777216
100
AcDbTrace
 10
2.190327591146527
 20
1.98909956823786
 30
0.0
 11
2.190327591146527
 21
1.980766234904527
 31
0.0
 12
2.165327591146527
 22
1.984932901571193
 32
0.0
 13
2.165327591146527
 23
1.984932901571193
 33
0.0
  0
SOLID
  5
116DB
330
10F76
100
AcDbEntity
  8
Dims
440
 16777216
100
AcDbTrace
 10
2.102827591146519
 20
1.98909956823786
 30
0.0
 11
2.102827591146519
 21
1.980766234904527
 31
0.0
 12
2.127827591146519
 22
1.984932901571193
 32
0.0
 13
2.127827591146519
 23
1.984932901571193
 33
0.0
  0
MTEXT
  5
116DC
330
10F76
100
AcDbEntity
  8
Dims
 62
     3
440
 16777216
100
AcDbMText
 10
1.974113305432233
 20
1.984932901571193
 30
0.0
 40
0.02
 41
0.0
 46
0.0
 71
     5
 72
     1
  1
\A1;.0375 [.95]
 73
     1
 44
1.0
  0
POINT
  5
116DD
330
10F76
100
AcDbEntity
  8
Defpoints
 62
     0
440
 16777216
100
AcDbPoint
 10
2.165327591146527
 20
1.65689066724966
 30
0.0
  0
POINT
  5
116DE
330
10F76
100
AcDbEntity
  8
Defpoints
 62
     0
440
 16777216
100
AcDbPoint
 10
2.127827591146519
 20
1.806890667249661
 30
0.0
  0
POINT
  5
116DF
330
10F76
100
AcDbEntity
  8
Defpoints
 62
     0
440
 16777216
100
AcDbPoint
 10
2.127827591146519
 20
1.984932901571193
 30
0.0
  0
ENDBLK
  5
10F78
330
10F76
100
AcDbEntity
  8
0
100
AcDbBlockEnd
  0
BLOCK
  5
10F84
330
10F83
100
AcDbEntity
  8
0
100
AcDbBlockBegin
  2
*D24
 70
     1
 10
0.0
 20
0.0
 30
0.0
  3
*D24
  1

  0
LINE
  5
116E0
330
10F83
100
AcDbEntity
  8
Dims
440
 16777216
370
    -2
100
AcDbLine
 10
1.852827591146527
 20
1.656890667249663
 30
0.0
 11
1.642490371650645
 21
1.656890667249663
 31
0.0
  0
LINE
  5
116E1
330
10F83
100
AcDbEntity
  8
Dims
440
 16777216
370
    -2
100
AcDbLine
 10
1.767827591146526
 20
1.674890667249659
 30
0.0
 11
1.642490371650645
 21
1.674890667249659
 31
0.0
  0
LINE
  5
116E2
330
10F83
100
AcDbEntity
  8
Dims
440
 16777216
370
    -2
100
AcDbLine
 10
1.662490371650645
 20
1.699890667249659
 30
0.0
 11
1.662490371650645
 21
1.724890667249659
 31
0.0
  0
LINE
  5
116E3
330
10F83
100
AcDbEntity
  8
Dims
440
 16777216
370
    -2
100
AcDbLine
 10
1.662490371650645
 20
1.631890667249663
 30
0.0
 11
1.662490371650645
 21
1.606890667249662
 31
0.0
  0
LINE
  5
116E4
330
10F83
100
AcDbEntity
  8
Dims
440
 16777216
370
    -2
100
AcDbLine
 10
1.662490371650645
 20
1.606890667249662
 30
0.0
 11
1.637490371650645
 21
1.606890667249662
 31
0.0
  0
SOLID
  5
116E5
330
10F83
100
AcDbEntity
  8
Dims
440
 16777216
100
AcDbTrace
 10
1.658323704983979
 20
1.699890667249659
 30
0.0
 11
1.666657038317312
 21
1.699890667249659
 31
0.0
 12
1.662490371650645
 22
1.674890667249659
 32
0.0
 13
1.662490371650645
 23
1.674890667249659
 33
0.0
  0
SOLID
  5
116E6
330
10F83
100
AcDbEntity
  8
Dims
440
 16777216
100
AcDbTrace
 10
1.658323704983979
 20
1.631890667249663
 30
0.0
 11
1.666657038317312
 21
1.631890667249663
 31
0.0
 12
1.662490371650645
 22
1.656890667249663
 32
0.0
 13
1.662490371650645
 23
1.656890667249663
 33
0.0
  0
MTEXT
  5
116E7
330
10F83
100
AcDbEntity
  8
Dims
 62
     3
440
 16777216
100
AcDbMText
 10
1.543299895460169
 20
1.606890667249663
 30
0.0
 40
0.02
 41
0.0
 46
0.0
 71
     5
 72
     1
  1
\A1;.018 [.46]
 73
     1
 44
1.0
  0
POINT
  5
116E8
330
10F83
100
AcDbEntity
  8
Defpoints
 62
     0
440
 16777216
100
AcDbPoint
 10
1.865327591146527
 20
1.656890667249663
 30
0.0
  0
POINT
  5
116E9
330
10F83
100
AcDbEntity
  8
Defpoints
 62
     0
440
 16777216
100
AcDbPoint
 10
1.780327591146526
 20
1.674890667249659
 30
0.0
  0
POINT
  5
116EA
330
10F83
100
AcDbEntity
  8
Defpoints
 62
     0
440
 16777216
100
AcDbPoint
 10
1.662490371650645
 20
1.674890667249659
 30
0.0
  0
ENDBLK
  5
10F85
330
10F83
100
AcDbEntity
  8
0
100
AcDbBlockEnd
  0
BLOCK
  5
10F92
330
10F91
100
AcDbEntity
  8
0
100
AcDbBlockBegin
  2
*D25
 70
     1
 10
0.0
 20
0.0
 30
0.0
  3
*D25
  1

  0
LINE
  5
116EB
330
10F91
100
AcDbEntity
  8
Dims
440
 16777216
370
    -2
100
AcDbLine
 10
1.805368572742619
 20
1.841489324274633
 30
0.0
 11
1.830368572742633
 21
1.841489324274633
 31
0.0
  0
LINE
  5
116EC
330
10F91
100
AcDbEntity
  8
Dims
440
 16777216
370
    -2
100
AcDbLine
 10
1.830368572742633
 20
1.841489324274633
 30
0.0
 11
1.88136071959654
 21
1.781954055405619
 31
0.0
  0
MTEXT
  5
116ED
330
10F91
100
AcDbEntity
  8
Dims
 62
     3
440
 16777216
100
AcDbMText
 10
1.643082858456904
 20
1.841489324274633
 30
0.0
 40
0.02
 41
0.0
 46
0.0
 71
     5
 72
     1
  1
\A1;∅.016 [∅.41] (TYP)
 73
     1
 44
1.0
  0
SOLID
  5
116EE
330
10F91
100
AcDbEntity
  8
Dims
440
 16777216
100
AcDbTrace
 10
1.884525288808151
 20
1.784664518985163
 30
0.0
 11
1.878196150384929
 21
1.779243591826075
 31
0.0
 12
1.897623501073804
 22
1.762966640135953
 32
0.0
 13
1.897623501073804
 23
1.762966640135953
 33
0.0
  0
POINT
  5
116EF
330
10F91
100
AcDbEntity
  8
Defpoints
 62
     0
440
 16777216
100
AcDbPoint
 10
1.897623501073804
 20
1.762966640135953
 30
0.0
  0
POINT
  5
116F0
330
10F91
100
AcDbEntity
  8
Defpoints
 62
     0
440
 16777216
100
AcDbPoint
 10
1.908031681219252
 20
1.750814694363368
 30
0.0
  0
ENDBLK
  5
10F93
330
10F91
100
AcDbEntity
  8
0
100
AcDbBlockEnd
  0
BLOCK
  5
10F9B
330
10F9A
100
AcDbEntity
  8
0
100
AcDbBlockBegin
  2
*D26
 70
     1
 10
0.0
 20
0.0
 30
0.0
  3
*D26
  1

  0
LINE
  5
116F1
330
10F9A
100
AcDbEntity
  8
Dims
440
 16777216
370
    -2
100
AcDbLine
 10
3.737002323739561
 20
2.016032711290616
 30
0.0
 11
3.737002323739561
 21
1.941055119710435
 31
0.0
  0
LINE
  5
116F2
330
10F9A
100
AcDbEntity
  8
Dims
440
 16777216
370
    -2
100
AcDbLine
 10
3.652002323739568
 20
1.998032711290617
 30
0.0
 11
3.652002323739568
 21
1.941055119710435
 31
0.0
  0
LINE
  5
116F3
330
10F9A
100
AcDbEntity
  8
Dims
440
 16777216
370
    -2
100
AcDbLine
 10
3.627002323739568
 20
1.961055119710435
 30
0.0
 11
3.602002323739568
 21
1.961055119710435
 31
0.0
  0
LINE
  5
116F4
330
10F9A
100
AcDbEntity
  8
Dims
440
 16777216
370
    -2
100
AcDbLine
 10
3.762002323739561
 20
1.961055119710435
 30
0.0
 11
3.787002323739562
 21
1.961055119710435
 31
0.0
  0
SOLID
  5
116F5
330
10F9A
100
AcDbEntity
  8
Dims
440
 16777216
100
AcDbTrace
 10
3.627002323739568
 20
1.965221786377102
 30
0.0
 11
3.627002323739568
 21
1.956888453043769
 31
0.0
 12
3.652002323739568
 22
1.961055119710435
 32
0.0
 13
3.652002323739568
 23
1.961055119710435
 33
0.0
  0
SOLID
  5
116F6
330
10F9A
100
AcDbEntity
  8
Dims
440
 16777216
100
AcDbTrace
 10
3.762002323739561
 20
1.965221786377102
 30
0.0
 11
3.762002323739561
 21
1.956888453043769
 31
0.0
 12
3.737002323739561
 22
1.961055119710435
 32
0.0
 13
3.737002323739561
 23
1.961055119710435
 33
0.0
  0
MTEXT
  5
116F7
330
10F9A
100
AcDbEntity
  8
Dims
 62
     3
440
 16777216
100
AcDbMText
 10
3.890716609453848
 20
1.961055119710435
 30
0.0
 40
0.02
 41
0.0
 46
0.0
 71
     5
 72
     1
  1
\A1;.085 [2.16]
 73
     1
 44
1.0
  0
POINT
  5
116F8
330
10F9A
100
AcDbEntity
  8
Defpoints
 62
     0
440
 16777216
100
AcDbPoint
 10
3.737002323739561
 20
2.028532711290616
 30
0.0
  0
POINT
  5
116F9
330
10F9A
100
AcDbEntity
  8
Defpoints
 62
     0
440
 16777216
100
AcDbPoint
 10
3.652002323739568
 20
2.010532711290617
 30
0.0
  0
POINT
  5
116FA
330
10F9A
100
AcDbEntity
  8
Defpoints
 62
     0
440
 16777216
100
AcDbPoint
 10
3.652002323739568
 20
1.961055119710435
 30
0.0
  0
ENDBLK
  5
10F9C
330
10F9A
100
AcDbEntity
  8
0
100
AcDbBlockEnd
  0
BLOCK
  5
10FA8
330
10FA7
100
AcDbEntity
  8
0
100
AcDbBlockBegin
  2
*D27
 70
     1
 10
0.0
 20
0.0
 30
0.0
  3
*D27
  1

  0
LINE
  5
116FB
330
10FA7
100
AcDbEntity
  8
Dims
440
 16777216
370
    -2
100
AcDbLine
 10
3.652002323739572
 20
2.160532711290616
 30
0.0
 11
3.817215651855851
 21
2.160532711290616
 31
0.0
  0
LINE
  5
116FC
330
10FA7
100
AcDbEntity
  8
Dims
440
 16777216
370
    -2
100
AcDbLine
 10
3.652002323739558
 20
2.110532711290618
 30
0.0
 11
3.817215651855851
 21
2.110532711290618
 31
0.0
  0
LINE
  5
116FD
330
10FA7
100
AcDbEntity
  8
Dims
440
 16777216
370
    -2
100
AcDbLine
 10
3.797215651855851
 20
2.085532711290618
 30
0.0
 11
3.797215651855851
 21
2.060532711290618
 31
0.0
  0
LINE
  5
116FE
330
10FA7
100
AcDbEntity
  8
Dims
440
 16777216
370
    -2
100
AcDbLine
 10
3.797215651855851
 20
2.185532711290615
 30
0.0
 11
3.797215651855851
 21
2.210532711290616
 31
0.0
  0
LINE
  5
116FF
330
10FA7
100
AcDbEntity
  8
Dims
440
 16777216
370
    -2
100
AcDbLine
 10
3.797215651855851
 20
2.210532711290616
 30
0.0
 11
3.822215651855851
 21
2.210532711290616
 31
0.0
  0
SOLID
  5
11700
330
10FA7
100
AcDbEntity
  8
Dims
440
 16777216
100
AcDbTrace
 10
3.793048985189185
 20
2.085532711290618
 30
0.0
 11
3.801382318522518
 21
2.085532711290618
 31
0.0
 12
3.797215651855851
 22
2.110532711290618
 32
0.0
 13
3.797215651855851
 23
2.110532711290618
 33
0.0
  0
SOLID
  5
11701
330
10FA7
100
AcDbEntity
  8
Dims
440
 16777216
100
AcDbTrace
 10
3.793048985189185
 20
2.185532711290615
 30
0.0
 11
3.801382318522518
 21
2.185532711290615
 31
0.0
 12
3.797215651855851
 22
2.160532711290616
 32
0.0
 13
3.797215651855851
 23
2.160532711290616
 33
0.0
  0
MTEXT
  5
11702
330
10FA7
100
AcDbEntity
  8
Dims
 62
     3
440
 16777216
100
AcDbMText
 10
3.925929937570137
 20
2.210532711290617
 30
0.0
 40
0.02
 41
0.0
 46
0.0
 71
     5
 72
     1
  1
\A1;.050 [1.27]
 73
     1
 44
1.0
  0
POINT
  5
11703
330
10FA7
100
AcDbEntity
  8
Defpoints
 62
     0
440
 16777216
100
AcDbPoint
 10
3.639502323739572
 20
2.160532711290616
 30
0.0
  0
POINT
  5
11704
330
10FA7
100
AcDbEntity
  8
Defpoints
 62
     0
440
 16777216
100
AcDbPoint
 10
3.639502323739558
 20
2.110532711290618
 30
0.0
  0
POINT
  5
11705
330
10FA7
100
AcDbEntity
  8
Defpoints
 62
     0
440
 16777216
100
AcDbPoint
 10
3.797215651855851
 20
2.110532711290618
 30
0.0
  0
ENDBLK
  5
10FA9
330
10FA7
100
AcDbEntity
  8
0
100
AcDbBlockEnd
  0
BLOCK
  5
10FB6
330
10FB5
100
AcDbEntity
  8
0
100
AcDbBlockBegin
  2
*D28
 70
     1
 10
0.0
 20
0.0
 30
0.0
  3
*D28
  1

  0
LINE
  5
11706
330
10FB5
100
AcDbEntity
  8
Dims
440
 16777216
370
    -2
100
AcDbLine
 10
3.652002323739568
 20
2.023032711290617
 30
0.0
 11
3.652002323739568
 21
2.244579023447159
 31
0.0
  0
LINE
  5
11707
330
10FB5
100
AcDbEntity
  8
Dims
440
 16777216
370
    -2
100
AcDbLine
 10
3.639502323739558
 20
2.123032711290618
 30
0.0
 11
3.639502323739558
 21
2.244579023447159
 31
0.0
  0
LINE
  5
11708
330
10FB5
100
AcDbEntity
  8
Dims
440
 16777216
370
    -2
100
AcDbLine
 10
3.677002323739567
 20
2.224579023447159
 30
0.0
 11
3.702002323739567
 21
2.224579023447159
 31
0.0
  0
LINE
  5
11709
330
10FB5
100
AcDbEntity
  8
Dims
440
 16777216
370
    -2
100
AcDbLine
 10
3.614502323739558
 20
2.224579023447159
 30
0.0
 11
3.589502323739557
 21
2.224579023447159
 31
0.0
  0
SOLID
  5
1170A
330
10FB5
100
AcDbEntity
  8
Dims
440
 16777216
100
AcDbTrace
 10
3.677002323739567
 20
2.228745690113826
 30
0.0
 11
3.677002323739567
 21
2.220412356780492
 31
0.0
 12
3.652002323739568
 22
2.224579023447159
 32
0.0
 13
3.652002323739568
 23
2.224579023447159
 33
0.0
  0
SOLID
  5
1170B
330
10FB5
100
AcDbEntity
  8
Dims
440
 16777216
100
AcDbTrace
 10
3.614502323739558
 20
2.228745690113826
 30
0.0
 11
3.614502323739558
 21
2.220412356780492
 31
0.0
 12
3.639502323739558
 22
2.224579023447159
 32
0.0
 13
3.639502323739558
 23
2.224579023447159
 33
0.0
  0
MTEXT
  5
1170C
330
10FB5
100
AcDbEntity
  8
Dims
 62
     3
440
 16777216
100
AcDbMText
 10
3.485788038025272
 20
2.224579023447159
 30
0.0
 40
0.02
 41
0.0
 46
0.0
 71
     5
 72
     1
  1
\A1;.0125 [.32]
 73
     1
 44
1.0
  0
POINT
  5
1170D
330
10FB5
100
AcDbEntity
  8
Defpoints
 62
     0
440
 16777216
100
AcDbPoint
 10
3.652002323739568
 20
2.010532711290617
 30
0.0
  0
POINT
  5
1170E
330
10FB5
100
AcDbEntity
  8
Defpoints
 62
     0
440
 16777216
100
AcDbPoint
 10
3.639502323739558
 20
2.110532711290618
 30
0.0
  0
POINT
  5
1170F
330
10FB5
100
AcDbEntity
  8
Defpoints
 62
     0
440
 16777216
100
AcDbPoint
 10
3.639502323739558
 20
2.224579023447159
 30
0.0
  0
ENDBLK
  5
10FB7
330
10FB5
100
AcDbEntity
  8
0
100
AcDbBlockEnd
  0
BLOCK
  5
10FC3
330
10FC2
100
AcDbEntity
  8
0
100
AcDbBlockBegin
  2
*D29
 70
     1
 10
0.0
 20
0.0
 30
0.0
  3
*D29
  1

  0
LINE
  5
11710
330
10FC2
100
AcDbEntity
  8
Dims
440
 16777216
370
    -2
100
AcDbLine
 10
3.652002323739568
 20
2.023032711290617
 30
0.0
 11
3.652002323739568
 21
2.302576949857121
 31
0.0
  0
LINE
  5
11711
330
10FC2
100
AcDbEntity
  8
Dims
440
 16777216
370
    -2
100
AcDbLine
 10
3.627002323739569
 20
2.073032711290614
 30
0.0
 11
3.627002323739569
 21
2.302576949857121
 31
0.0
  0
LINE
  5
11712
330
10FC2
100
AcDbEntity
  8
Dims
440
 16777216
370
    -2
100
AcDbLine
 10
3.677002323739567
 20
2.282576949857121
 30
0.0
 11
3.702002323739567
 21
2.282576949857121
 31
0.0
  0
LINE
  5
11713
330
10FC2
100
AcDbEntity
  8
Dims
440
 16777216
370
    -2
100
AcDbLine
 10
3.602002323739569
 20
2.282576949857121
 30
0.0
 11
3.577002323739569
 21
2.282576949857121
 31
0.0
  0
SOLID
  5
11714
330
10FC2
100
AcDbEntity
  8
Dims
440
 16777216
100
AcDbTrace
 10
3.677002323739567
 20
2.286743616523787
 30
0.0
 11
3.677002323739567
 21
2.278410283190454
 31
0.0
 12
3.652002323739568
 22
2.282576949857121
 32
0.0
 13
3.652002323739568
 23
2.282576949857121
 33
0.0
  0
SOLID
  5
11715
330
10FC2
100
AcDbEntity
  8
Dims
440
 16777216
100
AcDbTrace
 10
3.602002323739569
 20
2.286743616523787
 30
0.0
 11
3.602002323739569
 21
2.278410283190454
 31
0.0
 12
3.627002323739569
 22
2.282576949857121
 32
0.0
 13
3.627002323739569
 23
2.282576949857121
 33
0.0
  0
MTEXT
  5
11716
330
10FC2
100
AcDbEntity
  8
Dims
 62
     3
440
 16777216
100
AcDbMText
 10
3.482811847549093
 20
2.282576949857121
 30
0.0
 40
0.02
 41
0.0
 46
0.0
 71
     5
 72
     1
  1
\A1;.025 [.64]
 73
     1
 44
1.0
  0
POINT
  5
11717
330
10FC2
100
AcDbEntity
  8
Defpoints
 62
     0
440
 16777216
100
AcDbPoint
 10
3.652002323739568
 20
2.010532711290617
 30
0.0
  0
POINT
  5
11718
330
10FC2
100
AcDbEntity
  8
Defpoints
 62
     0
440
 16777216
100
AcDbPoint
 10
3.627002323739569
 20
2.060532711290614
 30
0.0
  0
POINT
  5
11719
330
10FC2
100
AcDbEntity
  8
Defpoints
 62
     0
440
 16777216
100
AcDbPoint
 10
3.627002323739569
 20
2.282576949857121
 30
0.0
  0
ENDBLK
  5
10FC4
330
10FC2
100
AcDbEntity
  8
0
100
AcDbBlockEnd
  0
BLOCK
  5
10FD0
330
10FCF
100
AcDbEntity
  8
0
100
AcDbBlockBegin
  2
*D30
 70
     1
 10
0.0
 20
0.0
 30
0.0
  3
*D30
  1

  0
LINE
  5
1171A
330
10FCF
100
AcDbEntity
  8
Dims
440
 16777216
370
    -2
100
AcDbLine
 10
3.652002323739568
 20
2.023032711290617
 30
0.0
 11
3.652002323739568
 21
2.358574945612151
 31
0.0
  0
LINE
  5
1171B
330
10FCF
100
AcDbEntity
  8
Dims
440
 16777216
370
    -2
100
AcDbLine
 10
3.614502323739559
 20
2.173032711290618
 30
0.0
 11
3.614502323739559
 21
2.358574945612151
 31
0.0
  0
LINE
  5
1171C
330
10FCF
100
AcDbEntity
  8
Dims
440
 16777216
370
    -2
100
AcDbLine
 10
3.677002323739567
 20
2.338574945612151
 30
0.0
 11
3.702002323739567
 21
2.338574945612151
 31
0.0
  0
LINE
  5
1171D
330
10FCF
100
AcDbEntity
  8
Dims
440
 16777216
370
    -2
100
AcDbLine
 10
3.589502323739559
 20
2.338574945612151
 30
0.0
 11
3.564502323739559
 21
2.338574945612151
 31
0.0
  0
SOLID
  5
1171E
330
10FCF
100
AcDbEntity
  8
Dims
440
 16777216
100
AcDbTrace
 10
3.677002323739567
 20
2.342741612278818
 30
0.0
 11
3.677002323739567
 21
2.334408278945484
 31
0.0
 12
3.652002323739568
 22
2.338574945612151
 32
0.0
 13
3.652002323739568
 23
2.338574945612151
 33
0.0
  0
SOLID
  5
1171F
330
10FCF
100
AcDbEntity
  8
Dims
440
 16777216
100
AcDbTrace
 10
3.589502323739559
 20
2.342741612278818
 30
0.0
 11
3.589502323739559
 21
2.334408278945484
 31
0.0
 12
3.614502323739559
 22
2.338574945612151
 32
0.0
 13
3.614502323739559
 23
2.338574945612151
 33
0.0
  0
MTEXT
  5
11720
330
10FCF
100
AcDbEntity
  8
Dims
 62
     3
440
 16777216
100
AcDbMText
 10
3.460788038025273
 20
2.338574945612151
 30
0.0
 40
0.02
 41
0.0
 46
0.0
 71
     5
 72
     1
  1
\A1;.0375 [.95]
 73
     1
 44
1.0
  0
POINT
  5
11721
330
10FCF
100
AcDbEntity
  8
Defpoints
 62
     0
440
 16777216
100
AcDbPoint
 10
3.652002323739568
 20
2.010532711290617
 30
0.0
  0
POINT
  5
11722
330
10FCF
100
AcDbEntity
  8
Defpoints
 62
     0
440
 16777216
100
AcDbPoint
 10
3.614502323739559
 20
2.160532711290618
 30
0.0
  0
POINT
  5
11723
330
10FCF
100
AcDbEntity
  8
Defpoints
 62
     0
440
 16777216
100
AcDbPoint
 10
3.614502323739559
 20
2.338574945612151
 30
0.0
  0
ENDBLK
  5
10FD1
330
10FCF
100
AcDbEntity
  8
0
100
AcDbBlockEnd
  0
BLOCK
  5
10FDD
330
10FDC
100
AcDbEntity
  8
0
100
AcDbBlockBegin
  2
*D31
 70
     1
 10
0.0
 20
0.0
 30
0.0
  3
*D31
  1

  0
LINE
  5
11724
330
10FDC
100
AcDbEntity
  8
Dims
440
 16777216
370
    -2
100
AcDbLine
 10
3.039502323739585
 20
2.010532711290612
 30
0.0
 11
2.804165104243689
 21
2.010532711290612
 31
0.0
  0
LINE
  5
11725
330
10FDC
100
AcDbEntity
  8
Dims
440
 16777216
370
    -2
100
AcDbLine
 10
2.929502323739569
 20
2.028532711290615
 30
0.0
 11
2.804165104243689
 21
2.028532711290615
 31
0.0
  0
LINE
  5
11726
330
10FDC
100
AcDbEntity
  8
Dims
440
 16777216
370
    -2
100
AcDbLine
 10
2.824165104243689
 20
2.053532711290615
 30
0.0
 11
2.824165104243689
 21
2.078532711290615
 31
0.0
  0
LINE
  5
11727
330
10FDC
100
AcDbEntity
  8
Dims
440
 16777216
370
    -2
100
AcDbLine
 10
2.824165104243689
 20
1.985532711290612
 30
0.0
 11
2.824165104243689
 21
1.960532711290611
 31
0.0
  0
LINE
  5
11728
330
10FDC
100
AcDbEntity
  8
Dims
440
 16777216
370
    -2
100
AcDbLine
 10
2.824165104243689
 20
1.960532711290611
 30
0.0
 11
2.799165104243689
 21
1.960532711290611
 31
0.0
  0
SOLID
  5
11729
330
10FDC
100
AcDbEntity
  8
Dims
440
 16777216
100
AcDbTrace
 10
2.819998437577022
 20
2.053532711290615
 30
0.0
 11
2.828331770910356
 21
2.053532711290615
 31
0.0
 12
2.824165104243689
 22
2.028532711290615
 32
0.0
 13
2.824165104243689
 23
2.028532711290615
 33
0.0
  0
SOLID
  5
1172A
330
10FDC
100
AcDbEntity
  8
Dims
440
 16777216
100
AcDbTrace
 10
2.819998437577022
 20
1.985532711290612
 30
0.0
 11
2.828331770910356
 21
1.985532711290612
 31
0.0
 12
2.824165104243689
 22
2.010532711290612
 32
0.0
 13
2.824165104243689
 23
2.010532711290612
 33
0.0
  0
MTEXT
  5
1172B
330
10FDC
100
AcDbEntity
  8
Dims
 62
     3
440
 16777216
100
AcDbMText
 10
2.704974628053212
 20
1.960532711290611
 30
0.0
 40
0.02
 41
0.0
 46
0.0
 71
     5
 72
     1
  1
\A1;.018 [.46]
 73
     1
 44
1.0
  0
POINT
  5
1172C
330
10FDC
100
AcDbEntity
  8
Defpoints
 62
     0
440
 16777216
100
AcDbPoint
 10
3.052002323739585
 20
2.010532711290612
 30
0.0
  0
POINT
  5
1172D
330
10FDC
100
AcDbEntity
  8
Defpoints
 62
     0
440
 16777216
100
AcDbPoint
 10
2.942002323739569
 20
2.028532711290615
 30
0.0
  0
POINT
  5
1172E
330
10FDC
100
AcDbEntity
  8
Defpoints
 62
     0
440
 16777216
100
AcDbPoint
 10
2.824165104243689
 20
2.028532711290615
 30
0.0
  0
ENDBLK
  5
10FDE
330
10FDC
100
AcDbEntity
  8
0
100
AcDbBlockEnd
  0
BLOCK
  5
10FEB
330
10FEA
100
AcDbEntity
  8
0
100
AcDbBlockBegin
  2
*D32
 70
     1
 10
0.0
 20
0.0
 30
0.0
  3
*D32
  1

  0
LINE
  5
1172F
330
10FEA
100
AcDbEntity
  8
Dims
440
 16777216
370
    -2
100
AcDbLine
 10
2.942043305335664
 20
2.19513136831559
 30
0.0
 11
2.967043305335671
 21
2.19513136831559
 31
0.0
  0
LINE
  5
11730
330
10FEA
100
AcDbEntity
  8
Dims
440
 16777216
370
    -2
100
AcDbLine
 10
2.967043305335671
 20
2.19513136831559
 30
0.0
 11
3.018035452189583
 21
2.135596099446576
 31
0.0
  0
MTEXT
  5
11731
330
10FEA
100
AcDbEntity
  8
Dims
 62
     3
440
 16777216
100
AcDbMText
 10
2.77975759104995
 20
2.195131368315589
 30
0.0
 40
0.02
 41
0.0
 46
0.0
 71
     5
 72
     1
  1
\A1;∅.016 [∅.41] (TYP)
 73
     1
 44
1.0
  0
SOLID
  5
11732
330
10FEA
100
AcDbEntity
  8
Dims
440
 16777216
100
AcDbTrace
 10
3.021200021401194
 20
2.13830656302612
 30
0.0
 11
3.014870882977972
 21
2.132885635867032
 31
0.0
 12
3.034298233666848
 22
2.11660868417691
 32
0.0
 13
3.034298233666848
 23
2.11660868417691
 33
0.0
  0
POINT
  5
11733
330
10FEA
100
AcDbEntity
  8
Defpoints
 62
     0
440
 16777216
100
AcDbPoint
 10
3.034298233666848
 20
2.11660868417691
 30
0.0
  0
POINT
  5
11734
330
10FEA
100
AcDbEntity
  8
Defpoints
 62
     0
440
 16777216
100
AcDbPoint
 10
3.044706413812297
 20
2.104456738404325
 30
0.0
  0
ENDBLK
  5
10FEC
330
10FEA
100
AcDbEntity
  8
0
100
AcDbBlockEnd
  0
BLOCK
  5
10FF4
330
10FF3
100
AcDbEntity
  8
0
100
AcDbBlockBegin
  2
*D33
 70
     1
 10
0.0
 20
0.0
 30
0.0
  3
*D33
  1

  0
LINE
  5
11735
330
10FF3
100
AcDbEntity
  8
Dims
440
 16777216
370
    -2
100
AcDbLine
 10
3.114502323739563
 20
2.173032711290616
 30
0.0
 11
3.114502323739563
 21
2.273577989259766
 31
0.0
  0
LINE
  5
11736
330
10FF3
100
AcDbEntity
  8
Dims
440
 16777216
370
    -2
100
AcDbLine
 10
3.164502323739561
 20
2.173032711290615
 30
0.0
 11
3.164502323739561
 21
2.273577989259766
 31
0.0
  0
LINE
  5
11737
330
10FF3
100
AcDbEntity
  8
Dims
440
 16777216
370
    -2
100
AcDbLine
 10
3.18950232373956
 20
2.253577989259766
 30
0.0
 11
3.21450232373956
 21
2.253577989259766
 31
0.0
  0
LINE
  5
11738
330
10FF3
100
AcDbEntity
  8
Dims
440
 16777216
370
    -2
100
AcDbLine
 10
3.089502323739564
 20
2.253577989259766
 30
0.0
 11
3.064502323739563
 21
2.253577989259766
 31
0.0
  0
SOLID
  5
11739
330
10FF3
100
AcDbEntity
  8
Dims
440
 16777216
100
AcDbTrace
 10
3.18950232373956
 20
2.257744655926432
 30
0.0
 11
3.18950232373956
 21
2.249411322593099
 31
0.0
 12
3.164502323739561
 22
2.253577989259766
 32
0.0
 13
3.164502323739561
 23
2.253577989259766
 33
0.0
  0
SOLID
  5
1173A
330
10FF3
100
AcDbEntity
  8
Dims
440
 16777216
100
AcDbTrace
 10
3.089502323739564
 20
2.257744655926432
 30
0.0
 11
3.089502323739564
 21
2.249411322593099
 31
0.0
 12
3.114502323739563
 22
2.253577989259766
 32
0.0
 13
3.114502323739563
 23
2.253577989259766
 33
0.0
  0
MTEXT
  5
1173B
330
10FF3
100
AcDbEntity
  8
Dims
 62
     3
440
 16777216
100
AcDbMText
 10
2.960788038025278
 20
2.253577989259766
 30
0.0
 40
0.02
 41
0.0
 46
0.0
 71
     5
 72
     1
  1
\A1;.050 [1.27]
 73
     1
 44
1.0
  0
POINT
  5
1173C
330
10FF3
100
AcDbEntity
  8
Defpoints
 62
     0
440
 16777216
100
AcDbPoint
 10
3.114502323739563
 20
2.160532711290616
 30
0.0
  0
POINT
  5
1173D
330
10FF3
100
AcDbEntity
  8
Defpoints
 62
     0
440
 16777216
100
AcDbPoint
 10
3.164502323739561
 20
2.160532711290615
 30
0.0
  0
POINT
  5
1173E
330
10FF3
100
AcDbEntity
  8
Defpoints
 62
     0
440
 16777216
100
AcDbPoint
 10
3.164502323739561
 20
2.253577989259766
 30
0.0
  0
ENDBLK
  5
10FF5
330
10FF3
100
AcDbEntity
  8
0
100
AcDbBlockEnd
  0
BLOCK
  5
11001
330
11000
100
AcDbEntity
  8
0
100
AcDbBlockBegin
  2
*D34
 70
     1
 10
0.0
 20
0.0
 30
0.0
  3
*D34
  1

  0
LINE
  5
1173F
330
11000
100
AcDbEntity
  8
Dims
440
 16777216
370
    -2
100
AcDbLine
 10
1.026238187092593
 20
1.069775452879975
 30
0.0
 11
1.026238187092593
 21
0.9115469212042505
 31
0.0
  0
LINE
  5
11740
330
11000
100
AcDbEntity
  8
Dims
440
 16777216
370
    -2
100
AcDbLine
 10
0.4812381870926013
 20
1.069775452879974
 30
0.0
 11
0.4812381870926013
 21
0.9115469212042505
 31
0.0
  0
LINE
  5
11741
330
11000
100
AcDbEntity
  8
Dims
440
 16777216
370
    -2
100
AcDbLine
 10
1.001238187092593
 20
0.9315469212042506
 30
0.0
 11
0.8669762823306928
 21
0.9315469212042506
 31
0.0
  0
LINE
  5
11742
330
11000
100
AcDbEntity
  8
Dims
440
 16777216
370
    -2
100
AcDbLine
 10
0.5062381870926013
 20
0.9315469212042506
 30
0.0
 11
0.6405000918545025
 21
0.9315469212042506
 31
0.0
  0
SOLID
  5
11743
330
11000
100
AcDbEntity
  8
Dims
440
 16777216
100
AcDbTrace
 10
1.001238187092593
 20
0.9357135878709172
 30
0.0
 11
1.001238187092593
 21
0.927380254537584
 31
0.0
 12
1.026238187092593
 22
0.9315469212042506
 32
0.0
 13
1.026238187092593
 23
0.9315469212042506
 33
0.0
  0
SOLID
  5
11744
330
11000
100
AcDbEntity
  8
Dims
440
 16777216
100
AcDbTrace
 10
0.5062381870926013
 20
0.9357135878709172
 30
0.0
 11
0.5062381870926013
 21
0.927380254537584
 31
0.0
 12
0.4812381870926013
 22
0.9315469212042506
 32
0.0
 13
0.4812381870926013
 23
0.9315469212042506
 33
0.0
  0
MTEXT
  5
11745
330
11000
100
AcDbEntity
  8
Dims
 62
     3
440
 16777216
100
AcDbMText
 10
0.7537381870925977
 20
0.9315469212042506
 30
0.0
 40
0.02
 41
0.0
 46
0.0
 71
     5
 72
     1
  1
\A1;.545 [13.84]
 73
     1
 44
1.0
  0
POINT
  5
11746
330
11000
100
AcDbEntity
  8
Defpoints
 62
     0
440
 16777216
100
AcDbPoint
 10
1.026238187092593
 20
1.082275452879975
 30
0.0
  0
POINT
  5
11747
330
11000
100
AcDbEntity
  8
Defpoints
 62
     0
440
 16777216
100
AcDbPoint
 10
0.4812381870926013
 20
1.082275452879974
 30
0.0
  0
POINT
  5
11748
330
11000
100
AcDbEntity
  8
Defpoints
 62
     0
440
 16777216
100
AcDbPoint
 10
0.4812381870926013
 20
0.9315469212042506
 30
0.0
  0
ENDBLK
  5
11002
330
11000
100
AcDbEntity
  8
0
100
AcDbBlockEnd
  0
BLOCK
  5
1100E
330
1100D
100
AcDbEntity
  8
0
100
AcDbBlockBegin
  2
*D35
 70
     1
 10
0.0
 20
0.0
 30
0.0
  3
*D35
  1

  0
LINE
  5
11749
330
1100D
100
AcDbEntity
  8
Dims
440
 16777216
370
    -2
100
AcDbLine
 10
1.026238187092593
 20
1.069775452879975
 30
0.0
 11
1.026238187092593
 21
0.9947978612997941
 31
0.0
  0
LINE
  5
1174A
330
1100D
100
AcDbEntity
  8
Dims
440
 16777216
370
    -2
100
AcDbLine
 10
0.9412381870925994
 20
1.051775452879976
 30
0.0
 11
0.9412381870925994
 21
0.9947978612997941
 31
0.0
  0
LINE
  5
1174B
330
1100D
100
AcDbEntity
  8
Dims
440
 16777216
370
    -2
100
AcDbLine
 10
0.9162381870925994
 20
1.014797861299794
 30
0.0
 11
0.8912381870925994
 21
1.014797861299794
 31
0.0
  0
LINE
  5
1174C
330
1100D
100
AcDbEntity
  8
Dims
440
 16777216
370
    -2
100
AcDbLine
 10
1.051238187092593
 20
1.014797861299794
 30
0.0
 11
1.076238187092593
 21
1.014797861299794
 31
0.0
  0
SOLID
  5
1174D
330
1100D
100
AcDbEntity
  8
Dims
440
 16777216
100
AcDbTrace
 10
0.9162381870925994
 20
1.01896452796646
 30
0.0
 11
0.9162381870925994
 21
1.010631194633127
 31
0.0
 12
0.9412381870925994
 22
1.014797861299794
 32
0.0
 13
0.9412381870925994
 23
1.014797861299794
 33
0.0
  0
SOLID
  5
1174E
330
1100D
100
AcDbEntity
  8
Dims
440
 16777216
100
AcDbTrace
 10
1.051238187092593
 20
1.01896452796646
 30
0.0
 11
1.051238187092593
 21
1.010631194633127
 31
0.0
 12
1.026238187092593
 22
1.014797861299794
 32
0.0
 13
1.026238187092593
 23
1.014797861299794
 33
0.0
  0
MTEXT
  5
1174F
330
1100D
100
AcDbEntity
  8
Dims
 62
     3
440
 16777216
100
AcDbMText
 10
1.179952472806879
 20
1.014797861299794
 30
0.0
 40
0.02
 41
0.0
 46
0.0
 71
     5
 72
     1
  1
\A1;.085 [2.16]
 73
     1
 44
1.0
  0
POINT
  5
11750
330
1100D
100
AcDbEntity
  8
Defpoints
 62
     0
440
 16777216
100
AcDbPoint
 10
1.026238187092593
 20
1.082275452879975
 30
0.0
  0
POINT
  5
11751
330
1100D
100
AcDbEntity
  8
Defpoints
 62
     0
440
 16777216
100
AcDbPoint
 10
0.9412381870925994
 20
1.064275452879976
 30
0.0
  0
POINT
  5
11752
330
1100D
100
AcDbEntity
  8
Defpoints
 62
     0
440
 16777216
100
AcDbPoint
 10
0.9412381870925994
 20
1.014797861299794
 30
0.0
  0
ENDBLK
  5
1100F
330
1100D
100
AcDbEntity
  8
0
100
AcDbBlockEnd
  0
BLOCK
  5
1101B
330
1101A
100
AcDbEntity
  8
0
100
AcDbBlockBegin
  2
*D36
 70
     1
 10
0.0
 20
0.0
 30
0.0
  3
*D36
  1

  0
LINE
  5
11753
330
1101A
100
AcDbEntity
  8
Dims
440
 16777216
370
    -2
100
AcDbLine
 10
0.9412381870926036
 20
1.214275452879974
 30
0.0
 11
1.106451515208883
 21
1.214275452879974
 31
0.0
  0
LINE
  5
11754
330
1101A
100
AcDbEntity
  8
Dims
440
 16777216
370
    -2
100
AcDbLine
 10
0.9412381870925894
 20
1.164275452879976
 30
0.0
 11
1.106451515208883
 21
1.164275452879976
 31
0.0
  0
LINE
  5
11755
330
1101A
100
AcDbEntity
  8
Dims
440
 16777216
370
    -2
100
AcDbLine
 10
1.086451515208883
 20
1.139275452879976
 30
0.0
 11
1.086451515208883
 21
1.114275452879976
 31
0.0
  0
LINE
  5
11756
330
1101A
100
AcDbEntity
  8
Dims
440
 16777216
370
    -2
100
AcDbLine
 10
1.086451515208883
 20
1.239275452879974
 30
0.0
 11
1.086451515208883
 21
1.264275452879975
 31
0.0
  0
LINE
  5
11757
330
1101A
100
AcDbEntity
  8
Dims
440
 16777216
370
    -2
100
AcDbLine
 10
1.086451515208883
 20
1.264275452879975
 30
0.0
 11
1.111451515208883
 21
1.264275452879975
 31
0.0
  0
SOLID
  5
11758
330
1101A
100
AcDbEntity
  8
Dims
440
 16777216
100
AcDbTrace
 10
1.082284848542217
 20
1.139275452879976
 30
0.0
 11
1.09061818187555
 21
1.139275452879976
 31
0.0
 12
1.086451515208883
 22
1.164275452879976
 32
0.0
 13
1.086451515208883
 23
1.164275452879976
 33
0.0
  0
SOLID
  5
11759
330
1101A
100
AcDbEntity
  8
Dims
440
 16777216
100
AcDbTrace
 10
1.082284848542217
 20
1.239275452879974
 30
0.0
 11
1.09061818187555
 21
1.239275452879974
 31
0.0
 12
1.086451515208883
 22
1.214275452879974
 32
0.0
 13
1.086451515208883
 23
1.214275452879974
 33
0.0
  0
MTEXT
  5
1175A
330
1101A
100
AcDbEntity
  8
Dims
 62
     3
440
 16777216
100
AcDbMText
 10
1.215165800923169
 20
1.264275452879975
 30
0.0
 40
0.02
 41
0.0
 46
0.0
 71
     5
 72
     1
  1
\A1;.050 [1.27]
 73
     1
 44
1.0
  0
POINT
  5
1175B
330
1101A
100
AcDbEntity
  8
Defpoints
 62
     0
440
 16777216
100
AcDbPoint
 10
0.9287381870926036
 20
1.214275452879974
 30
0.0
  0
POINT
  5
1175C
330
1101A
100
AcDbEntity
  8
Defpoints
 62
     0
440
 16777216
100
AcDbPoint
 10
0.9287381870925894
 20
1.164275452879976
 30
0.0
  0
POINT
  5
1175D
330
1101A
100
AcDbEntity
  8
Defpoints
 62
     0
440
 16777216
100
AcDbPoint
 10
1.086451515208883
 20
1.164275452879976
 30
0.0
  0
ENDBLK
  5
1101C
330
1101A
100
AcDbEntity
  8
0
100
AcDbBlockEnd
  0
BLOCK
  5
11029
330
11028
100
AcDbEntity
  8
0
100
AcDbBlockBegin
  2
*D37
 70
     1
 10
0.0
 20
0.0
 30
0.0
  3
*D37
  1

  0
LINE
  5
1175E
330
11028
100
AcDbEntity
  8
Dims
440
 16777216
370
    -2
100
AcDbLine
 10
0.9412381870925994
 20
1.076775452879976
 30
0.0
 11
0.9412381870925994
 21
1.298321765036517
 31
0.0
  0
LINE
  5
1175F
330
11028
100
AcDbEntity
  8
Dims
440
 16777216
370
    -2
100
AcDbLine
 10
0.9287381870925894
 20
1.176775452879976
 30
0.0
 11
0.9287381870925894
 21
1.298321765036517
 31
0.0
  0
LINE
  5
11760
330
11028
100
AcDbEntity
  8
Dims
440
 16777216
370
    -2
100
AcDbLine
 10
0.9662381870925994
 20
1.278321765036517
 30
0.0
 11
0.9912381870925994
 21
1.278321765036517
 31
0.0
  0
LINE
  5
11761
330
11028
100
AcDbEntity
  8
Dims
440
 16777216
370
    -2
100
AcDbLine
 10
0.9037381870925894
 20
1.278321765036517
 30
0.0
 11
0.8787381870925893
 21
1.278321765036517
 31
0.0
  0
SOLID
  5
11762
330
11028
100
AcDbEntity
  8
Dims
440
 16777216
100
AcDbTrace
 10
0.9662381870925994
 20
1.282488431703184
 30
0.0
 11
0.9662381870925994
 21
1.274155098369851
 31
0.0
 12
0.9412381870925994
 22
1.278321765036517
 32
0.0
 13
0.9412381870925994
 23
1.278321765036517
 33
0.0
  0
SOLID
  5
11763
330
11028
100
AcDbEntity
  8
Dims
440
 16777216
100
AcDbTrace
 10
0.9037381870925894
 20
1.282488431703184
 30
0.0
 11
0.9037381870925894
 21
1.274155098369851
 31
0.0
 12
0.9287381870925894
 22
1.278321765036517
 32
0.0
 13
0.9287381870925894
 23
1.278321765036517
 33
0.0
  0
MTEXT
  5
11764
330
11028
100
AcDbEntity
  8
Dims
 62
     3
440
 16777216
100
AcDbMText
 10
0.7750239013783036
 20
1.278321765036517
 30
0.0
 40
0.02
 41
0.0
 46
0.0
 71
     5
 72
     1
  1
\A1;.0125 [.32]
 73
     1
 44
1.0
  0
POINT
  5
11765
330
11028
100
AcDbEntity
  8
Defpoints
 62
     0
440
 16777216
100
AcDbPoint
 10
0.9412381870925994
 20
1.064275452879976
 30
0.0
  0
POINT
  5
11766
330
11028
100
AcDbEntity
  8
Defpoints
 62
     0
440
 16777216
100
AcDbPoint
 10
0.9287381870925894
 20
1.164275452879976
 30
0.0
  0
POINT
  5
11767
330
11028
100
AcDbEntity
  8
Defpoints
 62
     0
440
 16777216
100
AcDbPoint
 10
0.9287381870925894
 20
1.278321765036517
 30
0.0
  0
ENDBLK
  5
1102A
330
11028
100
AcDbEntity
  8
0
100
AcDbBlockEnd
  0
BLOCK
  5
11036
330
11035
100
AcDbEntity
  8
0
100
AcDbBlockBegin
  2
*D38
 70
     1
 10
0.0
 20
0.0
 30
0.0
  3
*D38
  1

  0
LINE
  5
11768
330
11035
100
AcDbEntity
  8
Dims
440
 16777216
370
    -2
100
AcDbLine
 10
0.9412381870925994
 20
1.076775452879976
 30
0.0
 11
0.9412381870925994
 21
1.356319691446479
 31
0.0
  0
LINE
  5
11769
330
11035
100
AcDbEntity
  8
Dims
440
 16777216
370
    -2
100
AcDbLine
 10
0.9162381870926008
 20
1.126775452879973
 30
0.0
 11
0.9162381870926008
 21
1.356319691446479
 31
0.0
  0
LINE
  5
1176A
330
11035
100
AcDbEntity
  8
Dims
440
 16777216
370
    -2
100
AcDbLine
 10
0.9662381870925994
 20
1.336319691446479
 30
0.0
 11
0.9912381870925994
 21
1.336319691446479
 31
0.0
  0
LINE
  5
1176B
330
11035
100
AcDbEntity
  8
Dims
440
 16777216
370
    -2
100
AcDbLine
 10
0.8912381870926008
 20
1.336319691446479
 30
0.0
 11
0.8662381870926004
 21
1.336319691446479
 31
0.0
  0
SOLID
  5
1176C
330
11035
100
AcDbEntity
  8
Dims
440
 16777216
100
AcDbTrace
 10
0.9662381870925994
 20
1.340486358113146
 30
0.0
 11
0.9662381870925994
 21
1.332153024779812
 31
0.0
 12
0.9412381870925994
 22
1.336319691446479
 32
0.0
 13
0.9412381870925994
 23
1.336319691446479
 33
0.0
  0
SOLID
  5
1176D
330
11035
100
AcDbEntity
  8
Dims
440
 16777216
100
AcDbTrace
 10
0.8912381870926008
 20
1.340486358113146
 30
0.0
 11
0.8912381870926008
 21
1.332153024779812
 31
0.0
 12
0.9162381870926008
 22
1.336319691446479
 32
0.0
 13
0.9162381870926008
 23
1.336319691446479
 33
0.0
  0
MTEXT
  5
1176E
330
11035
100
AcDbEntity
  8
Dims
 62
     3
440
 16777216
100
AcDbMText
 10
0.7720477109021245
 20
1.336319691446479
 30
0.0
 40
0.02
 41
0.0
 46
0.0
 71
     5
 72
     1
  1
\A1;.025 [.64]
 73
     1
 44
1.0
  0
POINT
  5
1176F
330
11035
100
AcDbEntity
  8
Defpoints
 62
     0
440
 16777216
100
AcDbPoint
 10
0.9412381870925994
 20
1.064275452879976
 30
0.0
  0
POINT
  5
11770
330
11035
100
AcDbEntity
  8
Defpoints
 62
     0
440
 16777216
100
AcDbPoint
 10
0.9162381870926008
 20
1.114275452879973
 30
0.0
  0
POINT
  5
11771
330
11035
100
AcDbEntity
  8
Defpoints
 62
     0
440
 16777216
100
AcDbPoint
 10
0.9162381870926008
 20
1.336319691446479
 30
0.0
  0
ENDBLK
  5
11037
330
11035
100
AcDbEntity
  8
0
100
AcDbBlockEnd
  0
BLOCK
  5
11043
330
11042
100
AcDbEntity
  8
0
100
AcDbBlockBegin
  2
*D39
 70
     1
 10
0.0
 20
0.0
 30
0.0
  3
*D39
  1

  0
LINE
  5
11772
330
11042
100
AcDbEntity
  8
Dims
440
 16777216
370
    -2
100
AcDbLine
 10
0.9412381870925994
 20
1.076775452879976
 30
0.0
 11
0.9412381870925994
 21
1.412317687201509
 31
0.0
  0
LINE
  5
11773
330
11042
100
AcDbEntity
  8
Dims
440
 16777216
370
    -2
100
AcDbLine
 10
0.9037381870925909
 20
1.226775452879977
 30
0.0
 11
0.9037381870925909
 21
1.412317687201509
 31
0.0
  0
LINE
  5
11774
330
11042
100
AcDbEntity
  8
Dims
440
 16777216
370
    -2
100
AcDbLine
 10
0.9662381870925994
 20
1.392317687201509
 30
0.0
 11
0.9912381870925994
 21
1.392317687201509
 31
0.0
  0
LINE
  5
11775
330
11042
100
AcDbEntity
  8
Dims
440
 16777216
370
    -2
100
AcDbLine
 10
0.8787381870925909
 20
1.392317687201509
 30
0.0
 11
0.8537381870925907
 21
1.392317687201509
 31
0.0
  0
SOLID
  5
11776
330
11042
100
AcDbEntity
  8
Dims
440
 16777216
100
AcDbTrace
 10
0.9662381870925994
 20
1.396484353868176
 30
0.0
 11
0.9662381870925994
 21
1.388151020534842
 31
0.0
 12
0.9412381870925994
 22
1.392317687201509
 32
0.0
 13
0.9412381870925994
 23
1.392317687201509
 33
0.0
  0
SOLID
  5
11777
330
11042
100
AcDbEntity
  8
Dims
440
 16777216
100
AcDbTrace
 10
0.8787381870925909
 20
1.396484353868176
 30
0.0
 11
0.8787381870925909
 21
1.388151020534842
 31
0.0
 12
0.9037381870925909
 22
1.392317687201509
 32
0.0
 13
0.9037381870925909
 23
1.392317687201509
 33
0.0
  0
MTEXT
  5
11778
330
11042
100
AcDbEntity
  8
Dims
 62
     3
440
 16777216
100
AcDbMText
 10
0.750023901378305
 20
1.392317687201509
 30
0.0
 40
0.02
 41
0.0
 46
0.0
 71
     5
 72
     1
  1
\A1;.0375 [.95]
 73
     1
 44
1.0
  0
POINT
  5
11779
330
11042
100
AcDbEntity
  8
Defpoints
 62
     0
440
 16777216
100
AcDbPoint
 10
0.9412381870925994
 20
1.064275452879976
 30
0.0
  0
POINT
  5
1177A
330
11042
100
AcDbEntity
  8
Defpoints
 62
     0
440
 16777216
100
AcDbPoint
 10
0.9037381870925909
 20
1.214275452879977
 30
0.0
  0
POINT
  5
1177B
330
11042
100
AcDbEntity
  8
Defpoints
 62
     0
440
 16777216
100
AcDbPoint
 10
0.9037381870925909
 20
1.392317687201509
 30
0.0
  0
ENDBLK
  5
11044
330
11042
100
AcDbEntity
  8
0
100
AcDbBlockEnd
  0
BLOCK
  5
11050
330
1104F
100
AcDbEntity
  8
0
100
AcDbBlockBegin
  2
*D40
 70
     1
 10
0.0
 20
0.0
 30
0.0
  3
*D40
  1

  0
LINE
  5
1177C
330
1104F
100
AcDbEntity
  8
Dims
440
 16777216
370
    -2
100
AcDbLine
 10
0.5787381870926167
 20
1.06427545287997
 30
0.0
 11
0.3434009675967207
 21
1.06427545287997
 31
0.0
  0
LINE
  5
1177D
330
1104F
100
AcDbEntity
  8
Dims
440
 16777216
370
    -2
100
AcDbLine
 10
0.4687381870926013
 20
1.082275452879974
 30
0.0
 11
0.3434009675967207
 21
1.082275452879974
 31
0.0
  0
LINE
  5
1177E
330
1104F
100
AcDbEntity
  8
Dims
440
 16777216
370
    -2
100
AcDbLine
 10
0.3634009675967207
 20
1.107275452879974
 30
0.0
 11
0.3634009675967208
 21
1.132275452879974
 31
0.0
  0
LINE
  5
1177F
330
1104F
100
AcDbEntity
  8
Dims
440
 16777216
370
    -2
100
AcDbLine
 10
0.3634009675967207
 20
1.039275452879971
 30
0.0
 11
0.3634009675967207
 21
1.014275452879969
 31
0.0
  0
LINE
  5
11780
330
1104F
100
AcDbEntity
  8
Dims
440
 16777216
370
    -2
100
AcDbLine
 10
0.3634009675967207
 20
1.014275452879969
 30
0.0
 11
0.3384009675967207
 21
1.014275452879969
 31
0.0
  0
SOLID
  5
11781
330
1104F
100
AcDbEntity
  8
Dims
440
 16777216
100
AcDbTrace
 10
0.3592343009300541
 20
1.107275452879974
 30
0.0
 11
0.3675676342633874
 21
1.107275452879974
 31
0.0
 12
0.3634009675967207
 22
1.082275452879974
 32
0.0
 13
0.3634009675967207
 23
1.082275452879974
 33
0.0
  0
SOLID
  5
11782
330
1104F
100
AcDbEntity
  8
Dims
440
 16777216
100
AcDbTrace
 10
0.3592343009300541
 20
1.039275452879971
 30
0.0
 11
0.3675676342633874
 21
1.039275452879971
 31
0.0
 12
0.3634009675967207
 22
1.06427545287997
 32
0.0
 13
0.3634009675967207
 23
1.06427545287997
 33
0.0
  0
MTEXT
  5
11783
330
1104F
100
AcDbEntity
  8
Dims
 62
     3
440
 16777216
100
AcDbMText
 10
0.2442104914062444
 20
1.014275452879969
 30
0.0
 40
0.02
 41
0.0
 46
0.0
 71
     5
 72
     1
  1
\A1;.018 [.46]
 73
     1
 44
1.0
  0
POINT
  5
11784
330
1104F
100
AcDbEntity
  8
Defpoints
 62
     0
440
 16777216
100
AcDbPoint
 10
0.5912381870926167
 20
1.06427545287997
 30
0.0
  0
POINT
  5
11785
330
1104F
100
AcDbEntity
  8
Defpoints
 62
     0
440
 16777216
100
AcDbPoint
 10
0.4812381870926013
 20
1.082275452879974
 30
0.0
  0
POINT
  5
11786
330
1104F
100
AcDbEntity
  8
Defpoints
 62
     0
440
 16777216
100
AcDbPoint
 10
0.3634009675967207
 20
1.082275452879974
 30
0.0
  0
ENDBLK
  5
11051
330
1104F
100
AcDbEntity
  8
0
100
AcDbBlockEnd
  0
BLOCK
  5
1105E
330
1105D
100
AcDbEntity
  8
0
100
AcDbBlockBegin
  2
*D41
 70
     1
 10
0.0
 20
0.0
 30
0.0
  3
*D41
  1

  0
LINE
  5
11787
330
1105D
100
AcDbEntity
  8
Dims
440
 16777216
370
    -2
100
AcDbLine
 10
0.4812791686886953
 20
1.248874109904949
 30
0.0
 11
0.5062791686887005
 21
1.248874109904949
 31
0.0
  0
LINE
  5
11788
330
1105D
100
AcDbEntity
  8
Dims
440
 16777216
370
    -2
100
AcDbLine
 10
0.5062791686887005
 20
1.248874109904949
 30
0.0
 11
0.557271315542617
 21
1.189338841035932
 31
0.0
  0
MTEXT
  5
11789
330
1105D
100
AcDbEntity
  8
Dims
 62
     3
440
 16777216
100
AcDbMText
 10
0.3189934544029809
 20
1.248874109904949
 30
0.0
 40
0.02
 41
0.0
 46
0.0
 71
     5
 72
     1
  1
\A1;∅.016 [∅.41] (TYP)
 73
     1
 44
1.0
  0
SOLID
  5
1178A
330
1105D
100
AcDbEntity
  8
Dims
440
 16777216
100
AcDbTrace
 10
0.560435884754228
 20
1.192049304615476
 30
0.0
 11
0.5541067463310061
 21
1.186628377456388
 31
0.0
 12
0.5735340970198824
 22
1.170351425766267
 32
0.0
 13
0.5735340970198824
 23
1.170351425766267
 33
0.0
  0
POINT
  5
1178B
330
1105D
100
AcDbEntity
  8
Defpoints
 62
     0
440
 16777216
100
AcDbPoint
 10
0.5735340970198824
 20
1.170351425766267
 30
0.0
  0
POINT
  5
1178C
330
1105D
100
AcDbEntity
  8
Defpoints
 62
     0
440
 16777216
100
AcDbPoint
 10
0.5839422771653311
 20
1.158199479993682
 30
0.0
  0
ENDBLK
  5
1105F
330
1105D
100
AcDbEntity
  8
0
100
AcDbBlockEnd
  0
BLOCK
  5
11067
330
11066
100
AcDbEntity
  8
0
100
AcDbBlockBegin
  2
*D42
 70
     1
 10
0.0
 20
0.0
 30
0.0
  3
*D42
  1

  0
LINE
  5
1178D
330
11066
100
AcDbEntity
  8
Dims
440
 16777216
370
    -2
100
AcDbLine
 10
0.963738187092594
 20
1.662390667249659
 30
0.0
 11
0.963738187092594
 21
1.499812809576603
 31
0.0
  0
LINE
  5
1178E
330
11066
100
AcDbEntity
  8
Dims
440
 16777216
370
    -2
100
AcDbLine
 10
0.5437381870925995
 20
1.662390667249659
 30
0.0
 11
0.5437381870925995
 21
1.499812809576603
 31
0.0
  0
LINE
  5
1178F
330
11066
100
AcDbEntity
  8
Dims
440
 16777216
370
    -2
100
AcDbLine
 10
0.938738187092594
 20
1.519812809576603
 30
0.0
 11
0.8669762823306919
 21
1.519812809576603
 31
0.0
  0
LINE
  5
11790
330
11066
100
AcDbEntity
  8
Dims
440
 16777216
370
    -2
100
AcDbLine
 10
0.5687381870925995
 20
1.519812809576603
 30
0.0
 11
0.6405000918545016
 21
1.519812809576603
 31
0.0
  0
SOLID
  5
11791
330
11066
100
AcDbEntity
  8
Dims
440
 16777216
100
AcDbTrace
 10
0.938738187092594
 20
1.52397947624327
 30
0.0
 11
0.938738187092594
 21
1.515646142909937
 31
0.0
 12
0.963738187092594
 22
1.519812809576603
 32
0.0
 13
0.963738187092594
 23
1.519812809576603
 33
0.0
  0
SOLID
  5
11792
330
11066
100
AcDbEntity
  8
Dims
440
 16777216
100
AcDbTrace
 10
0.5687381870925995
 20
1.52397947624327
 30
0.0
 11
0.5687381870925995
 21
1.515646142909937
 31
0.0
 12
0.5437381870925995
 22
1.519812809576603
 32
0.0
 13
0.5437381870925995
 23
1.519812809576603
 33
0.0
  0
MTEXT
  5
11793
330
11066
100
AcDbEntity
  8
Dims
 62
     3
440
 16777216
100
AcDbMText
 10
0.7537381870925968
 20
1.519812809576603
 30
0.0
 40
0.02
 41
0.0
 46
0.0
 71
     5
 72
     1
  1
\A1;.420 [10.67]
 73
     1
 44
1.0
  0
POINT
  5
11794
330
11066
100
AcDbEntity
  8
Defpoints
 62
     0
440
 16777216
100
AcDbPoint
 10
0.963738187092594
 20
1.674890667249659
 30
0.0
  0
POINT
  5
11795
330
11066
100
AcDbEntity
  8
Defpoints
 62
     0
440
 16777216
100
AcDbPoint
 10
0.5437381870925995
 20
1.674890667249659
 30
0.0
  0
POINT
  5
11796
330
11066
100
AcDbEntity
  8
Defpoints
 62
     0
440
 16777216
100
AcDbPoint
 10
0.5437381870925995
 20
1.519812809576603
 30
0.0
  0
ENDBLK
  5
11068
330
11066
100
AcDbEntity
  8
0
100
AcDbBlockEnd
  0
BLOCK
  5
11074
330
11073
100
AcDbEntity
  8
0
100
AcDbBlockBegin
  2
*D43
 70
     1
 10
0.0
 20
0.0
 30
0.0
  3
*D43
  1

  0
LINE
  5
11797
330
11073
100
AcDbEntity
  8
Dims
440
 16777216
370
    -2
100
AcDbLine
 10
0.963738187092594
 20
1.662390667249659
 30
0.0
 11
0.963738187092594
 21
1.587413075669478
 31
0.0
  0
LINE
  5
11798
330
11073
100
AcDbEntity
  8
Dims
440
 16777216
370
    -2
100
AcDbLine
 10
0.8787381870926003
 20
1.64439066724966
 30
0.0
 11
0.8787381870926003
 21
1.587413075669478
 31
0.0
  0
LINE
  5
11799
330
11073
100
AcDbEntity
  8
Dims
440
 16777216
370
    -2
100
AcDbLine
 10
0.8537381870926003
 20
1.607413075669478
 30
0.0
 11
0.8287381870926003
 21
1.607413075669478
 31
0.0
  0
LINE
  5
1179A
330
11073
100
AcDbEntity
  8
Dims
440
 16777216
370
    -2
100
AcDbLine
 10
0.988738187092594
 20
1.607413075669478
 30
0.0
 11
1.013738187092595
 21
1.607413075669478
 31
0.0
  0
SOLID
  5
1179B
330
11073
100
AcDbEntity
  8
Dims
440
 16777216
100
AcDbTrace
 10
0.8537381870926003
 20
1.611579742336145
 30
0.0
 11
0.8537381870926003
 21
1.603246409002811
 31
0.0
 12
0.8787381870926003
 22
1.607413075669478
 32
0.0
 13
0.8787381870926003
 23
1.607413075669478
 33
0.0
  0
SOLID
  5
1179C
330
11073
100
AcDbEntity
  8
Dims
440
 16777216
100
AcDbTrace
 10
0.988738187092594
 20
1.611579742336145
 30
0.0
 11
0.988738187092594
 21
1.603246409002811
 31
0.0
 12
0.963738187092594
 22
1.607413075669478
 32
0.0
 13
0.963738187092594
 23
1.607413075669478
 33
0.0
  0
MTEXT
  5
1179D
330
11073
100
AcDbEntity
  8
Dims
 62
     3
440
 16777216
100
AcDbMText
 10
1.11745247280688
 20
1.607413075669478
 30
0.0
 40
0.02
 41
0.0
 46
0.0
 71
     5
 72
     1
  1
\A1;.085 [2.16]
 73
     1
 44
1.0
  0
POINT
  5
1179E
330
11073
100
AcDbEntity
  8
Defpoints
 62
     0
440
 16777216
100
AcDbPoint
 10
0.963738187092594
 20
1.674890667249659
 30
0.0
  0
POINT
  5
1179F
330
11073
100
AcDbEntity
  8
Defpoints
 62
     0
440
 16777216
100
AcDbPoint
 10
0.8787381870926003
 20
1.65689066724966
 30
0.0
  0
POINT
  5
117A0
330
11073
100
AcDbEntity
  8
Defpoints
 62
     0
440
 16777216
100
AcDbPoint
 10
0.8787381870926003
 20
1.607413075669478
 30
0.0
  0
ENDBLK
  5
11075
330
11073
100
AcDbEntity
  8
0
100
AcDbBlockEnd
  0
BLOCK
  5
11081
330
11080
100
AcDbEntity
  8
0
100
AcDbBlockBegin
  2
*D44
 70
     1
 10
0.0
 20
0.0
 30
0.0
  3
*D44
  1

  0
LINE
  5
117A1
330
11080
100
AcDbEntity
  8
Dims
440
 16777216
370
    -2
100
AcDbLine
 10
0.8787381870926045
 20
1.806890667249659
 30
0.0
 11
1.043951515208885
 21
1.806890667249659
 31
0.0
  0
LINE
  5
117A2
330
11080
100
AcDbEntity
  8
Dims
440
 16777216
370
    -2
100
AcDbLine
 10
0.8787381870925903
 20
1.75689066724966
 30
0.0
 11
1.043951515208885
 21
1.75689066724966
 31
0.0
  0
LINE
  5
117A3
330
11080
100
AcDbEntity
  8
Dims
440
 16777216
370
    -2
100
AcDbLine
 10
1.023951515208885
 20
1.73189066724966
 30
0.0
 11
1.023951515208885
 21
1.70689066724966
 31
0.0
  0
LINE
  5
117A4
330
11080
100
AcDbEntity
  8
Dims
440
 16777216
370
    -2
100
AcDbLine
 10
1.023951515208885
 20
1.831890667249658
 30
0.0
 11
1.023951515208885
 21
1.856890667249659
 31
0.0
  0
LINE
  5
117A5
330
11080
100
AcDbEntity
  8
Dims
440
 16777216
370
    -2
100
AcDbLine
 10
1.023951515208885
 20
1.856890667249659
 30
0.0
 11
1.048951515208885
 21
1.856890667249659
 31
0.0
  0
SOLID
  5
117A6
330
11080
100
AcDbEntity
  8
Dims
440
 16777216
100
AcDbTrace
 10
1.019784848542218
 20
1.73189066724966
 30
0.0
 11
1.028118181875552
 21
1.73189066724966
 31
0.0
 12
1.023951515208885
 22
1.75689066724966
 32
0.0
 13
1.023951515208885
 23
1.75689066724966
 33
0.0
  0
SOLID
  5
117A7
330
11080
100
AcDbEntity
  8
Dims
440
 16777216
100
AcDbTrace
 10
1.019784848542218
 20
1.831890667249658
 30
0.0
 11
1.028118181875552
 21
1.831890667249658
 31
0.0
 12
1.023951515208885
 22
1.806890667249659
 32
0.0
 13
1.023951515208885
 23
1.806890667249659
 33
0.0
  0
MTEXT
  5
117A8
330
11080
100
AcDbEntity
  8
Dims
 62
     3
440
 16777216
100
AcDbMText
 10
1.152665800923171
 20
1.856890667249659
 30
0.0
 40
0.02
 41
0.0
 46
0.0
 71
     5
 72
     1
  1
\A1;.050 [1.27]
 73
     1
 44
1.0
  0
POINT
  5
117A9
330
11080
100
AcDbEntity
  8
Defpoints
 62
     0
440
 16777216
100
AcDbPoint
 10
0.8662381870926045
 20
1.806890667249659
 30
0.0
  0
POINT
  5
117AA
330
11080
100
AcDbEntity
  8
Defpoints
 62
     0
440
 16777216
100
AcDbPoint
 10
0.8662381870925903
 20
1.75689066724966
 30
0.0
  0
POINT
  5
117AB
330
11080
100
AcDbEntity
  8
Defpoints
 62
     0
440
 16777216
100
AcDbPoint
 10
1.023951515208885
 20
1.75689066724966
 30
0.0
  0
ENDBLK
  5
11082
330
11080
100
AcDbEntity
  8
0
100
AcDbBlockEnd
  0
BLOCK
  5
1108F
330
1108E
100
AcDbEntity
  8
0
100
AcDbBlockBegin
  2
*D45
 70
     1
 10
0.0
 20
0.0
 30
0.0
  3
*D45
  1

  0
LINE
  5
117AC
330
1108E
100
AcDbEntity
  8
Dims
440
 16777216
370
    -2
100
AcDbLine
 10
0.8787381870926003
 20
1.66939066724966
 30
0.0
 11
0.8787381870926003
 21
1.890936979406202
 31
0.0
  0
LINE
  5
117AD
330
1108E
100
AcDbEntity
  8
Dims
440
 16777216
370
    -2
100
AcDbLine
 10
0.8662381870925903
 20
1.76939066724966
 30
0.0
 11
0.8662381870925903
 21
1.890936979406202
 31
0.0
  0
LINE
  5
117AE
330
1108E
100
AcDbEntity
  8
Dims
440
 16777216
370
    -2
100
AcDbLine
 10
0.9037381870926003
 20
1.870936979406202
 30
0.0
 11
0.9287381870926003
 21
1.870936979406202
 31
0.0
  0
LINE
  5
117AF
330
1108E
100
AcDbEntity
  8
Dims
440
 16777216
370
    -2
100
AcDbLine
 10
0.8412381870925903
 20
1.870936979406202
 30
0.0
 11
0.8162381870925901
 21
1.870936979406202
 31
0.0
  0
SOLID
  5
117B0
330
1108E
100
AcDbEntity
  8
Dims
440
 16777216
100
AcDbTrace
 10
0.9037381870926003
 20
1.875103646072868
 30
0.0
 11
0.9037381870926003
 21
1.866770312739535
 31
0.0
 12
0.8787381870926003
 22
1.870936979406202
 32
0.0
 13
0.8787381870926003
 23
1.870936979406202
 33
0.0
  0
SOLID
  5
117B1
330
1108E
100
AcDbEntity
  8
Dims
440
 16777216
100
AcDbTrace
 10
0.8412381870925903
 20
1.875103646072868
 30
0.0
 11
0.8412381870925903
 21
1.866770312739535
 31
0.0
 12
0.8662381870925903
 22
1.870936979406202
 32
0.0
 13
0.8662381870925903
 23
1.870936979406202
 33
0.0
  0
MTEXT
  5
117B2
330
1108E
100
AcDbEntity
  8
Dims
 62
     3
440
 16777216
100
AcDbMText
 10
0.7125239013783045
 20
1.870936979406202
 30
0.0
 40
0.02
 41
0.0
 46
0.0
 71
     5
 72
     1
  1
\A1;.0125 [.32]
 73
     1
 44
1.0
  0
POINT
  5
117B3
330
1108E
100
AcDbEntity
  8
Defpoints
 62
     0
440
 16777216
100
AcDbPoint
 10
0.8787381870926003
 20
1.65689066724966
 30
0.0
  0
POINT
  5
117B4
330
1108E
100
AcDbEntity
  8
Defpoints
 62
     0
440
 16777216
100
AcDbPoint
 10
0.8662381870925903
 20
1.75689066724966
 30
0.0
  0
POINT
  5
117B5
330
1108E
100
AcDbEntity
  8
Defpoints
 62
     0
440
 16777216
100
AcDbPoint
 10
0.8662381870925903
 20
1.870936979406202
 30
0.0
  0
ENDBLK
  5
11090
330
1108E
100
AcDbEntity
  8
0
100
AcDbBlockEnd
  0
BLOCK
  5
1109C
330
1109B
100
AcDbEntity
  8
0
100
AcDbBlockBegin
  2
*D46
 70
     1
 10
0.0
 20
0.0
 30
0.0
  3
*D46
  1

  0
LINE
  5
117B6
330
1109B
100
AcDbEntity
  8
Dims
440
 16777216
370
    -2
100
AcDbLine
 10
0.8787381870926003
 20
1.66939066724966
 30
0.0
 11
0.8787381870926003
 21
1.948934905816163
 31
0.0
  0
LINE
  5
117B7
330
1109B
100
AcDbEntity
  8
Dims
440
 16777216
370
    -2
100
AcDbLine
 10
0.8537381870926017
 20
1.719390667249657
 30
0.0
 11
0.8537381870926017
 21
1.948934905816163
 31
0.0
  0
LINE
  5
117B8
330
1109B
100
AcDbEntity
  8
Dims
440
 16777216
370
    -2
100
AcDbLine
 10
0.9037381870926003
 20
1.928934905816163
 30
0.0
 11
0.9287381870926003
 21
1.928934905816163
 31
0.0
  0
LINE
  5
117B9
330
1109B
100
AcDbEntity
  8
Dims
440
 16777216
370
    -2
100
AcDbLine
 10
0.8287381870926017
 20
1.928934905816163
 30
0.0
 11
0.8037381870926015
 21
1.928934905816163
 31
0.0
  0
SOLID
  5
117BA
330
1109B
100
AcDbEntity
  8
Dims
440
 16777216
100
AcDbTrace
 10
0.9037381870926003
 20
1.93310157248283
 30
0.0
 11
0.9037381870926003
 21
1.924768239149497
 31
0.0
 12
0.8787381870926003
 22
1.928934905816163
 32
0.0
 13
0.8787381870926003
 23
1.928934905816163
 33
0.0
  0
SOLID
  5
117BB
330
1109B
100
AcDbEntity
  8
Dims
440
 16777216
100
AcDbTrace
 10
0.8287381870926017
 20
1.93310157248283
 30
0.0
 11
0.8287381870926017
 21
1.924768239149497
 31
0.0
 12
0.8537381870926017
 22
1.928934905816163
 32
0.0
 13
0.8537381870926017
 23
1.928934905816163
 33
0.0
  0
MTEXT
  5
117BC
330
1109B
100
AcDbEntity
  8
Dims
 62
     3
440
 16777216
100
AcDbMText
 10
0.7095477109021254
 20
1.928934905816163
 30
0.0
 40
0.02
 41
0.0
 46
0.0
 71
     5
 72
     1
  1
\A1;.025 [.64]
 73
     1
 44
1.0
  0
POINT
  5
117BD
330
1109B
100
AcDbEntity
  8
Defpoints
 62
     0
440
 16777216
100
AcDbPoint
 10
0.8787381870926003
 20
1.65689066724966
 30
0.0
  0
POINT
  5
117BE
330
1109B
100
AcDbEntity
  8
Defpoints
 62
     0
440
 16777216
100
AcDbPoint
 10
0.8537381870926017
 20
1.706890667249657
 30
0.0
  0
POINT
  5
117BF
330
1109B
100
AcDbEntity
  8
Defpoints
 62
     0
440
 16777216
100
AcDbPoint
 10
0.8537381870926017
 20
1.928934905816163
 30
0.0
  0
ENDBLK
  5
1109D
330
1109B
100
AcDbEntity
  8
0
100
AcDbBlockEnd
  0
BLOCK
  5
110A9
330
110A8
100
AcDbEntity
  8
0
100
AcDbBlockBegin
  2
*D47
 70
     1
 10
0.0
 20
0.0
 30
0.0
  3
*D47
  1

  0
LINE
  5
117C0
330
110A8
100
AcDbEntity
  8
Dims
440
 16777216
370
    -2
100
AcDbLine
 10
0.8787381870926003
 20
1.66939066724966
 30
0.0
 11
0.8787381870926003
 21
2.004932901571193
 31
0.0
  0
LINE
  5
117C1
330
110A8
100
AcDbEntity
  8
Dims
440
 16777216
370
    -2
100
AcDbLine
 10
0.8412381870925917
 20
1.819390667249661
 30
0.0
 11
0.8412381870925917
 21
2.004932901571193
 31
0.0
  0
LINE
  5
117C2
330
110A8
100
AcDbEntity
  8
Dims
440
 16777216
370
    -2
100
AcDbLine
 10
0.9037381870926003
 20
1.984932901571193
 30
0.0
 11
0.9287381870926003
 21
1.984932901571193
 31
0.0
  0
LINE
  5
117C3
330
110A8
100
AcDbEntity
  8
Dims
440
 16777216
370
    -2
100
AcDbLine
 10
0.8162381870925917
 20
1.984932901571193
 30
0.0
 11
0.7912381870925917
 21
1.984932901571193
 31
0.0
  0
SOLID
  5
117C4
330
110A8
100
AcDbEntity
  8
Dims
440
 16777216
100
AcDbTrace
 10
0.9037381870926003
 20
1.98909956823786
 30
0.0
 11
0.9037381870926003
 21
1.980766234904527
 31
0.0
 12
0.8787381870926003
 22
1.984932901571193
 32
0.0
 13
0.8787381870926003
 23
1.984932901571193
 33
0.0
  0
SOLID
  5
117C5
330
110A8
100
AcDbEntity
  8
Dims
440
 16777216
100
AcDbTrace
 10
0.8162381870925917
 20
1.98909956823786
 30
0.0
 11
0.8162381870925917
 21
1.980766234904527
 31
0.0
 12
0.8412381870925917
 22
1.984932901571193
 32
0.0
 13
0.8412381870925917
 23
1.984932901571193
 33
0.0
  0
MTEXT
  5
117C6
330
110A8
100
AcDbEntity
  8
Dims
 62
     3
440
 16777216
100
AcDbMText
 10
0.6875239013783059
 20
1.984932901571193
 30
0.0
 40
0.02
 41
0.0
 46
0.0
 71
     5
 72
     1
  1
\A1;.0375 [.95]
 73
     1
 44
1.0
  0
POINT
  5
117C7
330
110A8
100
AcDbEntity
  8
Defpoints
 62
     0
440
 16777216
100
AcDbPoint
 10
0.8787381870926003
 20
1.65689066724966
 30
0.0
  0
POINT
  5
117C8
330
110A8
100
AcDbEntity
  8
Defpoints
 62
     0
440
 16777216
100
AcDbPoint
 10
0.8412381870925917
 20
1.806890667249661
 30
0.0
  0
POINT
  5
117C9
330
110A8
100
AcDbEntity
  8
Defpoints
 62
     0
440
 16777216
100
AcDbPoint
 10
0.8412381870925917
 20
1.984932901571193
 30
0.0
  0
ENDBLK
  5
110AA
330
110A8
100
AcDbEntity
  8
0
100
AcDbBlockEnd
  0
BLOCK
  5
110B6
330
110B5
100
AcDbEntity
  8
0
100
AcDbBlockBegin
  2
*D48
 70
     1
 10
0.0
 20
0.0
 30
0.0
  3
*D48
  1

  0
LINE
  5
117CA
330
110B5
100
AcDbEntity
  8
Dims
440
 16777216
370
    -2
100
AcDbLine
 10
0.6162381870926004
 20
1.656890667249663
 30
0.0
 11
0.40590096759672
 21
1.656890667249664
 31
0.0
  0
LINE
  5
117CB
330
110B5
100
AcDbEntity
  8
Dims
440
 16777216
370
    -2
100
AcDbLine
 10
0.5312381870925995
 20
1.674890667249659
 30
0.0
 11
0.40590096759672
 21
1.674890667249659
 31
0.0
  0
LINE
  5
117CC
330
110B5
100
AcDbEntity
  8
Dims
440
 16777216
370
    -2
100
AcDbLine
 10
0.42590096759672
 20
1.699890667249659
 30
0.0
 11
0.42590096759672
 21
1.724890667249659
 31
0.0
  0
LINE
  5
117CD
330
110B5
100
AcDbEntity
  8
Dims
440
 16777216
370
    -2
100
AcDbLine
 10
0.42590096759672
 20
1.631890667249664
 30
0.0
 11
0.42590096759672
 21
1.606890667249663
 31
0.0
  0
LINE
  5
117CE
330
110B5
100
AcDbEntity
  8
Dims
440
 16777216
370
    -2
100
AcDbLine
 10
0.42590096759672
 20
1.606890667249663
 30
0.0
 11
0.40090096759672
 21
1.606890667249663
 31
0.0
  0
SOLID
  5
117CF
330
110B5
100
AcDbEntity
  8
Dims
440
 16777216
100
AcDbTrace
 10
0.4217343009300534
 20
1.699890667249659
 30
0.0
 11
0.4300676342633867
 21
1.699890667249659
 31
0.0
 12
0.42590096759672
 22
1.674890667249659
 32
0.0
 13
0.42590096759672
 23
1.674890667249659
 33
0.0
  0
SOLID
  5
117D0
330
110B5
100
AcDbEntity
  8
Dims
440
 16777216
100
AcDbTrace
 10
0.4217343009300534
 20
1.631890667249664
 30
0.0
 11
0.4300676342633867
 21
1.631890667249664
 31
0.0
 12
0.42590096759672
 22
1.656890667249664
 32
0.0
 13
0.42590096759672
 23
1.656890667249664
 33
0.0
  0
MTEXT
  5
117D1
330
110B5
100
AcDbEntity
  8
Dims
 62
     3
440
 16777216
100
AcDbMText
 10
0.3067104914062435
 20
1.606890667249663
 30
0.0
 40
0.02
 41
0.0
 46
0.0
 71
     5
 72
     1
  1
\A1;.018 [.46]
 73
     1
 44
1.0
  0
POINT
  5
117D2
330
110B5
100
AcDbEntity
  8
Defpoints
 62
     0
440
 16777216
100
AcDbPoint
 10
0.6287381870926004
 20
1.656890667249663
 30
0.0
  0
POINT
  5
117D3
330
110B5
100
AcDbEntity
  8
Defpoints
 62
     0
440
 16777216
100
AcDbPoint
 10
0.5437381870925995
 20
1.674890667249659
 30
0.0
  0
POINT
  5
117D4
330
110B5
100
AcDbEntity
  8
Defpoints
 62
     0
440
 16777216
100
AcDbPoint
 10
0.42590096759672
 20
1.674890667249659
 30
0.0
  0
ENDBLK
  5
110B7
330
110B5
100
AcDbEntity
  8
0
100
AcDbBlockEnd
  0
BLOCK
  5
110C4
330
110C3
100
AcDbEntity
  8
0
100
AcDbBlockBegin
  2
*D49
 70
     1
 10
0.0
 20
0.0
 30
0.0
  3
*D49
  1

  0
LINE
  5
117D5
330
110C3
100
AcDbEntity
  8
Dims
440
 16777216
370
    -2
100
AcDbLine
 10
0.5687791686886927
 20
1.841489324274633
 30
0.0
 11
0.593779168688708
 21
1.841489324274633
 31
0.0
  0
LINE
  5
117D6
330
110C3
100
AcDbEntity
  8
Dims
440
 16777216
370
    -2
100
AcDbLine
 10
0.593779168688708
 20
1.841489324274633
 30
0.0
 11
0.644771315542614
 21
1.78195405540562
 31
0.0
  0
MTEXT
  5
117D7
330
110C3
100
AcDbEntity
  8
Dims
 62
     3
440
 16777216
100
AcDbMText
 10
0.4064934544029786
 20
1.841489324274633
 30
0.0
 40
0.02
 41
0.0
 46
0.0
 71
     5
 72
     1
  1
\A1;∅.016 [∅.41] (TYP)
 73
     1
 44
1.0
  0
SOLID
  5
117D8
330
110C3
100
AcDbEntity
  8
Dims
440
 16777216
100
AcDbTrace
 10
0.6479358847542251
 20
1.784664518985164
 30
0.0
 11
0.6416067463310032
 21
1.779243591826077
 31
0.0
 12
0.6610340970198783
 22
1.762966640135954
 32
0.0
 13
0.6610340970198783
 23
1.762966640135954
 33
0.0
  0
POINT
  5
117D9
330
110C3
100
AcDbEntity
  8
Defpoints
 62
     0
440
 16777216
100
AcDbPoint
 10
0.6610340970198783
 20
1.762966640135954
 30
0.0
  0
POINT
  5
117DA
330
110C3
100
AcDbEntity
  8
Defpoints
 62
     0
440
 16777216
100
AcDbPoint
 10
0.6714422771653269
 20
1.750814694363368
 30
0.0
  0
ENDBLK
  5
110C5
330
110C3
100
AcDbEntity
  8
0
100
AcDbBlockEnd
  0
BLOCK
  5
110CD
330
110CC
100
AcDbEntity
  8
0
100
AcDbBlockBegin
  2
*D50
 70
     1
 10
0.0
 20
0.0
 30
0.0
  3
*D50
  1

  0
LINE
  5
117DB
330
110CC
100
AcDbEntity
  8
Dims
440
 16777216
370
    -2
100
AcDbLine
 10
2.196090182202986
 20
2.270161394924363
 30
0.0
 11
2.196090182202986
 21
2.140905027099735
 31
0.0
  0
LINE
  5
117DC
330
110CC
100
AcDbEntity
  8
Dims
440
 16777216
370
    -2
100
AcDbLine
 10
1.851090182202986
 20
2.270161394924365
 30
0.0
 11
1.851090182202986
 21
2.140905027099735
 31
0.0
  0
LINE
  5
117DD
330
110CC
100
AcDbEntity
  8
Dims
440
 16777216
370
    -2
100
AcDbLine
 10
2.171090182202986
 20
2.160905027099735
 30
0.0
 11
2.127304467917272
 21
2.160905027099735
 31
0.0
  0
LINE
  5
117DE
330
110CC
100
AcDbEntity
  8
Dims
440
 16777216
370
    -2
100
AcDbLine
 10
1.876090182202986
 20
2.160905027099735
 30
0.0
 11
1.9198758964887
 21
2.160905027099735
 31
0.0
  0
SOLID
  5
117DF
330
110CC
100
AcDbEntity
  8
Dims
440
 16777216
100
AcDbTrace
 10
2.171090182202986
 20
2.165071693766402
 30
0.0
 11
2.171090182202986
 21
2.156738360433068
 31
0.0
 12
2.196090182202986
 22
2.160905027099735
 32
0.0
 13
2.196090182202986
 23
2.160905027099735
 33
0.0
  0
SOLID
  5
117E0
330
110CC
100
AcDbEntity
  8
Dims
440
 16777216
100
AcDbTrace
 10
1.876090182202986
 20
2.165071693766402
 30
0.0
 11
1.876090182202986
 21
2.156738360433068
 31
0.0
 12
1.851090182202986
 22
2.160905027099735
 32
0.0
 13
1.851090182202986
 23
2.160905027099735
 33
0.0
  0
MTEXT
  5
117E1
330
110CC
100
AcDbEntity
  8
Dims
 62
     3
440
 16777216
100
AcDbMText
 10
2.023590182202986
 20
2.160905027099735
 30
0.0
 40
0.02
 41
0.0
 46
0.0
 71
     5
 72
     1
  1
\A1;.345 [8.76]
 73
     1
 44
1.0
  0
POINT
  5
117E2
330
110CC
100
AcDbEntity
  8
Defpoints
 62
     0
440
 16777216
100
AcDbPoint
 10
2.196090182202986
 20
2.282661394924363
 30
0.0
  0
POINT
  5
117E3
330
110CC
100
AcDbEntity
  8
Defpoints
 62
     0
440
 16777216
100
AcDbPoint
 10
1.851090182202986
 20
2.282661394924365
 30
0.0
  0
POINT
  5
117E4
330
110CC
100
AcDbEntity
  8
Defpoints
 62
     0
440
 16777216
100
AcDbPoint
 10
1.851090182202986
 20
2.160905027099735
 30
0.0
  0
ENDBLK
  5
110CE
330
110CC
100
AcDbEntity
  8
0
100
AcDbBlockEnd
  0
BLOCK
  5
110DA
330
110D9
100
AcDbEntity
  8
0
100
AcDbBlockBegin
  2
*D51
 70
     1
 10
0.0
 20
0.0
 30
0.0
  3
*D51
  1

  0
LINE
  5
117E5
330
110D9
100
AcDbEntity
  8
Dims
440
 16777216
370
    -2
100
AcDbLine
 10
2.196090182202986
 20
2.270161394924363
 30
0.0
 11
2.196090182202986
 21
2.195183803344182
 31
0.0
  0
LINE
  5
117E6
330
110D9
100
AcDbEntity
  8
Dims
440
 16777216
370
    -2
100
AcDbLine
 10
2.111090182202993
 20
2.252161394924364
 30
0.0
 11
2.111090182202993
 21
2.195183803344182
 31
0.0
  0
LINE
  5
117E7
330
110D9
100
AcDbEntity
  8
Dims
440
 16777216
370
    -2
100
AcDbLine
 10
2.086090182202993
 20
2.215183803344182
 30
0.0
 11
2.061090182202993
 21
2.215183803344182
 31
0.0
  0
LINE
  5
117E8
330
110D9
100
AcDbEntity
  8
Dims
440
 16777216
370
    -2
100
AcDbLine
 10
2.221090182202986
 20
2.215183803344182
 30
0.0
 11
2.246090182202987
 21
2.215183803344182
 31
0.0
  0
SOLID
  5
117E9
330
110D9
100
AcDbEntity
  8
Dims
440
 16777216
100
AcDbTrace
 10
2.086090182202993
 20
2.219350470010849
 30
0.0
 11
2.086090182202993
 21
2.211017136677515
 31
0.0
 12
2.111090182202993
 22
2.215183803344182
 32
0.0
 13
2.111090182202993
 23
2.215183803344182
 33
0.0
  0
SOLID
  5
117EA
330
110D9
100
AcDbEntity
  8
Dims
440
 16777216
100
AcDbTrace
 10
2.221090182202986
 20
2.219350470010849
 30
0.0
 11
2.221090182202986
 21
2.211017136677515
 31
0.0
 12
2.196090182202986
 22
2.215183803344182
 32
0.0
 13
2.196090182202986
 23
2.215183803344182
 33
0.0
  0
MTEXT
  5
117EB
330
110D9
100
AcDbEntity
  8
Dims
 62
     3
440
 16777216
100
AcDbMText
 10
2.349804467917272
 20
2.215183803344182
 30
0.0
 40
0.02
 41
0.0
 46
0.0
 71
     5
 72
     1
  1
\A1;.085 [2.16]
 73
     1
 44
1.0
  0
POINT
  5
117EC
330
110D9
100
AcDbEntity
  8
Defpoints
 62
     0
440
 16777216
100
AcDbPoint
 10
2.196090182202986
 20
2.282661394924363
 30
0.0
  0
POINT
  5
117ED
330
110D9
100
AcDbEntity
  8
Defpoints
 62
     0
440
 16777216
100
AcDbPoint
 10
2.111090182202993
 20
2.264661394924364
 30
0.0
  0
POINT
  5
117EE
330
110D9
100
AcDbEntity
  8
Defpoints
 62
     0
440
 16777216
100
AcDbPoint
 10
2.111090182202993
 20
2.215183803344182
 30
0.0
  0
ENDBLK
  5
110DB
330
110D9
100
AcDbEntity
  8
0
100
AcDbBlockEnd
  0
BLOCK
  5
110E7
330
110E6
100
AcDbEntity
  8
0
100
AcDbBlockBegin
  2
*D52
 70
     1
 10
0.0
 20
0.0
 30
0.0
  3
*D52
  1

  0
LINE
  5
117EF
330
110E6
100
AcDbEntity
  8
Dims
440
 16777216
370
    -2
100
AcDbLine
 10
2.111090182202997
 20
2.414661394924363
 30
0.0
 11
2.276303510319277
 21
2.414661394924363
 31
0.0
  0
LINE
  5
117F0
330
110E6
100
AcDbEntity
  8
Dims
440
 16777216
370
    -2
100
AcDbLine
 10
2.111090182202983
 20
2.364661394924365
 30
0.0
 11
2.276303510319277
 21
2.364661394924365
 31
0.0
  0
LINE
  5
117F1
330
110E6
100
AcDbEntity
  8
Dims
440
 16777216
370
    -2
100
AcDbLine
 10
2.256303510319277
 20
2.339661394924365
 30
0.0
 11
2.256303510319277
 21
2.314661394924365
 31
0.0
  0
LINE
  5
117F2
330
110E6
100
AcDbEntity
  8
Dims
440
 16777216
370
    -2
100
AcDbLine
 10
2.256303510319277
 20
2.439661394924363
 30
0.0
 11
2.256303510319277
 21
2.464661394924363
 31
0.0
  0
LINE
  5
117F3
330
110E6
100
AcDbEntity
  8
Dims
440
 16777216
370
    -2
100
AcDbLine
 10
2.256303510319277
 20
2.464661394924363
 30
0.0
 11
2.281303510319277
 21
2.464661394924363
 31
0.0
  0
SOLID
  5
117F4
330
110E6
100
AcDbEntity
  8
Dims
440
 16777216
100
AcDbTrace
 10
2.252136843652611
 20
2.339661394924365
 30
0.0
 11
2.260470176985944
 21
2.339661394924365
 31
0.0
 12
2.256303510319277
 22
2.364661394924365
 32
0.0
 13
2.256303510319277
 23
2.364661394924365
 33
0.0
  0
SOLID
  5
117F5
330
110E6
100
AcDbEntity
  8
Dims
440
 16777216
100
AcDbTrace
 10
2.252136843652611
 20
2.439661394924363
 30
0.0
 11
2.260470176985944
 21
2.439661394924363
 31
0.0
 12
2.256303510319277
 22
2.414661394924363
 32
0.0
 13
2.256303510319277
 23
2.414661394924363
 33
0.0
  0
MTEXT
  5
117F6
330
110E6
100
AcDbEntity
  8
Dims
 62
     3
440
 16777216
100
AcDbMText
 10
2.385017796033563
 20
2.464661394924363
 30
0.0
 40
0.02
 41
0.0
 46
0.0
 71
     5
 72
     1
  1
\A1;.050 [1.27]
 73
     1
 44
1.0
  0
POINT
  5
117F7
330
110E6
100
AcDbEntity
  8
Defpoints
 62
     0
440
 16777216
100
AcDbPoint
 10
2.098590182202997
 20
2.414661394924363
 30
0.0
  0
POINT
  5
117F8
330
110E6
100
AcDbEntity
  8
Defpoints
 62
     0
440
 16777216
100
AcDbPoint
 10
2.098590182202983
 20
2.364661394924365
 30
0.0
  0
POINT
  5
117F9
330
110E6
100
AcDbEntity
  8
Defpoints
 62
     0
440
 16777216
100
AcDbPoint
 10
2.256303510319277
 20
2.364661394924365
 30
0.0
  0
ENDBLK
  5
110E8
330
110E6
100
AcDbEntity
  8
0
100
AcDbBlockEnd
  0
BLOCK
  5
110F5
330
110F4
100
AcDbEntity
  8
0
100
AcDbBlockBegin
  2
*D53
 70
     1
 10
0.0
 20
0.0
 30
0.0
  3
*D53
  1

  0
LINE
  5
117FA
330
110F4
100
AcDbEntity
  8
Dims
440
 16777216
370
    -2
100
AcDbLine
 10
2.111090182202993
 20
2.277161394924364
 30
0.0
 11
2.111090182202993
 21
2.498707707080906
 31
0.0
  0
LINE
  5
117FB
330
110F4
100
AcDbEntity
  8
Dims
440
 16777216
370
    -2
100
AcDbLine
 10
2.098590182202983
 20
2.377161394924365
 30
0.0
 11
2.098590182202983
 21
2.498707707080906
 31
0.0
  0
LINE
  5
117FC
330
110F4
100
AcDbEntity
  8
Dims
440
 16777216
370
    -2
100
AcDbLine
 10
2.136090182202992
 20
2.478707707080906
 30
0.0
 11
2.161090182202992
 21
2.478707707080906
 31
0.0
  0
LINE
  5
117FD
330
110F4
100
AcDbEntity
  8
Dims
440
 16777216
370
    -2
100
AcDbLine
 10
2.073590182202983
 20
2.478707707080906
 30
0.0
 11
2.048590182202982
 21
2.478707707080906
 31
0.0
  0
SOLID
  5
117FE
330
110F4
100
AcDbEntity
  8
Dims
440
 16777216
100
AcDbTrace
 10
2.136090182202992
 20
2.482874373747573
 30
0.0
 11
2.136090182202992
 21
2.474541040414239
 31
0.0
 12
2.111090182202993
 22
2.478707707080906
 32
0.0
 13
2.111090182202993
 23
2.478707707080906
 33
0.0
  0
SOLID
  5
117FF
330
110F4
100
AcDbEntity
  8
Dims
440
 16777216
100
AcDbTrace
 10
2.073590182202983
 20
2.482874373747573
 30
0.0
 11
2.073590182202983
 21
2.474541040414239
 31
0.0
 12
2.098590182202983
 22
2.478707707080906
 32
0.0
 13
2.098590182202983
 23
2.478707707080906
 33
0.0
  0
MTEXT
  5
11800
330
110F4
100
AcDbEntity
  8
Dims
 62
     3
440
 16777216
100
AcDbMText
 10
1.944875896488697
 20
2.478707707080906
 30
0.0
 40
0.02
 41
0.0
 46
0.0
 71
     5
 72
     1
  1
\A1;.0125 [.32]
 73
     1
 44
1.0
  0
POINT
  5
11801
330
110F4
100
AcDbEntity
  8
Defpoints
 62
     0
440
 16777216
100
AcDbPoint
 10
2.111090182202993
 20
2.264661394924364
 30
0.0
  0
POINT
  5
11802
330
110F4
100
AcDbEntity
  8
Defpoints
 62
     0
440
 16777216
100
AcDbPoint
 10
2.098590182202983
 20
2.364661394924365
 30
0.0
  0
POINT
  5
11803
330
110F4
100
AcDbEntity
  8
Defpoints
 62
     0
440
 16777216
100
AcDbPoint
 10
2.098590182202983
 20
2.478707707080906
 30
0.0
  0
ENDBLK
  5
110F6
330
110F4
100
AcDbEntity
  8
0
100
AcDbBlockEnd
  0
BLOCK
  5
11102
330
11101
100
AcDbEntity
  8
0
100
AcDbBlockBegin
  2
*D54
 70
     1
 10
0.0
 20
0.0
 30
0.0
  3
*D54
  1

  0
LINE
  5
11804
330
11101
100
AcDbEntity
  8
Dims
440
 16777216
370
    -2
100
AcDbLine
 10
2.111090182202993
 20
2.277161394924364
 30
0.0
 11
2.111090182202993
 21
2.556705633490867
 31
0.0
  0
LINE
  5
11805
330
11101
100
AcDbEntity
  8
Dims
440
 16777216
370
    -2
100
AcDbLine
 10
2.086090182202994
 20
2.327161394924361
 30
0.0
 11
2.086090182202994
 21
2.556705633490867
 31
0.0
  0
LINE
  5
11806
330
11101
100
AcDbEntity
  8
Dims
440
 16777216
370
    -2
100
AcDbLine
 10
2.136090182202992
 20
2.536705633490867
 30
0.0
 11
2.161090182202992
 21
2.536705633490867
 31
0.0
  0
LINE
  5
11807
330
11101
100
AcDbEntity
  8
Dims
440
 16777216
370
    -2
100
AcDbLine
 10
2.061090182202994
 20
2.536705633490867
 30
0.0
 11
2.036090182202994
 21
2.536705633490867
 31
0.0
  0
SOLID
  5
11808
330
11101
100
AcDbEntity
  8
Dims
440
 16777216
100
AcDbTrace
 10
2.136090182202992
 20
2.540872300157534
 30
0.0
 11
2.136090182202992
 21
2.5325389668242
 31
0.0
 12
2.111090182202993
 22
2.536705633490867
 32
0.0
 13
2.111090182202993
 23
2.536705633490867
 33
0.0
  0
SOLID
  5
11809
330
11101
100
AcDbEntity
  8
Dims
440
 16777216
100
AcDbTrace
 10
2.061090182202994
 20
2.540872300157534
 30
0.0
 11
2.061090182202994
 21
2.5325389668242
 31
0.0
 12
2.086090182202994
 22
2.536705633490867
 32
0.0
 13
2.086090182202994
 23
2.536705633490867
 33
0.0
  0
MTEXT
  5
1180A
330
11101
100
AcDbEntity
  8
Dims
 62
     3
440
 16777216
100
AcDbMText
 10
1.941899706012518
 20
2.536705633490867
 30
0.0
 40
0.02
 41
0.0
 46
0.0
 71
     5
 72
     1
  1
\A1;.025 [.64]
 73
     1
 44
1.0
  0
POINT
  5
1180B
330
11101
100
AcDbEntity
  8
Defpoints
 62
     0
440
 16777216
100
AcDbPoint
 10
2.111090182202993
 20
2.264661394924364
 30
0.0
  0
POINT
  5
1180C
330
11101
100
AcDbEntity
  8
Defpoints
 62
     0
440
 16777216
100
AcDbPoint
 10
2.086090182202994
 20
2.314661394924361
 30
0.0
  0
POINT
  5
1180D
330
11101
100
AcDbEntity
  8
Defpoints
 62
     0
440
 16777216
100
AcDbPoint
 10
2.086090182202994
 20
2.536705633490867
 30
0.0
  0
ENDBLK
  5
11103
330
11101
100
AcDbEntity
  8
0
100
AcDbBlockEnd
  0
BLOCK
  5
1110F
330
1110E
100
AcDbEntity
  8
0
100
AcDbBlockBegin
  2
*D55
 70
     1
 10
0.0
 20
0.0
 30
0.0
  3
*D55
  1

  0
LINE
  5
1180E
330
1110E
100
AcDbEntity
  8
Dims
440
 16777216
370
    -2
100
AcDbLine
 10
2.111090182202993
 20
2.277161394924364
 30
0.0
 11
2.111090182202993
 21
2.612703629245897
 31
0.0
  0
LINE
  5
1180F
330
1110E
100
AcDbEntity
  8
Dims
440
 16777216
370
    -2
100
AcDbLine
 10
2.073590182202984
 20
2.427161394924366
 30
0.0
 11
2.073590182202984
 21
2.612703629245897
 31
0.0
  0
LINE
  5
11810
330
1110E
100
AcDbEntity
  8
Dims
440
 16777216
370
    -2
100
AcDbLine
 10
2.136090182202992
 20
2.592703629245897
 30
0.0
 11
2.161090182202992
 21
2.592703629245897
 31
0.0
  0
LINE
  5
11811
330
1110E
100
AcDbEntity
  8
Dims
440
 16777216
370
    -2
100
AcDbLine
 10
2.048590182202984
 20
2.592703629245897
 30
0.0
 11
2.023590182202984
 21
2.592703629245897
 31
0.0
  0
SOLID
  5
11812
330
1110E
100
AcDbEntity
  8
Dims
440
 16777216
100
AcDbTrace
 10
2.136090182202992
 20
2.596870295912564
 30
0.0
 11
2.136090182202992
 21
2.58853696257923
 31
0.0
 12
2.111090182202993
 22
2.592703629245897
 32
0.0
 13
2.111090182202993
 23
2.592703629245897
 33
0.0
  0
SOLID
  5
11813
330
1110E
100
AcDbEntity
  8
Dims
440
 16777216
100
AcDbTrace
 10
2.048590182202984
 20
2.596870295912564
 30
0.0
 11
2.048590182202984
 21
2.58853696257923
 31
0.0
 12
2.073590182202984
 22
2.592703629245897
 32
0.0
 13
2.073590182202984
 23
2.592703629245897
 33
0.0
  0
MTEXT
  5
11814
330
1110E
100
AcDbEntity
  8
Dims
 62
     3
440
 16777216
100
AcDbMText
 10
1.919875896488698
 20
2.592703629245897
 30
0.0
 40
0.02
 41
0.0
 46
0.0
 71
     5
 72
     1
  1
\A1;.0375 [.95]
 73
     1
 44
1.0
  0
POINT
  5
11815
330
1110E
100
AcDbEntity
  8
Defpoints
 62
     0
440
 16777216
100
AcDbPoint
 10
2.111090182202993
 20
2.264661394924364
 30
0.0
  0
POINT
  5
11816
330
1110E
100
AcDbEntity
  8
Defpoints
 62
     0
440
 16777216
100
AcDbPoint
 10
2.073590182202984
 20
2.414661394924365
 30
0.0
  0
POINT
  5
11817
330
1110E
100
AcDbEntity
  8
Defpoints
 62
     0
440
 16777216
100
AcDbPoint
 10
2.073590182202984
 20
2.592703629245897
 30
0.0
  0
ENDBLK
  5
11110
330
1110E
100
AcDbEntity
  8
0
100
AcDbBlockEnd
  0
BLOCK
  5
1111C
330
1111B
100
AcDbEntity
  8
0
100
AcDbBlockBegin
  2
*D56
 70
     1
 10
0.0
 20
0.0
 30
0.0
  3
*D56
  1

  0
LINE
  5
11818
330
1111B
100
AcDbEntity
  8
Dims
440
 16777216
370
    -2
100
AcDbLine
 10
1.923590182202987
 20
2.264661394924369
 30
0.0
 11
1.713252962707105
 21
2.264661394924369
 31
0.0
  0
LINE
  5
11819
330
1111B
100
AcDbEntity
  8
Dims
440
 16777216
370
    -2
100
AcDbLine
 10
1.838590182202986
 20
2.282661394924365
 30
0.0
 11
1.713252962707105
 21
2.282661394924365
 31
0.0
  0
LINE
  5
1181A
330
1111B
100
AcDbEntity
  8
Dims
440
 16777216
370
    -2
100
AcDbLine
 10
1.733252962707105
 20
2.307661394924365
 30
0.0
 11
1.733252962707105
 21
2.332661394924365
 31
0.0
  0
LINE
  5
1181B
330
1111B
100
AcDbEntity
  8
Dims
440
 16777216
370
    -2
100
AcDbLine
 10
1.733252962707105
 20
2.239661394924369
 30
0.0
 11
1.733252962707105
 21
2.214661394924368
 31
0.0
  0
LINE
  5
1181C
330
1111B
100
AcDbEntity
  8
Dims
440
 16777216
370
    -2
100
AcDbLine
 10
1.733252962707105
 20
2.214661394924368
 30
0.0
 11
1.708252962707105
 21
2.214661394924368
 31
0.0
  0
SOLID
  5
1181D
330
1111B
100
AcDbEntity
  8
Dims
440
 16777216
100
AcDbTrace
 10
1.729086296040439
 20
2.307661394924365
 30
0.0
 11
1.737419629373772
 21
2.307661394924365
 31
0.0
 12
1.733252962707105
 22
2.282661394924365
 32
0.0
 13
1.733252962707105
 23
2.282661394924365
 33
0.0
  0
SOLID
  5
1181E
330
1111B
100
AcDbEntity
  8
Dims
440
 16777216
100
AcDbTrace
 10
1.729086296040439
 20
2.239661394924369
 30
0.0
 11
1.737419629373772
 21
2.239661394924369
 31
0.0
 12
1.733252962707105
 22
2.264661394924369
 32
0.0
 13
1.733252962707105
 23
2.264661394924369
 33
0.0
  0
MTEXT
  5
1181F
330
1111B
100
AcDbEntity
  8
Dims
 62
     3
440
 16777216
100
AcDbMText
 10
1.614062486516629
 20
2.214661394924369
 30
0.0
 40
0.02
 41
0.0
 46
0.0
 71
     5
 72
     1
  1
\A1;.018 [.46]
 73
     1
 44
1.0
  0
POINT
  5
11820
330
1111B
100
AcDbEntity
  8
Defpoints
 62
     0
440
 16777216
100
AcDbPoint
 10
1.936090182202987
 20
2.264661394924369
 30
0.0
  0
POINT
  5
11821
330
1111B
100
AcDbEntity
  8
Defpoints
 62
     0
440
 16777216
100
AcDbPoint
 10
1.851090182202986
 20
2.282661394924365
 30
0.0
  0
POINT
  5
11822
330
1111B
100
AcDbEntity
  8
Defpoints
 62
     0
440
 16777216
100
AcDbPoint
 10
1.733252962707105
 20
2.282661394924365
 30
0.0
  0
ENDBLK
  5
1111D
330
1111B
100
AcDbEntity
  8
0
100
AcDbBlockEnd
  0
BLOCK
  5
1112A
330
11129
100
AcDbEntity
  8
0
100
AcDbBlockBegin
  2
*D57
 70
     1
 10
0.0
 20
0.0
 30
0.0
  3
*D57
  1

  0
LINE
  5
1184B
330
11129
100
AcDbEntity
  8
Dims
440
 16777216
370
    -2
100
AcDbLine
 10
1.83863116379908
 20
2.399260051949339
 30
0.0
 11
1.863631163799105
 21
2.399260051949338
 31
0.0
  0
LINE
  5
1184C
330
11129
100
AcDbEntity
  8
Dims
440
 16777216
370
    -2
100
AcDbLine
 10
1.863631163799105
 20
2.399260051949338
 30
0.0
 11
1.914623310653001
 21
2.339724783080326
 31
0.0
  0
MTEXT
  5
1184D
330
11129
100
AcDbEntity
  8
Dims
 62
     3
440
 16777216
100
AcDbMText
 10
1.676345449513366
 20
2.399260051949338
 30
0.0
 40
0.02
 41
0.0
 46
0.0
 71
     5
 72
     1
  1
\A1;∅.016 [∅.41] (TYP)
 73
     1
 44
1.0
  0
SOLID
  5
1184E
330
11129
100
AcDbEntity
  8
Dims
440
 16777216
100
AcDbTrace
 10
1.917787879864613
 20
2.34243524665987
 30
0.0
 11
1.91145874144139
 21
2.337014319500782
 31
0.0
 12
1.930886092130264
 22
2.320737367810658
 32
0.0
 13
1.930886092130264
 23
2.320737367810658
 33
0.0
  0
POINT
  5
1184F
330
11129
100
AcDbEntity
  8
Defpoints
 62
     0
440
 16777216
100
AcDbPoint
 10
1.930886092130264
 20
2.320737367810658
 30
0.0
  0
POINT
  5
11850
330
11129
100
AcDbEntity
  8
Defpoints
 62
     0
440
 16777216
100
AcDbPoint
 10
1.941294272275711
 20
2.308585422038071
 30
0.0
  0
ENDBLK
  5
1112B
330
11129
100
AcDbEntity
  8
0
100
AcDbBlockEnd
  0
BLOCK
  5
11144
330
11143
100
AcDbEntity
  8
0
100
AcDbBlockBegin
  2
*D58
 70
     1
 10
0.0
 20
0.0
 30
0.0
  3
*D58
  1

  0
LINE
  5
1160E
330
11143
100
AcDbEntity
  8
Dims
440
 16777216
370
    -2
100
AcDbLine
 10
3.912002323739566
 20
1.42117706556968
 30
0.0
 11
3.912002323739566
 21
1.268281569263239
 31
0.0
  0
LINE
  5
1160F
330
11143
100
AcDbEntity
  8
Dims
440
 16777216
370
    -2
100
AcDbLine
 10
2.942002323739569
 20
1.42117706556968
 30
0.0
 11
2.942002323739569
 21
1.268281569263239
 31
0.0
  0
LINE
  5
11610
330
11143
100
AcDbEntity
  8
Dims
440
 16777216
370
    -2
100
AcDbLine
 10
3.887002323739566
 20
1.288281569263239
 30
0.0
 11
3.540240418977662
 21
1.288281569263239
 31
0.0
  0
LINE
  5
11611
330
11143
100
AcDbEntity
  8
Dims
440
 16777216
370
    -2
100
AcDbLine
 10
2.967002323739569
 20
1.288281569263239
 30
0.0
 11
3.313764228501472
 21
1.288281569263239
 31
0.0
  0
SOLID
  5
11612
330
11143
100
AcDbEntity
  8
Dims
440
 16777216
100
AcDbTrace
 10
3.887002323739566
 20
1.292448235929906
 30
0.0
 11
3.887002323739566
 21
1.284114902596573
 31
0.0
 12
3.912002323739566
 22
1.288281569263239
 32
0.0
 13
3.912002323739566
 23
1.288281569263239
 33
0.0
  0
SOLID
  5
11613
330
11143
100
AcDbEntity
  8
Dims
440
 16777216
100
AcDbTrace
 10
2.967002323739569
 20
1.292448235929906
 30
0.0
 11
2.967002323739569
 21
1.284114902596573
 31
0.0
 12
2.942002323739569
 22
1.288281569263239
 32
0.0
 13
2.942002323739569
 23
1.288281569263239
 33
0.0
  0
MTEXT
  5
11614
330
11143
100
AcDbEntity
  8
Dims
 62
     3
440
 16777216
100
AcDbMText
 10
3.427002323739567
 20
1.288281569263239
 30
0.0
 40
0.02
 41
0.0
 46
0.0
 71
     5
 72
     1
  1
\A1;.970 [24.64]
 73
     1
 44
1.0
  0
POINT
  5
11615
330
11143
100
AcDbEntity
  8
Defpoints
 62
     0
440
 16777216
100
AcDbPoint
 10
3.912002323739566
 20
1.43367706556968
 30
0.0
  0
POINT
  5
11616
330
11143
100
AcDbEntity
  8
Defpoints
 62
     0
440
 16777216
100
AcDbPoint
 10
2.942002323739569
 20
1.43367706556968
 30
0.0
  0
POINT
  5
11617
330
11143
100
AcDbEntity
  8
Defpoints
 62
     0
440
 16777216
100
AcDbPoint
 10
2.942002323739569
 20
1.288281569263239
 30
0.0
  0
ENDBLK
  5
11145
330
11143
100
AcDbEntity
  8
0
100
AcDbBlockEnd
  0
BLOCK
  5
1135C
330
1135B
100
AcDbEntity
  8
0
100
AcDbBlockBegin
  2
*D59
 70
     1
 10
0.0
 20
0.0
 30
0.0
  3
*D59
  1

  0
LINE
  5
11823
330
1135B
100
AcDbEntity
  8
Dims
440
 16777216
370
    -2
100
AcDbLine
 10
3.377002323739568
 20
1.403177065569681
 30
0.0
 11
3.377002323739568
 21
1.346244517130782
 31
0.0
  0
LINE
  5
11824
330
1135B
100
AcDbEntity
  8
Dims
440
 16777216
370
    -2
100
AcDbLine
 10
3.327002323739567
 20
1.403177065569681
 30
0.0
 11
3.327002323739567
 21
1.346244517130782
 31
0.0
  0
LINE
  5
11825
330
1135B
100
AcDbEntity
  8
Dims
440
 16777216
370
    -2
100
AcDbLine
 10
3.402002323739568
 20
1.366244517130782
 30
0.0
 11
3.427002323739568
 21
1.366244517130782
 31
0.0
  0
LINE
  5
11826
330
1135B
100
AcDbEntity
  8
Dims
440
 16777216
370
    -2
100
AcDbLine
 10
3.302002323739567
 20
1.366244517130782
 30
0.0
 11
3.277002323739567
 21
1.366244517130782
 31
0.0
  0
SOLID
  5
11827
330
1135B
100
AcDbEntity
  8
Dims
440
 16777216
100
AcDbTrace
 10
3.402002323739568
 20
1.370411183797449
 30
0.0
 11
3.402002323739568
 21
1.362077850464116
 31
0.0
 12
3.377002323739568
 22
1.366244517130782
 32
0.0
 13
3.377002323739568
 23
1.366244517130782
 33
0.0
  0
SOLID
  5
11828
330
1135B
100
AcDbEntity
  8
Dims
440
 16777216
100
AcDbTrace
 10
3.302002323739567
 20
1.370411183797449
 30
0.0
 11
3.302002323739567
 21
1.362077850464116
 31
0.0
 12
3.327002323739567
 22
1.366244517130782
 32
0.0
 13
3.327002323739567
 23
1.366244517130782
 33
0.0
  0
MTEXT
  5
11829
330
1135B
100
AcDbEntity
  8
Dims
 62
     3
440
 16777216
100
AcDbMText
 10
3.173288038025281
 20
1.366244517130782
 30
0.0
 40
0.02
 41
0.0
 46
0.0
 71
     5
 72
     1
  1
\A1;.050 [1.27]
 73
     1
 44
1.0
  0
POINT
  5
1182A
330
1135B
100
AcDbEntity
  8
Defpoints
 62
     0
440
 16777216
100
AcDbPoint
 10
3.377002323739568
 20
1.415677065569681
 30
0.0
  0
POINT
  5
1182B
330
1135B
100
AcDbEntity
  8
Defpoints
 62
     0
440
 16777216
100
AcDbPoint
 10
3.327002323739567
 20
1.415677065569681
 30
0.0
  0
POINT
  5
1182C
330
1135B
100
AcDbEntity
  8
Defpoints
 62
     0
440
 16777216
100
AcDbPoint
 10
3.327002323739567
 20
1.366244517130782
 30
0.0
  0
ENDBLK
  5
1135D
330
1135B
100
AcDbEntity
  8
0
100
AcDbBlockEnd
  0
BLOCK
  5
11369
330
11368
100
AcDbEntity
  8
0
100
AcDbBlockBegin
  2
*D60
 70
     1
 10
0.0
 20
0.0
 30
0.0
  3
*D60
  1

  0
LINE
  5
1182D
330
11368
100
AcDbEntity
  8
Dims
440
 16777216
370
    -2
100
AcDbLine
 10
3.352002323739568
 20
1.998032711290617
 30
0.0
 11
3.352002323739568
 21
1.939826060209858
 31
0.0
  0
LINE
  5
1182E
330
11368
100
AcDbEntity
  8
Dims
440
 16777216
370
    -2
100
AcDbLine
 10
3.302002323739571
 20
1.998032711290616
 30
0.0
 11
3.302002323739571
 21
1.939826060209858
 31
0.0
  0
LINE
  5
1182F
330
11368
100
AcDbEntity
  8
Dims
440
 16777216
370
    -2
100
AcDbLine
 10
3.377002323739568
 20
1.959826060209858
 30
0.0
 11
3.402002323739568
 21
1.959826060209858
 31
0.0
  0
LINE
  5
11830
330
11368
100
AcDbEntity
  8
Dims
440
 16777216
370
    -2
100
AcDbLine
 10
3.277002323739571
 20
1.959826060209858
 30
0.0
 11
3.25200232373957
 21
1.959826060209858
 31
0.0
  0
SOLID
  5
11831
330
11368
100
AcDbEntity
  8
Dims
440
 16777216
100
AcDbTrace
 10
3.377002323739568
 20
1.963992726876525
 30
0.0
 11
3.377002323739568
 21
1.955659393543192
 31
0.0
 12
3.352002323739568
 22
1.959826060209858
 32
0.0
 13
3.352002323739568
 23
1.959826060209858
 33
0.0
  0
SOLID
  5
11832
330
11368
100
AcDbEntity
  8
Dims
440
 16777216
100
AcDbTrace
 10
3.277002323739571
 20
1.963992726876525
 30
0.0
 11
3.277002323739571
 21
1.955659393543192
 31
0.0
 12
3.302002323739571
 22
1.959826060209858
 32
0.0
 13
3.302002323739571
 23
1.959826060209858
 33
0.0
  0
MTEXT
  5
11833
330
11368
100
AcDbEntity
  8
Dims
 62
     3
440
 16777216
100
AcDbMText
 10
3.148288038025285
 20
1.959826060209858
 30
0.0
 40
0.02
 41
0.0
 46
0.0
 71
     5
 72
     1
  1
\A1;.050 [1.27]
 73
     1
 44
1.0
  0
POINT
  5
11834
330
11368
100
AcDbEntity
  8
Defpoints
 62
     0
440
 16777216
100
AcDbPoint
 10
3.352002323739568
 20
2.010532711290617
 30
0.0
  0
POINT
  5
11835
330
11368
100
AcDbEntity
  8
Defpoints
 62
     0
440
 16777216
100
AcDbPoint
 10
3.302002323739571
 20
2.010532711290616
 30
0.0
  0
POINT
  5
11836
330
11368
100
AcDbEntity
  8
Defpoints
 62
     0
440
 16777216
100
AcDbPoint
 10
3.302002323739571
 20
1.959826060209858
 30
0.0
  0
ENDBLK
  5
1136A
330
11368
100
AcDbEntity
  8
0
100
AcDbBlockEnd
  0
BLOCK
  5
11376
330
11375
100
AcDbEntity
  8
0
100
AcDbBlockBegin
  2
*D61
 70
     1
 10
0.0
 20
0.0
 30
0.0
  3
*D61
  1

  0
LINE
  5
11837
330
11375
100
AcDbEntity
  8
Dims
440
 16777216
370
    -2
100
AcDbLine
 10
2.040327591146525
 20
1.051775452879976
 30
0.0
 11
2.040327591146525
 21
0.9948255237785165
 31
0.0
  0
LINE
  5
11838
330
11375
100
AcDbEntity
  8
Dims
440
 16777216
370
    -2
100
AcDbLine
 10
1.990327591146527
 20
1.051775452879976
 30
0.0
 11
1.990327591146527
 21
0.9948255237785165
 31
0.0
  0
LINE
  5
11839
330
11375
100
AcDbEntity
  8
Dims
440
 16777216
370
    -2
100
AcDbLine
 10
2.065327591146524
 20
1.014825523778516
 30
0.0
 11
2.090327591146524
 21
1.014825523778516
 31
0.0
  0
LINE
  5
1183A
330
11375
100
AcDbEntity
  8
Dims
440
 16777216
370
    -2
100
AcDbLine
 10
1.965327591146527
 20
1.014825523778516
 30
0.0
 11
1.940327591146527
 21
1.014825523778516
 31
0.0
  0
SOLID
  5
1183B
330
11375
100
AcDbEntity
  8
Dims
440
 16777216
100
AcDbTrace
 10
2.065327591146524
 20
1.018992190445183
 30
0.0
 11
2.065327591146524
 21
1.010658857111849
 31
0.0
 12
2.040327591146525
 22
1.014825523778516
 32
0.0
 13
2.040327591146525
 23
1.014825523778516
 33
0.0
  0
SOLID
  5
1183C
330
11375
100
AcDbEntity
  8
Dims
440
 16777216
100
AcDbTrace
 10
1.965327591146527
 20
1.018992190445183
 30
0.0
 11
1.965327591146527
 21
1.010658857111849
 31
0.0
 12
1.990327591146527
 22
1.014825523778516
 32
0.0
 13
1.990327591146527
 23
1.014825523778516
 33
0.0
  0
MTEXT
  5
1183D
330
11375
100
AcDbEntity
  8
Dims
 62
     3
440
 16777216
100
AcDbMText
 10
1.836613305432242
 20
1.014825523778516
 30
0.0
 40
0.02
 41
0.0
 46
0.0
 71
     5
 72
     1
  1
\A1;.050 [1.27]
 73
     1
 44
1.0
  0
POINT
  5
1183E
330
11375
100
AcDbEntity
  8
Defpoints
 62
     0
440
 16777216
100
AcDbPoint
 10
2.040327591146525
 20
1.064275452879976
 30
0.0
  0
POINT
  5
1183F
330
11375
100
AcDbEntity
  8
Defpoints
 62
     0
440
 16777216
100
AcDbPoint
 10
1.990327591146527
 20
1.064275452879976
 30
0.0
  0
POINT
  5
11840
330
11375
100
AcDbEntity
  8
Defpoints
 62
     0
440
 16777216
100
AcDbPoint
 10
1.990327591146527
 20
1.014825523778516
 30
0.0
  0
ENDBLK
  5
11377
330
11375
100
AcDbEntity
  8
0
100
AcDbBlockEnd
  0
BLOCK
  5
11383
330
11382
100
AcDbEntity
  8
0
100
AcDbBlockBegin
  2
*D62
 70
     1
 10
0.0
 20
0.0
 30
0.0
  3
*D62
  1

  0
LINE
  5
11841
330
11382
100
AcDbEntity
  8
Dims
440
 16777216
370
    -2
100
AcDbLine
 10
0.7912381870925938
 20
1.051775452879977
 30
0.0
 11
0.7912381870925938
 21
0.9948006835150607
 31
0.0
  0
LINE
  5
11842
330
11382
100
AcDbEntity
  8
Dims
440
 16777216
370
    -2
100
AcDbLine
 10
0.7412381870925966
 20
1.051775452879976
 30
0.0
 11
0.7412381870925966
 21
0.9948006835150607
 31
0.0
  0
LINE
  5
11843
330
11382
100
AcDbEntity
  8
Dims
440
 16777216
370
    -2
100
AcDbLine
 10
0.8162381870925937
 20
1.01480068351506
 30
0.0
 11
0.8412381870925937
 21
1.01480068351506
 31
0.0
  0
LINE
  5
11844
330
11382
100
AcDbEntity
  8
Dims
440
 16777216
370
    -2
100
AcDbLine
 10
0.7162381870925966
 20
1.01480068351506
 30
0.0
 11
0.6912381870925967
 21
1.01480068351506
 31
0.0
  0
SOLID
  5
11845
330
11382
100
AcDbEntity
  8
Dims
440
 16777216
100
AcDbTrace
 10
0.8162381870925937
 20
1.018967350181727
 30
0.0
 11
0.8162381870925937
 21
1.010634016848394
 31
0.0
 12
0.7912381870925938
 22
1.01480068351506
 32
0.0
 13
0.7912381870925938
 23
1.01480068351506
 33
0.0
  0
SOLID
  5
11846
330
11382
100
AcDbEntity
  8
Dims
440
 16777216
100
AcDbTrace
 10
0.7162381870925966
 20
1.018967350181727
 30
0.0
 11
0.7162381870925966
 21
1.010634016848394
 31
0.0
 12
0.7412381870925966
 22
1.01480068351506
 32
0.0
 13
0.7412381870925966
 23
1.01480068351506
 33
0.0
  0
MTEXT
  5
11847
330
11382
100
AcDbEntity
  8
Dims
 62
     3
440
 16777216
100
AcDbMText
 10
0.5875239013783109
 20
1.01480068351506
 30
0.0
 40
0.02
 41
0.0
 46
0.0
 71
     5
 72
     1
  1
\A1;.050 [1.27]
 73
     1
 44
1.0
  0
POINT
  5
11848
330
11382
100
AcDbEntity
  8
Defpoints
 62
     0
440
 16777216
100
AcDbPoint
 10
0.7912381870925938
 20
1.064275452879977
 30
0.0
  0
POINT
  5
11849
330
11382
100
AcDbEntity
  8
Defpoints
 62
     0
440
 16777216
100
AcDbPoint
 10
0.7412381870925966
 20
1.064275452879976
 30
0.0
  0
POINT
  5
1184A
330
11382
100
AcDbEntity
  8
Defpoints
 62
     0
440
 16777216
100
AcDbPoint
 10
0.7412381870925966
 20
1.01480068351506
 30
0.0
  0
ENDBLK
  5
11384
330
11382
100
AcDbEntity
  8
0
100
AcDbBlockEnd
  0
ENDSEC
  0
SECTION
  2
ENTITIES
  0
MTEXT
  5
ED09
102
{ACAD_XDICTIONARY
360
104B9
102
}
330
1F
100
AcDbEntity
  8
Text
100
AcDbMText
 10
0.8954951918132643
 20
2.639286009257684
 30
0.0
 40
0.03
 41
0.8856468485738533
 46
0.0
 71
     1
 72
     5
  1
\pi0.050681;RECOMMENDED PC BOARD LAYOUT \P\pi0.22997;(COMPONENT SIDE)
 73
     1
 44
1.0
  0
CIRCLE
  5
10C3D
330
1F
100
AcDbEntity
  8
Dims
100
AcDbCircle
 10
2.196090182202986
 20
2.282661394924363
 30
0.0
 40
0.0325
  0
CIRCLE
  5
10C3E
330
1F
100
AcDbEntity
  8
Dims
100
AcDbCircle
 10
1.851090182202986
 20
2.282661394924365
 30
0.0
 40
0.0325
  0
CIRCLE
  5
10C3F
330
1F
100
AcDbEntity
  8
Dims
100
AcDbCircle
 10
1.961090182202987
 20
2.264661394924366
 30
0.0
 40
0.008
  0
CIRCLE
  5
10C40
330
1F
100
AcDbEntity
  8
Dims
100
AcDbCircle
 10
2.011090182202984
 20
2.264661394924367
 30
0.0
 40
0.008
  0
CIRCLE
  5
10C41
330
1F
100
AcDbEntity
  8
Dims
100
AcDbCircle
 10
2.061090182202981
 20
2.264661394924368
 30
0.0
 40
0.008
  0
CIRCLE
  5
10C42
330
1F
100
AcDbEntity
  8
Dims
100
AcDbCircle
 10
2.111090182202985
 20
2.264661394924368
 30
0.0
 40
0.008
  0
CIRCLE
  5
10C43
330
1F
100
AcDbEntity
  8
Dims
100
AcDbCircle
 10
2.08609018220298
 20
2.314661394924367
 30
0.0
 40
0.008
  0
CIRCLE
  5
10C44
330
1F
100
AcDbEntity
  8
Dims
100
AcDbCircle
 10
2.036090182202983
 20
2.314661394924364
 30
0.0
 40
0.008
  0
CIRCLE
  5
10C45
330
1F
100
AcDbEntity
  8
Dims
100
AcDbCircle
 10
1.986090182202985
 20
2.314661394924363
 30
0.0
 40
0.008
  0
CIRCLE
  5
10C46
330
1F
100
AcDbEntity
  8
Dims
100
AcDbCircle
 10
1.936090182202988
 20
2.314661394924362
 30
0.0
 40
0.008
  0
CIRCLE
  5
10C47
330
1F
100
AcDbEntity
  8
Dims
100
AcDbCircle
 10
1.948590182202991
 20
2.364661394924363
 30
0.0
 40
0.008
  0
CIRCLE
  5
10C48
330
1F
100
AcDbEntity
  8
Dims
100
AcDbCircle
 10
1.998590182202988
 20
2.364661394924364
 30
0.0
 40
0.008
  0
CIRCLE
  5
10C49
330
1F
100
AcDbEntity
  8
Dims
100
AcDbCircle
 10
2.048590182202985
 20
2.364661394924365
 30
0.0
 40
0.008
  0
CIRCLE
  5
10C4A
330
1F
100
AcDbEntity
  8
Dims
100
AcDbCircle
 10
2.098590182202983
 20
2.364661394924365
 30
0.0
 40
0.008
  0
CIRCLE
  5
10C4B
330
1F
100
AcDbEntity
  8
Dims
100
AcDbCircle
 10
2.073590182202984
 20
2.414661394924365
 30
0.0
 40
0.008
  0
CIRCLE
  5
10C4C
330
1F
100
AcDbEntity
  8
Dims
100
AcDbCircle
 10
2.02359018220298
 20
2.414661394924365
 30
0.0
 40
0.008
  0
CIRCLE
  5
10C4D
330
1F
100
AcDbEntity
  8
Dims
100
AcDbCircle
 10
1.973590182202983
 20
2.414661394924364
 30
0.0
 40
0.008
  0
DIMENSION
  5
10D43
330
1F
100
AcDbEntity
  8
Dims
100
AcDbDimension
280
     0
  2
*D50
 10
1.851090182202986
 20
2.160905027099735
 30
0.0
 11
2.023590182202986
 21
2.160905027099735
 31
0.0
 70
    32
 71
     5
 42
0.3450000000000006
 73
     0
 74
     0
 75
     0
  3
Standard
100
AcDbAlignedDimension
 13
2.196090182202986
 23
2.282661394924363
 33
0.0
 14
1.851090182202986
 24
2.282661394924365
 34
0.0
100
AcDbRotatedDimension
  0
DIMENSION
  5
10D44
330
1F
100
AcDbEntity
  8
Dims
100
AcDbDimension
280
     0
  2
*D51
 10
2.111090182202993
 20
2.215183803344182
 30
0.0
 11
2.349804467917272
 21
2.215183803344182
 31
0.0
 70
   160
 71
     5
 42
0.0849999999999938
 73
     0
 74
     0
 75
     0
  3
Standard
100
AcDbAlignedDimension
 13
2.196090182202986
 23
2.282661394924363
 33
0.0
 14
2.111090182202993
 24
2.264661394924364
 34
0.0
 50
180.0
100
AcDbRotatedDimension
  0
DIMENSION
  5
10D45
330
1F
100
AcDbEntity
  8
Dims
100
AcDbDimension
280
     0
  2
*D52
 10
2.256303510319277
 20
2.364661394924365
 30
0.0
 11
2.385017796033563
 21
2.464661394924363
 31
0.0
 70
   160
 71
     5
 42
0.0499999999999981
 73
     0
 74
     0
 75
     0
  3
Standard
100
AcDbAlignedDimension
 13
2.098590182202997
 23
2.414661394924363
 33
0.0
 14
2.098590182202983
 24
2.364661394924365
 34
0.0
 50
90.0
100
AcDbRotatedDimension
  0
DIMENSION
  5
10D46
330
1F
100
AcDbEntity
  8
Dims
100
AcDbDimension
280
     0
  2
*D53
 10
2.098590182202983
 20
2.478707707080906
 30
0.0
 11
1.944875896488697
 21
2.478707707080906
 31
0.0
 70
   160
 71
     5
 42
0.01250000000001
 73
     0
 74
     0
 75
     0
  3
Standard
100
AcDbAlignedDimension
 13
2.111090182202993
 23
2.264661394924364
 33
0.0
 14
2.098590182202983
 24
2.364661394924365
 34
0.0
 50
180.0
100
AcDbRotatedDimension
1001
ACAD
1000
DSTYLE
1002
{
1070
   271
1070
     4
1002
}
  0
DIMENSION
  5
10D47
330
1F
100
AcDbEntity
  8
Dims
100
AcDbDimension
280
     0
  2
*D54
 10
2.086090182202994
 20
2.536705633490867
 30
0.0
 11
1.941899706012518
 21
2.536705633490867
 31
0.0
 70
   160
 71
     5
 42
0.0249999999999986
 73
     0
 74
     0
 75
     0
  3
Standard
100
AcDbAlignedDimension
 13
2.111090182202993
 23
2.264661394924364
 33
0.0
 14
2.086090182202994
 24
2.314661394924361
 34
0.0
 50
180.0
100
AcDbRotatedDimension
  0
DIMENSION
  5
10D48
330
1F
100
AcDbEntity
  8
Dims
100
AcDbDimension
280
     0
  2
*D55
 10
2.073590182202984
 20
2.592703629245897
 30
0.0
 11
1.919875896488698
 21
2.592703629245897
 31
0.0
 70
   160
 71
     5
 42
0.0375000000000085
 73
     0
 74
     0
 75
     0
  3
Standard
100
AcDbAlignedDimension
 13
2.111090182202993
 23
2.264661394924364
 33
0.0
 14
2.073590182202984
 24
2.414661394924365
 34
0.0
 50
180.0
100
AcDbRotatedDimension
1001
ACAD
1000
DSTYLE
1002
{
1070
   271
1070
     4
1002
}
  0
DIMENSION
  5
10D49
330
1F
100
AcDbEntity
  8
Dims
100
AcDbDimension
280
     0
  2
*D56
 10
1.733252962707105
 20
2.282661394924365
 30
0.0
 11
1.614062486516629
 21
2.214661394924369
 31
0.0
 70
   160
 71
     5
 42
0.0179999999999954
 73
     0
 74
     0
 75
     0
  3
Standard
100
AcDbAlignedDimension
 13
1.936090182202987
 23
2.264661394924369
 33
0.0
 14
1.851090182202986
 24
2.282661394924365
 34
0.0
 50
90.0
100
AcDbRotatedDimension
  0
DIMENSION
  5
10D56
330
1F
100
AcDbEntity
  8
Dims
100
AcDbDimension
280
     0
  2
*D57
 10
1.941294272275711
 20
2.308585422038071
 30
0.0
 11
1.676345449513366
 21
2.399260051949338
 31
0.0
 70
   163
  1
<> (TYP)
 71
     5
 42
0.0159999999999987
 73
     0
 74
     0
 75
     0
  3
Standard
100
AcDbDiametricDimension
 15
1.930886092130264
 25
2.320737367810658
 35
0.0
 40
0.0
1001
ACAD
1000
DSTYLE
1002
{
1070
   288
1070
     1
1002
}
1001
ACAD_DSTYLE_DIMRADIAL_EXTENSION
1070
   387
1070
     1
1070
   388
1040
0.0
1070
   390
1040
0.0
  0
MTEXT
  5
10DB4
330
1F
100
AcDbEntity
  8
Dims
100
AcDbMText
 10
1.42392633885191
 20
2.101209687622967
 30
0.0
 40
0.0375
 41
0.3672660399094205
 46
0.0
 71
     1
 72
     5
  1
15 CONTACTS
  7
style1
 73
     1
 44
1.0
  0
MTEXT
  5
10E0B
330
1F
100
AcDbEntity
  8
Dims
100
AcDbMText
 10
1.937644696976278
 20
2.347936402162804
 30
0.0
 40
0.01875
 41
0.0104096703813377
 46
0.0
 71
     3
 72
     5
  1
1
  7
style1
 73
     1
 44
1.0
  0
MTEXT
  5
10E0C
330
1F
100
AcDbEntity
  8
Dims
100
AcDbMText
 10
1.991815487835452
 20
2.347936402162804
 30
0.0
 40
0.01875
 41
0.0104096703813377
 46
0.0
 71
     3
 72
     5
  1
3
  7
style1
 73
     1
 44
1.0
  0
MTEXT
  5
10E0D
330
1F
100
AcDbEntity
  8
Dims
100
AcDbMText
 10
2.044561589846502
 20
2.347936402162804
 30
0.0
 40
0.01875
 41
0.0104096703813377
 46
0.0
 71
     3
 72
     5
  1
5
  7
style1
 73
     1
 44
1.0
  0
MTEXT
  5
10E0E
330
1F
100
AcDbEntity
  8
Dims
100
AcDbMText
 10
2.106507636513388
 20
2.347936402162802
 30
0.0
 40
0.01875
 41
0.0104096703813377
 46
0.0
 71
     3
 72
     5
  1
7
  7
style1
 73
     1
 44
1.0
  0
MTEXT
  5
10E0F
330
1F
100
AcDbEntity
  8
Dims
100
AcDbMText
 10
1.96963367308556
 20
2.297936402162807
 30
0.0
 40
0.01875
 41
0.0104096703813377
 46
0.0
 71
     3
 72
     5
  1
2
  7
style1
 73
     1
 44
1.0
  0
MTEXT
  5
10E10
330
1F
100
AcDbEntity
  8
Dims
100
AcDbMText
 10
2.016815140842101
 20
2.297936402162807
 30
0.0
 40
0.01875
 41
0.0104096703813377
 46
0.0
 71
     3
 72
     5
  1
4
  7
style1
 73
     1
 44
1.0
  0
MTEXT
  5
10E11
330
1F
100
AcDbEntity
  8
Dims
100
AcDbMText
 10
2.06848597234967
 20
2.297936402162807
 30
0.0
 40
0.01875
 41
0.0104096703813377
 46
0.0
 71
     3
 72
     5
  1
6
  7
style1
 73
     1
 44
1.0
  0
MTEXT
  5
10E12
330
1F
100
AcDbEntity
  8
Dims
100
AcDbMText
 10
2.127743814973563
 20
2.297936402162806
 30
0.0
 40
0.01875
 41
0.0104096703813377
 46
0.0
 71
     3
 72
     5
  1
8
  7
style1
 73
     1
 44
1.0
  0
MTEXT
  5
10E13
330
1F
100
AcDbEntity
  8
Dims
100
AcDbMText
 10
1.955602249108235
 20
2.397936402162804
 30
0.0
 40
0.01875
 41
0.0104096703813377
 46
0.0
 71
     3
 72
     5
  1
9
  7
style1
 73
     1
 44
1.0
  0
MTEXT
  5
10E14
330
1F
100
AcDbEntity
  8
Dims
100
AcDbMText
 10
2.012002637600954
 20
2.397936402162804
 30
0.0
 40
0.01875
 41
0.0104096703813377
 46
0.0
 71
     3
 72
     5
  1
11
  7
style1
 73
     1
 44
1.0
  0
MTEXT
  5
10E15
330
1F
100
AcDbEntity
  8
Dims
100
AcDbMText
 10
2.064285050002478
 20
2.397936402162804
 30
0.0
 40
0.01875
 41
0.0104096703813377
 46
0.0
 71
     3
 72
     5
  1
13
  7
style1
 73
     1
 44
1.0
  0
MTEXT
  5
10E16
330
1F
100
AcDbEntity
  8
Dims
100
AcDbMText
 10
2.113327776536149
 20
2.397936402162803
 30
0.0
 40
0.01875
 41
0.0104096703813377
 46
0.0
 71
     3
 72
     5
  1
15
  7
style1
 73
     1
 44
1.0
  0
MTEXT
  5
10E17
330
1F
100
AcDbEntity
  8
Dims
100
AcDbMText
 10
1.987002637600962
 20
2.447936402162806
 30
0.0
 40
0.01875
 41
0.0104096703813377
 46
0.0
 71
     3
 72
     5
  1
10
  7
style1
 73
     1
 44
1.0
  0
MTEXT
  5
10E18
330
1F
100
AcDbEntity
  8
Dims
100
AcDbMText
 10
2.039285050002487
 20
2.447936402162806
 30
0.0
 40
0.01875
 41
0.0104096703813377
 46
0.0
 71
     3
 72
     5
  1
12
  7
style1
 73
     1
 44
1.0
  0
MTEXT
  5
10E19
330
1F
100
AcDbEntity
  8
Dims
100
AcDbMText
 10
2.088327776536157
 20
2.447936402162804
 30
0.0
 40
0.01875
 41
0.0104096703813377
 46
0.0
 71
     3
 72
     5
  1
14
  7
style1
 73
     1
 44
1.0
  0
ENDSEC
  0
SECTION
  2
OBJECTS
  0
DICTIONARY
  5
C
330
0
100
AcDbDictionary
281
     1
  3
ACAD_CIP_PREVIOUS_PRODUCT_INFO
350
104D0
  3
ACAD_COLOR
350
73
  3
ACAD_DETAILVIEWSTYLE
350
104C9
  3
ACAD_GROUP
350
D
  3
ACAD_LAYOUT
350
1A
  3
ACAD_MATERIAL
350
72
  3
ACAD_MLEADERSTYLE
350
D7
  3
ACAD_MLINESTYLE
350
17
  3
ACAD_PLOTSETTINGS
350
19
  3
ACAD_PLOTSTYLENAME
350
E
  3
ACAD_SCALELIST
350
B6
  3
ACAD_SECTIONVIEWSTYLE
350
104C6
  3
ACAD_TABLESTYLE
350
86
  3
ACAD_VISUALSTYLE
350
99
  3
AcadDim
350
FF6
  3
ACDB_RECOMPOSE_DATA
350
11882
  3
AcDbVariableDictionary
350
66
  3
AcDsDecomposeData
350
11888
  0
DICTIONARY
  5
1B1E
330
8
100
AcDbDictionary
280
     1
281
     1
  0
DICTIONARY
  5
3D3
330
2
100
AcDbDictionary
280
     1
281
     1
  3
ACAD_LAYERFILTERS
360
F03
  3
ACAD_LAYERSTATES
360
3D4
  3
ACLYDICTIONARY
360
F02
  0
DICTIONARY
  5
E6
330
10
100
AcDbDictionary
280
     1
281
     1
  3
ADSK_XREC_LAYER_RECONCILED
360
18F
  0
DICTIONARY
  5
158
330
1F
100
AcDbDictionary
280
     1
281
     1
  3
ACAD_SORTENTS
360
159
  0
DICTIONARY
  5
104B9
330
ED09
100
AcDbDictionary
280
     1
281
     1
  3
ACAD_MTEXT_2008_RT
360
11881
  0
XRECORD
  5
104D0
102
{ACAD_REACTORS
330
C
102
}
330
C
100
AcDbXrecord
280
     1
300
ACD
300
2013
300
ACD_F_S
  0
DICTIONARY
  5
73
102
{ACAD_REACTORS
330
C
102
}
330
C
100
AcDbDictionary
281
     1
  0
DICTIONARY
  5
104C9
102
{ACAD_REACTORS
330
C
102
}
330
C
100
AcDbDictionary
281
     1
  3
Imperial24
350
104CA
  0
DICTIONARY
  5
D
102
{ACAD_REACTORS
330
C
102
}
330
C
100
AcDbDictionary
281
     1
  0
DICTIONARY
  5
1A
102
{ACAD_REACTORS
330
C
102
}
330
C
100
AcDbDictionary
281
     1
  3
Layout1
350
59
  3
Layout2
350
5E
  3
Model
350
22
  0
DICTIONARY
  5
72
102
{ACAD_REACTORS
330
C
102
}
330
C
100
AcDbDictionary
281
     1
  3
ByBlock
350
97
  3
ByLayer
350
96
  3
Global
350
98
  0
DICTIONARY
  5
D7
102
{ACAD_REACTORS
330
C
102
}
330
C
100
AcDbDictionary
281
     1
  3
Standard
350
D8
  0
DICTIONARY
  5
17
102
{ACAD_REACTORS
330
C
102
}
330
C
100
AcDbDictionary
281
     1
  3
Standard
350
18
  0
DICTIONARY
  5
19
102
{ACAD_REACTORS
330
C
102
}
330
C
100
AcDbDictionary
281
     1
  3
PDF
350
15F4
  0
ACDBDICTIONARYWDFLT
  5
E
102
{ACAD_REACTORS
330
C
102
}
330
C
100
AcDbDictionary
281
     1
  3
Normal
350
F
100
AcDbDictionaryWithDefault
340
F
  0
DICTIONARY
  5
B6
102
{ACAD_REACTORS
330
C
102
}
330
C
100
AcDbDictionary
281
     1
  3
A0
350
B7
  3
A1
350
124
  3
A2
350
125
  3
A3
350
126
  3
A4
350
127
  3
A5
350
128
  3
A6
350
129
  3
A7
350
12A
  3
A8
350
12B
  3
A9
350
12C
  3
B0
350
12D
  3
B1
350
12E
  3
B2
350
12F
  3
B3
350
130
  3
B4
350
131
  3
B5
350
132
  3
B6
350
133
  3
B7
350
134
  3
B8
350
135
  3
B9
350
136
  3
C0
350
137
  3
C1
350
138
  3
C2
350
139
  3
C3
350
13A
  3
C4
350
13B
  3
C5
350
13C
  3
C6
350
13D
  3
C7
350
13E
  3
C8
350
13F
  3
C9
350
140
  3
D0
350
141
  3
D1
350
142
  3
D2
350
143
  0
DICTIONARY
  5
104C6
102
{ACAD_REACTORS
330
C
102
}
330
C
100
AcDbDictionary
281
     1
  3
Imperial24
350
104C8
  0
DICTIONARY
  5
86
102
{ACAD_REACTORS
330
C
102
}
330
C
100
AcDbDictionary
281
     1
  3
Standard
350
87
  0
DICTIONARY
  5
99
102
{ACAD_REACTORS
330
C
102
}
330
C
100
AcDbDictionary
281
     1
  3
2dWireframe
350
9F
  3
3D Hidden
350
A1
  3
3dWireframe
350
A0
  3
Basic
350
9E
  3
Brighten
350
A5
  3
ColorChange
350
A9
  3
Conceptual
350
A2
  3
Dim
350
A4
  3
EdgeColorOff
350
104C5
  3
Facepattern
350
A8
  3
Flat
350
9A
  3
FlatWithEdges
350
9B
  3
Gouraud
350
9C
  3
GouraudWithEdges
350
9D
  3
Hidden
350
104BD
  3
JitterOff
350
104C3
  3
Linepattern
350
A7
  3
OverhangOff
350
104C4
  3
Realistic
350
A3
  3
Shaded
350
104C2
  3
Shaded with edges
350
104C1
  3
Shades of Gray
350
104BE
  3
Sketchy
350
104BF
  3
Thicken
350
A6
  3
Wireframe
350
104BC
  3
X-Ray
350
104C0
  0
XRECORD
  5
FF6
102
{ACAD_REACTORS
330
C
102
}
330
C
100
AcDbXrecord
280
     1
 90
   990106
  3

 60
     0
 61
     0
 62
     1
 63
     3
 64
     0
 65
     0
 66
     0
 67
     3
 68
     1
 69
     0
 70
     0
 71
     0
 72
     0
 40
1.0
170
     0
340
0
  0
XRECORD
  5
11882
102
{ACAD_REACTORS
330
C
102
}
330
C
100
AcDbXrecord
280
     1
 90
        1
330
87
330
ED09
  0
DICTIONARY
  5
66
102
{ACAD_REACTORS
330
C
102
}
330
C
100
AcDbDictionary
281
     1
  3
CANNOSCALE
350
F0
  3
CMLEADERSTYLE
350
EF
  3
CTABLESTYLE
350
89
  3
CVIEWDETAILSTYLE
350
104FC
  3
CVIEWSECTIONSTYLE
350
104FD
  3
DIMASSOC
350
67
  3
HIDETEXT
350
6B
  3
INDEXCTL
350
1B48
  3
LAYEREVAL
350
104FE
  3
LAYERNOTIFY
350
104FF
  3
LIGHTINGUNITS
350
1B46
  3
MSLTSCALE
350
1B45
  3
SORTENTS
350
1B47
  0
DICTIONARY
  5
11888
102
{ACAD_REACTORS
330
C
102
}
330
C
100
AcDbDictionary
281
     1
  3
AcDsRecords
350
1188A
  3
AcDsSchemas
350
11889
1001
ACAD
1070
     2
  0
DICTIONARY
  5
F03
102
{ACAD_REACTORS
330
3D3
102
}
330
3D3
100
AcDbDictionary
281
     1
  0
DICTIONARY
  5
3D4
102
{ACAD_REACTORS
330
3D3
102
}
330
3D3
100
AcDbDictionary
281
     1
  0
DICTIONARY
  5
F02
102
{ACAD_REACTORS
330
3D3
102
}
330
3D3
100
AcDbDictionary
281
     1
1001
ACAD
1000
<All
  0
XRECORD
  5
18F
102
{ACAD_REACTORS
330
E6
102
}
330
E6
100
AcDbXrecord
280
     1
290
     1
  0
SORTENTSTABLE
  5
159
102
{ACAD_REACTORS
330
158
102
}
330
158
100
AcDbSortentsTable
330
1F
  0
XRECORD
  5
11881
102
{ACAD_REACTORS
330
104B9
102
}
330
104B9
100
AcDbXrecord
280
     1
 40
163794.0
  1
\pxqc;RECOMMENDED PC BOARD LAYOUT (COMPONENT SIDE)
  0
ACDBDETAILVIEWSTYLE
  5
104CA
102
{ACAD_REACTORS
330
104C9
102
}
330
104C9
100
AcDbModelDocViewStyle
 70
     0
  3
Imperial24
290
     0
100
AcDbDetailViewStyle
 70
     0
 71
     0
 90
        3
 71
     1
340
11
 62
   256
 40
0.24
340
0
 62
   256
 40
0.24
300

 40
0.36
280
     3
 71
     2
340
16
 90
       25
 62
   256
 71
     3
340
11
 62
   256
 40
0.24
 90
        1
 40
0.75
 90
        1
300
%<\AcVar ViewType \f "%tc1">% %<\AcVar ViewDetailId>%\PSCALE %<\AcVar ViewScale \f "%sn">%
 71
     4
340
16
 90
       25
 62
   256
340
16
 90
       25
 62
   256
280
     0
  0
LAYOUT
  5
59
102
{ACAD_REACTORS
330
1A
102
}
330
1A
100
AcDbPlotSettings
  1

  2
None
  4

  6

 40
0.0
 41
0.0
 42
0.0
 43
0.0
 44
0.0
 45
0.0
 46
0.0
 47
0.0
 48
0.0
 49
0.0
140
0.0
141
0.0
142
1.0
143
1.0
 70
   688
 72
     0
 73
     0
 74
     5
  7
monochrome.ctb
 75
    16
147
1.0
 76
     0
 77
     2
 78
   300
148
0.0
149
0.0
100
AcDbLayout
  1
Layout1
 70
     1
 71
     1
 10
0.0
 20
0.0
 11
12.0
 21
9.0
 12
0.0
 22
0.0
 32
0.0
 14
0.0
 24
0.0
 34
0.0
 15
0.0
 25
0.0
 35
0.0
146
0.0
 13
0.0
 23
0.0
 33
0.0
 16
1.0
 26
0.0
 36
0.0
 17
0.0
 27
1.0
 37
0.0
 76
     0
330
58
  0
LAYOUT
  5
5E
102
{ACAD_REACTORS
330
1A
102
}
330
1A
100
AcDbPlotSettings
  1

  2
None
  4

  6

 40
0.0
 41
0.0
 42
0.0
 43
0.0
 44
0.0
 45
0.0
 46
0.0
 47
0.0
 48
0.0
 49
0.0
140
0.0
141
0.0
142
1.0
143
1.0
 70
   688
 72
     0
 73
     0
 74
     5
  7
monochrome.ctb
 75
    16
147
1.0
 76
     0
 77
     2
 78
   300
148
0.0
149
0.0
100
AcDbLayout
  1
Layout2
 70
     1
 71
     2
 10
0.0
 20
0.0
 11
12.0
 21
9.0
 12
0.0
 22
0.0
 32
0.0
 14
0.0
 24
0.0
 34
0.0
 15
0.0
 25
0.0
 35
0.0
146
0.0
 13
0.0
 23
0.0
 33
0.0
 16
1.0
 26
0.0
 36
0.0
 17
0.0
 27
1.0
 37
0.0
 76
     0
330
5D
  0
LAYOUT
  5
22
102
{ACAD_REACTORS
330
1A
102
}
330
1A
100
AcDbPlotSettings
  1

  2
Adobe PDF
  4
Letter
  6

 40
3.174999952316284
 41
3.174999952316284
 42
3.175003051757812
 43
3.17498779296875
 44
215.8999938964844
 45
279.3999938964844
 46
16.7978864977157
 47
0.0
 48
0.0
 49
0.0
140
0.0
141
0.0
142
1.0
143
0.320423384209339
 70
 11956
 72
     0
 73
     1
 74
     1
  7
monochrome.ctb
 75
     0
147
3.120870851756187
 76
     0
 77
     2
 78
   300
148
1.914359179707098
149
1.76298936967489
100
AcDbLayout
  1
Model
 70
     1
 71
     0
 10
0.0
 20
0.0
 11
12.0
 21
9.0
 12
0.0
 22
0.0
 32
0.0
 14
0.0
 24
0.0
 34
0.0
 15
0.0
 25
0.0
 35
0.0
146
0.0
 13
0.0
 23
0.0
 33
0.0
 16
1.0
 26
0.0
 36
0.0
 17
0.0
 27
1.0
 37
0.0
 76
     0
330
1F
331
94
1001
ACAD_PSEXT
1000
Adobe PDF
1000
Adobe PDF Converter
1000
My Documents
1000

1070
     0
  0
MATERIAL
  5
97
102
{ACAD_REACTORS
330
72
102
}
330
72
100
AcDbMaterial
  1
ByBlock
 94
       63
  0
MATERIAL
  5
96
102
{ACAD_REACTORS
330
72
102
}
330
72
100
AcDbMaterial
  1
ByLayer
 94
       63
  0
MATERIAL
  5
98
102
{ACAD_XDICTIONARY
360
110
102
}
102
{ACAD_REACTORS
330
72
102
}
330
72
100
AcDbMaterial
  1
Global
 43
0.0208000000566244
 43
0.0
 43
0.0
 43
0.0
 43
0.0
 43
0.0208000000566244
 43
0.0
 43
0.0
 43
0.0
 43
0.0
 43
1.0
 43
0.0
 43
0.0
 43
0.0
 43
0.0
 43
1.0
 49
0.0208000000566244
 49
0.0
 49
0.0
 49
0.0
 49
0.0
 49
0.0208000000566244
 49
0.0
 49
0.0
 49
0.0
 49
0.0
 49
1.0
 49
0.0
 49
0.0
 49
0.0
 49
0.0
 49
1.0
142
0.0208000000566244
142
0.0
142
0.0
142
0.0
142
0.0
142
0.0208000000566244
142
0.0
142
0.0
142
0.0
142
0.0
142
1.0
142
0.0
142
0.0
142
0.0
142
0.0
142
1.0
144
0.0208000000566244
144
0.0
144
0.0
144
0.0
144
0.0
144
0.0208000000566244
144
0.0
144
0.0
144
0.0
144
0.0
144
1.0
144
0.0
144
0.0
144
0.0
144
0.0
144
1.0
 94
       63
1001
ACAD
1070
    -1
1070
     3
1070
     0
1000

1071
        0
1070
     0
  0
MLEADERSTYLE
  5
D8
102
{ACAD_REACTORS
330
D7
102
}
330
D7
100
AcDbMLeaderStyle
179
     2
170
     2
171
     1
172
     0
 90
        2
 40
0.0
 41
0.0
173
     1
 91
-1056964608
340
14
 92
       -2
290
     1
 42
0.09
291
     1
 43
0.36
  3
Standard
 44
0.18
300

342
11
174
     1
178
     1
175
     1
176
     0
 93
-1056964608
 45
0.18
292
     0
297
     0
 46
0.18
 94
-1056964608
 47
1.0
 49
1.0
140
1.0
293
     1
141
0.0
294
     1
177
     0
142
1.0
295
     0
296
     0
143
0.125
271
     0
272
     9
273
     9
  0
MLINESTYLE
  5
18
102
{ACAD_REACTORS
330
17
102
}
330
17
100
AcDbMlineStyle
  2
STANDARD
 70
     0
  3

 62
   256
 51
90.0
 52
90.0
 71
     2
 49
0.5
 62
   256
  6
BYLAYER
 49
-0.5
 62
   256
  6
BYLAYER
  0
PLOTSETTINGS
  5
15F4
102
{ACAD_REACTORS
330
19
102
}
330
19
100
AcDbPlotSettings
  1
PDF
  2
Adobe PDF
  4
Letter
  6

 40
3.174999952316284
 41
3.174999952316284
 42
3.175003051757812
 43
3.17498779296875
 44
215.8999938964844
 45
279.3999938964844
 46
16.76826855480936
 47
0.0
 48
0.0
 49
0.0
140
0.0
141
0.0
142
1.0
143
0.3206265864387699
 70
 11956
 72
     0
 73
     1
 74
     1
  7
monochrome.ctb
 75
     0
147
3.11889294991752
 76
     0
 77
     2
 78
   300
148
-509.5040353811871
149
-740.6797199835517
1001
ACAD_PSEXT
1000
Adobe PDF
1000
Adobe PDF Converter
1000
My Documents
1000

1070
     0
  0
ACDBPLACEHOLDER
  5
F
102
{ACAD_REACTORS
330
E
102
}
330
E
  0
SCALE
  5
B7
102
{ACAD_REACTORS
330
B6
102
}
330
B6
100
AcDbScale
 70
     0
300
1:1
140
1.0
141
1.0
290
     1
  0
SCALE
  5
124
102
{ACAD_REACTORS
330
B6
102
}
330
B6
100
AcDbScale
 70
     0
300
1:2
140
1.0
141
2.0
290
     0
  0
SCALE
  5
125
102
{ACAD_REACTORS
330
B6
102
}
330
B6
100
AcDbScale
 70
     0
300
1:4
140
1.0
141
4.0
290
     0
  0
SCALE
  5
126
102
{ACAD_REACTORS
330
B6
102
}
330
B6
100
AcDbScale
 70
     0
300
1:5
140
1.0
141
5.0
290
     0
  0
SCALE
  5
127
102
{ACAD_REACTORS
330
B6
102
}
330
B6
100
AcDbScale
 70
     0
300
1:8
140
1.0
141
8.0
290
     0
  0
SCALE
  5
128
102
{ACAD_REACTORS
330
B6
102
}
330
B6
100
AcDbScale
 70
     0
300
1:10
140
1.0
141
10.0
290
     0
  0
SCALE
  5
129
102
{ACAD_REACTORS
330
B6
102
}
330
B6
100
AcDbScale
 70
     0
300
1:16
140
1.0
141
16.0
290
     0
  0
SCALE
  5
12A
102
{ACAD_REACTORS
330
B6
102
}
330
B6
100
AcDbScale
 70
     0
300
1:20
140
1.0
141
20.0
290
     0
  0
SCALE
  5
12B
102
{ACAD_REACTORS
330
B6
102
}
330
B6
100
AcDbScale
 70
     0
300
1:30
140
1.0
141
30.0
290
     0
  0
SCALE
  5
12C
102
{ACAD_REACTORS
330
B6
102
}
330
B6
100
AcDbScale
 70
     0
300
1:40
140
1.0
141
40.0
290
     0
  0
SCALE
  5
12D
102
{ACAD_REACTORS
330
B6
102
}
330
B6
100
AcDbScale
 70
     0
300
1:50
140
1.0
141
50.0
290
     0
  0
SCALE
  5
12E
102
{ACAD_REACTORS
330
B6
102
}
330
B6
100
AcDbScale
 70
     0
300
1:100
140
1.0
141
100.0
290
     0
  0
SCALE
  5
12F
102
{ACAD_REACTORS
330
B6
102
}
330
B6
100
AcDbScale
 70
     0
300
2:1
140
2.0
141
1.0
290
     0
  0
SCALE
  5
130
102
{ACAD_REACTORS
330
B6
102
}
330
B6
100
AcDbScale
 70
     0
300
4:1
140
4.0
141
1.0
290
     0
  0
SCALE
  5
131
102
{ACAD_REACTORS
330
B6
102
}
330
B6
100
AcDbScale
 70
     0
300
8:1
140
8.0
141
1.0
290
     0
  0
SCALE
  5
132
102
{ACAD_REACTORS
330
B6
102
}
330
B6
100
AcDbScale
 70
     0
300
10:1
140
10.0
141
1.0
290
     0
  0
SCALE
  5
133
102
{ACAD_REACTORS
330
B6
102
}
330
B6
100
AcDbScale
 70
     0
300
100:1
140
100.0
141
1.0
290
     0
  0
SCALE
  5
134
102
{ACAD_REACTORS
330
B6
102
}
330
B6
100
AcDbScale
 70
     0
300
1/128" = 1'-0"
140
0.0078125
141
12.0
290
     0
  0
SCALE
  5
135
102
{ACAD_REACTORS
330
B6
102
}
330
B6
100
AcDbScale
 70
     0
300
1/64" = 1'-0"
140
0.015625
141
12.0
290
     0
  0
SCALE
  5
136
102
{ACAD_REACTORS
330
B6
102
}
330
B6
100
AcDbScale
 70
     0
300
1/32" = 1'-0"
140
0.03125
141
12.0
290
     0
  0
SCALE
  5
137
102
{ACAD_REACTORS
330
B6
102
}
330
B6
100
AcDbScale
 70
     0
300
1/16" = 1'-0"
140
0.0625
141
12.0
290
     0
  0
SCALE
  5
138
102
{ACAD_REACTORS
330
B6
102
}
330
B6
100
AcDbScale
 70
     0
300
3/32" = 1'-0"
140
0.09375
141
12.0
290
     0
  0
SCALE
  5
139
102
{ACAD_REACTORS
330
B6
102
}
330
B6
100
AcDbScale
 70
     0
300
1/8" = 1'-0"
140
0.125
141
12.0
290
     0
  0
SCALE
  5
13A
102
{ACAD_REACTORS
330
B6
102
}
330
B6
100
AcDbScale
 70
     0
300
3/16" = 1'-0"
140
0.1875
141
12.0
290
     0
  0
SCALE
  5
13B
102
{ACAD_REACTORS
330
B6
102
}
330
B6
100
AcDbScale
 70
     0
300
1/4" = 1'-0"
140
0.25
141
12.0
290
     0
  0
SCALE
  5
13C
102
{ACAD_REACTORS
330
B6
102
}
330
B6
100
AcDbScale
 70
     0
300
3/8" = 1'-0"
140
0.375
141
12.0
290
     0
  0
SCALE
  5
13D
102
{ACAD_REACTORS
330
B6
102
}
330
B6
100
AcDbScale
 70
     0
300
1/2" = 1'-0"
140
0.5
141
12.0
290
     0
  0
SCALE
  5
13E
102
{ACAD_REACTORS
330
B6
102
}
330
B6
100
AcDbScale
 70
     0
300
3/4" = 1'-0"
140
0.75
141
12.0
290
     0
  0
SCALE
  5
13F
102
{ACAD_REACTORS
330
B6
102
}
330
B6
100
AcDbScale
 70
     0
300
1" = 1'-0"
140
1.0
141
12.0
290
     0
  0
SCALE
  5
140
102
{ACAD_REACTORS
330
B6
102
}
330
B6
100
AcDbScale
 70
     0
300
1-1/2" = 1'-0"
140
1.5
141
12.0
290
     0
  0
SCALE
  5
141
102
{ACAD_REACTORS
330
B6
102
}
330
B6
100
AcDbScale
 70
     0
300
3" = 1'-0"
140
3.0
141
12.0
290
     0
  0
SCALE
  5
142
102
{ACAD_REACTORS
330
B6
102
}
330
B6
100
AcDbScale
 70
     0
300
6" = 1'-0"
140
6.0
141
12.0
290
     0
  0
SCALE
  5
143
102
{ACAD_REACTORS
330
B6
102
}
330
B6
100
AcDbScale
 70
     0
300
1'-0" = 1'-0"
140
12.0
141
12.0
290
     0
  0
ACDBSECTIONVIEWSTYLE
  5
104C8
102
{ACAD_REACTORS
330
104C6
102
}
330
104C6
100
AcDbModelDocViewStyle
 70
     0
  3
Imperial24
290
     0
100
AcDbSectionViewStyle
 70
     0
 71
     0
 90
       78
 71
     1
340
11
 62
   256
 40
0.24
340
0
340
0
 62
   256
 40
0.24
300
I, O, Q, S, X, Z
 40
0.48
 90
        3
 40
0.18
 90
        1
 71
     2
340
104C7
 90
       25
 62
   256
340
16
 90
       50
 62
   256
 40
0.24
 40
0.0
 40
0.24
 71
     3
340
11
 62
   256
 40
0.24
 90
        1
 40
0.75
 90
        1
300
%<\AcVar ViewType \f "%tc1">% %<\AcVar ViewSectionStartId>%-%<\AcVar ViewSectionEndId>%\PSCALE %<\AcVar ViewScale \f "%sn">%
 71
     4
 62
   256
 62
   257
300
ANSI31
 40
1.0
 90
        0
290
     0
290
     0
 90
        6
 40
0.0
 40
1.570796326794896
 40
0.2617993877991494
 40
1.308996938995747
 40
-0.2617993877991494
 40
1.832595714594046
  0
TABLESTYLE
  5
87
102
{ACAD_XDICTIONARY
360
104
102
}
102
{ACAD_REACTORS
330
86
102
}
330
86
100
AcDbTableStyle
280
     0
  3
Standard
 70
     0
 71
     0
 40
0.06
 41
0.06
280
     0
281
     0
  7
Standard
140
0.18
170
     2
 62
     0
 63
     7
283
     0
 90
      512
 91
        0
  1

274
    -2
284
     1
 64
     0
275
    -2
285
     1
 65
     0
276
    -2
286
     1
 66
     0
277
    -2
287
     1
 67
     0
278
    -2
288
     1
 68
     0
279
    -2
289
     1
 69
     0
  7
Standard
140
0.25
170
     5
 62
     0
 63
     7
283
     0
 90
      512
 91
        0
  1

274
    -2
284
     1
 64
     0
275
    -2
285
     1
 65
     0
276
    -2
286
     1
 66
     0
277
    -2
287
     1
 67
     0
278
    -2
288
     1
 68
     0
279
    -2
289
     1
 69
     0
  7
Standard
140
0.18
170
     5
 62
     0
 63
     7
283
     0
 90
      512
 91
        0
  1

274
    -2
284
     1
 64
     0
275
    -2
285
     1
 65
     0
276
    -2
286
     1
 66
     0
277
    -2
287
     1
 67
     0
278
    -2
288
     1
 68
     0
279
    -2
289
     1
 69
     0
  0
VISUALSTYLE
  5
9F
102
{ACAD_XDICTIONARY
360
11895
102
}
102
{ACAD_REACTORS
330
99
102
}
330
99
100
AcDbVisualStyle
  2
2dWireframe
 70
     4
177
     2
291
     0
 71
     0
176
     1
 72
     2
176
     1
 73
     1
176
     1
 90
        0
176
     1
 40
0.6
176
     1
 41
30.0
176
     1
 63
     7
176
     1
 74
     1
176
     1
 91
        4
176
     1
 64
     7
176
     1
 65
   257
176
     1
 75
     1
176
     1
175
     1
176
     1
 42
1.0
176
     1
 92
        0
176
     1
 66
   257
176
     1
 43
1.0
176
     1
 76
     1
176
     1
 77
     6
176
     1
 78
     2
176
     1
 67
     7
176
     1
 79
     5
176
     1
170
     0
176
     1
171
     0
176
     1
290
     0
176
     1
 93
        1
176
     1
 44
0.0
176
     1
173
     0
176
     1
1001
ACAD
1000
AcDbSavedByObjectVersion
1070
     0
  0
VISUALSTYLE
  5
A1
102
{ACAD_XDICTIONARY
360
11899
102
}
102
{ACAD_REACTORS
330
99
102
}
330
99
100
AcDbVisualStyle
  2
3D Hidden
 70
     6
177
     2
291
     0
 71
     1
176
     1
 72
     2
176
     1
 73
     2
176
     1
 90
        0
176
     1
 40
0.6
176
     1
 41
30.0
176
     1
 63
     7
176
     1
 74
     2
176
     1
 91
        2
176
     1
 64
     7
176
     1
 65
   257
176
     1
 75
     2
176
     1
175
     1
176
     1
 42
40.0
176
     1
 92
        0
176
     1
 66
   257
176
     1
 43
1.0
176
     1
 76
     1
176
     1
 77
     6
176
     1
 78
     2
176
     1
 67
     7
176
     1
 79
     3
176
     1
170
     0
176
     1
171
     0
176
     1
290
     0
176
     1
 93
        1
176
     1
 44
0.0
176
     1
173
     0
176
     1
1001
ACAD
1000
AcDbSavedByObjectVersion
1070
     0
  0
VISUALSTYLE
  5
A0
102
{ACAD_XDICTIONARY
360
11897
102
}
102
{ACAD_REACTORS
330
99
102
}
330
99
100
AcDbVisualStyle
  2
3dWireframe
 70
     5
177
     2
291
     0
 71
     0
176
     1
 72
     2
176
     1
 73
     1
176
     1
 90
        0
176
     1
 40
0.6
176
     1
 41
30.0
176
     1
 63
     7
176
     1
 74
     1
176
     1
 91
        4
176
     1
 64
     7
176
     1
 65
   257
176
     1
 75
     1
176
     1
175
     1
176
     1
 42
1.0
176
     1
 92
        0
176
     1
 66
   257
176
     1
 43
1.0
176
     1
 76
     1
176
     1
 77
     6
176
     1
 78
     2
176
     1
 67
     7
176
     1
 79
     5
176
     1
170
     0
176
     1
171
     0
176
     1
290
     0
176
     1
 93
        1
176
     1
 44
0.0
176
     1
173
     0
176
     1
1001
ACAD
1000
AcDbSavedByObjectVersion
1070
     0
  0
VISUALSTYLE
  5
9E
102
{ACAD_XDICTIONARY
360
11893
102
}
102
{ACAD_REACTORS
330
99
102
}
330
99
100
AcDbVisualStyle
  2
Basic
 70
     7
177
     2
291
     1
 71
     1
176
     1
 72
     0
176
     1
 73
     1
176
     1
 90
        0
176
     1
 40
0.6
176
     1
 41
30.0
176
     1
 63
     7
176
     1
 74
     0
176
     1
 91
        4
176
     1
 64
     7
176
     1
 65
   257
176
     1
 75
     1
176
     1
175
     1
176
     1
 42
1.0
176
     1
 92
        8
176
     1
 66
     7
176
     1
 43
1.0
176
     1
 76
     1
176
     1
 77
     6
176
     1
 78
     2
176
     1
 67
     7
176
     1
 79
     5
176
     1
170
     0
176
     1
171
     0
176
     1
290
     0
176
     1
 93
        1
176
     1
 44
0.0
176
     1
173
     0
176
     1
1001
ACAD
1000
AcDbSavedByObjectVersion
1070
     0
  0
VISUALSTYLE
  5
A5
102
{ACAD_XDICTIONARY
360
118A1
102
}
102
{ACAD_REACTORS
330
99
102
}
330
99
100
AcDbVisualStyle
  2
Brighten
 70
    12
177
     2
291
     1
 71
     2
176
     1
 72
     2
176
     1
 73
     1
176
     1
 90
        0
176
     1
 40
0.6
176
     1
 41
30.0
176
     1
 63
     7
176
     1
 74
     1
176
     1
 91
        4
176
     1
 64
     7
176
     1
 65
   257
176
     1
 75
     1
176
     1
175
     1
176
     1
 42
1.0
176
     1
 92
        8
176
     1
 66
     7
176
     1
 43
1.0
176
     1
 76
     1
176
     1
 77
     6
176
     1
 78
     2
176
     1
 67
     7
176
     1
 79
     5
176
     1
170
     0
176
     1
171
     0
176
     1
290
     0
176
     1
 93
        1
176
     1
 44
50.0
176
     1
173
     0
176
     1
1001
ACAD
1000
AcDbSavedByObjectVersion
1070
     0
  0
VISUALSTYLE
  5
A9
102
{ACAD_XDICTIONARY
360
118A9
102
}
102
{ACAD_REACTORS
330
99
102
}
330
99
100
AcDbVisualStyle
  2
ColorChange
 70
    16
177
     2
291
     1
 71
     2
176
     1
 72
     2
176
     1
 73
     3
176
     1
 90
        0
176
     1
 40
0.6
176
     1
 41
30.0
176
     1
 63
     8
176
     1
 74
     1
176
     1
 91
        4
176
     1
 64
     7
176
     1
 65
   257
176
     1
 75
     1
176
     1
175
     1
176
     1
 42
1.0
176
     1
 92
        8
176
     1
 66
     8
176
     1
 43
1.0
176
     1
 76
     1
176
     1
 77
     6
176
     1
 78
     2
176
     1
 67
     7
176
     1
 79
     5
176
     1
170
     0
176
     1
171
     0
176
     1
290
     0
176
     1
 93
        1
176
     1
 44
0.0
176
     1
173
     0
176
     1
1001
ACAD
1000
AcDbSavedByObjectVersion
1070
     0
  0
VISUALSTYLE
  5
A2
102
{ACAD_XDICTIONARY
360
1189B
102
}
102
{ACAD_REACTORS
330
99
102
}
330
99
100
AcDbVisualStyle
  2
Conceptual
 70
     9
177
     2
291
     0
 71
     3
176
     1
 72
     2
176
     1
 73
     1
176
     1
 90
        0
176
     1
 40
0.6
176
     1
 41
30.0
176
     1
 63
     7
176
     1
 74
     2
176
     1
 91
        2
176
     1
 64
     7
176
     1
 65
   257
176
     1
 75
     1
176
     1
175
     1
176
     1
 42
40.0
176
     1
 92
        8
176
     1
 66
     7
176
     1
 43
1.0
176
     1
 76
     1
176
     1
 77
     6
176
     1
 78
     2
176
     1
 67
     7
176
     1
 79
     3
176
     1
170
     0
176
     1
171
     0
176
     1
290
     0
176
     1
 93
        1
176
     1
 44
0.0
176
     1
173
     0
176
     1
1001
ACAD
1000
AcDbSavedByObjectVersion
1070
     0
  0
VISUALSTYLE
  5
A4
102
{ACAD_XDICTIONARY
360
1189F
102
}
102
{ACAD_REACTORS
330
99
102
}
330
99
100
AcDbVisualStyle
  2
Dim
 70
    11
177
     2
291
     1
 71
     2
176
     1
 72
     2
176
     1
 73
     1
176
     1
 90
        0
176
     1
 40
0.6
176
     1
 41
30.0
176
     1
 63
     7
176
     1
 74
     1
176
     1
 91
        4
176
     1
 64
     7
176
     1
 65
   257
176
     1
 75
     1
176
     1
175
     1
176
     1
 42
1.0
176
     1
 92
        8
176
     1
 66
     7
176
     1
 43
1.0
176
     1
 76
     1
176
     1
 77
     6
176
     1
 78
     2
176
     1
 67
     7
176
     1
 79
     5
176
     1
170
     0
176
     1
171
     0
176
     1
290
     0
176
     1
 93
        1
176
     1
 44
-50.0
176
     1
173
     0
176
     1
1001
ACAD
1000
AcDbSavedByObjectVersion
1070
     0
  0
VISUALSTYLE
  5
104C5
102
{ACAD_XDICTIONARY
360
118BD
102
}
102
{ACAD_REACTORS
330
99
102
}
330
99
100
AcDbVisualStyle
  2
EdgeColorOff
 70
    22
177
     2
291
     1
 71
     2
176
     0
 72
     2
176
     0
 73
     0
176
     0
 90
        0
176
     0
 40
0.6
176
     0
 41
30.0
176
     0
 63
     7
421
 16777215
176
     0
 74
     1
176
     0
 91
        4
176
     0
 64
     7
176
     0
 65
   257
176
     0
 75
     1
176
     0
175
     1
176
     0
 42
1.0
176
     0
 92
        8
176
     2
 66
     7
176
     0
 43
1.0
176
     0
 76
     1
176
     0
 77
     6
176
     0
 78
     2
176
     0
 67
     7
176
     0
 79
     5
176
     0
170
     0
176
     0
171
     0
176
     0
290
     0
176
     0
 93
        1
176
     0
 44
0.0
176
     0
173
     0
176
     0
1001
ACAD
1000
AcDbSavedByObjectVersion
1070
     0
  0
VISUALSTYLE
  5
A8
102
{ACAD_XDICTIONARY
360
118A7
102
}
102
{ACAD_REACTORS
330
99
102
}
330
99
100
AcDbVisualStyle
  2
Facepattern
 70
    15
177
     2
291
     1
 71
     2
176
     1
 72
     2
176
     1
 73
     1
176
     1
 90
        0
176
     1
 40
0.6
176
     1
 41
30.0
176
     1
 63
     7
176
     1
 74
     1
176
     1
 91
        4
176
     1
 64
     7
176
     1
 65
   257
176
     1
 75
     1
176
     1
175
     1
176
     1
 42
1.0
176
     1
 92
        8
176
     1
 66
     7
176
     1
 43
1.0
176
     1
 76
     1
176
     1
 77
     6
176
     1
 78
     2
176
     1
 67
     7
176
     1
 79
     5
176
     1
170
     0
176
     1
171
     0
176
     1
290
     0
176
     1
 93
        1
176
     1
 44
0.0
176
     1
173
     0
176
     1
1001
ACAD
1000
AcDbSavedByObjectVersion
1070
     0
  0
VISUALSTYLE
  5
9A
102
{ACAD_XDICTIONARY
360
1188B
102
}
102
{ACAD_REACTORS
330
99
102
}
330
99
100
AcDbVisualStyle
  2
Flat
 70
     0
177
     2
291
     1
 71
     2
176
     1
 72
     1
176
     1
 73
     1
176
     1
 90
        2
176
     1
 40
0.6
176
     1
 41
30.0
176
     1
 63
     7
176
     1
 74
     0
176
     1
 91
        4
176
     1
 64
     7
176
     1
 65
   257
176
     1
 75
     1
176
     1
175
     1
176
     1
 42
1.0
176
     1
 92
        8
176
     1
 66
     7
176
     1
 43
1.0
176
     1
 76
     1
176
     1
 77
     6
176
     1
 78
     2
176
     1
 67
     7
176
     1
 79
     5
176
     1
170
     0
176
     1
171
     0
176
     1
290
     0
176
     1
 93
        1
176
     1
 44
0.0
176
     1
173
     0
176
     1
1001
ACAD
1000
AcDbSavedByObjectVersion
1070
     0
  0
VISUALSTYLE
  5
9B
102
{ACAD_XDICTIONARY
360
1188D
102
}
102
{ACAD_REACTORS
330
99
102
}
330
99
100
AcDbVisualStyle
  2
FlatWithEdges
 70
     1
177
     2
291
     1
 71
     2
176
     1
 72
     1
176
     1
 73
     1
176
     1
 90
        2
176
     1
 40
0.6
176
     1
 41
30.0
176
     1
 63
     7
176
     1
 74
     1
176
     1
 91
        4
176
     1
 64
     7
176
     1
 65
   257
176
     1
 75
     1
176
     1
175
     1
176
     1
 42
1.0
176
     1
 92
        0
176
     1
 66
   257
176
     1
 43
1.0
176
     1
 76
     1
176
     1
 77
     6
176
     1
 78
     2
176
     1
 67
     7
176
     1
 79
     5
176
     1
170
     0
176
     1
171
     0
176
     1
290
     0
176
     1
 93
        1
176
     1
 44
0.0
176
     1
173
     0
176
     1
1001
ACAD
1000
AcDbSavedByObjectVersion
1070
     0
  0
VISUALSTYLE
  5
9C
102
{ACAD_XDICTIONARY
360
1188F
102
}
102
{ACAD_REACTORS
330
99
102
}
330
99
100
AcDbVisualStyle
  2
Gouraud
 70
     2
177
     2
291
     1
 71
     2
176
     1
 72
     2
176
     1
 73
     1
176
     1
 90
        2
176
     1
 40
0.6
176
     1
 41
30.0
176
     1
 63
     7
176
     1
 74
     0
176
     1
 91
        4
176
     1
 64
     7
176
     1
 65
   257
176
     1
 75
     1
176
     1
175
     1
176
     1
 42
1.0
176
     1
 92
        0
176
     1
 66
     7
176
     1
 43
1.0
176
     1
 76
     1
176
     1
 77
     6
176
     1
 78
     2
176
     1
 67
     7
176
     1
 79
     5
176
     1
170
     0
176
     1
171
     0
176
     1
290
     0
176
     1
 93
        1
176
     1
 44
0.0
176
     1
173
     0
176
     1
1001
ACAD
1000
AcDbSavedByObjectVersion
1070
     0
  0
VISUALSTYLE
  5
9D
102
{ACAD_XDICTIONARY
360
11891
102
}
102
{ACAD_REACTORS
330
99
102
}
330
99
100
AcDbVisualStyle
  2
GouraudWithEdges
 70
     3
177
     2
291
     1
 71
     2
176
     1
 72
     2
176
     1
 73
     1
176
     1
 90
        2
176
     1
 40
0.6
176
     1
 41
30.0
176
     1
 63
     7
176
     1
 74
     1
176
     1
 91
        4
176
     1
 64
     7
176
     1
 65
   257
176
     1
 75
     1
176
     1
175
     1
176
     1
 42
1.0
176
     1
 92
        0
176
     1
 66
   257
176
     1
 43
1.0
176
     1
 76
     1
176
     1
 77
     6
176
     1
 78
     2
176
     1
 67
     7
176
     1
 79
     5
176
     1
170
     0
176
     1
171
     0
176
     1
290
     0
176
     1
 93
        1
176
     1
 44
0.0
176
     1
173
     0
176
     1
1001
ACAD
1000
AcDbSavedByObjectVersion
1070
     0
  0
VISUALSTYLE
  5
104BD
102
{ACAD_XDICTIONARY
360
118AD
102
}
102
{ACAD_REACTORS
330
99
102
}
330
99
100
AcDbVisualStyle
  2
Hidden
 70
     6
177
     2
291
     0
 71
     1
176
     1
 72
     2
176
     1
 73
     2
176
     1
 90
        0
176
     1
 40
0.6
176
     1
 41
30.0
176
     1
 63
     7
421
 16777215
176
     1
 74
     2
176
     1
 91
        2
176
     1
 64
     7
176
     1
 65
   257
176
     1
 75
     2
176
     1
175
     1
176
     1
 42
40.0
176
     1
 92
        0
176
     1
 66
   257
176
     1
 43
1.0
176
     1
 76
     1
176
     1
 77
     6
176
     1
 78
     2
176
     1
 67
     7
176
     1
 79
     3
176
     1
170
     0
176
     1
171
     0
176
     1
290
     0
176
     1
 93
        1
176
     1
 44
0.0
176
     1
173
     0
176
     1
1001
ACAD
1000
AcDbSavedByObjectVersion
1070
     0
  0
VISUALSTYLE
  5
104C3
102
{ACAD_XDICTIONARY
360
118B9
102
}
102
{ACAD_REACTORS
330
99
102
}
330
99
100
AcDbVisualStyle
  2
JitterOff
 70
    20
177
     2
291
     1
 71
     2
176
     0
 72
     2
176
     0
 73
     0
176
     0
 90
        0
176
     0
 40
0.6
176
     0
 41
30.0
176
     0
 63
     7
421
 16777215
176
     0
 74
     1
176
     0
 91
        4
176
     0
 64
     7
176
     0
 65
   257
176
     0
 75
     1
176
     0
175
     1
176
     0
 42
1.0
176
     0
 92
       10
176
     2
 66
     7
176
     0
 43
1.0
176
     0
 76
     1
176
     0
 77
     6
176
     0
 78
     2
176
     0
 67
     7
176
     0
 79
     5
176
     0
170
     0
176
     0
171
     0
176
     0
290
     0
176
     0
 93
        1
176
     0
 44
0.0
176
     0
173
     0
176
     0
1001
ACAD
1000
AcDbSavedByObjectVersion
1070
     0
  0
VISUALSTYLE
  5
A7
102
{ACAD_XDICTIONARY
360
118A5
102
}
102
{ACAD_REACTORS
330
99
102
}
330
99
100
AcDbVisualStyle
  2
Linepattern
 70
    14
177
     2
291
     1
 71
     2
176
     1
 72
     2
176
     1
 73
     1
176
     1
 90
        0
176
     1
 40
0.6
176
     1
 41
30.0
176
     1
 63
     7
176
     1
 74
     1
176
     1
 91
        4
176
     1
 64
     7
176
     1
 65
   257
176
     1
 75
     7
176
     1
175
     7
176
     1
 42
1.0
176
     1
 92
        8
176
     1
 66
     7
176
     1
 43
1.0
176
     1
 76
     1
176
     1
 77
     6
176
     1
 78
     2
176
     1
 67
     7
176
     1
 79
     5
176
     1
170
     0
176
     1
171
     0
176
     1
290
     0
176
     1
 93
        1
176
     1
 44
0.0
176
     1
173
     0
176
     1
1001
ACAD
1000
AcDbSavedByObjectVersion
1070
     0
  0
VISUALSTYLE
  5
104C4
102
{ACAD_XDICTIONARY
360
118BB
102
}
102
{ACAD_REACTORS
330
99
102
}
330
99
100
AcDbVisualStyle
  2
OverhangOff
 70
    21
177
     2
291
     1
 71
     2
176
     0
 72
     2
176
     0
 73
     0
176
     0
 90
        0
176
     0
 40
0.6
176
     0
 41
30.0
176
     0
 63
     7
421
 16777215
176
     0
 74
     1
176
     0
 91
        4
176
     0
 64
     7
176
     0
 65
   257
176
     0
 75
     1
176
     0
175
     1
176
     0
 42
1.0
176
     0
 92
        9
176
     2
 66
     7
176
     0
 43
1.0
176
     0
 76
     1
176
     0
 77
     6
176
     0
 78
     2
176
     0
 67
     7
176
     0
 79
     5
176
     0
170
     0
176
     0
171
     0
176
     0
290
     0
176
     0
 93
        1
176
     0
 44
0.0
176
     0
173
     0
176
     0
1001
ACAD
1000
AcDbSavedByObjectVersion
1070
     0
  0
VISUALSTYLE
  5
A3
102
{ACAD_XDICTIONARY
360
1189D
102
}
102
{ACAD_REACTORS
330
99
102
}
330
99
100
AcDbVisualStyle
  2
Realistic
 70
     8
177
     2
291
     0
 71
     2
176
     1
 72
     2
176
     1
 73
     1
176
     1
 90
        0
176
     1
 40
0.6
176
     1
 41
30.0
176
     1
 63
     7
176
     1
 74
     1
176
     1
 91
        0
176
     1
 64
     7
176
     1
 65
   257
176
     1
 75
     1
176
     1
175
     1
176
     1
 42
1.0
176
     1
 92
        8
176
     1
 66
     8
176
     1
 43
1.0
176
     1
 76
     1
176
     1
 77
     6
176
     1
 78
     2
176
     1
 67
     7
176
     1
 79
     5
176
     1
170
     0
176
     1
171
     0
176
     1
290
     0
176
     1
 93
       13
176
     1
 44
0.0
176
     1
173
     0
176
     1
1001
ACAD
1000
AcDbSavedByObjectVersion
1070
     0
  0
VISUALSTYLE
  5
104C2
102
{ACAD_XDICTIONARY
360
118B7
102
}
102
{ACAD_REACTORS
330
99
102
}
330
99
100
AcDbVisualStyle
  2
Shaded
 70
    27
177
     2
291
     0
 71
     2
176
     1
 72
     2
176
     1
 73
     1
176
     1
 90
        2
176
     1
 40
0.6
176
     1
 41
30.0
176
     1
 63
     7
421
 16777215
176
     1
 74
     0
176
     1
 91
        4
176
     1
 64
     7
176
     1
 65
   257
176
     1
 75
     1
176
     1
175
     1
176
     1
 42
1.0
176
     1
 92
        8
176
     1
 66
   257
176
     1
 43
1.0
176
     1
 76
     1
176
     1
 77
     6
176
     1
 78
     2
176
     1
 67
     8
425
  7895160
176
     1
 79
     3
176
     1
170
     0
176
     1
171
     0
176
     1
290
     0
176
     1
 93
        5
176
     1
 44
0.0
176
     1
173
     0
176
     1
1001
ACAD
1000
AcDbSavedByObjectVersion
1070
     0
  0
VISUALSTYLE
  5
104C1
102
{ACAD_XDICTIONARY
360
118B5
102
}
102
{ACAD_REACTORS
330
99
102
}
330
99
100
AcDbVisualStyle
  2
Shaded with edges
 70
    26
177
     2
291
     0
 71
     2
176
     1
 72
     2
176
     1
 73
     1
176
     1
 90
        2
176
     1
 40
0.6
176
     1
 41
30.0
176
     1
 63
     7
421
 16777215
176
     1
 74
     1
176
     1
 91
       10
176
     1
 64
     7
176
     1
 65
   257
176
     1
 75
     2
176
     1
175
     1
176
     1
 42
1.0
176
     1
 92
        8
176
     1
 66
   257
176
     1
 43
1.0
176
     1
 76
     1
176
     1
 77
     6
176
     1
 78
     2
176
     1
 67
     7
176
     1
 79
     3
176
     1
170
     0
176
     1
171
     0
176
     1
290
     0
176
     1
 93
        5
176
     1
 44
0.0
176
     1
173
     0
176
     1
1001
ACAD
1000
AcDbSavedByObjectVersion
1070
     0
  0
VISUALSTYLE
  5
104BE
102
{ACAD_XDICTIONARY
360
118AF
102
}
102
{ACAD_REACTORS
330
99
102
}
330
99
100
AcDbVisualStyle
  2
Shades of Gray
 70
    23
177
     2
291
     0
 71
     2
176
     1
 72
     2
176
     1
 73
     3
176
     1
 90
        0
176
     1
 40
0.6
176
     1
 41
30.0
176
     1
 63
     7
421
 16777215
176
     1
 74
     2
176
     1
 91
        2
176
     1
 64
     7
176
     1
 65
     7
176
     1
 75
     1
176
     1
175
     1
176
     1
 42
40.0
176
     1
 92
        8
176
     1
 66
     7
176
     1
 43
1.0
176
     1
 76
     1
176
     1
 77
     6
176
     1
 78
     2
176
     1
 67
     7
176
     1
 79
     3
176
     1
170
     0
176
     1
171
     0
176
     1
290
     0
176
     1
 93
        1
176
     1
 44
0.0
176
     1
173
     0
176
     1
1001
ACAD
1000
AcDbSavedByObjectVersion
1070
     0
  0
VISUALSTYLE
  5
104BF
102
{ACAD_XDICTIONARY
360
118B1
102
}
102
{ACAD_REACTORS
330
99
102
}
330
99
100
AcDbVisualStyle
  2
Sketchy
 70
    24
177
     2
291
     0
 71
     1
176
     1
 72
     2
176
     1
 73
     2
176
     1
 90
        0
176
     1
 40
0.6
176
     1
 41
30.0
176
     1
 63
     7
421
 16777215
176
     1
 74
     2
176
     1
 91
        2
176
     1
 64
     7
176
     1
 65
     7
176
     1
 75
     1
176
     1
175
     1
176
     1
 42
40.0
176
     1
 92
       11
176
     1
 66
     7
176
     1
 43
1.0
176
     1
 76
     1
176
     1
 77
     6
176
     1
 78
     2
176
     1
 67
     7
176
     1
 79
     6
176
     1
170
     0
176
     1
171
     0
176
     1
290
     0
176
     1
 93
        1
176
     1
 44
0.0
176
     1
173
     0
176
     1
1001
ACAD
1000
AcDbSavedByObjectVersion
1070
     0
  0
VISUALSTYLE
  5
A6
102
{ACAD_XDICTIONARY
360
118A3
102
}
102
{ACAD_REACTORS
330
99
102
}
330
99
100
AcDbVisualStyle
  2
Thicken
 70
    13
177
     2
291
     1
 71
     2
176
     1
 72
     2
176
     1
 73
     1
176
     1
 90
        0
176
     1
 40
0.6
176
     1
 41
30.0
176
     1
 63
     7
176
     1
 74
     1
176
     1
 91
        4
176
     1
 64
     7
176
     1
 65
   257
176
     1
 75
     1
176
     1
175
     1
176
     1
 42
1.0
176
     1
 92
       12
176
     1
 66
     7
176
     1
 43
1.0
176
     1
 76
     1
176
     1
 77
     6
176
     1
 78
     2
176
     1
 67
     7
176
     1
 79
     5
176
     1
170
     0
176
     1
171
     0
176
     1
290
     0
176
     1
 93
        1
176
     1
 44
0.0
176
     1
173
     0
176
     1
1001
ACAD
1000
AcDbSavedByObjectVersion
1070
     0
  0
VISUALSTYLE
  5
104BC
102
{ACAD_XDICTIONARY
360
118AB
102
}
102
{ACAD_REACTORS
330
99
102
}
330
99
100
AcDbVisualStyle
  2
Wireframe
 70
     5
177
     2
291
     0
 71
     0
176
     1
 72
     2
176
     1
 73
     0
176
     1
 90
        0
176
     1
 40
0.6
176
     1
 41
30.0
176
     1
 63
     7
421
 16777215
176
     1
 74
     1
176
     1
 91
        4
176
     1
 64
     7
176
     1
 65
   257
176
     1
 75
     1
176
     1
175
     1
176
     1
 42
1.0
176
     1
 92
        0
176
     1
 66
   257
176
     1
 43
1.0
176
     1
 76
     1
176
     1
 77
     6
176
     1
 78
     2
176
     1
 67
     7
176
     1
 79
     3
176
     1
170
     0
176
     1
171
     0
176
     1
290
     0
176
     1
 93
        1
176
     1
 44
0.0
176
     1
173
     0
176
     1
1001
ACAD
1000
AcDbSavedByObjectVersion
1070
     0
  0
VISUALSTYLE
  5
104C0
102
{ACAD_XDICTIONARY
360
118B3
102
}
102
{ACAD_REACTORS
330
99
102
}
330
99
100
AcDbVisualStyle
  2
X-Ray
 70
    25
177
     2
291
     0
 71
     2
176
     1
 72
     2
176
     1
 73
     1
176
     1
 90
        1
176
     1
 40
0.5
176
     1
 41
30.0
176
     1
 63
     7
421
 16777215
176
     1
 74
     1
176
     1
 91
        0
176
     1
 64
     7
176
     1
 65
   257
176
     1
 75
     1
176
     1
175
     1
176
     1
 42
1.0
176
     1
 92
        8
176
     1
 66
     7
176
     1
 43
1.0
176
     1
 76
     1
176
     1
 77
     6
176
     1
 78
     2
176
     1
 67
     7
176
     1
 79
     3
176
     1
170
     0
176
     1
171
     0
176
     1
290
     0
176
     1
 93
       13
176
     1
 44
0.0
176
     1
173
     0
176
     1
1001
ACAD
1000
AcDbSavedByObjectVersion
1070
     0
  0
DICTIONARYVAR
  5
F0
102
{ACAD_REACTORS
330
66
102
}
330
66
100
DictionaryVariables
280
     0
  1
1:1
  0
DICTIONARYVAR
  5
EF
102
{ACAD_REACTORS
330
66
102
}
330
66
100
DictionaryVariables
280
     0
  1
STANDARD
  0
DICTIONARYVAR
  5
89
102
{ACAD_REACTORS
330
66
102
}
330
66
100
DictionaryVariables
280
     0
  1
STANDARD
  0
DICTIONARYVAR
  5
104FC
102
{ACAD_REACTORS
330
66
102
}
330
66
100
DictionaryVariables
280
     0
  1
Imperial24
  0
DICTIONARYVAR
  5
104FD
102
{ACAD_REACTORS
330
66
102
}
330
66
100
DictionaryVariables
280
     0
  1
Imperial24
  0
DICTIONARYVAR
  5
67
102
{ACAD_REACTORS
330
66
102
}
330
66
100
DictionaryVariables
280
     0
  1
2
  0
DICTIONARYVAR
  5
6B
102
{ACAD_REACTORS
330
66
102
}
330
66
100
DictionaryVariables
280
     0
  1
1
  0
DICTIONARYVAR
  5
1B48
102
{ACAD_REACTORS
330
66
102
}
330
66
100
DictionaryVariables
280
     0
  1
0
  0
DICTIONARYVAR
  5
104FE
102
{ACAD_REACTORS
330
66
102
}
330
66
100
DictionaryVariables
280
     0
  1
1
  0
DICTIONARYVAR
  5
104FF
102
{ACAD_REACTORS
330
66
102
}
330
66
100
DictionaryVariables
280
     0
  1
15
  0
DICTIONARYVAR
  5
1B46
102
{ACAD_REACTORS
330
66
102
}
330
66
100
DictionaryVariables
280
     0
  1
2
  0
DICTIONARYVAR
  5
1B45
102
{ACAD_REACTORS
330
66
102
}
330
66
100
DictionaryVariables
280
     0
  1
1
  0
DICTIONARYVAR
  5
1B47
102
{ACAD_REACTORS
330
66
102
}
330
66
100
DictionaryVariables
280
     0
  1
127
  0
DICTIONARY
  5
1188A
102
{ACAD_REACTORS
330
11888
102
}
330
11888
100
AcDbDictionary
281
     1
  0
DICTIONARY
  5
11889
102
{ACAD_REACTORS
330
11888
102
}
330
11888
100
AcDbDictionary
281
     1
  3
8796088296752
350
11883
  3
8796088296768
350
11884
  3
8796088296784
350
11885
  3
8796088296800
350
11886
  3
8796088296816
350
11887
  0
DICTIONARY
  5
110
330
98
100
AcDbDictionary
280
     1
281
     1
  3
BUMPTILE
360
112
  3
DIFFUSETILE
360
111
  3
OPACITYTILE
360
113
  3
REFLECTIONTILE
360
114
  0
DICTIONARY
  5
104
330
87
100
AcDbDictionary
280
     1
281
     1
  3
ACAD_ROUNDTRIP_2008_TABLESTYLE_CELLSTYLEMAP
360
11880
  0
DICTIONARY
  5
11895
330
9F
100
AcDbDictionary
280
     1
281
     1
  3
ACAD_XREC_ROUNDTRIP
360
11896
  0
DICTIONARY
  5
11899
330
A1
100
AcDbDictionary
280
     1
281
     1
  3
ACAD_XREC_ROUNDTRIP
360
1189A
  0
DICTIONARY
  5
11897
330
A0
100
AcDbDictionary
280
     1
281
     1
  3
ACAD_XREC_ROUNDTRIP
360
11898
  0
DICTIONARY
  5
11893
330
9E
100
AcDbDictionary
280
     1
281
     1
  3
ACAD_XREC_ROUNDTRIP
360
11894
  0
DICTIONARY
  5
118A1
330
A5
100
AcDbDictionary
280
     1
281
     1
  3
ACAD_XREC_ROUNDTRIP
360
118A2
  0
DICTIONARY
  5
118A9
330
A9
100
AcDbDictionary
280
     1
281
     1
  3
ACAD_XREC_ROUNDTRIP
360
118AA
  0
DICTIONARY
  5
1189B
330
A2
100
AcDbDictionary
280
     1
281
     1
  3
ACAD_XREC_ROUNDTRIP
360
1189C
  0
DICTIONARY
  5
1189F
330
A4
100
AcDbDictionary
280
     1
281
     1
  3
ACAD_XREC_ROUNDTRIP
360
118A0
  0
DICTIONARY
  5
118BD
330
104C5
100
AcDbDictionary
280
     1
281
     1
  3
ACAD_XREC_ROUNDTRIP
360
118BE
  0
DICTIONARY
  5
118A7
330
A8
100
AcDbDictionary
280
     1
281
     1
  3
ACAD_XREC_ROUNDTRIP
360
118A8
  0
DICTIONARY
  5
1188B
330
9A
100
AcDbDictionary
280
     1
281
     1
  3
ACAD_XREC_ROUNDTRIP
360
1188C
  0
DICTIONARY
  5
1188D
330
9B
100
AcDbDictionary
280
     1
281
     1
  3
ACAD_XREC_ROUNDTRIP
360
1188E
  0
DICTIONARY
  5
1188F
330
9C
100
AcDbDictionary
280
     1
281
     1
  3
ACAD_XREC_ROUNDTRIP
360
11890
  0
DICTIONARY
  5
11891
330
9D
100
AcDbDictionary
280
     1
281
     1
  3
ACAD_XREC_ROUNDTRIP
360
11892
  0
DICTIONARY
  5
118AD
330
104BD
100
AcDbDictionary
280
     1
281
     1
  3
ACAD_XREC_ROUNDTRIP
360
118AE
  0
DICTIONARY
  5
118B9
330
104C3
100
AcDbDictionary
280
     1
281
     1
  3
ACAD_XREC_ROUNDTRIP
360
118BA
  0
DICTIONARY
  5
118A5
330
A7
100
AcDbDictionary
280
     1
281
     1
  3
ACAD_XREC_ROUNDTRIP
360
118A6
  0
DICTIONARY
  5
118BB
330
104C4
100
AcDbDictionary
280
     1
281
     1
  3
ACAD_XREC_ROUNDTRIP
360
118BC
  0
DICTIONARY
  5
1189D
330
A3
100
AcDbDictionary
280
     1
281
     1
  3
ACAD_XREC_ROUNDTRIP
360
1189E
  0
DICTIONARY
  5
118B7
330
104C2
100
AcDbDictionary
280
     1
281
     1
  3
ACAD_XREC_ROUNDTRIP
360
118B8
  0
DICTIONARY
  5
118B5
330
104C1
100
AcDbDictionary
280
     1
281
     1
  3
ACAD_XREC_ROUNDTRIP
360
118B6
  0
DICTIONARY
  5
118AF
330
104BE
100
AcDbDictionary
280
     1
281
     1
  3
ACAD_XREC_ROUNDTRIP
360
118B0
  0
DICTIONARY
  5
118B1
330
104BF
100
AcDbDictionary
280
     1
281
     1
  3
ACAD_XREC_ROUNDTRIP
360
118B2
  0
DICTIONARY
  5
118A3
330
A6
100
AcDbDictionary
280
     1
281
     1
  3
ACAD_XREC_ROUNDTRIP
360
118A4
  0
DICTIONARY
  5
118AB
330
104BC
100
AcDbDictionary
280
     1
281
     1
  3
ACAD_XREC_ROUNDTRIP
360
118AC
  0
DICTIONARY
  5
118B3
330
104C0
100
AcDbDictionary
280
     1
281
     1
  3
ACAD_XREC_ROUNDTRIP
360
118B4
  0
XRECORD
  5
11883
102
{ACAD_REACTORS
330
11889
102
}
330
11889
100
AcDbXrecord
280
     1
  1
AcDb_Thumbnail_Schema
102
{ATTRRECORD
341
11884
  2
AcDbDs::TreatedAsObjectData
280
     1
291
     1
102
ATTRRECORD}
102
{ATTRRECORD
341
11885
  2
AcDbDs::Legacy
280
     1
291
     1
102
ATTRRECORD}
  2
AcDbDs::ID
280
    10
 91
        8
102
{ATTRRECORD
341
11886
  2
AcDs:Indexable
280
     1
291
     1
102
ATTRRECORD}
102
{ATTRRECORD
341
11887
  2
AcDbDs::HandleAttribute
280
     7
282
     1
102
ATTRRECORD}
  2
Thumbnail_Data
280
    15
 91
        0
  0
XRECORD
  5
11884
102
{ACAD_REACTORS
330
11889
102
}
330
11889
100
AcDbXrecord
280
     1
  1
AcDbDs::TreatedAsObjectDataSchema
  2
AcDbDs::TreatedAsObjectData
280
     1
 91
        0
  0
XRECORD
  5
11885
102
{ACAD_REACTORS
330
11889
102
}
330
11889
100
AcDbXrecord
280
     1
  1
AcDbDs::LegacySchema
  2
AcDbDs::Legacy
280
     1
 91
        0
  0
XRECORD
  5
11886
102
{ACAD_REACTORS
330
11889
102
}
330
11889
100
AcDbXrecord
280
     1
  1
AcDbDs::IndexedPropertySchema
  2
AcDs:Indexable
280
     1
 91
        0
  0
XRECORD
  5
11887
102
{ACAD_REACTORS
330
11889
102
}
330
11889
100
AcDbXrecord
280
     1
  1
AcDbDs::HandleAttributeSchema
  2
AcDbDs::HandleAttribute
280
     7
 91
        1
284
     1
  0
XRECORD
  5
112
102
{ACAD_REACTORS
330
110
102
}
330
110
100
AcDbXrecord
280
     1
270
     1
271
     1
  0
XRECORD
  5
111
102
{ACAD_REACTORS
330
110
102
}
330
110
100
AcDbXrecord
280
     1
270
     1
271
     1
  0
XRECORD
  5
113
102
{ACAD_REACTORS
330
110
102
}
330
110
100
AcDbXrecord
280
     1
270
     1
271
     1
  0
XRECORD
  5
114
102
{ACAD_REACTORS
330
110
102
}
330
110
100
AcDbXrecord
280
     1
270
     1
271
     1
  0
CELLSTYLEMAP
  5
11880
102
{ACAD_REACTORS
330
104
102
}
330
104
100
AcDbCellStyleMap
 90
        3
300
CELLSTYLE
  1
TABLEFORMAT_BEGIN
 90
        5
170
     1
 91
        0
 92
    32768
 62
   257
 93
        1
300
CONTENTFORMAT
  1
CONTENTFORMAT_BEGIN
 90
        0
 91
        0
 92
      512
 93
        0
300

 40
0.0
140
1.0
 94
        5
 62
     0
340
11
144
0.25
309
CONTENTFORMAT_END
171
     1
301
MARGIN
  1
CELLMARGIN_BEGIN
 40
0.06
 40
0.06
 40
0.06
 40
0.06
 40
0.18
 40
0.18
309
CELLMARGIN_END
 94
        6
 95
        1
302
GRIDFORMAT
  1
GRIDFORMAT_BEGIN
 90
        0
 91
        1
 62
     0
 92
       -2
340
0
 93
        0
 40
0.045
309
GRIDFORMAT_END
 95
        2
302
GRIDFORMAT
  1
GRIDFORMAT_BEGIN
 90
        0
 91
        1
 62
     0
 92
       -2
340
0
 93
        0
 40
0.045
309
GRIDFORMAT_END
 95
        4
302
GRIDFORMAT
  1
GRIDFORMAT_BEGIN
 90
        0
 91
        1
 62
     0
 92
       -2
340
0
 93
        0
 40
0.045
309
GRIDFORMAT_END
 95
        8
302
GRIDFORMAT
  1
GRIDFORMAT_BEGIN
 90
        0
 91
        1
 62
     0
 92
       -2
340
0
 93
        0
 40
0.045
309
GRIDFORMAT_END
 95
       16
302
GRIDFORMAT
  1
GRIDFORMAT_BEGIN
 90
        0
 91
        1
 62
     0
 92
       -2
340
0
 93
        0
 40
0.045
309
GRIDFORMAT_END
 95
       32
302
GRIDFORMAT
  1
GRIDFORMAT_BEGIN
 90
        0
 91
        1
 62
     0
 92
       -2
340
0
 93
        0
 40
0.045
309
GRIDFORMAT_END
309
TABLEFORMAT_END
  1
CELLSTYLE_BEGIN
 90
        1
 91
        1
300
_TITLE
309
CELLSTYLE_END
300
CELLSTYLE
  1
TABLEFORMAT_BEGIN
 90
        5
170
     1
 91
        0
 92
        0
 62
   257
 93
        1
300
CONTENTFORMAT
  1
CONTENTFORMAT_BEGIN
 90
        0
 91
        0
 92
      512
 93
        0
300

 40
0.0
140
1.0
 94
        5
 62
     0
340
11
144
0.18
309
CONTENTFORMAT_END
171
     1
301
MARGIN
  1
CELLMARGIN_BEGIN
 40
0.06
 40
0.06
 40
0.06
 40
0.06
 40
0.18
 40
0.18
309
CELLMARGIN_END
 94
        6
 95
        1
302
GRIDFORMAT
  1
GRIDFORMAT_BEGIN
 90
        0
 91
        1
 62
     0
 92
       -2
340
0
 93
        0
 40
0.045
309
GRIDFORMAT_END
 95
        2
302
GRIDFORMAT
  1
GRIDFORMAT_BEGIN
 90
        0
 91
        1
 62
     0
 92
       -2
340
0
 93
        0
 40
0.045
309
GRIDFORMAT_END
 95
        4
302
GRIDFORMAT
  1
GRIDFORMAT_BEGIN
 90
        0
 91
        1
 62
     0
 92
       -2
340
0
 93
        0
 40
0.045
309
GRIDFORMAT_END
 95
        8
302
GRIDFORMAT
  1
GRIDFORMAT_BEGIN
 90
        0
 91
        1
 62
     0
 92
       -2
340
0
 93
        0
 40
0.045
309
GRIDFORMAT_END
 95
       16
302
GRIDFORMAT
  1
GRIDFORMAT_BEGIN
 90
        0
 91
        1
 62
     0
 92
       -2
340
0
 93
        0
 40
0.045
309
GRIDFORMAT_END
 95
       32
302
GRIDFORMAT
  1
GRIDFORMAT_BEGIN
 90
        0
 91
        1
 62
     0
 92
       -2
340
0
 93
        0
 40
0.045
309
GRIDFORMAT_END
309
TABLEFORMAT_END
  1
CELLSTYLE_BEGIN
 90
        2
 91
        1
300
_HEADER
309
CELLSTYLE_END
300
CELLSTYLE
  1
TABLEFORMAT_BEGIN
 90
        5
170
     1
 91
        0
 92
        0
 62
   257
 93
        1
300
CONTENTFORMAT
  1
CONTENTFORMAT_BEGIN
 90
        0
 91
        0
 92
      512
 93
        0
300

 40
0.0
140
1.0
 94
        2
 62
     0
340
11
144
0.18
309
CONTENTFORMAT_END
171
     1
301
MARGIN
  1
CELLMARGIN_BEGIN
 40
0.06
 40
0.06
 40
0.06
 40
0.06
 40
0.18
 40
0.18
309
CELLMARGIN_END
 94
        6
 95
        1
302
GRIDFORMAT
  1
GRIDFORMAT_BEGIN
 90
        0
 91
        1
 62
     0
 92
       -2
340
0
 93
        0
 40
0.045
309
GRIDFORMAT_END
 95
        2
302
GRIDFORMAT
  1
GRIDFORMAT_BEGIN
 90
        0
 91
        1
 62
     0
 92
       -2
340
0
 93
        0
 40
0.045
309
GRIDFORMAT_END
 95
        4
302
GRIDFORMAT
  1
GRIDFORMAT_BEGIN
 90
        0
 91
        1
 62
     0
 92
       -2
340
0
 93
        0
 40
0.045
309
GRIDFORMAT_END
 95
        8
302
GRIDFORMAT
  1
GRIDFORMAT_BEGIN
 90
        0
 91
        1
 62
     0
 92
       -2
340
0
 93
        0
 40
0.045
309
GRIDFORMAT_END
 95
       16
302
GRIDFORMAT
  1
GRIDFORMAT_BEGIN
 90
        0
 91
        1
 62
     0
 92
       -2
340
0
 93
        0
 40
0.045
309
GRIDFORMAT_END
 95
       32
302
GRIDFORMAT
  1
GRIDFORMAT_BEGIN
 90
        0
 91
        1
 62
     0
 92
       -2
340
0
 93
        0
 40
0.045
309
GRIDFORMAT_END
309
TABLEFORMAT_END
  1
CELLSTYLE_BEGIN
 90
        3
 91
        2
300
_DATA
309
CELLSTYLE_END
  0
XRECORD
  5
11896
102
{ACAD_REACTORS
330
11895
102
}
330
11895
100
AcDbXrecord
280
     1
102
RTVSPost2010Prop28
280
     1
102
RTVSPost2010PropOp28
 70
     1
102
RTVSPost2010Prop29
280
     1
102
RTVSPost2010PropOp29
 70
     1
102
RTVSPost2010Prop30
280
     0
102
RTVSPost2010PropOp30
 70
     1
102
RTVSPost2010Prop31
280
     0
102
RTVSPost2010PropOp31
 70
     1
102
RTVSPost2010Prop32
280
     0
102
RTVSPost2010PropOp32
 70
     1
102
RTVSPost2010Prop33
280
     0
102
RTVSPost2010PropOp33
 70
     1
102
RTVSPost2010Prop34
280
     0
102
RTVSPost2010PropOp34
 70
     1
102
RTVSPost2010Prop35
280
     0
102
RTVSPost2010PropOp35
 70
     1
102
RTVSPost2010Prop36
280
     0
102
RTVSPost2010PropOp36
 70
     1
102
RTVSPost2010Prop37
 90
       50
102
RTVSPost2010PropOp37
 70
     1
102
RTVSPost2010Prop38
140
0.0
102
RTVSPost2010PropOp38
 70
     1
102
RTVSPost2010Prop39
140
1.0
102
RTVSPost2010PropOp39
 70
     1
102
RTVSPost2010Prop40
 90
        0
102
RTVSPost2010PropOp40
 70
     1
102
RTVSPost2010Prop41ColorIndex
 90
       18
102
RTVSPost2010Prop41ColorRGB
 90
        0
102
RTVSPost2010PropOp41
 70
     1
102
RTVSPost2010Prop42
 90
       50
102
RTVSPost2010PropOp42
 70
     1
102
RTVSPost2010Prop43
 90
        3
102
RTVSPost2010PropOp43
 70
     1
102
RTVSPost2010Prop44ColorIndex
 90
        5
102
RTVSPost2010Prop44ColorRGB
 90
      255
102
RTVSPost2010PropOp44
 70
     1
102
RTVSPost2010Prop45
280
     0
102
RTVSPost2010PropOp45
 70
     1
102
RTVSPost2010Prop46
 90
       50
102
RTVSPost2010PropOp46
 70
     1
102
RTVSPost2010Prop47
 90
       50
102
RTVSPost2010PropOp47
 70
     1
102
RTVSPost2010Prop48
 90
       50
102
RTVSPost2010PropOp48
 70
     1
102
RTVSPost2010Prop49
280
     0
102
RTVSPost2010PropOp49
 70
     1
102
RTVSPost2010Prop50
 90
       50
102
RTVSPost2010PropOp50
 70
     1
102
RTVSPost2010Prop51ColorIndex
 90
      256
102
RTVSPost2010Prop51ColorRGB
 90
-16777216
102
RTVSPost2010PropOp51
 70
     0
102
RTVSPost2010Prop52
140
1.0
102
RTVSPost2010PropOp52
 70
     0
102
RTVSPost2010Prop53
 90
        2
102
RTVSPost2010PropOp53
 70
     1
102
RTVSPost2010Prop54
  1
strokes_ogs.tif
102
RTVSPost2010PropOp54
 70
     1
102
RTVSPost2010Prop55
280
     0
102
RTVSPost2010PropOp55
 70
     1
102
RTVSPost2010Prop56
140
1.0
102
RTVSPost2010PropOp56
 70
     1
102
RTVSPost2010Prop57
140
1.0
102
RTVSPost2010PropOp57
 70
     1
  0
XRECORD
  5
1189A
102
{ACAD_REACTORS
330
11899
102
}
330
11899
100
AcDbXrecord
280
     1
102
RTVSPost2010Prop28
280
     0
102
RTVSPost2010PropOp28
 70
     1
102
RTVSPost2010Prop29
280
     1
102
RTVSPost2010PropOp29
 70
     1
102
RTVSPost2010Prop30
280
     1
102
RTVSPost2010PropOp30
 70
     1
102
RTVSPost2010Prop31
280
     0
102
RTVSPost2010PropOp31
 70
     1
102
RTVSPost2010Prop32
280
     0
102
RTVSPost2010PropOp32
 70
     1
102
RTVSPost2010Prop33
280
     0
102
RTVSPost2010PropOp33
 70
     1
102
RTVSPost2010Prop34
280
     0
102
RTVSPost2010PropOp34
 70
     1
102
RTVSPost2010Prop35
280
     0
102
RTVSPost2010PropOp35
 70
     1
102
RTVSPost2010Prop36
280
     0
102
RTVSPost2010PropOp36
 70
     1
102
RTVSPost2010Prop37
 90
       50
102
RTVSPost2010PropOp37
 70
     1
102
RTVSPost2010Prop38
140
0.0
102
RTVSPost2010PropOp38
 70
     1
102
RTVSPost2010Prop39
140
1.0
102
RTVSPost2010PropOp39
 70
     1
102
RTVSPost2010Prop40
 90
        0
102
RTVSPost2010PropOp40
 70
     1
102
RTVSPost2010Prop41ColorIndex
 90
       18
102
RTVSPost2010Prop41ColorRGB
 90
        0
102
RTVSPost2010PropOp41
 70
     1
102
RTVSPost2010Prop42
 90
       50
102
RTVSPost2010PropOp42
 70
     1
102
RTVSPost2010Prop43
 90
        3
102
RTVSPost2010PropOp43
 70
     1
102
RTVSPost2010Prop44ColorIndex
 90
        5
102
RTVSPost2010Prop44ColorRGB
 90
      255
102
RTVSPost2010PropOp44
 70
     1
102
RTVSPost2010Prop45
280
     0
102
RTVSPost2010PropOp45
 70
     1
102
RTVSPost2010Prop46
 90
       50
102
RTVSPost2010PropOp46
 70
     1
102
RTVSPost2010Prop47
 90
       50
102
RTVSPost2010PropOp47
 70
     1
102
RTVSPost2010Prop48
 90
       50
102
RTVSPost2010PropOp48
 70
     1
102
RTVSPost2010Prop49
280
     0
102
RTVSPost2010PropOp49
 70
     1
102
RTVSPost2010Prop50
 90
       50
102
RTVSPost2010PropOp50
 70
     1
102
RTVSPost2010Prop51ColorIndex
 90
      256
102
RTVSPost2010Prop51ColorRGB
 90
-16777216
102
RTVSPost2010PropOp51
 70
     0
102
RTVSPost2010Prop52
140
1.0
102
RTVSPost2010PropOp52
 70
     0
102
RTVSPost2010Prop53
 90
        2
102
RTVSPost2010PropOp53
 70
     1
102
RTVSPost2010Prop54
  1
strokes_ogs.tif
102
RTVSPost2010PropOp54
 70
     1
102
RTVSPost2010Prop55
280
     0
102
RTVSPost2010PropOp55
 70
     1
102
RTVSPost2010Prop56
140
1.0
102
RTVSPost2010PropOp56
 70
     1
102
RTVSPost2010Prop57
140
1.0
102
RTVSPost2010PropOp57
 70
     1
  0
XRECORD
  5
11898
102
{ACAD_REACTORS
330
11897
102
}
330
11897
100
AcDbXrecord
280
     1
102
RTVSPost2010Prop28
280
     0
102
RTVSPost2010PropOp28
 70
     1
102
RTVSPost2010Prop29
280
     1
102
RTVSPost2010PropOp29
 70
     1
102
RTVSPost2010Prop30
280
     1
102
RTVSPost2010PropOp30
 70
     1
102
RTVSPost2010Prop31
280
     0
102
RTVSPost2010PropOp31
 70
     1
102
RTVSPost2010Prop32
280
     0
102
RTVSPost2010PropOp32
 70
     1
102
RTVSPost2010Prop33
280
     0
102
RTVSPost2010PropOp33
 70
     1
102
RTVSPost2010Prop34
280
     0
102
RTVSPost2010PropOp34
 70
     1
102
RTVSPost2010Prop35
280
     0
102
RTVSPost2010PropOp35
 70
     1
102
RTVSPost2010Prop36
280
     0
102
RTVSPost2010PropOp36
 70
     1
102
RTVSPost2010Prop37
 90
       50
102
RTVSPost2010PropOp37
 70
     1
102
RTVSPost2010Prop38
140
0.0
102
RTVSPost2010PropOp38
 70
     1
102
RTVSPost2010Prop39
140
1.0
102
RTVSPost2010PropOp39
 70
     1
102
RTVSPost2010Prop40
 90
        0
102
RTVSPost2010PropOp40
 70
     1
102
RTVSPost2010Prop41ColorIndex
 90
       18
102
RTVSPost2010Prop41ColorRGB
 90
        0
102
RTVSPost2010PropOp41
 70
     1
102
RTVSPost2010Prop42
 90
       50
102
RTVSPost2010PropOp42
 70
     1
102
RTVSPost2010Prop43
 90
        3
102
RTVSPost2010PropOp43
 70
     1
102
RTVSPost2010Prop44ColorIndex
 90
        5
102
RTVSPost2010Prop44ColorRGB
 90
      255
102
RTVSPost2010PropOp44
 70
     1
102
RTVSPost2010Prop45
280
     0
102
RTVSPost2010PropOp45
 70
     1
102
RTVSPost2010Prop46
 90
       50
102
RTVSPost2010PropOp46
 70
     1
102
RTVSPost2010Prop47
 90
       50
102
RTVSPost2010PropOp47
 70
     1
102
RTVSPost2010Prop48
 90
       50
102
RTVSPost2010PropOp48
 70
     1
102
RTVSPost2010Prop49
280
     0
102
RTVSPost2010PropOp49
 70
     1
102
RTVSPost2010Prop50
 90
       50
102
RTVSPost2010PropOp50
 70
     1
102
RTVSPost2010Prop51ColorIndex
 90
      256
102
RTVSPost2010Prop51ColorRGB
 90
-16777216
102
RTVSPost2010PropOp51
 70
     0
102
RTVSPost2010Prop52
140
1.0
102
RTVSPost2010PropOp52
 70
     0
102
RTVSPost2010Prop53
 90
        2
102
RTVSPost2010PropOp53
 70
     1
102
RTVSPost2010Prop54
  1
strokes_ogs.tif
102
RTVSPost2010PropOp54
 70
     1
102
RTVSPost2010Prop55
280
     0
102
RTVSPost2010PropOp55
 70
     1
102
RTVSPost2010Prop56
140
1.0
102
RTVSPost2010PropOp56
 70
     1
102
RTVSPost2010Prop57
140
1.0
102
RTVSPost2010PropOp57
 70
     1
  0
XRECORD
  5
11894
102
{ACAD_REACTORS
330
11893
102
}
330
11893
100
AcDbXrecord
280
     1
102
RTVSPost2010Prop28
280
     0
102
RTVSPost2010PropOp28
 70
     1
102
RTVSPost2010Prop29
280
     1
102
RTVSPost2010PropOp29
 70
     1
102
RTVSPost2010Prop30
280
     1
102
RTVSPost2010PropOp30
 70
     1
102
RTVSPost2010Prop31
280
     0
102
RTVSPost2010PropOp31
 70
     1
102
RTVSPost2010Prop32
280
     0
102
RTVSPost2010PropOp32
 70
     1
102
RTVSPost2010Prop33
280
     0
102
RTVSPost2010PropOp33
 70
     1
102
RTVSPost2010Prop34
280
     0
102
RTVSPost2010PropOp34
 70
     1
102
RTVSPost2010Prop35
280
     0
102
RTVSPost2010PropOp35
 70
     1
102
RTVSPost2010Prop36
280
     0
102
RTVSPost2010PropOp36
 70
     1
102
RTVSPost2010Prop37
 90
       50
102
RTVSPost2010PropOp37
 70
     1
102
RTVSPost2010Prop38
140
0.0
102
RTVSPost2010PropOp38
 70
     1
102
RTVSPost2010Prop39
140
1.0
102
RTVSPost2010PropOp39
 70
     1
102
RTVSPost2010Prop40
 90
        0
102
RTVSPost2010PropOp40
 70
     1
102
RTVSPost2010Prop41ColorIndex
 90
       18
102
RTVSPost2010Prop41ColorRGB
 90
        0
102
RTVSPost2010PropOp41
 70
     1
102
RTVSPost2010Prop42
 90
       50
102
RTVSPost2010PropOp42
 70
     1
102
RTVSPost2010Prop43
 90
        3
102
RTVSPost2010PropOp43
 70
     1
102
RTVSPost2010Prop44ColorIndex
 90
        5
102
RTVSPost2010Prop44ColorRGB
 90
      255
102
RTVSPost2010PropOp44
 70
     1
102
RTVSPost2010Prop45
280
     0
102
RTVSPost2010PropOp45
 70
     1
102
RTVSPost2010Prop46
 90
       50
102
RTVSPost2010PropOp46
 70
     1
102
RTVSPost2010Prop47
 90
       50
102
RTVSPost2010PropOp47
 70
     1
102
RTVSPost2010Prop48
 90
       50
102
RTVSPost2010PropOp48
 70
     1
102
RTVSPost2010Prop49
280
     0
102
RTVSPost2010PropOp49
 70
     1
102
RTVSPost2010Prop50
 90
       50
102
RTVSPost2010PropOp50
 70
     1
102
RTVSPost2010Prop51ColorIndex
 90
      256
102
RTVSPost2010Prop51ColorRGB
 90
-16777216
102
RTVSPost2010PropOp51
 70
     0
102
RTVSPost2010Prop52
140
1.0
102
RTVSPost2010PropOp52
 70
     0
102
RTVSPost2010Prop53
 90
        2
102
RTVSPost2010PropOp53
 70
     1
102
RTVSPost2010Prop54
  1
strokes_ogs.tif
102
RTVSPost2010PropOp54
 70
     1
102
RTVSPost2010Prop55
280
     0
102
RTVSPost2010PropOp55
 70
     1
102
RTVSPost2010Prop56
140
1.0
102
RTVSPost2010PropOp56
 70
     1
102
RTVSPost2010Prop57
140
1.0
102
RTVSPost2010PropOp57
 70
     1
  0
XRECORD
  5
118A2
102
{ACAD_REACTORS
330
118A1
102
}
330
118A1
100
AcDbXrecord
280
     1
102
RTVSPost2010Prop28
280
     0
102
RTVSPost2010PropOp28
 70
     1
102
RTVSPost2010Prop29
280
     1
102
RTVSPost2010PropOp29
 70
     1
102
RTVSPost2010Prop30
280
     1
102
RTVSPost2010PropOp30
 70
     1
102
RTVSPost2010Prop31
280
     0
102
RTVSPost2010PropOp31
 70
     1
102
RTVSPost2010Prop32
280
     0
102
RTVSPost2010PropOp32
 70
     1
102
RTVSPost2010Prop33
280
     0
102
RTVSPost2010PropOp33
 70
     1
102
RTVSPost2010Prop34
280
     0
102
RTVSPost2010PropOp34
 70
     1
102
RTVSPost2010Prop35
280
     0
102
RTVSPost2010PropOp35
 70
     1
102
RTVSPost2010Prop36
280
     0
102
RTVSPost2010PropOp36
 70
     1
102
RTVSPost2010Prop37
 90
       50
102
RTVSPost2010PropOp37
 70
     1
102
RTVSPost2010Prop38
140
0.0
102
RTVSPost2010PropOp38
 70
     1
102
RTVSPost2010Prop39
140
1.0
102
RTVSPost2010PropOp39
 70
     1
102
RTVSPost2010Prop40
 90
        0
102
RTVSPost2010PropOp40
 70
     1
102
RTVSPost2010Prop41ColorIndex
 90
       18
102
RTVSPost2010Prop41ColorRGB
 90
        0
102
RTVSPost2010PropOp41
 70
     1
102
RTVSPost2010Prop42
 90
       50
102
RTVSPost2010PropOp42
 70
     1
102
RTVSPost2010Prop43
 90
        3
102
RTVSPost2010PropOp43
 70
     1
102
RTVSPost2010Prop44ColorIndex
 90
        5
102
RTVSPost2010Prop44ColorRGB
 90
      255
102
RTVSPost2010PropOp44
 70
     1
102
RTVSPost2010Prop45
280
     0
102
RTVSPost2010PropOp45
 70
     1
102
RTVSPost2010Prop46
 90
       50
102
RTVSPost2010PropOp46
 70
     1
102
RTVSPost2010Prop47
 90
       50
102
RTVSPost2010PropOp47
 70
     1
102
RTVSPost2010Prop48
 90
       50
102
RTVSPost2010PropOp48
 70
     1
102
RTVSPost2010Prop49
280
     0
102
RTVSPost2010PropOp49
 70
     1
102
RTVSPost2010Prop50
 90
       50
102
RTVSPost2010PropOp50
 70
     1
102
RTVSPost2010Prop51ColorIndex
 90
      256
102
RTVSPost2010Prop51ColorRGB
 90
-16777216
102
RTVSPost2010PropOp51
 70
     0
102
RTVSPost2010Prop52
140
1.0
102
RTVSPost2010PropOp52
 70
     0
102
RTVSPost2010Prop53
 90
        2
102
RTVSPost2010PropOp53
 70
     1
102
RTVSPost2010Prop54
  1
strokes_ogs.tif
102
RTVSPost2010PropOp54
 70
     1
102
RTVSPost2010Prop55
280
     0
102
RTVSPost2010PropOp55
 70
     1
102
RTVSPost2010Prop56
140
1.0
102
RTVSPost2010PropOp56
 70
     1
102
RTVSPost2010Prop57
140
1.0
102
RTVSPost2010PropOp57
 70
     1
  0
XRECORD
  5
118AA
102
{ACAD_REACTORS
330
118A9
102
}
330
118A9
100
AcDbXrecord
280
     1
102
RTVSPost2010Prop28
280
     0
102
RTVSPost2010PropOp28
 70
     1
102
RTVSPost2010Prop29
280
     1
102
RTVSPost2010PropOp29
 70
     1
102
RTVSPost2010Prop30
280
     1
102
RTVSPost2010PropOp30
 70
     1
102
RTVSPost2010Prop31
280
     0
102
RTVSPost2010PropOp31
 70
     1
102
RTVSPost2010Prop32
280
     0
102
RTVSPost2010PropOp32
 70
     1
102
RTVSPost2010Prop33
280
     0
102
RTVSPost2010PropOp33
 70
     1
102
RTVSPost2010Prop34
280
     0
102
RTVSPost2010PropOp34
 70
     1
102
RTVSPost2010Prop35
280
     0
102
RTVSPost2010PropOp35
 70
     1
102
RTVSPost2010Prop36
280
     0
102
RTVSPost2010PropOp36
 70
     1
102
RTVSPost2010Prop37
 90
       50
102
RTVSPost2010PropOp37
 70
     1
102
RTVSPost2010Prop38
140
0.0
102
RTVSPost2010PropOp38
 70
     1
102
RTVSPost2010Prop39
140
1.0
102
RTVSPost2010PropOp39
 70
     1
102
RTVSPost2010Prop40
 90
        0
102
RTVSPost2010PropOp40
 70
     1
102
RTVSPost2010Prop41ColorIndex
 90
       18
102
RTVSPost2010Prop41ColorRGB
 90
        0
102
RTVSPost2010PropOp41
 70
     1
102
RTVSPost2010Prop42
 90
       50
102
RTVSPost2010PropOp42
 70
     1
102
RTVSPost2010Prop43
 90
        3
102
RTVSPost2010PropOp43
 70
     1
102
RTVSPost2010Prop44ColorIndex
 90
        5
102
RTVSPost2010Prop44ColorRGB
 90
      255
102
RTVSPost2010PropOp44
 70
     1
102
RTVSPost2010Prop45
280
     0
102
RTVSPost2010PropOp45
 70
     1
102
RTVSPost2010Prop46
 90
       50
102
RTVSPost2010PropOp46
 70
     1
102
RTVSPost2010Prop47
 90
       50
102
RTVSPost2010PropOp47
 70
     1
102
RTVSPost2010Prop48
 90
       50
102
RTVSPost2010PropOp48
 70
     1
102
RTVSPost2010Prop49
280
     0
102
RTVSPost2010PropOp49
 70
     1
102
RTVSPost2010Prop50
 90
       50
102
RTVSPost2010PropOp50
 70
     1
102
RTVSPost2010Prop51ColorIndex
 90
      256
102
RTVSPost2010Prop51ColorRGB
 90
-16777216
102
RTVSPost2010PropOp51
 70
     0
102
RTVSPost2010Prop52
140
1.0
102
RTVSPost2010PropOp52
 70
     0
102
RTVSPost2010Prop53
 90
        2
102
RTVSPost2010PropOp53
 70
     1
102
RTVSPost2010Prop54
  1
strokes_ogs.tif
102
RTVSPost2010PropOp54
 70
     1
102
RTVSPost2010Prop55
280
     0
102
RTVSPost2010PropOp55
 70
     1
102
RTVSPost2010Prop56
140
1.0
102
RTVSPost2010PropOp56
 70
     1
102
RTVSPost2010Prop57
140
1.0
102
RTVSPost2010PropOp57
 70
     1
  0
XRECORD
  5
1189C
102
{ACAD_REACTORS
330
1189B
102
}
330
1189B
100
AcDbXrecord
280
     1
102
RTVSPost2010Prop28
280
     0
102
RTVSPost2010PropOp28
 70
     1
102
RTVSPost2010Prop29
280
     1
102
RTVSPost2010PropOp29
 70
     1
102
RTVSPost2010Prop30
280
     1
102
RTVSPost2010PropOp30
 70
     1
102
RTVSPost2010Prop31
280
     0
102
RTVSPost2010PropOp31
 70
     1
102
RTVSPost2010Prop32
280
     0
102
RTVSPost2010PropOp32
 70
     1
102
RTVSPost2010Prop33
280
     0
102
RTVSPost2010PropOp33
 70
     1
102
RTVSPost2010Prop34
280
     0
102
RTVSPost2010PropOp34
 70
     1
102
RTVSPost2010Prop35
280
     0
102
RTVSPost2010PropOp35
 70
     1
102
RTVSPost2010Prop36
280
     0
102
RTVSPost2010PropOp36
 70
     1
102
RTVSPost2010Prop37
 90
       50
102
RTVSPost2010PropOp37
 70
     1
102
RTVSPost2010Prop38
140
0.0
102
RTVSPost2010PropOp38
 70
     1
102
RTVSPost2010Prop39
140
1.0
102
RTVSPost2010PropOp39
 70
     1
102
RTVSPost2010Prop40
 90
        0
102
RTVSPost2010PropOp40
 70
     1
102
RTVSPost2010Prop41ColorIndex
 90
       18
102
RTVSPost2010Prop41ColorRGB
 90
        0
102
RTVSPost2010PropOp41
 70
     1
102
RTVSPost2010Prop42
 90
       50
102
RTVSPost2010PropOp42
 70
     1
102
RTVSPost2010Prop43
 90
        3
102
RTVSPost2010PropOp43
 70
     1
102
RTVSPost2010Prop44ColorIndex
 90
        5
102
RTVSPost2010Prop44ColorRGB
 90
      255
102
RTVSPost2010PropOp44
 70
     1
102
RTVSPost2010Prop45
280
     0
102
RTVSPost2010PropOp45
 70
     1
102
RTVSPost2010Prop46
 90
       50
102
RTVSPost2010PropOp46
 70
     1
102
RTVSPost2010Prop47
 90
       50
102
RTVSPost2010PropOp47
 70
     1
102
RTVSPost2010Prop48
 90
       50
102
RTVSPost2010PropOp48
 70
     1
102
RTVSPost2010Prop49
280
     0
102
RTVSPost2010PropOp49
 70
     1
102
RTVSPost2010Prop50
 90
       50
102
RTVSPost2010PropOp50
 70
     1
102
RTVSPost2010Prop51ColorIndex
 90
      256
102
RTVSPost2010Prop51ColorRGB
 90
-16777216
102
RTVSPost2010PropOp51
 70
     0
102
RTVSPost2010Prop52
140
1.0
102
RTVSPost2010PropOp52
 70
     0
102
RTVSPost2010Prop53
 90
        2
102
RTVSPost2010PropOp53
 70
     1
102
RTVSPost2010Prop54
  1
strokes_ogs.tif
102
RTVSPost2010PropOp54
 70
     1
102
RTVSPost2010Prop55
280
     0
102
RTVSPost2010PropOp55
 70
     1
102
RTVSPost2010Prop56
140
1.0
102
RTVSPost2010PropOp56
 70
     1
102
RTVSPost2010Prop57
140
1.0
102
RTVSPost2010PropOp57
 70
     1
  0
XRECORD
  5
118A0
102
{ACAD_REACTORS
330
1189F
102
}
330
1189F
100
AcDbXrecord
280
     1
102
RTVSPost2010Prop28
280
     0
102
RTVSPost2010PropOp28
 70
     1
102
RTVSPost2010Prop29
280
     1
102
RTVSPost2010PropOp29
 70
     1
102
RTVSPost2010Prop30
280
     1
102
RTVSPost2010PropOp30
 70
     1
102
RTVSPost2010Prop31
280
     0
102
RTVSPost2010PropOp31
 70
     1
102
RTVSPost2010Prop32
280
     0
102
RTVSPost2010PropOp32
 70
     1
102
RTVSPost2010Prop33
280
     0
102
RTVSPost2010PropOp33
 70
     1
102
RTVSPost2010Prop34
280
     0
102
RTVSPost2010PropOp34
 70
     1
102
RTVSPost2010Prop35
280
     0
102
RTVSPost2010PropOp35
 70
     1
102
RTVSPost2010Prop36
280
     0
102
RTVSPost2010PropOp36
 70
     1
102
RTVSPost2010Prop37
 90
       50
102
RTVSPost2010PropOp37
 70
     1
102
RTVSPost2010Prop38
140
0.0
102
RTVSPost2010PropOp38
 70
     1
102
RTVSPost2010Prop39
140
1.0
102
RTVSPost2010PropOp39
 70
     1
102
RTVSPost2010Prop40
 90
        0
102
RTVSPost2010PropOp40
 70
     1
102
RTVSPost2010Prop41ColorIndex
 90
       18
102
RTVSPost2010Prop41ColorRGB
 90
        0
102
RTVSPost2010PropOp41
 70
     1
102
RTVSPost2010Prop42
 90
       50
102
RTVSPost2010PropOp42
 70
     1
102
RTVSPost2010Prop43
 90
        3
102
RTVSPost2010PropOp43
 70
     1
102
RTVSPost2010Prop44ColorIndex
 90
        5
102
RTVSPost2010Prop44ColorRGB
 90
      255
102
RTVSPost2010PropOp44
 70
     1
102
RTVSPost2010Prop45
280
     0
102
RTVSPost2010PropOp45
 70
     1
102
RTVSPost2010Prop46
 90
       50
102
RTVSPost2010PropOp46
 70
     1
102
RTVSPost2010Prop47
 90
       50
102
RTVSPost2010PropOp47
 70
     1
102
RTVSPost2010Prop48
 90
       50
102
RTVSPost2010PropOp48
 70
     1
102
RTVSPost2010Prop49
280
     0
102
RTVSPost2010PropOp49
 70
     1
102
RTVSPost2010Prop50
 90
       50
102
RTVSPost2010PropOp50
 70
     1
102
RTVSPost2010Prop51ColorIndex
 90
      256
102
RTVSPost2010Prop51ColorRGB
 90
-16777216
102
RTVSPost2010PropOp51
 70
     0
102
RTVSPost2010Prop52
140
1.0
102
RTVSPost2010PropOp52
 70
     0
102
RTVSPost2010Prop53
 90
        2
102
RTVSPost2010PropOp53
 70
     1
102
RTVSPost2010Prop54
  1
strokes_ogs.tif
102
RTVSPost2010PropOp54
 70
     1
102
RTVSPost2010Prop55
280
     0
102
RTVSPost2010PropOp55
 70
     1
102
RTVSPost2010Prop56
140
1.0
102
RTVSPost2010PropOp56
 70
     1
102
RTVSPost2010Prop57
140
1.0
102
RTVSPost2010PropOp57
 70
     1
  0
XRECORD
  5
118BE
102
{ACAD_REACTORS
330
118BD
102
}
330
118BD
100
AcDbXrecord
280
     1
102
RTVSPost2010Prop28
280
     0
102
RTVSPost2010PropOp28
 70
     0
102
RTVSPost2010Prop29
280
     1
102
RTVSPost2010PropOp29
 70
     0
102
RTVSPost2010Prop30
280
     1
102
RTVSPost2010PropOp30
 70
     0
102
RTVSPost2010Prop31
280
     0
102
RTVSPost2010PropOp31
 70
     0
102
RTVSPost2010Prop32
280
     0
102
RTVSPost2010PropOp32
 70
     0
102
RTVSPost2010Prop33
280
     0
102
RTVSPost2010PropOp33
 70
     0
102
RTVSPost2010Prop34
280
     0
102
RTVSPost2010PropOp34
 70
     0
102
RTVSPost2010Prop35
280
     0
102
RTVSPost2010PropOp35
 70
     0
102
RTVSPost2010Prop36
280
     0
102
RTVSPost2010PropOp36
 70
     0
102
RTVSPost2010Prop37
 90
       50
102
RTVSPost2010PropOp37
 70
     0
102
RTVSPost2010Prop38
140
0.0
102
RTVSPost2010PropOp38
 70
     0
102
RTVSPost2010Prop39
140
1.0
102
RTVSPost2010PropOp39
 70
     0
102
RTVSPost2010Prop40
 90
        0
102
RTVSPost2010PropOp40
 70
     0
102
RTVSPost2010Prop41ColorIndex
 90
       18
102
RTVSPost2010Prop41ColorRGB
 90
        0
102
RTVSPost2010PropOp41
 70
     0
102
RTVSPost2010Prop42
 90
       50
102
RTVSPost2010PropOp42
 70
     0
102
RTVSPost2010Prop43
 90
        3
102
RTVSPost2010PropOp43
 70
     0
102
RTVSPost2010Prop44ColorIndex
 90
        5
102
RTVSPost2010Prop44ColorRGB
 90
      255
102
RTVSPost2010PropOp44
 70
     0
102
RTVSPost2010Prop45
280
     0
102
RTVSPost2010PropOp45
 70
     0
102
RTVSPost2010Prop46
 90
       50
102
RTVSPost2010PropOp46
 70
     0
102
RTVSPost2010Prop47
 90
       50
102
RTVSPost2010PropOp47
 70
     0
102
RTVSPost2010Prop48
 90
       50
102
RTVSPost2010PropOp48
 70
     0
102
RTVSPost2010Prop49
280
     0
102
RTVSPost2010PropOp49
 70
     0
102
RTVSPost2010Prop50
 90
       50
102
RTVSPost2010PropOp50
 70
     0
102
RTVSPost2010Prop51ColorIndex
 90
      256
102
RTVSPost2010Prop51ColorRGB
 90
-16777216
102
RTVSPost2010PropOp51
 70
     0
102
RTVSPost2010Prop52
140
1.0
102
RTVSPost2010PropOp52
 70
     0
102
RTVSPost2010Prop53
 90
        2
102
RTVSPost2010PropOp53
 70
     0
102
RTVSPost2010Prop54
  1
strokes_ogs.tif
102
RTVSPost2010PropOp54
 70
     0
102
RTVSPost2010Prop55
280
     0
102
RTVSPost2010PropOp55
 70
     0
102
RTVSPost2010Prop56
140
1.0
102
RTVSPost2010PropOp56
 70
     0
102
RTVSPost2010Prop57
140
1.0
102
RTVSPost2010PropOp57
 70
     0
  0
XRECORD
  5
118A8
102
{ACAD_REACTORS
330
118A7
102
}
330
118A7
100
AcDbXrecord
280
     1
102
RTVSPost2010Prop28
280
     0
102
RTVSPost2010PropOp28
 70
     1
102
RTVSPost2010Prop29
280
     1
102
RTVSPost2010PropOp29
 70
     1
102
RTVSPost2010Prop30
280
     1
102
RTVSPost2010PropOp30
 70
     1
102
RTVSPost2010Prop31
280
     0
102
RTVSPost2010PropOp31
 70
     1
102
RTVSPost2010Prop32
280
     0
102
RTVSPost2010PropOp32
 70
     1
102
RTVSPost2010Prop33
280
     0
102
RTVSPost2010PropOp33
 70
     1
102
RTVSPost2010Prop34
280
     0
102
RTVSPost2010PropOp34
 70
     1
102
RTVSPost2010Prop35
280
     0
102
RTVSPost2010PropOp35
 70
     1
102
RTVSPost2010Prop36
280
     0
102
RTVSPost2010PropOp36
 70
     1
102
RTVSPost2010Prop37
 90
       50
102
RTVSPost2010PropOp37
 70
     1
102
RTVSPost2010Prop38
140
0.0
102
RTVSPost2010PropOp38
 70
     1
102
RTVSPost2010Prop39
140
1.0
102
RTVSPost2010PropOp39
 70
     1
102
RTVSPost2010Prop40
 90
        0
102
RTVSPost2010PropOp40
 70
     1
102
RTVSPost2010Prop41ColorIndex
 90
       18
102
RTVSPost2010Prop41ColorRGB
 90
        0
102
RTVSPost2010PropOp41
 70
     1
102
RTVSPost2010Prop42
 90
       50
102
RTVSPost2010PropOp42
 70
     1
102
RTVSPost2010Prop43
 90
        3
102
RTVSPost2010PropOp43
 70
     1
102
RTVSPost2010Prop44ColorIndex
 90
        5
102
RTVSPost2010Prop44ColorRGB
 90
      255
102
RTVSPost2010PropOp44
 70
     1
102
RTVSPost2010Prop45
280
     0
102
RTVSPost2010PropOp45
 70
     1
102
RTVSPost2010Prop46
 90
       50
102
RTVSPost2010PropOp46
 70
     1
102
RTVSPost2010Prop47
 90
       50
102
RTVSPost2010PropOp47
 70
     1
102
RTVSPost2010Prop48
 90
       50
102
RTVSPost2010PropOp48
 70
     1
102
RTVSPost2010Prop49
280
     0
102
RTVSPost2010PropOp49
 70
     1
102
RTVSPost2010Prop50
 90
       50
102
RTVSPost2010PropOp50
 70
     1
102
RTVSPost2010Prop51ColorIndex
 90
      256
102
RTVSPost2010Prop51ColorRGB
 90
-16777216
102
RTVSPost2010PropOp51
 70
     0
102
RTVSPost2010Prop52
140
1.0
102
RTVSPost2010PropOp52
 70
     0
102
RTVSPost2010Prop53
 90
        2
102
RTVSPost2010PropOp53
 70
     1
102
RTVSPost2010Prop54
  1
strokes_ogs.tif
102
RTVSPost2010PropOp54
 70
     1
102
RTVSPost2010Prop55
280
     0
102
RTVSPost2010PropOp55
 70
     1
102
RTVSPost2010Prop56
140
1.0
102
RTVSPost2010PropOp56
 70
     1
102
RTVSPost2010Prop57
140
1.0
102
RTVSPost2010PropOp57
 70
     1
  0
XRECORD
  5
1188C
102
{ACAD_REACTORS
330
1188B
102
}
330
1188B
100
AcDbXrecord
280
     1
102
RTVSPost2010Prop28
280
     0
102
RTVSPost2010PropOp28
 70
     1
102
RTVSPost2010Prop29
280
     1
102
RTVSPost2010PropOp29
 70
     1
102
RTVSPost2010Prop30
280
     1
102
RTVSPost2010PropOp30
 70
     1
102
RTVSPost2010Prop31
280
     0
102
RTVSPost2010PropOp31
 70
     1
102
RTVSPost2010Prop32
280
     0
102
RTVSPost2010PropOp32
 70
     1
102
RTVSPost2010Prop33
280
     0
102
RTVSPost2010PropOp33
 70
     1
102
RTVSPost2010Prop34
280
     0
102
RTVSPost2010PropOp34
 70
     1
102
RTVSPost2010Prop35
280
     0
102
RTVSPost2010PropOp35
 70
     1
102
RTVSPost2010Prop36
280
     0
102
RTVSPost2010PropOp36
 70
     1
102
RTVSPost2010Prop37
 90
       50
102
RTVSPost2010PropOp37
 70
     1
102
RTVSPost2010Prop38
140
0.0
102
RTVSPost2010PropOp38
 70
     1
102
RTVSPost2010Prop39
140
1.0
102
RTVSPost2010PropOp39
 70
     1
102
RTVSPost2010Prop40
 90
        0
102
RTVSPost2010PropOp40
 70
     1
102
RTVSPost2010Prop41ColorIndex
 90
       18
102
RTVSPost2010Prop41ColorRGB
 90
        0
102
RTVSPost2010PropOp41
 70
     1
102
RTVSPost2010Prop42
 90
       50
102
RTVSPost2010PropOp42
 70
     1
102
RTVSPost2010Prop43
 90
        3
102
RTVSPost2010PropOp43
 70
     1
102
RTVSPost2010Prop44ColorIndex
 90
        5
102
RTVSPost2010Prop44ColorRGB
 90
      255
102
RTVSPost2010PropOp44
 70
     1
102
RTVSPost2010Prop45
280
     0
102
RTVSPost2010PropOp45
 70
     1
102
RTVSPost2010Prop46
 90
       50
102
RTVSPost2010PropOp46
 70
     1
102
RTVSPost2010Prop47
 90
       50
102
RTVSPost2010PropOp47
 70
     1
102
RTVSPost2010Prop48
 90
       50
102
RTVSPost2010PropOp48
 70
     1
102
RTVSPost2010Prop49
280
     0
102
RTVSPost2010PropOp49
 70
     1
102
RTVSPost2010Prop50
 90
       50
102
RTVSPost2010PropOp50
 70
     1
102
RTVSPost2010Prop51ColorIndex
 90
      256
102
RTVSPost2010Prop51ColorRGB
 90
-16777216
102
RTVSPost2010PropOp51
 70
     0
102
RTVSPost2010Prop52
140
1.0
102
RTVSPost2010PropOp52
 70
     0
102
RTVSPost2010Prop53
 90
        2
102
RTVSPost2010PropOp53
 70
     1
102
RTVSPost2010Prop54
  1
strokes_ogs.tif
102
RTVSPost2010PropOp54
 70
     1
102
RTVSPost2010Prop55
280
     0
102
RTVSPost2010PropOp55
 70
     1
102
RTVSPost2010Prop56
140
1.0
102
RTVSPost2010PropOp56
 70
     1
102
RTVSPost2010Prop57
140
1.0
102
RTVSPost2010PropOp57
 70
     1
  0
XRECORD
  5
1188E
102
{ACAD_REACTORS
330
1188D
102
}
330
1188D
100
AcDbXrecord
280
     1
102
RTVSPost2010Prop28
280
     0
102
RTVSPost2010PropOp28
 70
     1
102
RTVSPost2010Prop29
280
     1
102
RTVSPost2010PropOp29
 70
     1
102
RTVSPost2010Prop30
280
     1
102
RTVSPost2010PropOp30
 70
     1
102
RTVSPost2010Prop31
280
     0
102
RTVSPost2010PropOp31
 70
     1
102
RTVSPost2010Prop32
280
     0
102
RTVSPost2010PropOp32
 70
     1
102
RTVSPost2010Prop33
280
     0
102
RTVSPost2010PropOp33
 70
     1
102
RTVSPost2010Prop34
280
     0
102
RTVSPost2010PropOp34
 70
     1
102
RTVSPost2010Prop35
280
     0
102
RTVSPost2010PropOp35
 70
     1
102
RTVSPost2010Prop36
280
     0
102
RTVSPost2010PropOp36
 70
     1
102
RTVSPost2010Prop37
 90
       50
102
RTVSPost2010PropOp37
 70
     1
102
RTVSPost2010Prop38
140
0.0
102
RTVSPost2010PropOp38
 70
     1
102
RTVSPost2010Prop39
140
1.0
102
RTVSPost2010PropOp39
 70
     1
102
RTVSPost2010Prop40
 90
        0
102
RTVSPost2010PropOp40
 70
     1
102
RTVSPost2010Prop41ColorIndex
 90
       18
102
RTVSPost2010Prop41ColorRGB
 90
        0
102
RTVSPost2010PropOp41
 70
     1
102
RTVSPost2010Prop42
 90
       50
102
RTVSPost2010PropOp42
 70
     1
102
RTVSPost2010Prop43
 90
        3
102
RTVSPost2010PropOp43
 70
     1
102
RTVSPost2010Prop44ColorIndex
 90
        5
102
RTVSPost2010Prop44ColorRGB
 90
      255
102
RTVSPost2010PropOp44
 70
     1
102
RTVSPost2010Prop45
280
     0
102
RTVSPost2010PropOp45
 70
     1
102
RTVSPost2010Prop46
 90
       50
102
RTVSPost2010PropOp46
 70
     1
102
RTVSPost2010Prop47
 90
       50
102
RTVSPost2010PropOp47
 70
     1
102
RTVSPost2010Prop48
 90
       50
102
RTVSPost2010PropOp48
 70
     1
102
RTVSPost2010Prop49
280
     0
102
RTVSPost2010PropOp49
 70
     1
102
RTVSPost2010Prop50
 90
       50
102
RTVSPost2010PropOp50
 70
     1
102
RTVSPost2010Prop51ColorIndex
 90
      256
102
RTVSPost2010Prop51ColorRGB
 90
-16777216
102
RTVSPost2010PropOp51
 70
     0
102
RTVSPost2010Prop52
140
1.0
102
RTVSPost2010PropOp52
 70
     0
102
RTVSPost2010Prop53
 90
        2
102
RTVSPost2010PropOp53
 70
     1
102
RTVSPost2010Prop54
  1
strokes_ogs.tif
102
RTVSPost2010PropOp54
 70
     1
102
RTVSPost2010Prop55
280
     0
102
RTVSPost2010PropOp55
 70
     1
102
RTVSPost2010Prop56
140
1.0
102
RTVSPost2010PropOp56
 70
     1
102
RTVSPost2010Prop57
140
1.0
102
RTVSPost2010PropOp57
 70
     1
  0
XRECORD
  5
11890
102
{ACAD_REACTORS
330
1188F
102
}
330
1188F
100
AcDbXrecord
280
     1
102
RTVSPost2010Prop28
280
     0
102
RTVSPost2010PropOp28
 70
     1
102
RTVSPost2010Prop29
280
     1
102
RTVSPost2010PropOp29
 70
     1
102
RTVSPost2010Prop30
280
     1
102
RTVSPost2010PropOp30
 70
     1
102
RTVSPost2010Prop31
280
     0
102
RTVSPost2010PropOp31
 70
     1
102
RTVSPost2010Prop32
280
     0
102
RTVSPost2010PropOp32
 70
     1
102
RTVSPost2010Prop33
280
     0
102
RTVSPost2010PropOp33
 70
     1
102
RTVSPost2010Prop34
280
     0
102
RTVSPost2010PropOp34
 70
     1
102
RTVSPost2010Prop35
280
     0
102
RTVSPost2010PropOp35
 70
     1
102
RTVSPost2010Prop36
280
     0
102
RTVSPost2010PropOp36
 70
     1
102
RTVSPost2010Prop37
 90
       50
102
RTVSPost2010PropOp37
 70
     1
102
RTVSPost2010Prop38
140
0.0
102
RTVSPost2010PropOp38
 70
     1
102
RTVSPost2010Prop39
140
1.0
102
RTVSPost2010PropOp39
 70
     1
102
RTVSPost2010Prop40
 90
        0
102
RTVSPost2010PropOp40
 70
     1
102
RTVSPost2010Prop41ColorIndex
 90
       18
102
RTVSPost2010Prop41ColorRGB
 90
        0
102
RTVSPost2010PropOp41
 70
     1
102
RTVSPost2010Prop42
 90
       50
102
RTVSPost2010PropOp42
 70
     1
102
RTVSPost2010Prop43
 90
        3
102
RTVSPost2010PropOp43
 70
     1
102
RTVSPost2010Prop44ColorIndex
 90
        5
102
RTVSPost2010Prop44ColorRGB
 90
      255
102
RTVSPost2010PropOp44
 70
     1
102
RTVSPost2010Prop45
280
     0
102
RTVSPost2010PropOp45
 70
     1
102
RTVSPost2010Prop46
 90
       50
102
RTVSPost2010PropOp46
 70
     1
102
RTVSPost2010Prop47
 90
       50
102
RTVSPost2010PropOp47
 70
     1
102
RTVSPost2010Prop48
 90
       50
102
RTVSPost2010PropOp48
 70
     1
102
RTVSPost2010Prop49
280
     0
102
RTVSPost2010PropOp49
 70
     1
102
RTVSPost2010Prop50
 90
       50
102
RTVSPost2010PropOp50
 70
     1
102
RTVSPost2010Prop51ColorIndex
 90
      256
102
RTVSPost2010Prop51ColorRGB
 90
-16777216
102
RTVSPost2010PropOp51
 70
     0
102
RTVSPost2010Prop52
140
1.0
102
RTVSPost2010PropOp52
 70
     0
102
RTVSPost2010Prop53
 90
        2
102
RTVSPost2010PropOp53
 70
     1
102
RTVSPost2010Prop54
  1
strokes_ogs.tif
102
RTVSPost2010PropOp54
 70
     1
102
RTVSPost2010Prop55
280
     0
102
RTVSPost2010PropOp55
 70
     1
102
RTVSPost2010Prop56
140
1.0
102
RTVSPost2010PropOp56
 70
     1
102
RTVSPost2010Prop57
140
1.0
102
RTVSPost2010PropOp57
 70
     1
  0
XRECORD
  5
11892
102
{ACAD_REACTORS
330
11891
102
}
330
11891
100
AcDbXrecord
280
     1
102
RTVSPost2010Prop28
280
     0
102
RTVSPost2010PropOp28
 70
     1
102
RTVSPost2010Prop29
280
     1
102
RTVSPost2010PropOp29
 70
     1
102
RTVSPost2010Prop30
280
     1
102
RTVSPost2010PropOp30
 70
     1
102
RTVSPost2010Prop31
280
     0
102
RTVSPost2010PropOp31
 70
     1
102
RTVSPost2010Prop32
280
     0
102
RTVSPost2010PropOp32
 70
     1
102
RTVSPost2010Prop33
280
     0
102
RTVSPost2010PropOp33
 70
     1
102
RTVSPost2010Prop34
280
     0
102
RTVSPost2010PropOp34
 70
     1
102
RTVSPost2010Prop35
280
     0
102
RTVSPost2010PropOp35
 70
     1
102
RTVSPost2010Prop36
280
     0
102
RTVSPost2010PropOp36
 70
     1
102
RTVSPost2010Prop37
 90
       50
102
RTVSPost2010PropOp37
 70
     1
102
RTVSPost2010Prop38
140
0.0
102
RTVSPost2010PropOp38
 70
     1
102
RTVSPost2010Prop39
140
1.0
102
RTVSPost2010PropOp39
 70
     1
102
RTVSPost2010Prop40
 90
        0
102
RTVSPost2010PropOp40
 70
     1
102
RTVSPost2010Prop41ColorIndex
 90
       18
102
RTVSPost2010Prop41ColorRGB
 90
        0
102
RTVSPost2010PropOp41
 70
     1
102
RTVSPost2010Prop42
 90
       50
102
RTVSPost2010PropOp42
 70
     1
102
RTVSPost2010Prop43
 90
        3
102
RTVSPost2010PropOp43
 70
     1
102
RTVSPost2010Prop44ColorIndex
 90
        5
102
RTVSPost2010Prop44ColorRGB
 90
      255
102
RTVSPost2010PropOp44
 70
     1
102
RTVSPost2010Prop45
280
     0
102
RTVSPost2010PropOp45
 70
     1
102
RTVSPost2010Prop46
 90
       50
102
RTVSPost2010PropOp46
 70
     1
102
RTVSPost2010Prop47
 90
       50
102
RTVSPost2010PropOp47
 70
     1
102
RTVSPost2010Prop48
 90
       50
102
RTVSPost2010PropOp48
 70
     1
102
RTVSPost2010Prop49
280
     0
102
RTVSPost2010PropOp49
 70
     1
102
RTVSPost2010Prop50
 90
       50
102
RTVSPost2010PropOp50
 70
     1
102
RTVSPost2010Prop51ColorIndex
 90
      256
102
RTVSPost2010Prop51ColorRGB
 90
-16777216
102
RTVSPost2010PropOp51
 70
     0
102
RTVSPost2010Prop52
140
1.0
102
RTVSPost2010PropOp52
 70
     0
102
RTVSPost2010Prop53
 90
        2
102
RTVSPost2010PropOp53
 70
     1
102
RTVSPost2010Prop54
  1
strokes_ogs.tif
102
RTVSPost2010PropOp54
 70
     1
102
RTVSPost2010Prop55
280
     0
102
RTVSPost2010PropOp55
 70
     1
102
RTVSPost2010Prop56
140
1.0
102
RTVSPost2010PropOp56
 70
     1
102
RTVSPost2010Prop57
140
1.0
102
RTVSPost2010PropOp57
 70
     1
  0
XRECORD
  5
118AE
102
{ACAD_REACTORS
330
118AD
102
}
330
118AD
100
AcDbXrecord
280
     1
102
RTVSPost2010Prop28
280
     0
102
RTVSPost2010PropOp28
 70
     1
102
RTVSPost2010Prop29
280
     1
102
RTVSPost2010PropOp29
 70
     1
102
RTVSPost2010Prop30
280
     1
102
RTVSPost2010PropOp30
 70
     1
102
RTVSPost2010Prop31
280
     0
102
RTVSPost2010PropOp31
 70
     1
102
RTVSPost2010Prop32
280
     0
102
RTVSPost2010PropOp32
 70
     1
102
RTVSPost2010Prop33
280
     0
102
RTVSPost2010PropOp33
 70
     1
102
RTVSPost2010Prop34
280
     0
102
RTVSPost2010PropOp34
 70
     1
102
RTVSPost2010Prop35
280
     0
102
RTVSPost2010PropOp35
 70
     1
102
RTVSPost2010Prop36
280
     0
102
RTVSPost2010PropOp36
 70
     1
102
RTVSPost2010Prop37
 90
       50
102
RTVSPost2010PropOp37
 70
     1
102
RTVSPost2010Prop38
140
0.0
102
RTVSPost2010PropOp38
 70
     1
102
RTVSPost2010Prop39
140
1.0
102
RTVSPost2010PropOp39
 70
     1
102
RTVSPost2010Prop40
 90
        0
102
RTVSPost2010PropOp40
 70
     1
102
RTVSPost2010Prop41ColorIndex
 90
       18
102
RTVSPost2010Prop41ColorRGB
 90
        0
102
RTVSPost2010PropOp41
 70
     1
102
RTVSPost2010Prop42
 90
       50
102
RTVSPost2010PropOp42
 70
     1
102
RTVSPost2010Prop43
 90
        3
102
RTVSPost2010PropOp43
 70
     1
102
RTVSPost2010Prop44ColorIndex
 90
        5
102
RTVSPost2010Prop44ColorRGB
 90
      255
102
RTVSPost2010PropOp44
 70
     1
102
RTVSPost2010Prop45
280
     0
102
RTVSPost2010PropOp45
 70
     1
102
RTVSPost2010Prop46
 90
       50
102
RTVSPost2010PropOp46
 70
     1
102
RTVSPost2010Prop47
 90
       50
102
RTVSPost2010PropOp47
 70
     1
102
RTVSPost2010Prop48
 90
       50
102
RTVSPost2010PropOp48
 70
     1
102
RTVSPost2010Prop49
280
     0
102
RTVSPost2010PropOp49
 70
     1
102
RTVSPost2010Prop50
 90
       50
102
RTVSPost2010PropOp50
 70
     1
102
RTVSPost2010Prop51ColorIndex
 90
      256
102
RTVSPost2010Prop51ColorRGB
 90
-16777216
102
RTVSPost2010PropOp51
 70
     0
102
RTVSPost2010Prop52
140
1.0
102
RTVSPost2010PropOp52
 70
     0
102
RTVSPost2010Prop53
 90
        2
102
RTVSPost2010PropOp53
 70
     1
102
RTVSPost2010Prop54
  1
strokes_ogs.tif
102
RTVSPost2010PropOp54
 70
     1
102
RTVSPost2010Prop55
280
     0
102
RTVSPost2010PropOp55
 70
     1
102
RTVSPost2010Prop56
140
1.0
102
RTVSPost2010PropOp56
 70
     1
102
RTVSPost2010Prop57
140
1.0
102
RTVSPost2010PropOp57
 70
     1
  0
XRECORD
  5
118BA
102
{ACAD_REACTORS
330
118B9
102
}
330
118B9
100
AcDbXrecord
280
     1
102
RTVSPost2010Prop28
280
     0
102
RTVSPost2010PropOp28
 70
     0
102
RTVSPost2010Prop29
280
     1
102
RTVSPost2010PropOp29
 70
     0
102
RTVSPost2010Prop30
280
     1
102
RTVSPost2010PropOp30
 70
     0
102
RTVSPost2010Prop31
280
     0
102
RTVSPost2010PropOp31
 70
     0
102
RTVSPost2010Prop32
280
     0
102
RTVSPost2010PropOp32
 70
     0
102
RTVSPost2010Prop33
280
     0
102
RTVSPost2010PropOp33
 70
     0
102
RTVSPost2010Prop34
280
     0
102
RTVSPost2010PropOp34
 70
     0
102
RTVSPost2010Prop35
280
     0
102
RTVSPost2010PropOp35
 70
     0
102
RTVSPost2010Prop36
280
     0
102
RTVSPost2010PropOp36
 70
     0
102
RTVSPost2010Prop37
 90
       50
102
RTVSPost2010PropOp37
 70
     0
102
RTVSPost2010Prop38
140
0.0
102
RTVSPost2010PropOp38
 70
     0
102
RTVSPost2010Prop39
140
1.0
102
RTVSPost2010PropOp39
 70
     0
102
RTVSPost2010Prop40
 90
        0
102
RTVSPost2010PropOp40
 70
     0
102
RTVSPost2010Prop41ColorIndex
 90
       18
102
RTVSPost2010Prop41ColorRGB
 90
        0
102
RTVSPost2010PropOp41
 70
     0
102
RTVSPost2010Prop42
 90
       50
102
RTVSPost2010PropOp42
 70
     0
102
RTVSPost2010Prop43
 90
        3
102
RTVSPost2010PropOp43
 70
     0
102
RTVSPost2010Prop44ColorIndex
 90
        5
102
RTVSPost2010Prop44ColorRGB
 90
      255
102
RTVSPost2010PropOp44
 70
     0
102
RTVSPost2010Prop45
280
     0
102
RTVSPost2010PropOp45
 70
     0
102
RTVSPost2010Prop46
 90
       50
102
RTVSPost2010PropOp46
 70
     0
102
RTVSPost2010Prop47
 90
       50
102
RTVSPost2010PropOp47
 70
     0
102
RTVSPost2010Prop48
 90
       50
102
RTVSPost2010PropOp48
 70
     0
102
RTVSPost2010Prop49
280
     0
102
RTVSPost2010PropOp49
 70
     0
102
RTVSPost2010Prop50
 90
       50
102
RTVSPost2010PropOp50
 70
     0
102
RTVSPost2010Prop51ColorIndex
 90
      256
102
RTVSPost2010Prop51ColorRGB
 90
-16777216
102
RTVSPost2010PropOp51
 70
     0
102
RTVSPost2010Prop52
140
1.0
102
RTVSPost2010PropOp52
 70
     0
102
RTVSPost2010Prop53
 90
        2
102
RTVSPost2010PropOp53
 70
     0
102
RTVSPost2010Prop54
  1
strokes_ogs.tif
102
RTVSPost2010PropOp54
 70
     0
102
RTVSPost2010Prop55
280
     0
102
RTVSPost2010PropOp55
 70
     0
102
RTVSPost2010Prop56
140
1.0
102
RTVSPost2010PropOp56
 70
     0
102
RTVSPost2010Prop57
140
1.0
102
RTVSPost2010PropOp57
 70
     0
  0
XRECORD
  5
118A6
102
{ACAD_REACTORS
330
118A5
102
}
330
118A5
100
AcDbXrecord
280
     1
102
RTVSPost2010Prop28
280
     0
102
RTVSPost2010PropOp28
 70
     1
102
RTVSPost2010Prop29
280
     1
102
RTVSPost2010PropOp29
 70
     1
102
RTVSPost2010Prop30
280
     1
102
RTVSPost2010PropOp30
 70
     1
102
RTVSPost2010Prop31
280
     0
102
RTVSPost2010PropOp31
 70
     1
102
RTVSPost2010Prop32
280
     0
102
RTVSPost2010PropOp32
 70
     1
102
RTVSPost2010Prop33
280
     0
102
RTVSPost2010PropOp33
 70
     1
102
RTVSPost2010Prop34
280
     0
102
RTVSPost2010PropOp34
 70
     1
102
RTVSPost2010Prop35
280
     0
102
RTVSPost2010PropOp35
 70
     1
102
RTVSPost2010Prop36
280
     0
102
RTVSPost2010PropOp36
 70
     1
102
RTVSPost2010Prop37
 90
       50
102
RTVSPost2010PropOp37
 70
     1
102
RTVSPost2010Prop38
140
0.0
102
RTVSPost2010PropOp38
 70
     1
102
RTVSPost2010Prop39
140
1.0
102
RTVSPost2010PropOp39
 70
     1
102
RTVSPost2010Prop40
 90
        0
102
RTVSPost2010PropOp40
 70
     1
102
RTVSPost2010Prop41ColorIndex
 90
       18
102
RTVSPost2010Prop41ColorRGB
 90
        0
102
RTVSPost2010PropOp41
 70
     1
102
RTVSPost2010Prop42
 90
       50
102
RTVSPost2010PropOp42
 70
     1
102
RTVSPost2010Prop43
 90
        3
102
RTVSPost2010PropOp43
 70
     1
102
RTVSPost2010Prop44ColorIndex
 90
        5
102
RTVSPost2010Prop44ColorRGB
 90
      255
102
RTVSPost2010PropOp44
 70
     1
102
RTVSPost2010Prop45
280
     0
102
RTVSPost2010PropOp45
 70
     1
102
RTVSPost2010Prop46
 90
       50
102
RTVSPost2010PropOp46
 70
     1
102
RTVSPost2010Prop47
 90
       50
102
RTVSPost2010PropOp47
 70
     1
102
RTVSPost2010Prop48
 90
       50
102
RTVSPost2010PropOp48
 70
     1
102
RTVSPost2010Prop49
280
     0
102
RTVSPost2010PropOp49
 70
     1
102
RTVSPost2010Prop50
 90
       50
102
RTVSPost2010PropOp50
 70
     1
102
RTVSPost2010Prop51ColorIndex
 90
      256
102
RTVSPost2010Prop51ColorRGB
 90
-16777216
102
RTVSPost2010PropOp51
 70
     0
102
RTVSPost2010Prop52
140
1.0
102
RTVSPost2010PropOp52
 70
     0
102
RTVSPost2010Prop53
 90
        2
102
RTVSPost2010PropOp53
 70
     1
102
RTVSPost2010Prop54
  1
strokes_ogs.tif
102
RTVSPost2010PropOp54
 70
     1
102
RTVSPost2010Prop55
280
     0
102
RTVSPost2010PropOp55
 70
     1
102
RTVSPost2010Prop56
140
1.0
102
RTVSPost2010PropOp56
 70
     1
102
RTVSPost2010Prop57
140
1.0
102
RTVSPost2010PropOp57
 70
     1
  0
XRECORD
  5
118BC
102
{ACAD_REACTORS
330
118BB
102
}
330
118BB
100
AcDbXrecord
280
     1
102
RTVSPost2010Prop28
280
     0
102
RTVSPost2010PropOp28
 70
     0
102
RTVSPost2010Prop29
280
     1
102
RTVSPost2010PropOp29
 70
     0
102
RTVSPost2010Prop30
280
     1
102
RTVSPost2010PropOp30
 70
     0
102
RTVSPost2010Prop31
280
     0
102
RTVSPost2010PropOp31
 70
     0
102
RTVSPost2010Prop32
280
     0
102
RTVSPost2010PropOp32
 70
     0
102
RTVSPost2010Prop33
280
     0
102
RTVSPost2010PropOp33
 70
     0
102
RTVSPost2010Prop34
280
     0
102
RTVSPost2010PropOp34
 70
     0
102
RTVSPost2010Prop35
280
     0
102
RTVSPost2010PropOp35
 70
     0
102
RTVSPost2010Prop36
280
     0
102
RTVSPost2010PropOp36
 70
     0
102
RTVSPost2010Prop37
 90
       50
102
RTVSPost2010PropOp37
 70
     0
102
RTVSPost2010Prop38
140
0.0
102
RTVSPost2010PropOp38
 70
     0
102
RTVSPost2010Prop39
140
1.0
102
RTVSPost2010PropOp39
 70
     0
102
RTVSPost2010Prop40
 90
        0
102
RTVSPost2010PropOp40
 70
     0
102
RTVSPost2010Prop41ColorIndex
 90
       18
102
RTVSPost2010Prop41ColorRGB
 90
        0
102
RTVSPost2010PropOp41
 70
     0
102
RTVSPost2010Prop42
 90
       50
102
RTVSPost2010PropOp42
 70
     0
102
RTVSPost2010Prop43
 90
        3
102
RTVSPost2010PropOp43
 70
     0
102
RTVSPost2010Prop44ColorIndex
 90
        5
102
RTVSPost2010Prop44ColorRGB
 90
      255
102
RTVSPost2010PropOp44
 70
     0
102
RTVSPost2010Prop45
280
     0
102
RTVSPost2010PropOp45
 70
     0
102
RTVSPost2010Prop46
 90
       50
102
RTVSPost2010PropOp46
 70
     0
102
RTVSPost2010Prop47
 90
       50
102
RTVSPost2010PropOp47
 70
     0
102
RTVSPost2010Prop48
 90
       50
102
RTVSPost2010PropOp48
 70
     0
102
RTVSPost2010Prop49
280
     0
102
RTVSPost2010PropOp49
 70
     0
102
RTVSPost2010Prop50
 90
       50
102
RTVSPost2010PropOp50
 70
     0
102
RTVSPost2010Prop51ColorIndex
 90
      256
102
RTVSPost2010Prop51ColorRGB
 90
-16777216
102
RTVSPost2010PropOp51
 70
     0
102
RTVSPost2010Prop52
140
1.0
102
RTVSPost2010PropOp52
 70
     0
102
RTVSPost2010Prop53
 90
        2
102
RTVSPost2010PropOp53
 70
     0
102
RTVSPost2010Prop54
  1
strokes_ogs.tif
102
RTVSPost2010PropOp54
 70
     0
102
RTVSPost2010Prop55
280
     0
102
RTVSPost2010PropOp55
 70
     0
102
RTVSPost2010Prop56
140
1.0
102
RTVSPost2010PropOp56
 70
     0
102
RTVSPost2010Prop57
140
1.0
102
RTVSPost2010PropOp57
 70
     0
  0
XRECORD
  5
1189E
102
{ACAD_REACTORS
330
1189D
102
}
330
1189D
100
AcDbXrecord
280
     1
102
RTVSPost2010Prop28
280
     0
102
RTVSPost2010PropOp28
 70
     1
102
RTVSPost2010Prop29
280
     1
102
RTVSPost2010PropOp29
 70
     1
102
RTVSPost2010Prop30
280
     1
102
RTVSPost2010PropOp30
 70
     1
102
RTVSPost2010Prop31
280
     0
102
RTVSPost2010PropOp31
 70
     1
102
RTVSPost2010Prop32
280
     0
102
RTVSPost2010PropOp32
 70
     1
102
RTVSPost2010Prop33
280
     0
102
RTVSPost2010PropOp33
 70
     1
102
RTVSPost2010Prop34
280
     0
102
RTVSPost2010PropOp34
 70
     1
102
RTVSPost2010Prop35
280
     0
102
RTVSPost2010PropOp35
 70
     1
102
RTVSPost2010Prop36
280
     0
102
RTVSPost2010PropOp36
 70
     1
102
RTVSPost2010Prop37
 90
       50
102
RTVSPost2010PropOp37
 70
     1
102
RTVSPost2010Prop38
140
0.0
102
RTVSPost2010PropOp38
 70
     1
102
RTVSPost2010Prop39
140
1.0
102
RTVSPost2010PropOp39
 70
     1
102
RTVSPost2010Prop40
 90
        0
102
RTVSPost2010PropOp40
 70
     1
102
RTVSPost2010Prop41ColorIndex
 90
       18
102
RTVSPost2010Prop41ColorRGB
 90
        0
102
RTVSPost2010PropOp41
 70
     1
102
RTVSPost2010Prop42
 90
       50
102
RTVSPost2010PropOp42
 70
     1
102
RTVSPost2010Prop43
 90
        3
102
RTVSPost2010PropOp43
 70
     1
102
RTVSPost2010Prop44ColorIndex
 90
        5
102
RTVSPost2010Prop44ColorRGB
 90
      255
102
RTVSPost2010PropOp44
 70
     1
102
RTVSPost2010Prop45
280
     0
102
RTVSPost2010PropOp45
 70
     1
102
RTVSPost2010Prop46
 90
       50
102
RTVSPost2010PropOp46
 70
     1
102
RTVSPost2010Prop47
 90
       50
102
RTVSPost2010PropOp47
 70
     1
102
RTVSPost2010Prop48
 90
       50
102
RTVSPost2010PropOp48
 70
     1
102
RTVSPost2010Prop49
280
     0
102
RTVSPost2010PropOp49
 70
     1
102
RTVSPost2010Prop50
 90
       50
102
RTVSPost2010PropOp50
 70
     1
102
RTVSPost2010Prop51ColorIndex
 90
      256
102
RTVSPost2010Prop51ColorRGB
 90
-16777216
102
RTVSPost2010PropOp51
 70
     0
102
RTVSPost2010Prop52
140
1.0
102
RTVSPost2010PropOp52
 70
     0
102
RTVSPost2010Prop53
 90
        2
102
RTVSPost2010PropOp53
 70
     1
102
RTVSPost2010Prop54
  1
strokes_ogs.tif
102
RTVSPost2010PropOp54
 70
     1
102
RTVSPost2010Prop55
280
     0
102
RTVSPost2010PropOp55
 70
     1
102
RTVSPost2010Prop56
140
1.0
102
RTVSPost2010PropOp56
 70
     1
102
RTVSPost2010Prop57
140
1.0
102
RTVSPost2010PropOp57
 70
     1
  0
XRECORD
  5
118B8
102
{ACAD_REACTORS
330
118B7
102
}
330
118B7
100
AcDbXrecord
280
     1
102
RTVSPost2010Prop28
280
     0
102
RTVSPost2010PropOp28
 70
     1
102
RTVSPost2010Prop29
280
     1
102
RTVSPost2010PropOp29
 70
     1
102
RTVSPost2010Prop30
280
     1
102
RTVSPost2010PropOp30
 70
     1
102
RTVSPost2010Prop31
280
     0
102
RTVSPost2010PropOp31
 70
     1
102
RTVSPost2010Prop32
280
     0
102
RTVSPost2010PropOp32
 70
     1
102
RTVSPost2010Prop33
280
     0
102
RTVSPost2010PropOp33
 70
     1
102
RTVSPost2010Prop34
280
     0
102
RTVSPost2010PropOp34
 70
     1
102
RTVSPost2010Prop35
280
     0
102
RTVSPost2010PropOp35
 70
     1
102
RTVSPost2010Prop36
280
     0
102
RTVSPost2010PropOp36
 70
     1
102
RTVSPost2010Prop37
 90
       50
102
RTVSPost2010PropOp37
 70
     1
102
RTVSPost2010Prop38
140
0.0
102
RTVSPost2010PropOp38
 70
     1
102
RTVSPost2010Prop39
140
1.0
102
RTVSPost2010PropOp39
 70
     1
102
RTVSPost2010Prop40
 90
        0
102
RTVSPost2010PropOp40
 70
     1
102
RTVSPost2010Prop41ColorIndex
 90
       18
102
RTVSPost2010Prop41ColorRGB
 90
        0
102
RTVSPost2010PropOp41
 70
     1
102
RTVSPost2010Prop42
 90
       50
102
RTVSPost2010PropOp42
 70
     1
102
RTVSPost2010Prop43
 90
        3
102
RTVSPost2010PropOp43
 70
     1
102
RTVSPost2010Prop44ColorIndex
 90
        5
102
RTVSPost2010Prop44ColorRGB
 90
      255
102
RTVSPost2010PropOp44
 70
     1
102
RTVSPost2010Prop45
280
     0
102
RTVSPost2010PropOp45
 70
     1
102
RTVSPost2010Prop46
 90
       50
102
RTVSPost2010PropOp46
 70
     1
102
RTVSPost2010Prop47
 90
       50
102
RTVSPost2010PropOp47
 70
     1
102
RTVSPost2010Prop48
 90
       50
102
RTVSPost2010PropOp48
 70
     1
102
RTVSPost2010Prop49
280
     0
102
RTVSPost2010PropOp49
 70
     1
102
RTVSPost2010Prop50
 90
       50
102
RTVSPost2010PropOp50
 70
     1
102
RTVSPost2010Prop51ColorIndex
 90
      256
102
RTVSPost2010Prop51ColorRGB
 90
-16777216
102
RTVSPost2010PropOp51
 70
     0
102
RTVSPost2010Prop52
140
1.0
102
RTVSPost2010PropOp52
 70
     0
102
RTVSPost2010Prop53
 90
        2
102
RTVSPost2010PropOp53
 70
     1
102
RTVSPost2010Prop54
  1
strokes_ogs.tif
102
RTVSPost2010PropOp54
 70
     1
102
RTVSPost2010Prop55
280
     0
102
RTVSPost2010PropOp55
 70
     1
102
RTVSPost2010Prop56
140
1.0
102
RTVSPost2010PropOp56
 70
     1
102
RTVSPost2010Prop57
140
1.0
102
RTVSPost2010PropOp57
 70
     1
  0
XRECORD
  5
118B6
102
{ACAD_REACTORS
330
118B5
102
}
330
118B5
100
AcDbXrecord
280
     1
102
RTVSPost2010Prop28
280
     0
102
RTVSPost2010PropOp28
 70
     1
102
RTVSPost2010Prop29
280
     1
102
RTVSPost2010PropOp29
 70
     1
102
RTVSPost2010Prop30
280
     1
102
RTVSPost2010PropOp30
 70
     1
102
RTVSPost2010Prop31
280
     0
102
RTVSPost2010PropOp31
 70
     1
102
RTVSPost2010Prop32
280
     0
102
RTVSPost2010PropOp32
 70
     1
102
RTVSPost2010Prop33
280
     0
102
RTVSPost2010PropOp33
 70
     1
102
RTVSPost2010Prop34
280
     0
102
RTVSPost2010PropOp34
 70
     1
102
RTVSPost2010Prop35
280
     0
102
RTVSPost2010PropOp35
 70
     1
102
RTVSPost2010Prop36
280
     0
102
RTVSPost2010PropOp36
 70
     1
102
RTVSPost2010Prop37
 90
       50
102
RTVSPost2010PropOp37
 70
     1
102
RTVSPost2010Prop38
140
0.0
102
RTVSPost2010PropOp38
 70
     1
102
RTVSPost2010Prop39
140
1.0
102
RTVSPost2010PropOp39
 70
     1
102
RTVSPost2010Prop40
 90
        0
102
RTVSPost2010PropOp40
 70
     1
102
RTVSPost2010Prop41ColorIndex
 90
       18
102
RTVSPost2010Prop41ColorRGB
 90
        0
102
RTVSPost2010PropOp41
 70
     1
102
RTVSPost2010Prop42
 90
       50
102
RTVSPost2010PropOp42
 70
     1
102
RTVSPost2010Prop43
 90
        3
102
RTVSPost2010PropOp43
 70
     1
102
RTVSPost2010Prop44ColorIndex
 90
        5
102
RTVSPost2010Prop44ColorRGB
 90
      255
102
RTVSPost2010PropOp44
 70
     1
102
RTVSPost2010Prop45
280
     0
102
RTVSPost2010PropOp45
 70
     1
102
RTVSPost2010Prop46
 90
       50
102
RTVSPost2010PropOp46
 70
     1
102
RTVSPost2010Prop47
 90
       50
102
RTVSPost2010PropOp47
 70
     1
102
RTVSPost2010Prop48
 90
       50
102
RTVSPost2010PropOp48
 70
     1
102
RTVSPost2010Prop49
280
     0
102
RTVSPost2010PropOp49
 70
     1
102
RTVSPost2010Prop50
 90
       50
102
RTVSPost2010PropOp50
 70
     1
102
RTVSPost2010Prop51ColorIndex
 90
      256
102
RTVSPost2010Prop51ColorRGB
 90
-16777216
102
RTVSPost2010PropOp51
 70
     0
102
RTVSPost2010Prop52
140
1.0
102
RTVSPost2010PropOp52
 70
     0
102
RTVSPost2010Prop53
 90
        2
102
RTVSPost2010PropOp53
 70
     1
102
RTVSPost2010Prop54
  1
strokes_ogs.tif
102
RTVSPost2010PropOp54
 70
     1
102
RTVSPost2010Prop55
280
     0
102
RTVSPost2010PropOp55
 70
     1
102
RTVSPost2010Prop56
140
1.0
102
RTVSPost2010PropOp56
 70
     1
102
RTVSPost2010Prop57
140
1.0
102
RTVSPost2010PropOp57
 70
     1
  0
XRECORD
  5
118B0
102
{ACAD_REACTORS
330
118AF
102
}
330
118AF
100
AcDbXrecord
280
     1
102
RTVSPost2010Prop28
280
     0
102
RTVSPost2010PropOp28
 70
     1
102
RTVSPost2010Prop29
280
     1
102
RTVSPost2010PropOp29
 70
     1
102
RTVSPost2010Prop30
280
     1
102
RTVSPost2010PropOp30
 70
     1
102
RTVSPost2010Prop31
280
     0
102
RTVSPost2010PropOp31
 70
     1
102
RTVSPost2010Prop32
280
     0
102
RTVSPost2010PropOp32
 70
     1
102
RTVSPost2010Prop33
280
     0
102
RTVSPost2010PropOp33
 70
     1
102
RTVSPost2010Prop34
280
     0
102
RTVSPost2010PropOp34
 70
     1
102
RTVSPost2010Prop35
280
     0
102
RTVSPost2010PropOp35
 70
     1
102
RTVSPost2010Prop36
280
     0
102
RTVSPost2010PropOp36
 70
     1
102
RTVSPost2010Prop37
 90
       50
102
RTVSPost2010PropOp37
 70
     1
102
RTVSPost2010Prop38
140
0.0
102
RTVSPost2010PropOp38
 70
     1
102
RTVSPost2010Prop39
140
1.0
102
RTVSPost2010PropOp39
 70
     1
102
RTVSPost2010Prop40
 90
        0
102
RTVSPost2010PropOp40
 70
     1
102
RTVSPost2010Prop41ColorIndex
 90
       18
102
RTVSPost2010Prop41ColorRGB
 90
        0
102
RTVSPost2010PropOp41
 70
     1
102
RTVSPost2010Prop42
 90
       50
102
RTVSPost2010PropOp42
 70
     1
102
RTVSPost2010Prop43
 90
        3
102
RTVSPost2010PropOp43
 70
     1
102
RTVSPost2010Prop44ColorIndex
 90
        5
102
RTVSPost2010Prop44ColorRGB
 90
      255
102
RTVSPost2010PropOp44
 70
     1
102
RTVSPost2010Prop45
280
     0
102
RTVSPost2010PropOp45
 70
     1
102
RTVSPost2010Prop46
 90
       50
102
RTVSPost2010PropOp46
 70
     1
102
RTVSPost2010Prop47
 90
       50
102
RTVSPost2010PropOp47
 70
     1
102
RTVSPost2010Prop48
 90
       50
102
RTVSPost2010PropOp48
 70
     1
102
RTVSPost2010Prop49
280
     0
102
RTVSPost2010PropOp49
 70
     1
102
RTVSPost2010Prop50
 90
       50
102
RTVSPost2010PropOp50
 70
     1
102
RTVSPost2010Prop51ColorIndex
 90
      256
102
RTVSPost2010Prop51ColorRGB
 90
-16777216
102
RTVSPost2010PropOp51
 70
     0
102
RTVSPost2010Prop52
140
1.0
102
RTVSPost2010PropOp52
 70
     0
102
RTVSPost2010Prop53
 90
        2
102
RTVSPost2010PropOp53
 70
     1
102
RTVSPost2010Prop54
  1
strokes_ogs.tif
102
RTVSPost2010PropOp54
 70
     1
102
RTVSPost2010Prop55
280
     0
102
RTVSPost2010PropOp55
 70
     1
102
RTVSPost2010Prop56
140
1.0
102
RTVSPost2010PropOp56
 70
     1
102
RTVSPost2010Prop57
140
1.0
102
RTVSPost2010PropOp57
 70
     1
  0
XRECORD
  5
118B2
102
{ACAD_REACTORS
330
118B1
102
}
330
118B1
100
AcDbXrecord
280
     1
102
RTVSPost2010Prop28
280
     0
102
RTVSPost2010PropOp28
 70
     1
102
RTVSPost2010Prop29
280
     1
102
RTVSPost2010PropOp29
 70
     1
102
RTVSPost2010Prop30
280
     1
102
RTVSPost2010PropOp30
 70
     1
102
RTVSPost2010Prop31
280
     0
102
RTVSPost2010PropOp31
 70
     1
102
RTVSPost2010Prop32
280
     0
102
RTVSPost2010PropOp32
 70
     1
102
RTVSPost2010Prop33
280
     0
102
RTVSPost2010PropOp33
 70
     1
102
RTVSPost2010Prop34
280
     0
102
RTVSPost2010PropOp34
 70
     1
102
RTVSPost2010Prop35
280
     0
102
RTVSPost2010PropOp35
 70
     1
102
RTVSPost2010Prop36
280
     0
102
RTVSPost2010PropOp36
 70
     1
102
RTVSPost2010Prop37
 90
       50
102
RTVSPost2010PropOp37
 70
     1
102
RTVSPost2010Prop38
140
0.0
102
RTVSPost2010PropOp38
 70
     1
102
RTVSPost2010Prop39
140
1.0
102
RTVSPost2010PropOp39
 70
     1
102
RTVSPost2010Prop40
 90
        0
102
RTVSPost2010PropOp40
 70
     1
102
RTVSPost2010Prop41ColorIndex
 90
       18
102
RTVSPost2010Prop41ColorRGB
 90
        0
102
RTVSPost2010PropOp41
 70
     1
102
RTVSPost2010Prop42
 90
       50
102
RTVSPost2010PropOp42
 70
     1
102
RTVSPost2010Prop43
 90
        3
102
RTVSPost2010PropOp43
 70
     1
102
RTVSPost2010Prop44ColorIndex
 90
        5
102
RTVSPost2010Prop44ColorRGB
 90
      255
102
RTVSPost2010PropOp44
 70
     1
102
RTVSPost2010Prop45
280
     0
102
RTVSPost2010PropOp45
 70
     1
102
RTVSPost2010Prop46
 90
       50
102
RTVSPost2010PropOp46
 70
     1
102
RTVSPost2010Prop47
 90
       50
102
RTVSPost2010PropOp47
 70
     1
102
RTVSPost2010Prop48
 90
       50
102
RTVSPost2010PropOp48
 70
     1
102
RTVSPost2010Prop49
280
     0
102
RTVSPost2010PropOp49
 70
     1
102
RTVSPost2010Prop50
 90
       50
102
RTVSPost2010PropOp50
 70
     1
102
RTVSPost2010Prop51ColorIndex
 90
      256
102
RTVSPost2010Prop51ColorRGB
 90
-16777216
102
RTVSPost2010PropOp51
 70
     0
102
RTVSPost2010Prop52
140
1.0
102
RTVSPost2010PropOp52
 70
     0
102
RTVSPost2010Prop53
 90
        2
102
RTVSPost2010PropOp53
 70
     1
102
RTVSPost2010Prop54
  1
strokes_ogs.tif
102
RTVSPost2010PropOp54
 70
     1
102
RTVSPost2010Prop55
280
     0
102
RTVSPost2010PropOp55
 70
     1
102
RTVSPost2010Prop56
140
1.0
102
RTVSPost2010PropOp56
 70
     1
102
RTVSPost2010Prop57
140
1.0
102
RTVSPost2010PropOp57
 70
     1
  0
XRECORD
  5
118A4
102
{ACAD_REACTORS
330
118A3
102
}
330
118A3
100
AcDbXrecord
280
     1
102
RTVSPost2010Prop28
280
     0
102
RTVSPost2010PropOp28
 70
     1
102
RTVSPost2010Prop29
280
     1
102
RTVSPost2010PropOp29
 70
     1
102
RTVSPost2010Prop30
280
     1
102
RTVSPost2010PropOp30
 70
     1
102
RTVSPost2010Prop31
280
     0
102
RTVSPost2010PropOp31
 70
     1
102
RTVSPost2010Prop32
280
     0
102
RTVSPost2010PropOp32
 70
     1
102
RTVSPost2010Prop33
280
     0
102
RTVSPost2010PropOp33
 70
     1
102
RTVSPost2010Prop34
280
     0
102
RTVSPost2010PropOp34
 70
     1
102
RTVSPost2010Prop35
280
     0
102
RTVSPost2010PropOp35
 70
     1
102
RTVSPost2010Prop36
280
     0
102
RTVSPost2010PropOp36
 70
     1
102
RTVSPost2010Prop37
 90
       50
102
RTVSPost2010PropOp37
 70
     1
102
RTVSPost2010Prop38
140
0.0
102
RTVSPost2010PropOp38
 70
     1
102
RTVSPost2010Prop39
140
1.0
102
RTVSPost2010PropOp39
 70
     1
102
RTVSPost2010Prop40
 90
        0
102
RTVSPost2010PropOp40
 70
     1
102
RTVSPost2010Prop41ColorIndex
 90
       18
102
RTVSPost2010Prop41ColorRGB
 90
        0
102
RTVSPost2010PropOp41
 70
     1
102
RTVSPost2010Prop42
 90
       50
102
RTVSPost2010PropOp42
 70
     1
102
RTVSPost2010Prop43
 90
        3
102
RTVSPost2010PropOp43
 70
     1
102
RTVSPost2010Prop44ColorIndex
 90
        5
102
RTVSPost2010Prop44ColorRGB
 90
      255
102
RTVSPost2010PropOp44
 70
     1
102
RTVSPost2010Prop45
280
     0
102
RTVSPost2010PropOp45
 70
     1
102
RTVSPost2010Prop46
 90
       50
102
RTVSPost2010PropOp46
 70
     1
102
RTVSPost2010Prop47
 90
       50
102
RTVSPost2010PropOp47
 70
     1
102
RTVSPost2010Prop48
 90
       50
102
RTVSPost2010PropOp48
 70
     1
102
RTVSPost2010Prop49
280
     0
102
RTVSPost2010PropOp49
 70
     1
102
RTVSPost2010Prop50
 90
       50
102
RTVSPost2010PropOp50
 70
     1
102
RTVSPost2010Prop51ColorIndex
 90
      256
102
RTVSPost2010Prop51ColorRGB
 90
-16777216
102
RTVSPost2010PropOp51
 70
     0
102
RTVSPost2010Prop52
140
1.0
102
RTVSPost2010PropOp52
 70
     0
102
RTVSPost2010Prop53
 90
        2
102
RTVSPost2010PropOp53
 70
     1
102
RTVSPost2010Prop54
  1
strokes_ogs.tif
102
RTVSPost2010PropOp54
 70
     1
102
RTVSPost2010Prop55
280
     0
102
RTVSPost2010PropOp55
 70
     1
102
RTVSPost2010Prop56
140
1.0
102
RTVSPost2010PropOp56
 70
     1
102
RTVSPost2010Prop57
140
1.0
102
RTVSPost2010PropOp57
 70
     1
  0
XRECORD
  5
118AC
102
{ACAD_REACTORS
330
118AB
102
}
330
118AB
100
AcDbXrecord
280
     1
102
RTVSPost2010Prop28
280
     0
102
RTVSPost2010PropOp28
 70
     1
102
RTVSPost2010Prop29
280
     1
102
RTVSPost2010PropOp29
 70
     1
102
RTVSPost2010Prop30
280
     1
102
RTVSPost2010PropOp30
 70
     1
102
RTVSPost2010Prop31
280
     0
102
RTVSPost2010PropOp31
 70
     1
102
RTVSPost2010Prop32
280
     0
102
RTVSPost2010PropOp32
 70
     1
102
RTVSPost2010Prop33
280
     0
102
RTVSPost2010PropOp33
 70
     1
102
RTVSPost2010Prop34
280
     0
102
RTVSPost2010PropOp34
 70
     1
102
RTVSPost2010Prop35
280
     0
102
RTVSPost2010PropOp35
 70
     1
102
RTVSPost2010Prop36
280
     0
102
RTVSPost2010PropOp36
 70
     1
102
RTVSPost2010Prop37
 90
       50
102
RTVSPost2010PropOp37
 70
     1
102
RTVSPost2010Prop38
140
0.0
102
RTVSPost2010PropOp38
 70
     1
102
RTVSPost2010Prop39
140
1.0
102
RTVSPost2010PropOp39
 70
     1
102
RTVSPost2010Prop40
 90
        0
102
RTVSPost2010PropOp40
 70
     1
102
RTVSPost2010Prop41ColorIndex
 90
       18
102
RTVSPost2010Prop41ColorRGB
 90
        0
102
RTVSPost2010PropOp41
 70
     1
102
RTVSPost2010Prop42
 90
       50
102
RTVSPost2010PropOp42
 70
     1
102
RTVSPost2010Prop43
 90
        3
102
RTVSPost2010PropOp43
 70
     1
102
RTVSPost2010Prop44ColorIndex
 90
        5
102
RTVSPost2010Prop44ColorRGB
 90
      255
102
RTVSPost2010PropOp44
 70
     1
102
RTVSPost2010Prop45
280
     0
102
RTVSPost2010PropOp45
 70
     1
102
RTVSPost2010Prop46
 90
       50
102
RTVSPost2010PropOp46
 70
     1
102
RTVSPost2010Prop47
 90
       50
102
RTVSPost2010PropOp47
 70
     1
102
RTVSPost2010Prop48
 90
       50
102
RTVSPost2010PropOp48
 70
     1
102
RTVSPost2010Prop49
280
     0
102
RTVSPost2010PropOp49
 70
     1
102
RTVSPost2010Prop50
 90
       50
102
RTVSPost2010PropOp50
 70
     1
102
RTVSPost2010Prop51ColorIndex
 90
      256
102
RTVSPost2010Prop51ColorRGB
 90
-16777216
102
RTVSPost2010PropOp51
 70
     0
102
RTVSPost2010Prop52
140
1.0
102
RTVSPost2010PropOp52
 70
     0
102
RTVSPost2010Prop53
 90
        2
102
RTVSPost2010PropOp53
 70
     1
102
RTVSPost2010Prop54
  1
strokes_ogs.tif
102
RTVSPost2010PropOp54
 70
     1
102
RTVSPost2010Prop55
280
     0
102
RTVSPost2010PropOp55
 70
     1
102
RTVSPost2010Prop56
140
1.0
102
RTVSPost2010PropOp56
 70
     1
102
RTVSPost2010Prop57
140
1.0
102
RTVSPost2010PropOp57
 70
     1
  0
XRECORD
  5
118B4
102
{ACAD_REACTORS
330
118B3
102
}
330
118B3
100
AcDbXrecord
280
     1
102
RTVSPost2010Prop28
280
     0
102
RTVSPost2010PropOp28
 70
     1
102
RTVSPost2010Prop29
280
     1
102
RTVSPost2010PropOp29
 70
     1
102
RTVSPost2010Prop30
280
     1
102
RTVSPost2010PropOp30
 70
     1
102
RTVSPost2010Prop31
280
     0
102
RTVSPost2010PropOp31
 70
     1
102
RTVSPost2010Prop32
280
     0
102
RTVSPost2010PropOp32
 70
     1
102
RTVSPost2010Prop33
280
     0
102
RTVSPost2010PropOp33
 70
     1
102
RTVSPost2010Prop34
280
     0
102
RTVSPost2010PropOp34
 70
     1
102
RTVSPost2010Prop35
280
     0
102
RTVSPost2010PropOp35
 70
     1
102
RTVSPost2010Prop36
280
     0
102
RTVSPost2010PropOp36
 70
     1
102
RTVSPost2010Prop37
 90
       50
102
RTVSPost2010PropOp37
 70
     1
102
RTVSPost2010Prop38
140
0.0
102
RTVSPost2010PropOp38
 70
     1
102
RTVSPost2010Prop39
140
1.0
102
RTVSPost2010PropOp39
 70
     1
102
RTVSPost2010Prop40
 90
        0
102
RTVSPost2010PropOp40
 70
     1
102
RTVSPost2010Prop41ColorIndex
 90
       18
102
RTVSPost2010Prop41ColorRGB
 90
        0
102
RTVSPost2010PropOp41
 70
     1
102
RTVSPost2010Prop42
 90
       50
102
RTVSPost2010PropOp42
 70
     1
102
RTVSPost2010Prop43
 90
        3
102
RTVSPost2010PropOp43
 70
     1
102
RTVSPost2010Prop44ColorIndex
 90
        5
102
RTVSPost2010Prop44ColorRGB
 90
      255
102
RTVSPost2010PropOp44
 70
     1
102
RTVSPost2010Prop45
280
     0
102
RTVSPost2010PropOp45
 70
     1
102
RTVSPost2010Prop46
 90
       50
102
RTVSPost2010PropOp46
 70
     1
102
RTVSPost2010Prop47
 90
       50
102
RTVSPost2010PropOp47
 70
     1
102
RTVSPost2010Prop48
 90
       50
102
RTVSPost2010PropOp48
 70
     1
102
RTVSPost2010Prop49
280
     0
102
RTVSPost2010PropOp49
 70
     1
102
RTVSPost2010Prop50
 90
       50
102
RTVSPost2010PropOp50
 70
     1
102
RTVSPost2010Prop51ColorIndex
 90
      256
102
RTVSPost2010Prop51ColorRGB
 90
-16777216
102
RTVSPost2010PropOp51
 70
     0
102
RTVSPost2010Prop52
140
1.0
102
RTVSPost2010PropOp52
 70
     0
102
RTVSPost2010Prop53
 90
        2
102
RTVSPost2010PropOp53
 70
     1
102
RTVSPost2010Prop54
  1
strokes_ogs.tif
102
RTVSPost2010PropOp54
 70
     1
102
RTVSPost2010Prop55
280
     0
102
RTVSPost2010PropOp55
 70
     1
102
RTVSPost2010Prop56
140
1.0
102
RTVSPost2010PropOp56
 70
     1
102
RTVSPost2010Prop57
140
1.0
102
RTVSPost2010PropOp57
 70
     1
  0
ENDSEC
  0
EOF
