  0
SECTION
  2
HEADER
  9
$ACADVER
  1
AC1021
  9
$ACADMAINTVER
 70
    25
  9
$DWGCODEPAGE
  3
ANSI_1252
  9
$LASTSAVEDBY
  1
Paul
  9
$INSBASE
 10
0.0
 20
0.0
 30
0.0
  9
$EXTMIN
 10
-0.3194963230404587
 20
-0.4199146913833537
 30
0.0
  9
$EXTMAX
 10
1.258842154644996
 20
0.2066791248915418
 30
0.0
  9
$LIMMIN
 10
0.0
 20
0.0
  9
$LIMMAX
 10
17.0
 20
11.0
  9
$ORTHOMODE
 70
     1
  9
$REGENMODE
 70
     1
  9
$FILLMODE
 70
     1
  9
$QTEXTMODE
 70
     0
  9
$MIRRTEXT
 70
     0
  9
$LTSCALE
 40
0.125
  9
$ATTMODE
 70
     1
  9
$TEXTSIZE
 40
0.03
  9
$TRACEWID
 40
0.05
  9
$TEXTSTYLE
  7
ADESK1
  9
$CLAYER
  8
Dims
  9
$CELTYPE
  6
BYLAYER
  9
$CECOLOR
 62
   256
  9
$CELTSCALE
 40
1.0
  9
$DISPSILH
 70
     0
  9
$DIMSCALE
 40
0.16
  9
$DIMASZ
 40
0.125
  9
$DIMEXO
 40
0.0625
  9
$DIMDLI
 40
0.38
  9
$DIMRND
 40
0.0
  9
$DIMDLE
 40
0.0
  9
$DIMEXE
 40
0.125
  9
$DIMTP
 40
0.0
  9
$DIMTM
 40
0.0
  9
$DIMTXT
 40
0.125
  9
$DIMCEN
 40
0.0
  9
$DIMTSZ
 40
0.0
  9
$DIMTOL
 70
     0
  9
$DIMLIM
 70
     0
  9
$DIMTIH
 70
     1
  9
$DIMTOH
 70
     1
  9
$DIMSE1
 70
     0
  9
$DIMSE2
 70
     0
  9
$DIMTAD
 70
     0
  9
$DIMZIN
 70
     4
  9
$DIMBLK
  1

  9
$DIMASO
 70
     1
  9
$DIMSHO
 70
     1
  9
$DIMPOST
  1

  9
$DIMAPOST
  1

  9
$DIMALT
 70
     1
  9
$DIMALTD
 70
     2
  9
$DIMALTF
 40
25.4
  9
$DIMLFAC
 40
1.0
  9
$DIMTOFL
 70
     0
  9
$DIMTVP
 40
0.0
  9
$DIMTIX
 70
     0
  9
$DIMSOXD
 70
     0
  9
$DIMSAH
 70
     0
  9
$DIMBLK1
  1

  9
$DIMBLK2
  1

  9
$DIMSTYLE
  2
Standard
  9
$DIMCLRD
 70
   256
  9
$DIMCLRE
 70
   256
  9
$DIMCLRT
 70
   256
  9
$DIMTFAC
 40
1.0
  9
$DIMGAP
 40
0.09
  9
$DIMJUST
 70
     0
  9
$DIMSD1
 70
     0
  9
$DIMSD2
 70
     0
  9
$DIMTOLJ
 70
     1
  9
$DIMTZIN
 70
     0
  9
$DIMALTZ
 70
     4
  9
$DIMALTTZ
 70
     0
  9
$DIMUPT
 70
     0
  9
$DIMDEC
 70
     3
  9
$DIMTDEC
 70
     3
  9
$DIMALTU
 70
     2
  9
$DIMALTTD
 70
     2
  9
$DIMTXSTY
  7
STANDARD
  9
$DIMAUNIT
 70
     0
  9
$DIMADEC
 70
     0
  9
$DIMALTRND
 40
0.0
  9
$DIMAZIN
 70
     0
  9
$DIMDSEP
 70
    46
  9
$DIMATFIT
 70
     3
  9
$DIMFRAC
 70
     0
  9
$DIMLDRBLK
  1

  9
$DIMLUNIT
 70
     2
  9
$DIMLWD
 70
    -2
  9
$DIMLWE
 70
    -2
  9
$DIMTMOVE
 70
     0
  9
$DIMFXL
 40
1.0
  9
$DIMFXLON
 70
     0
  9
$DIMJOGANG
 40
0.7853981633974483
  9
$DIMTFILL
 70
     0
  9
$DIMTFILLCLR
 70
     0
  9
$DIMARCSYM
 70
     0
  9
$DIMLTYPE
  6

  9
$DIMLTEX1
  6

  9
$DIMLTEX2
  6

  9
$LUNITS
 70
     2
  9
$LUPREC
 70
     4
  9
$SKETCHINC
 40
0.1
  9
$FILLETRAD
 40
0.0
  9
$AUNITS
 70
     0
  9
$AUPREC
 70
     0
  9
$MENU
  1
.
  9
$ELEVATION
 40
0.0
  9
$PELEVATION
 40
0.0
  9
$THICKNESS
 40
0.0
  9
$LIMCHECK
 70
     0
  9
$CHAMFERA
 40
0.125
  9
$CHAMFERB
 40
0.125
  9
$CHAMFERC
 40
1.0
  9
$CHAMFERD
 40
0.0
  9
$SKPOLY
 70
     0
  9
$TDCREATE
 40
2455476.716277303
  9
$TDUCREATE
 40
2455476.924610637
  9
$TDUPDATE
 40
2455826.520803669
  9
$TDUUPDATE
 40
2455826.729137003
  9
$TDINDWG
 40
0.6968270833
  9
$TDUSRTIMER
 40
0.6968268981
  9
$USRTIMER
 70
     1
  9
$ANGBASE
 50
0.0
  9
$ANGDIR
 70
     0
  9
$PDMODE
 70
     0
  9
$PDSIZE
 40
0.0
  9
$PLINEWID
 40
0.0
  9
$SPLFRAME
 70
     0
  9
$SPLINETYPE
 70
     6
  9
$SPLINESEGS
 70
     8
  9
$HANDSEED
  5
42FD
  9
$SURFTAB1
 70
     6
  9
$SURFTAB2
 70
     6
  9
$SURFTYPE
 70
     6
  9
$SURFU
 70
     6
  9
$SURFV
 70
     6
  9
$UCSBASE
  2

  9
$UCSNAME
  2

  9
$UCSORG
 10
0.0
 20
0.0
 30
0.0
  9
$UCSXDIR
 10
1.0
 20
0.0
 30
0.0
  9
$UCSYDIR
 10
0.0
 20
1.0
 30
0.0
  9
$UCSORTHOREF
  2

  9
$UCSORTHOVIEW
 70
     0
  9
$UCSORGTOP
 10
0.0
 20
0.0
 30
0.0
  9
$UCSORGBOTTOM
 10
0.0
 20
0.0
 30
0.0
  9
$UCSORGLEFT
 10
0.0
 20
0.0
 30
0.0
  9
$UCSORGRIGHT
 10
0.0
 20
0.0
 30
0.0
  9
$UCSORGFRONT
 10
0.0
 20
0.0
 30
0.0
  9
$UCSORGBACK
 10
0.0
 20
0.0
 30
0.0
  9
$PUCSBASE
  2

  9
$PUCSNAME
  2

  9
$PUCSORG
 10
0.0
 20
0.0
 30
0.0
  9
$PUCSXDIR
 10
1.0
 20
0.0
 30
0.0
  9
$PUCSYDIR
 10
0.0
 20
1.0
 30
0.0
  9
$PUCSORTHOREF
  2

  9
$PUCSORTHOVIEW
 70
     0
  9
$PUCSORGTOP
 10
0.0
 20
0.0
 30
0.0
  9
$PUCSORGBOTTOM
 10
0.0
 20
0.0
 30
0.0
  9
$PUCSORGLEFT
 10
0.0
 20
0.0
 30
0.0
  9
$PUCSORGRIGHT
 10
0.0
 20
0.0
 30
0.0
  9
$PUCSORGFRONT
 10
0.0
 20
0.0
 30
0.0
  9
$PUCSORGBACK
 10
0.0
 20
0.0
 30
0.0
  9
$USERI1
 70
     0
  9
$USERI2
 70
     0
  9
$USERI3
 70
     0
  9
$USERI4
 70
     0
  9
$USERI5
 70
     0
  9
$USERR1
 40
0.0
  9
$USERR2
 40
0.0
  9
$USERR3
 40
0.0
  9
$USERR4
 40
0.0
  9
$USERR5
 40
0.0
  9
$WORLDVIEW
 70
     1
  9
$SHADEDGE
 70
     3
  9
$SHADEDIF
 70
    70
  9
$TILEMODE
 70
     1
  9
$MAXACTVP
 70
    48
  9
$PINSBASE
 10
0.0
 20
0.0
 30
0.0
  9
$PLIMCHECK
 70
     0
  9
$PEXTMIN
 10
1.861839024525705
 20
0.7944260749874943
 30
0.0
  9
$PEXTMAX
 10
7.276933025611403
 20
5.393255528453459
 30
0.0
  9
$PLIMMIN
 10
-0.2500002402958907
 20
-0.2499999962453767
  9
$PLIMMAX
 10
10.74999951940821
 20
8.249999763458731
  9
$UNITMODE
 70
     0
  9
$VISRETAIN
 70
     1
  9
$PLINEGEN
 70
     0
  9
$PSLTSCALE
 70
     1
  9
$TREEDEPTH
 70
  3020
  9
$CMLSTYLE
  2
STANDARD
  9
$CMLJUST
 70
     0
  9
$CMLSCALE
 40
1.0
  9
$PROXYGRAPHICS
 70
     1
  9
$MEASUREMENT
 70
     0
  9
$CELWEIGHT
370
    -1
  9
$ENDCAPS
280
     0
  9
$JOINSTYLE
280
     0
  9
$LWDISPLAY
290
     0
  9
$INSUNITS
 70
     1
  9
$HYPERLINKBASE
  1

  9
$STYLESHEET
  1
monochrome.ctb
  9
$XEDIT
290
     1
  9
$CEPSNTYPE
380
     0
  9
$PSTYLEMODE
290
     1
  9
$FINGERPRINTGUID
  2
{0B9DFFE6-14D8-45D4-AB65-A03249F570D2}
  9
$VERSIONGUID
  2
{C5172023-2A62-42DF-B6D8-85EB0728E39E}
  9
$EXTNAMES
290
     1
  9
$PSVPSCALE
 40
0.0
  9
$OLESTARTUP
290
     0
  9
$SORTENTS
280
   127
  9
$INDEXCTL
280
     0
  9
$HIDETEXT
280
     1
  9
$XCLIPFRAME
290
     0
  9
$HALOGAP
280
     0
  9
$OBSCOLOR
 70
   257
  9
$OBSLTYPE
280
     0
  9
$INTERSECTIONDISPLAY
280
     0
  9
$INTERSECTIONCOLOR
 70
   257
  9
$DIMASSOC
280
     1
  9
$PROJECTNAME
  1

  9
$CAMERADISPLAY
290
     0
  9
$LENSLENGTH
 40
50.0
  9
$CAMERAHEIGHT
 40
0.0
  9
$STEPSPERSEC
 40
2.0
  9
$STEPSIZE
 40
6.0
  9
$3DDWFPREC
 40
2.0
  9
$PSOLWIDTH
 40
0.25
  9
$PSOLHEIGHT
 40
4.0
  9
$LOFTANG1
 40
1.570796326794896
  9
$LOFTANG2
 40
1.570796326794896
  9
$LOFTMAG1
 40
0.0
  9
$LOFTMAG2
 40
0.0
  9
$LOFTPARAM
 70
     7
  9
$LOFTNORMALS
280
     1
  9
$LATITUDE
 40
37.795
  9
$LONGITUDE
 40
-122.394
  9
$NORTHDIRECTION
 40
0.0
  9
$TIMEZONE
 70
 -8000
  9
$LIGHTGLYPHDISPLAY
280
     1
  9
$TILEMODELIGHTSYNCH
280
     1
  9
$CMATERIAL
347
30
  9
$SOLIDHIST
280
     1
  9
$SHOWHIST
280
     1
  9
$DWFFRAME
280
     2
  9
$DGNFRAME
280
     0
  9
$REALWORLDSCALE
290
     1
  9
$INTERFERECOLOR
 62
     1
  9
$INTERFEREOBJVS
345
39
  9
$INTERFEREVPVS
346
3A
  9
$CSHADOW
280
     0
  9
$SHADOWPLANELOCATION
 40
0.0
  0
ENDSEC
  0
SECTION
  2
CLASSES
  0
CLASS
  1
ACMESTATEMGR
  2
AcMeStateMgr
  3
AcMeServices
 90
     1024
 91
        0
280
     0
281
     0
  0
CLASS
  1
ACMESCOPE
  2
AcMeScope
  3
AcMeServices
 90
     1024
 91
        0
280
     0
281
     0
  0
CLASS
  1
ACMECOMMANDHISTORY
  2
AcMeCommandHistory
  3
AcMeServices
 90
     1024
 91
        0
280
     0
281
     0
  0
CLASS
  1
ACRFINSADJUSTERMGR
  2
AcRfInsAdjusterMgr
  3
AcMeServices
 90
     1024
 91
        0
280
     0
281
     0
  0
CLASS
  1
ACMEDRAWINGMAN
  2
AcMeDrawingMan
  3
AcMeServices
 90
     1024
 91
        0
280
     0
281
     0
  0
CLASS
  1
AMATTR
  2
AcMeAttribute
  3
AcMeServices
 90
     1024
 91
        0
280
     0
281
     0
  0
CLASS
  1
ACMEBOMCOLUMN
  2
AcMeBOMColumn
  3
AcMeServices
 90
     1024
 91
        0
280
     0
281
     0
  0
CLASS
  1
ACMEBOMCONF
  2
AcMeBOMConf
  3
AcMeServices
 90
     1024
 91
        0
280
     0
281
     0
  0
CLASS
  1
ACMEBOMTABLE
  2
AcMeBOMTable
  3
AcMeServices
 90
     1024
 91
        0
280
     0
281
     0
  0
CLASS
  1
ACMEBOMENTRY
  2
AcMeBOMEntry
  3
AcMeServices
 90
     1024
 91
        0
280
     0
281
     0
  0
CLASS
  1
ACMEVIEW
  2
AcMeView
  3
AcMeServices
 90
     1024
 91
        0
280
     0
281
     0
  0
CLASS
  1
ACGREFMASTER
  2
AcGrefMaster
  3
AcAttribServices
 90
     1024
 91
        0
280
     0
281
     0
  0
CLASS
  1
AMIMASTER
  2
AmiMaster
  3
AmiServices
 90
     1024
 91
        0
280
     0
281
     0
  0
CLASS
  1
ACASGREFMASTER
  2
AcAsGrefMaster
  3
AutoSurfResolverServices
 90
     1024
 91
        0
280
     0
281
     0
  0
CLASS
  1
ADAPPL
  2
AcAdAppl
  3
DesignerServices
 90
     1024
 91
        0
280
     0
281
     0
  0
CLASS
  1
DEPMGR
  2
AcAdDepMgr
  3
DesignerServices
 90
     1024
 91
        0
280
     0
281
     0
  0
CLASS
  1
PARAMMGR
  2
AcAdParamMgr
  3
DesignerServices
 90
     1024
 91
        0
280
     0
281
     0
  0
CLASS
  1
PARAMSCOPE
  2
AcAdParamScope
  3
DesignerServices
 90
     1024
 91
        0
280
     0
281
     0
  0
CLASS
  1
ACIMSYSVARMAN
  2
AcImSysVarManager
  3
AcMeServices
 90
     1024
 91
        0
280
     0
281
     0
  0
CLASS
  1
ACIMINTSYSVAR
  2
AcImIntSysVar
  3
AcMeServices
 90
     1024
 91
        0
280
     0
281
     0
  0
CLASS
  1
ACIMREALSYSVAR
  2
AcImRealSysVar
  3
AcMeServices
 90
     1024
 91
        0
280
     0
281
     0
  0
CLASS
  1
ACIMSTRSYSVAR
  2
AcImStrSysVar
  3
AcMeServices
 90
     1024
 91
        0
280
     0
281
     0
  0
CLASS
  1
NAMEDAPPL
  2
AcAdNamedAppl
  3
DesignerServices
 90
     1024
 91
        0
280
     0
281
     0
  0
CLASS
  1
ADHNTMPLT
  2
AdHoleNoteTemplateMgr
  3
DesignerServices
 90
     1024
 91
        0
280
     0
281
     0
  0
CLASS
  1
AM_HNTEMPLATE_MGR_NAME
  2
AdHoleNoteTemplateMgrName
  3
DesignerServices
 90
     1024
 91
        0
280
     0
281
     0
  0
CLASS
  1
ACADGREFMODULE
  2
AcAdGrefModule
  3
AdGrefServices
 90
     1024
 91
        0
280
     0
281
     0
  0
CLASS
  1
AM_DRAWING_MGR
  2
AcDmDwgMgr
  3
AcMechDwgViewMgmt
 90
     1024
 91
        0
280
     0
281
     0
  0
CLASS
  1
AM_DWG_DOCUMENT
  2
AcDmDwgDocument
  3
AcMechDwgViewMgmt
 90
     1024
 91
        0
280
     0
281
     0
  0
CLASS
  1
AM_DWG_SHEET
  2
AcDmSheet
  3
AcMechDwgViewMgmt
 90
     1024
 91
        0
280
     0
281
     0
  0
CLASS
  1
AM_VIEWDIMPARMAP
  2
AcDmViewDimParMap
  3
AcMechDwgViewMgmt
 90
     1024
 91
        0
280
     0
281
     0
  0
CLASS
  1
AM_DWGMGR_NAME
  2
AcDmDwgMgrName
  3
AcMechDwgViewMgmt
 90
     1024
 91
        0
280
     0
281
     0
  0
CLASS
  1
ACAMPROJECT
  2
AcAmProject
  3
DesignerAssemblies
 90
     1024
 91
        0
280
     0
281
     0
  0
CLASS
  1
ACAMGRCOMPSET
  2
AcAmGrCompSet
  3
DesignerAssemblies
 90
        0
 91
        0
280
     1
281
     0
  0
CLASS
  1
ACAMGRCOMPDEFSET
  2
AcAmGrCompDefSet
  3
DesignerAssemblies
 90
     1024
 91
        0
280
     0
281
     0
  0
CLASS
  1
ACAMGRCOMPDEF
  2
AcAmGrCompDef
  3
DesignerAssemblies
 90
     1024
 91
        0
280
     0
281
     0
  0
CLASS
  1
ACCMCONTEXT
  2
AcCmContext
  3
DesignerAssemblies
 90
     1024
 91
        0
280
     0
281
     0
  0
CLASS
  1
ACAMCOMPDEF
  2
AcAmCompDef
  3
DesignerAssemblies
 90
     1024
 91
        0
280
     0
281
     0
  0
CLASS
  1
ACAMCOMPDEFMGR
  2
AcAmCompDefMgr
  3
DesignerAssemblies
 90
     1024
 91
        0
280
     0
281
     0
  0
CLASS
  1
AMCONTEXTMGR
  2
AcAmContextMgr
  3
DesignerAssemblies
 90
     1024
 91
        0
280
     0
281
     0
  0
CLASS
  1
ACAMCONTEXTMODELER
  2
AcAmContextModeler
  3
DesignerAssemblies
 90
     1024
 91
        0
280
     0
281
     0
  0
CLASS
  1
ACDMVIEWGEOM
  2
AcDmViewGeometry
  3
AcMechDwgViewMgmt
 90
     1024
 91
        0
280
     0
281
     1
  0
CLASS
  1
CBROWSERAPPOBJECT
  2
CBrowserAppObject
  3
McadcomServices
 90
     1024
 91
        0
280
     0
281
     0
  0
CLASS
  1
IM_STATIC_MAN
  2
AcImStaticVarManager
  3
AcMeServices
 90
     1024
 91
        0
280
     0
281
     0
  0
CLASS
  1
ASAPP
  2
AcAsAppObject
  3
AutoSurfServices
 90
     1024
 91
        0
280
     0
281
     0
  0
CLASS
  1
ACIMDBLSTATICVAR
  2
AcImDblStaticVar
  3
AcMeServices
 90
     1024
 91
        0
280
     0
281
     0
  0
CLASS
  1
ACIMSTRSTATICVAR
  2
AcImStrStaticVar
  3
AcMeServices
 90
     1024
 91
        0
280
     0
281
     0
  0
CLASS
  1
ACIMINTSTATICVAR
  2
AcImIntStaticVar
  3
AcMeServices
 90
     1024
 91
        0
280
     0
281
     0
  0
CLASS
  1
CATALOGSTATE
  2
AcAmCatalogState
  3
DesignerAssemblies
 90
     1024
 91
        0
280
     0
281
     0
  0
CLASS
  1
DM_PLACEHOLDER
  2
AcDmSelsetPlaceholder
  3
AcMechDwgViewMgmt
 90
     1024
 91
        0
280
     0
281
     0
  0
CLASS
  1
DICTIONARYVAR
  2
AcDbDictionaryVar
  3
ObjectDBX Classes
 90
        0
 91
        9
280
     0
281
     0
  0
CLASS
  1
ACMSTANDARDJIS
  2
AcmStandardJIS
  3
"Amdt_StdImp|Product Description: AutoCAD Mechanical|Company: Autodesk, Inc."
 90
     1024
 91
        0
280
     0
281
     0
  0
CLASS
  1
ACMSTANDARDANSI
  2
AcmStandardANSI
  3
"Amdt_StdImp|Product Description: AutoCAD Mechanical|Company: Autodesk, Inc."
 90
     1024
 91
        0
280
     0
281
     0
  0
CLASS
  1
ACMSTANDARDBSI
  2
AcmStandardBSI
  3
"Amdt_StdImp|Product Description: AutoCAD Mechanical|Company: Autodesk, Inc."
 90
     1024
 91
        0
280
     0
281
     0
  0
CLASS
  1
ACMSTANDARDDIN
  2
AcmStandardDIN
  3
"Amdt_StdImp|Product Description: AutoCAD Mechanical|Company: Autodesk, Inc."
 90
     1024
 91
        0
280
     0
281
     0
  0
CLASS
  1
ACMSTANDARDISO
  2
AcmStandardISO
  3
"Amdt_StdImp|Product Description: AutoCAD Mechanical|Company: Autodesk, Inc."
 90
     1024
 91
        0
280
     0
281
     0
  0
CLASS
  1
LAYER_INDEX
  2
AcDbLayerIndex
  3
ObjectDBX Classes
 90
        0
 91
        0
280
     0
281
     0
  0
CLASS
  1
IDBUFFER
  2
AcDbIdBuffer
  3
ObjectDBX Classes
 90
        0
 91
        0
280
     0
281
     0
  0
CLASS
  1
ACDBDICTIONARYWDFLT
  2
AcDbDictionaryWithDefault
  3
ObjectDBX Classes
 90
        0
 91
        1
280
     0
281
     0
  0
CLASS
  1
ACDBPLACEHOLDER
  2
AcDbPlaceHolder
  3
ObjectDBX Classes
 90
        0
 91
        1
280
     0
281
     0
  0
CLASS
  1
LAYOUT
  2
AcDbLayout
  3
ObjectDBX Classes
 90
        0
 91
        2
280
     0
281
     0
  0
CLASS
  1
ACME_DOCUMENT
  2
AcMeDbDoc
  3
AcMeServices
 90
     1024
 91
        0
280
     0
281
     0
  0
CLASS
  1
AMGSETTINGSOBJ
  2
AmgSettingsObj
  3
"AcadM|Product Description: AutoCAD Mechanical|Company: Autodesk, Inc."
 90
     1024
 91
        0
280
     0
281
     0
  0
CLASS
  1
AMGOBJPROPCFG
  2
AmgObjPropCfg
  3
"AmgLay|Product Description: AutoCAD Mechanical|Company: Autodesk, Inc."
 90
     1025
 91
        0
280
     0
281
     0
  0
CLASS
  1
ACDBENTITYCACHE
  2
AcMeEntityCache
  3
AcMeServices
 90
     1024
 91
        0
280
     0
281
     0
  0
CLASS
  1
GSMANAGER
  2
AcMeGSManager
  3
AcMeServices
 90
     1024
 91
        0
280
     0
281
     0
  0
CLASS
  1
AMDTINTERNALREACTOR
  2
AmdtInternalReactor
  3
AcMeServices
 90
     1024
 91
        0
280
     0
281
     0
  0
CLASS
  1
ACME_DATABASE
  2
AcMeDbDatabase
  3
AcMeServices
 90
     1024
 91
        0
280
     0
281
     0
  0
CLASS
  1
ACGREFACADMASTER
  2
AcGrefacadMaster
  3
AcGrefServices
 90
     1024
 91
        0
280
     0
281
     0
  0
CLASS
  1
AMDTMENUSTATEMGR
  2
AmdtMenuStateMgr
  3
McadcomServices
 90
     1024
 91
        0
280
     0
281
     0
  0
CLASS
  1
AMDTMCOMMENUSTATE
  2
AmdtMcomMenuState
  3
McadcomServices
 90
     1024
 91
        0
280
     0
281
     0
  0
CLASS
  1
MAPIADMODULE
  2
MApiAdModule
  3
MApiAdServices
 90
     1024
 91
        0
280
     0
281
     0
  0
CLASS
  1
AMDTDMMENUSTATE
  2
AmdtDmMenuState
  3
AcMechDwgViewMgmt
 90
     1024
 91
        0
280
     0
281
     0
  0
CLASS
  1
AMDTADMENUSTATE
  2
AmdtAdMenuState
  3
DesignerServices
 90
     1024
 91
        0
280
     0
281
     0
  0
CLASS
  1
AMDTAMMENUSTATE
  2
AmdtAmMenuState
  3
DesignerAssemblies
 90
     1024
 91
        0
280
     0
281
     0
  0
CLASS
  1
ACMDATADICTIONARY
  2
AcmDataDictionary
  3
"AcmSymBB|Product Description: AutoCAD Mechanical|Company: Autodesk, Inc."
 90
     1024
 91
        1
280
     0
281
     0
  0
CLASS
  1
ACMDATAENTRYBLOCK
  2
AcmDataEntryBlock
  3
AcmSymBB|Product Description: AutoCAD Mechanical|Company: Autodesk, Inc.
 90
     1024
 91
        1
280
     0
281
     0
  0
CLASS
  1
AMDTBROWSERDBTAB
  2
AmdtBrowserDbTab
  3
McadcomServices
 90
     1024
 91
        0
280
     0
281
     0
  0
CLASS
  1
ACAMGFILTERDAT
  2
AcAmgFilterDat
  3
"AcadM|Product Description: AutoCAD Mechanical|Company: Autodesk, Inc."
 90
     1024
 91
        0
280
     0
281
     0
  0
CLASS
  1
MAPIAMMOUDLE
  2
MApiAmModule
  3
MApiAmServices
 90
     1024
 91
        0
280
     0
281
     0
  0
CLASS
  1
AMDTMAPISURFMOUDULE
  2
AmdtMApiSurfModule
  3
MApiSurfServices
 90
     1024
 91
        0
280
     0
281
     0
  0
CLASS
  1
ACMSURFSTANDARDANSI
  2
AcmSurfTextStdANSI
  3
"Amdt_StdImp|Product Description: AutoCAD Mechanical|Company: Autodesk, Inc."
 90
     1024
 91
        0
280
     0
281
     0
  0
CLASS
  1
ACMFCFSTANDARDANSI
  2
AcmFCFStdANSI
  3
"Amdt_StdImp|Product Description: AutoCAD Mechanical|Company: Autodesk, Inc."
 90
     1024
 91
        0
280
     0
281
     0
  0
CLASS
  1
ACMWELDSTANDARDANSI
  2
AcmWeldingStdANSI
  3
"Amdt_StdImp|Product Description: AutoCAD Mechanical|Company: Autodesk, Inc."
 90
     1024
 91
        0
280
     0
281
     0
  0
CLASS
  1
ACMIDSTANDARDANSI
  2
AcmIdStdANSI
  3
"Amdt_StdImp|Product Description: AutoCAD Mechanical|Company: Autodesk, Inc."
 90
     1024
 91
        0
280
     0
281
     0
  0
CLASS
  1
ACMDATUMSTANDARDANSI
  2
AcmDatumStdANSI
  3
"Amdt_StdImp|Product Description: AutoCAD Mechanical|Company: Autodesk, Inc."
 90
     1024
 91
        0
280
     0
281
     0
  0
CLASS
  1
ACMBOMSTANDARDANSI
  2
AcmBOMStdANSI
  3
"Amdt_StdImp|Product Description: AutoCAD Mechanical|Company: Autodesk, Inc."
 90
     1024
 91
        0
280
     0
281
     0
  0
CLASS
  1
ACAMGLAYSTD
  2
AcAmgLayStd
  3
"AmgLay|Product Description: AutoCAD Mechanical|Company: Autodesk, Inc."
 90
     1024
 91
        0
280
     0
281
     0
  0
CLASS
  1
ACAMGDIMSTD
  2
AcAmgDimStd
  3
"AmgDim|Product Description: AutoCAD Mechanical|Company: Autodesk, Inc."
 90
     1024
 91
        0
280
     0
281
     0
  0
CLASS
  1
ACAMGTITLESTD
  2
AcAmgTitleStd
  3
"AmgTitle|Product Description: AutoCAD Mechanical|Company: Autodesk, Inc."
 90
     4095
 91
        0
280
     0
281
     0
  0
CLASS
  1
ACMDETAILSTANDARDANSI
  2
AmdtDetailSymStdANSI
  3
"Amdt_StdImp|Product Description: AutoCAD Mechanical|Company: Autodesk, Inc."
 90
     1024
 91
        0
280
     0
281
     0
  0
CLASS
  1
ACMSECTIONSTANDARDANSI
  2
AmdtSectionSymStdANSI
  3
"Amdt_StdImp|Product Description: AutoCAD Mechanical|Company: Autodesk, Inc."
 90
     1024
 91
        0
280
     0
281
     0
  0
CLASS
  1
ACMCENTERLINESTANDARDANSI
  2
AmdtCenterLineStdANSI
  3
"Amdt_StdImp|Product Description: AutoCAD Mechanical|Company: Autodesk, Inc."
 90
     1024
 91
        0
280
     0
281
     0
  0
CLASS
  1
ACMTHREADLINESTANDARDANSI
  2
AmdtThreadLineStdANSI
  3
"Amdt_StdImp|Product Description: AutoCAD Mechanical|Company: Autodesk, Inc."
 90
     1024
 91
        0
280
     0
281
     0
  0
CLASS
  1
ACMSURFSTANDARDBSI
  2
AcmSurfTextStdBSI
  3
"Amdt_StdImp|Product Description: AutoCAD Mechanical|Company: Autodesk, Inc."
 90
     1024
 91
        0
280
     0
281
     0
  0
CLASS
  1
ACMFCFSTANDARDBSI
  2
AcmFCFStdBSI
  3
"Amdt_StdImp|Product Description: AutoCAD Mechanical|Company: Autodesk, Inc."
 90
     1024
 91
        0
280
     0
281
     0
  0
CLASS
  1
ACMWELDSTANDARDBSI
  2
AcmWeldingStdBSI
  3
"Amdt_StdImp|Product Description: AutoCAD Mechanical|Company: Autodesk, Inc."
 90
     1024
 91
        0
280
     0
281
     0
  0
CLASS
  1
ACMIDSTANDARDBSI
  2
AcmIdStdBSI
  3
"Amdt_StdImp|Product Description: AutoCAD Mechanical|Company: Autodesk, Inc."
 90
     1024
 91
        0
280
     0
281
     0
  0
CLASS
  1
ACMDATUMSTANDARDBSI
  2
AcmDatumStdBSI
  3
"Amdt_StdImp|Product Description: AutoCAD Mechanical|Company: Autodesk, Inc."
 90
     1024
 91
        0
280
     0
281
     0
  0
CLASS
  1
ACMBOMSTANDARDBSI
  2
AcmBOMStdBSI
  3
"Amdt_StdImp|Product Description: AutoCAD Mechanical|Company: Autodesk, Inc."
 90
     1024
 91
        0
280
     0
281
     0
  0
CLASS
  1
ACMDETAILSTANDARDBSI
  2
AmdtDetailSymStdBSI
  3
"Amdt_StdImp|Product Description: AutoCAD Mechanical|Company: Autodesk, Inc."
 90
     1024
 91
        0
280
     0
281
     0
  0
CLASS
  1
ACMSECTIONSTANDARDBSI
  2
AmdtSectionSymStdBSI
  3
"Amdt_StdImp|Product Description: AutoCAD Mechanical|Company: Autodesk, Inc."
 90
     1024
 91
        0
280
     0
281
     0
  0
CLASS
  1
ACMCENTERLINESTANDARDBSI
  2
AmdtCenterLineStdBSI
  3
"Amdt_StdImp|Product Description: AutoCAD Mechanical|Company: Autodesk, Inc."
 90
     1024
 91
        0
280
     0
281
     0
  0
CLASS
  1
ACMTHREADLINESTANDARDBSI
  2
AmdtThreadLineStdBSI
  3
"Amdt_StdImp|Product Description: AutoCAD Mechanical|Company: Autodesk, Inc."
 90
     1024
 91
        0
280
     0
281
     0
  0
CLASS
  1
AMDTEDGESTANDARDDIN
  2
AmdtEdgeStdDIN
  3
"Amdt_StdImp|Product Description: AutoCAD Mechanical|Company: Autodesk, Inc."
 90
     1024
 91
        0
280
     0
281
     0
  0
CLASS
  1
ACMSURFSTANDARDDIN
  2
AcmSurfTextStdDIN
  3
"Amdt_StdImp|Product Description: AutoCAD Mechanical|Company: Autodesk, Inc."
 90
     1024
 91
        0
280
     0
281
     0
  0
CLASS
  1
ACMFCFSTANDARDDIN
  2
AcmFCFStdDIN
  3
"Amdt_StdImp|Product Description: AutoCAD Mechanical|Company: Autodesk, Inc."
 90
     1024
 91
        0
280
     0
281
     0
  0
CLASS
  1
ACMWELDSTANDARDDIN
  2
AcmWeldingStdDIN
  3
"Amdt_StdImp|Product Description: AutoCAD Mechanical|Company: Autodesk, Inc."
 90
     1024
 91
        0
280
     0
281
     0
  0
CLASS
  1
ACMIDSTANDARDDIN
  2
AcmIdStdDIN
  3
"Amdt_StdImp|Product Description: AutoCAD Mechanical|Company: Autodesk, Inc."
 90
     1024
 91
        0
280
     0
281
     0
  0
CLASS
  1
ACMDATUMSTANDARDDIN
  2
AcmDatumStdDIN
  3
"Amdt_StdImp|Product Description: AutoCAD Mechanical|Company: Autodesk, Inc."
 90
     1024
 91
        0
280
     0
281
     0
  0
CLASS
  1
ACMBOMSTANDARDDIN
  2
AcmBOMStdDIN
  3
"Amdt_StdImp|Product Description: AutoCAD Mechanical|Company: Autodesk, Inc."
 90
     1024
 91
        0
280
     0
281
     0
  0
CLASS
  1
ACMDETAILSTANDARDDIN
  2
AmdtDetailSymStdDIN
  3
"Amdt_StdImp|Product Description: AutoCAD Mechanical|Company: Autodesk, Inc."
 90
     1024
 91
        0
280
     0
281
     0
  0
CLASS
  1
ACMSECTIONSTANDARDDIN
  2
AmdtSectionSymStdDIN
  3
"Amdt_StdImp|Product Description: AutoCAD Mechanical|Company: Autodesk, Inc."
 90
     1024
 91
        0
280
     0
281
     0
  0
CLASS
  1
ACMCENTERLINESTANDARDDIN
  2
AmdtCenterLineStdDIN
  3
"Amdt_StdImp|Product Description: AutoCAD Mechanical|Company: Autodesk, Inc."
 90
     1024
 91
        0
280
     0
281
     0
  0
CLASS
  1
ACMTHREADLINESTANDARDDIN
  2
AmdtThreadLineStdDIN
  3
"Amdt_StdImp|Product Description: AutoCAD Mechanical|Company: Autodesk, Inc."
 90
     1024
 91
        0
280
     0
281
     0
  0
CLASS
  1
ACMSURFSTANDARDISO
  2
AcmSurfTextStdISO
  3
"Amdt_StdImp|Product Description: AutoCAD Mechanical|Company: Autodesk, Inc."
 90
     1024
 91
        0
280
     0
281
     0
  0
CLASS
  1
ACMFCFSTANDARDISO
  2
AcmFCFStdISO
  3
"Amdt_StdImp|Product Description: AutoCAD Mechanical|Company: Autodesk, Inc."
 90
     1024
 91
        0
280
     0
281
     0
  0
CLASS
  1
ACMWELDSTANDARDISO
  2
AcmWeldingStdISO
  3
"Amdt_StdImp|Product Description: AutoCAD Mechanical|Company: Autodesk, Inc."
 90
     1024
 91
        0
280
     0
281
     0
  0
CLASS
  1
ACMIDSTANDARDISO
  2
AcmIdStdISO
  3
"Amdt_StdImp|Product Description: AutoCAD Mechanical|Company: Autodesk, Inc."
 90
     1024
 91
        0
280
     0
281
     0
  0
CLASS
  1
ACMDATUMSTANDARDISO
  2
AcmDatumStdISO
  3
"Amdt_StdImp|Product Description: AutoCAD Mechanical|Company: Autodesk, Inc."
 90
     1024
 91
        0
280
     0
281
     0
  0
CLASS
  1
ACMBOMSTANDARDISO
  2
AcmBOMStdISO
  3
"Amdt_StdImp|Product Description: AutoCAD Mechanical|Company: Autodesk, Inc."
 90
     1024
 91
        0
280
     0
281
     0
  0
CLASS
  1
AMDTEDGESTANDARDISO
  2
AmdtEdgeStdISO
  3
"Amdt_StdImp|Product Description: AutoCAD Mechanical|Company: Autodesk, Inc."
 90
     1024
 91
        0
280
     0
281
     0
  0
CLASS
  1
ACMDETAILSTANDARDISO
  2
AmdtDetailSymStdISO
  3
"Amdt_StdImp|Product Description: AutoCAD Mechanical|Company: Autodesk, Inc."
 90
     1024
 91
        0
280
     0
281
     0
  0
CLASS
  1
ACMSECTIONSTANDARDISO
  2
AmdtSectionSymStdISO
  3
"Amdt_StdImp|Product Description: AutoCAD Mechanical|Company: Autodesk, Inc."
 90
     1024
 91
        0
280
     0
281
     0
  0
CLASS
  1
ACMCENTERLINESTANDARDISO
  2
AmdtCenterLineStdISO
  3
"Amdt_StdImp|Product Description: AutoCAD Mechanical|Company: Autodesk, Inc."
 90
     1024
 91
        0
280
     0
281
     0
  0
CLASS
  1
ACMTHREADLINESTANDARDISO
  2
AmdtThreadLineStdISO
  3
"Amdt_StdImp|Product Description: AutoCAD Mechanical|Company: Autodesk, Inc."
 90
     1024
 91
        0
280
     0
281
     0
  0
CLASS
  1
ACMSURFSTANDARDJIS
  2
AcmSurfTextStdJIS
  3
"Amdt_StdImp|Product Description: AutoCAD Mechanical|Company: Autodesk, Inc."
 90
     1024
 91
        0
280
     0
281
     0
  0
CLASS
  1
ACMFCFSTANDARDJIS
  2
AcmFCFStdJIS
  3
"Amdt_StdImp|Product Description: AutoCAD Mechanical|Company: Autodesk, Inc."
 90
     1024
 91
        0
280
     0
281
     0
  0
CLASS
  1
ACMWELDSTANDARDJIS
  2
AcmWeldingStdJIS
  3
"Amdt_StdImp|Product Description: AutoCAD Mechanical|Company: Autodesk, Inc."
 90
     1024
 91
        0
280
     0
281
     0
  0
CLASS
  1
ACMIDSTANDARDJIS
  2
AcmIdStdJIS
  3
"Amdt_StdImp|Product Description: AutoCAD Mechanical|Company: Autodesk, Inc."
 90
     1024
 91
        0
280
     0
281
     0
  0
CLASS
  1
ACMDATUMSTANDARDJIS
  2
AcmDatumStdJIS
  3
"Amdt_StdImp|Product Description: AutoCAD Mechanical|Company: Autodesk, Inc."
 90
     1024
 91
        0
280
     0
281
     0
  0
CLASS
  1
ACMBOMSTANDARDJIS
  2
AcmBOMStdJIS
  3
"Amdt_StdImp|Product Description: AutoCAD Mechanical|Company: Autodesk, Inc."
 90
     1024
 91
        0
280
     0
281
     0
  0
CLASS
  1
ACMDETAILSTANDARDJIS
  2
AmdtDetailSymStdJIS
  3
"Amdt_StdImp|Product Description: AutoCAD Mechanical|Company: Autodesk, Inc."
 90
     1024
 91
        0
280
     0
281
     0
  0
CLASS
  1
ACMSECTIONSTANDARDJIS
  2
AmdtSectionSymStdJIS
  3
"Amdt_StdImp|Product Description: AutoCAD Mechanical|Company: Autodesk, Inc."
 90
     1024
 91
        0
280
     0
281
     0
  0
CLASS
  1
ACMCENTERLINESTANDARDJIS
  2
AmdtCenterLineStdJIS
  3
"Amdt_StdImp|Product Description: AutoCAD Mechanical|Company: Autodesk, Inc."
 90
     1024
 91
        0
280
     0
281
     0
  0
CLASS
  1
ACMTHREADLINESTANDARDJIS
  2
AmdtThreadLineStdJIS
  3
"Amdt_StdImp|Product Description: AutoCAD Mechanical|Company: Autodesk, Inc."
 90
     1024
 91
        0
280
     0
281
     0
  0
CLASS
  1
ACMNOTESTANDARDANSI
  2
AmdtNoteStdANSI
  3
"Amdt_StdImp|Product Description: AutoCAD Mechanical|Company: Autodesk, Inc."
 90
     1024
 91
        0
280
     0
281
     0
  0
CLASS
  1
ACAMGHOLECHARTSTDANSI
  2
AcAmgHoleChartStdANSI
  3
AmgDim|Product Description: AutoCAD Mechanical|Company: Autodesk, Inc.
 90
     1024
 91
        0
280
     0
281
     0
  0
CLASS
  1
TABLESTYLE
  2
AcDbTableStyle
  3
ObjectDBX Classes
 90
     4095
 91
        1
280
     0
281
     0
  0
CLASS
  1
AMDTNOTETEMPLATEDB
  2
AmdtNoteTemplateDB
  3
AcmSymBB|Product Description: AutoCAD Mechanical|Company: Autodesk, Inc.
 90
     1024
 91
        0
280
     0
281
     0
  0
CLASS
  1
MATERIAL
  2
AcDbMaterial
  3
ObjectDBX Classes
 90
     1153
 91
        3
280
     0
281
     0
  0
CLASS
  1
VISUALSTYLE
  2
AcDbVisualStyle
  3
ObjectDBX Classes
 90
     4095
 91
       16
280
     0
281
     0
  0
CLASS
  1
ACRFATTGENMGR
  2
AcRfAttGeneralMgr
  3
AcAttribServices
 90
     1024
 91
        0
280
     0
281
     0
  0
CLASS
  1
ACRFOBJATTMGR
  2
AcRfObjAttGroupMgr
  3
AcAttribServices
 90
     1024
 91
        0
280
     0
281
     0
  0
CLASS
  1
ACRFMCADAPIATTHOLDER
  2
AcRfMCADAPIAttHolder
  3
AcAttribServices
 90
     1024
 91
        0
280
     0
281
     0
  0
CLASS
  1
AMDTSYSATTR
  2
AmdtSystemAttribute
  3
AcAttribServices
 90
     1024
 91
        0
280
     0
281
     0
  0
CLASS
  1
ACMTAPERSTANDARDANSI
  2
AcmTaperStdANSI
  3
"Amdt_StdImp|Product Description: AutoCAD Mechanical|Company: Autodesk, Inc."
 90
     1024
 91
        0
280
     0
281
     0
  0
CLASS
  1
SCALE
  2
AcDbScale
  3
ObjectDBX Classes
 90
     1153
 91
       33
280
     0
281
     0
  0
CLASS
  1
MLEADERSTYLE
  2
AcDbMLeaderStyle
  3
ACDB_MLEADERSTYLE_CLASS
 90
     4095
 91
        1
280
     0
281
     0
  0
CLASS
  1
ACMANOOTATIONVIEWSTANDARDANSI
  2
AmdtAnViewStdANSI
  3
"Amdt_StdImp|Product Description: AutoCAD Mechanical|Company: Autodesk, Inc."
 90
     1024
 91
        0
280
     0
281
     0
  0
CLASS
  1
CELLSTYLEMAP
  2
AcDbCellStyleMap
  3
ObjectDBX Classes
 90
     1152
 91
        2
280
     0
281
     0
  0
CLASS
  1
ADPART
  2
AcAdPart
  3
DesignerServices
 90
     1024
 91
        0
280
     0
281
     1
  0
CLASS
  1
ADBASE
  2
AcAdBase
  3
DesignerServices
 90
     1024
 91
        0
280
     0
281
     0
  0
CLASS
  1
BODYID
  2
AcAdBodyId
  3
DesignerServices
 90
     1024
 91
        0
280
     0
281
     0
  0
CLASS
  1
WORKPLANEDISPLAYMGR
  2
AcAdDisplayMgr
  3
DesignerServices
 90
     1024
 91
        0
280
     0
281
     0
  0
CLASS
  1
ACCMBODY
  2
AcCmBody
  3
DesignerAssemblies
 90
     1024
 91
        0
280
     0
281
     0
  0
CLASS
  1
ACAMCOMPENT
  2
AcAmCompEnt
  3
DesignerAssemblies
 90
     1024
 91
        0
280
     0
281
     1
  0
CLASS
  1
ACAMCOMPFEEDBACK
  2
AcAmCompFeedback
  3
DesignerAssemblies
 90
     1024
 91
        0
280
     0
281
     0
  0
CLASS
  1
ACAMCOMP
  2
AcAmComp
  3
DesignerAssemblies
 90
     1024
 91
        0
280
     0
281
     0
  0
CLASS
  1
ACAMCOMPENTCLONE
  2
AcAmCompEntClone
  3
DesignerAssemblies
 90
     1024
 91
        0
280
     0
281
     1
  0
CLASS
  1
ACAMCLONEREACTOR
  2
AcAmGrCompCloneReactor
  3
DesignerAssemblies
 90
     1024
 91
        0
280
     0
281
     0
  0
CLASS
  1
ADDATUMPLANEABS
  2
AcAdDatumPlaneAbs
  3
DesignerServices
 90
     1024
 91
        0
280
     0
281
     0
  0
CLASS
  1
ADDATUMAXISABS
  2
AcAdDatumAxisAbs
  3
DesignerServices
 90
     1024
 91
        0
280
     0
281
     0
  0
CLASS
  1
ADDATUMORIENTEDPLANE
  2
AcAdDatumOrientedPlane
  3
DesignerServices
 90
     1024
 91
        0
280
     0
281
     0
  0
CLASS
  1
ACAD_LINE
  2
AcAdLine
  3
DesignerServices
 90
     1024
 91
        0
280
     0
281
     1
  0
CLASS
  1
ACADLINEACAD
  2
AcAdVirtualBoundedLineAcad
  3
DesignerServices
 90
     1024
 91
        0
280
     0
281
     0
  0
CLASS
  1
ACADREFLINEACAD
  2
AcAdVirtualReferenceLine
  3
DesignerServices
 90
     1024
 91
        0
280
     0
281
     0
  0
CLASS
  1
ACADCONSLINE
  2
AcAdConstrainedLine
  3
DesignerServices
 90
     1024
 91
        0
280
     0
281
     0
  0
CLASS
  1
ACADCONSGROUP
  2
AcAdConstraintGroup
  3
DesignerServices
 90
     1024
 91
        0
280
     0
281
     0
  0
CLASS
  1
ACADIMPPTACAD
  2
AcAdVirtualImplicitPoint
  3
DesignerServices
 90
     1024
 91
        0
280
     0
281
     0
  0
CLASS
  1
ACADCONSPOINT
  2
AcAdConstrainedPoint
  3
DesignerServices
 90
     1024
 91
        0
280
     0
281
     0
  0
CLASS
  1
ADPCURCNS
  2
AcAdPointCurveConstr
  3
DesignerServices
 90
     1024
 91
        0
280
     0
281
     0
  0
CLASS
  1
ADHORCNS
  2
AcAdHorizontalConstr
  3
DesignerServices
 90
     1024
 91
        0
280
     0
281
     0
  0
CLASS
  1
ADVERCNS
  2
AcAdVerticalConstr
  3
DesignerServices
 90
     1024
 91
        0
280
     0
281
     0
  0
CLASS
  1
ADCLPROF2D
  2
AcAdClosedProfile2d
  3
DesignerServices
 90
     1024
 91
        0
280
     0
281
     0
  0
CLASS
  1
ACAD_FIXCONSTRAINT
  2
AcAdFixedConstraint
  3
DesignerServices
 90
     1024
 91
        0
280
     0
281
     0
  0
CLASS
  1
AMDTFORMULAUPDATEDISPATCHER
  2
AmdtFormulaUpdateDispatcher
  3
AcMeServices
 90
     1024
 91
        0
280
     0
281
     0
  0
CLASS
  1
ADCONSDISP
  2
AcAdConstraintDisplay
  3
DesignerServices
 90
     1024
 91
        0
280
     0
281
     1
  0
CLASS
  1
ADCONSTDSP
  2
AcAdConstraintDisplayTag
  3
DesignerServices
 90
     1024
 91
        0
280
     0
281
     1
  0
CLASS
  1
PARAM
  2
AcAdParam
  3
DesignerServices
 90
     1024
 91
        0
280
     0
281
     0
  0
CLASS
  1
ADVDISTCNS
  2
AcAdVerticalDistanceConstr
  3
DesignerServices
 90
     1024
 91
        0
280
     0
281
     0
  0
CLASS
  1
ADHDISTCNS
  2
AcAdHorizontalDistanceConstr
  3
DesignerServices
 90
     1024
 91
        0
280
     0
281
     0
  0
CLASS
  1
ACMELINEARARROW
  2
AcImLinearArrowDisplay
  3
AcMeServices
 90
     1024
 91
        0
280
     0
281
     1
  0
CLASS
  1
ACADVOLFEATWITHTRIM
  2
AcAdVolFeatWithTrim
  3
DesignerServices
 90
     1024
 91
        0
280
     0
281
     0
  0
CLASS
  1
DEPEDGEFEATUREORDERING
  2
AcAdDepEdgeFeatureOrdering
  3
DesignerServices
 90
     1024
 91
        0
280
     0
281
     0
  0
CLASS
  1
SORTENTSTABLE
  2
AcDbSortentsTable
  3
ObjectDBX Classes
 90
        0
 91
        1
280
     0
281
     0
  0
CLASS
  1
ACAD_ARC
  2
AcAdArc
  3
DesignerServices
 90
     1024
 91
        0
280
     0
281
     1
  0
CLASS
  1
ACADARCACAD
  2
AcAdVirtualArcAcad
  3
DesignerServices
 90
     1024
 91
        0
280
     0
281
     0
  0
CLASS
  1
ACADCONSCIRCLE
  2
AcAdConstrainedCircle
  3
DesignerServices
 90
     1024
 91
        0
280
     0
281
     0
  0
CLASS
  1
ADCTRPTCNS
  2
AcAdCenterPointConstr
  3
DesignerServices
 90
     1024
 91
        0
280
     0
281
     0
  0
CLASS
  1
ADTANCNS
  2
AcAdTangentConstr
  3
DesignerServices
 90
     1024
 91
        0
280
     0
281
     0
  0
CLASS
  1
ADEQRADCNS
  2
AcAdEqualRadiusConstr
  3
DesignerServices
 90
     1024
 91
        0
280
     0
281
     0
  0
CLASS
  1
HVREFID
  2
AcAdHVRefId
  3
DesignerServices
 90
     1024
 91
        0
280
     0
281
     0
  0
CLASS
  1
ACADPOINTDEPID
  2
AcAdVirtualPointDepId
  3
DesignerServices
 90
     1024
 91
        0
280
     0
281
     0
  0
CLASS
  1
ADPLANEID
  2
AcAdPlaneId
  3
DesignerServices
 90
     1024
 91
        0
280
     0
281
     0
  0
CLASS
  1
ADDATUMPLANEFACE
  2
AcAdDatumPlaneFace
  3
DesignerServices
 90
     1024
 91
        0
280
     0
281
     0
  0
CLASS
  1
ACMEPLINE
  2
AcImPlineDisplay
  3
AcMeServices
 90
     1024
 91
        0
280
     0
281
     1
  0
CLASS
  1
ACMETEXT
  2
AcImTextDisplay
  3
AcMeServices
 90
     1024
 91
        0
280
     0
281
     1
  0
CLASS
  1
SOLID_BACKGROUND
  2
AcDbSolidBackground
  3
SCENEOE
 90
     4095
 91
        0
280
     0
281
     0
  0
CLASS
  1
NPOCOLLECTION
  2
AcDbImpNonPersistentObjectsCollection
  3
ObjectDBX Classes
 90
     1153
 91
        0
280
     0
281
     0
  0
CLASS
  1
EDGEID
  2
AcAdEdgeId
  3
DesignerServices
 90
     1024
 91
        0
280
     0
281
     0
  0
CLASS
  1
ADFILLET
  2
AcAdFillet
  3
DesignerServices
 90
     1024
 91
        0
280
     0
281
     0
  0
CLASS
  1
DEPEDGESECONDARYDEPID
  2
AcAdDepEdgeSecondaryDepId
  3
DesignerServices
 90
     1024
 91
        0
280
     0
281
     0
  0
CLASS
  1
ACMEPOINT
  2
AcImPointDisplay
  3
AcMeServices
 90
     1024
 91
        0
280
     0
281
     1
  0
CLASS
  1
OSTREFID
  2
AcAdOrientedStraightRefId
  3
DesignerServices
 90
     1024
 91
        0
280
     0
281
     0
  0
CLASS
  1
ADDATUMPOINT2EDGES
  2
AcAdDatumPoint2Edges
  3
DesignerServices
 90
     1024
 91
        0
280
     0
281
     0
  0
CLASS
  1
ADHOLEFEAT
  2
AcAdHoleFeat
  3
DesignerServices
 90
     1024
 91
        0
280
     0
281
     0
  0
CLASS
  1
ACAD_CIRCLE
  2
AcAdCircle
  3
DesignerServices
 90
     1024
 91
        0
280
     0
281
     1
  0
CLASS
  1
ACADCIRCLEACAD
  2
AcAdVirtualCircleAcad
  3
DesignerServices
 90
     1024
 91
        0
280
     0
281
     0
  0
CLASS
  1
ADFEATUREDISPLAY
  2
AcImFeatureDisplay
  3
DesignerServices
 90
     1024
 91
        0
280
     0
281
     1
  0
CLASS
  1
DEPEDGEPATTERNFEATURE
  2
AcAdDepEdgePatternFeature
  3
DesignerServices
 90
     1024
 91
        0
280
     0
281
     0
  0
CLASS
  1
ACADPATTNFEAT
  2
AcAdPatternFeat
  3
DesignerServices
 90
     1024
 91
        0
280
     0
281
     0
  0
CLASS
  1
DATUMAXISDISPLAY
  2
AcAdDatumAxisDisplay
  3
DesignerServices
 90
     1024
 91
        0
280
     0
281
     1
  0
CLASS
  1
ADPATH3DDISPLAY
  2
AcAdPath3dDisplay
  3
DesignerServices
 90
     1024
 91
        0
280
     0
281
     1
  0
CLASS
  1
DATUMPOINTDISPLAY
  2
AcAdDatumPointDisplay
  3
DesignerServices
 90
     1024
 91
        0
280
     0
281
     1
  0
CLASS
  1
DATUMPLANEDISPLAY
  2
AcAdDatumPlaneDisplay
  3
DesignerServices
 90
     1024
 91
        0
280
     0
281
     1
  0
CLASS
  1
ADPARCNS
  2
AcAdParallelConstr
  3
DesignerServices
 90
     1024
 91
        0
280
     0
281
     0
  0
CLASS
  1
ADACADDIACNS
  2
AcAdAcadDiameterConstr
  3
DesignerServices
 90
     1024
 91
        0
280
     0
281
     0
  0
CLASS
  1
ADSURFGEOMID
  2
AcAdSurfGeomId
  3
DesignerServices
 90
     1024
 91
        0
280
     0
281
     0
  0
CLASS
  1
CIRREFID
  2
AcAdCircleRefId
  3
DesignerServices
 90
     1024
 91
        0
280
     0
281
     0
  0
CLASS
  1
ADDATUMAXISCENTER
  2
AcAdDatumAxisCenter
  3
DesignerServices
 90
     1024
 91
        0
280
     0
281
     0
  0
CLASS
  1
ADDATUMPOINTAXISPLANE
  2
AcAdDatumPointAxisPlane
  3
DesignerServices
 90
     1024
 91
        0
280
     0
281
     0
  0
CLASS
  1
ACADPATH3DFEAT
  2
AcAdPath3dFeat
  3
DesignerServices
 90
     1024
 91
        0
280
     0
281
     0
  0
CLASS
  1
ADDATUMPOINTPATH3DSTART
  2
AcAdDatumPointPath3dStart
  3
DesignerServices
 90
     1024
 91
        0
280
     0
281
     0
  0
CLASS
  1
ADDATUMPLANEAXISPOINT
  2
AcAdDatumPlaneAxisPoint
  3
DesignerServices
 90
     1024
 91
        0
280
     0
281
     0
  0
CLASS
  1
ADEQUALLENGTHCNS
  2
AcAdEqualLengthConstr
  3
DesignerServices
 90
     1024
 91
        0
280
     0
281
     0
  0
CLASS
  1
ADACADANGCNS
  2
AcAdAcadAngleConstr
  3
DesignerServices
 90
     1024
 91
        0
280
     0
281
     0
  0
CLASS
  1
ACADCIRCDEPID
  2
AcAdVirtualCircleDepId
  3
DesignerServices
 90
     1024
 91
        0
280
     0
281
     0
  0
CLASS
  1
ACADVIRTUALPOINTDATUMID
  2
AcAdVirtualPointDatumId
  3
DesignerServices
 90
     1024
 91
        0
280
     0
281
     0
  0
CLASS
  1
ACAMGROUNDEDBASECOMP
  2
AcAmGroundedBaseComp
  3
DesignerAssemblies
 90
     1024
 91
        0
280
     0
281
     0
  0
CLASS
  1
ADCONCCNS
  2
AcAdConcentricConstr
  3
DesignerServices
 90
     1024
 91
        0
280
     0
281
     0
  0
CLASS
  1
ELLREFID
  2
AcAdEllipseRefId
  3
DesignerServices
 90
     1024
 91
        0
280
     0
281
     0
  0
CLASS
  1
ADDATUMAXISELLIPTICALFACE
  2
AcAdDatumAxisEllipticalFace
  3
DesignerServices
 90
     1024
 91
        0
280
     0
281
     0
  0
CLASS
  1
ADWORKPOINTDISPLAY
  2
AcAdWorkPointDisplay
  3
DesignerServices
 90
     1024
 91
        0
280
     0
281
     1
  0
CLASS
  1
STREFID
  2
AcAdStraightRefId
  3
DesignerServices
 90
     1024
 91
        0
280
     0
281
     0
  0
CLASS
  1
ACADLINEDEPID
  2
AcAdVirtualLineDepId
  3
DesignerServices
 90
     1024
 91
        0
280
     0
281
     0
  0
CLASS
  1
ADCOLNCNS
  2
AcAdColinearConstr
  3
DesignerServices
 90
     1024
 91
        0
280
     0
281
     0
  0
CLASS
  1
ADSTRAIGHTID
  2
AcAdStraightId
  3
DesignerServices
 90
     1024
 91
        0
280
     0
281
     0
  0
CLASS
  1
ADDATUMAXISEDGE
  2
AcAdDatumAxisEdge
  3
DesignerServices
 90
     1024
 91
        0
280
     0
281
     0
  0
CLASS
  1
ADDATUMPOINT2HOLES
  2
AcAdDatumPoint2Holes
  3
DesignerServices
 90
     1024
 91
        0
280
     0
281
     0
  0
CLASS
  1
DEPEDGEPATTERNINSTANCE
  2
AcAdDepEdgePatternInstance
  3
DesignerServices
 90
     1024
 91
        0
280
     0
281
     0
  0
CLASS
  1
ADVIRTUALPOINTWORKPOINTFREE
  2
AcAdVirtualPointWorkPointFree
  3
DesignerServices
 90
     1024
 91
        0
280
     0
281
     0
  0
CLASS
  1
ADWORKPOINTSKETCH
  2
AcAdWorkPointSketch
  3
DesignerServices
 90
     1024
 91
        0
280
     0
281
     0
  0
CLASS
  1
ADDATUMPLANEPATH3DNORMAL
  2
AcAdDatumPlanePath3dNormal
  3
DesignerServices
 90
     1024
 91
        0
280
     0
281
     0
  0
CLASS
  1
FEEDBACK
  2
AcAmFeedback
  3
DesignerAssemblies
 90
     1024
 91
        0
280
     0
281
     1
  0
CLASS
  1
ACAMTRIAXISSYMBOL
  2
AcAmTriAxisSymbol
  3
DesignerAssemblies
 90
     1024
 91
        0
280
     0
281
     0
  0
CLASS
  1
ACAMTEXTCIRCLESYMBOL
  2
AcAmTextCircleSymbol
  3
DesignerAssemblies
 90
     1024
 91
        0
280
     0
281
     0
  0
CLASS
  1
ACAMROTVECTORSYMBOL
  2
AcAmRotVectorSymbol
  3
DesignerAssemblies
 90
     1024
 91
        0
280
     0
281
     0
  0
CLASS
  1
ACAMVECTORSYMBOL
  2
AcAmVectorSymbol
  3
DesignerAssemblies
 90
     1024
 91
        0
280
     0
281
     0
  0
CLASS
  1
AM_VIEW_SELECT_FILTER
  2
AcDmSelectViewEntFilter
  3
AcMechDwgViewMgmt
 90
     1024
 91
        0
280
     0
281
     0
  0
CLASS
  1
FACEID
  2
AcAdFaceId
  3
DesignerServices
 90
     1024
 91
        0
280
     0
281
     0
  0
CLASS
  1
ACADPARTPLANARFACERES
  2
AcAdPartPlanarFaceRes
  3
AdGrefServices
 90
     1024
 91
        0
280
     0
281
     0
  0
CLASS
  1
ACRFINSADJ
  2
AcRfInsAdjuster
  3
AcMeServices
 90
     1024
 91
        0
280
     0
281
     0
  0
CLASS
  1
AM_GREF_PLANE
  2
AcDmGrefPlnDef
  3
AcMechDwgViewMgmt
 90
     1024
 91
        0
280
     0
281
     0
  0
CLASS
  1
ACAMVIEWREACTOR
  2
AcAmViewReactor
  3
DesignerAssemblies
 90
     1024
 91
        0
280
     0
281
     0
  0
CLASS
  1
AMVIEW
  2
AcAmView
  3
DesignerAssemblies
 90
     1024
 91
        0
280
     0
281
     0
  0
CLASS
  1
ACAMVIEWCONTEXT
  2
AcAmViewContext
  3
DesignerAssemblies
 90
     1024
 91
        0
280
     0
281
     0
  0
CLASS
  1
ACAMCOMPENTVIEW
  2
AcAmCompEntView
  3
DesignerAssemblies
 90
     1024
 91
        0
280
     0
281
     1
  0
CLASS
  1
ACAMCOMPVIEWREACTOR
  2
AcAmGrCompViewReactor
  3
DesignerAssemblies
 90
     1024
 91
        0
280
     0
281
     0
  0
CLASS
  1
ACAMVIEWENTITYFILTER
  2
AcAmViewEntityFilter
  3
DesignerAssemblies
 90
     1024
 91
        0
280
     0
281
     0
  0
CLASS
  1
ACADPARTLINEDGRES
  2
AcAdPartLinEdgRes
  3
AdGrefServices
 90
     1024
 91
        0
280
     0
281
     0
  0
CLASS
  1
AM_GREF_AXIS
  2
AcDmGrefAxisDef
  3
AcMechDwgViewMgmt
 90
     1024
 91
        0
280
     0
281
     0
  0
CLASS
  1
AM_BASE_VIEW_ORIENT
  2
AcDmBaseViewOr
  3
AcMechDwgViewMgmt
 90
     1024
 91
        0
280
     0
281
     0
  0
CLASS
  1
AM_DWG_VIEWPORT
  2
AcDmViewport
  3
AcMechDwgViewMgmt
 90
     1024
 91
        0
280
     0
281
     0
  0
CLASS
  1
AM_VIEW_DISPLAY
  2
AcDmDwgViewDisplay
  3
AcMechDwgViewMgmt
 90
     1024
 91
        0
280
     0
281
     0
  0
CLASS
  1
AM_CLDFLTS
  2
AcDmClDflts
  3
AcMechDwgViewMgmt
 90
     1024
 91
        0
280
     0
281
     0
  0
CLASS
  1
AM_BASE_VIEW
  2
AcDmBaseView
  3
AcMechDwgViewMgmt
 90
     1024
 91
        0
280
     0
281
     0
  0
CLASS
  1
AM_ORTHO_VIEW_ORIENT
  2
AcDmOrthoViewOr
  3
AcMechDwgViewMgmt
 90
     1024
 91
        0
280
     0
281
     0
  0
CLASS
  1
AM_ORTHO_VIEW
  2
AcDmOrthoView
  3
AcMechDwgViewMgmt
 90
     1024
 91
        0
280
     0
281
     0
  0
CLASS
  1
AM_ISO_VIEW_ORIENT
  2
AcDmIsoViewOr
  3
AcMechDwgViewMgmt
 90
     1024
 91
        0
280
     0
281
     0
  0
CLASS
  1
AM_ISO_VIEW
  2
AcDmIsoView
  3
AcMechDwgViewMgmt
 90
     1024
 91
        0
280
     0
281
     0
  0
CLASS
  1
ACDMPARTVIEWDATA
  2
AcDmPartViewData
  3
AcMechDwgViewMgmt
 90
     1024
 91
        0
280
     0
281
     0
  0
CLASS
  1
ACDMDISPLAYATTRIBS
  2
AcDmDisplayAttribs
  3
AcMechDwgViewMgmt
 90
     1024
 91
        0
280
     0
281
     0
  0
CLASS
  1
ACDMBODYINSTANCEDATA
  2
AcDmBodyInstanceData
  3
AcMechDwgViewMgmt
 90
     1024
 91
        0
280
     0
281
     0
  0
CLASS
  1
ACDMVWEDLINE
  2
AcDmViewEdgeLine
  3
AcMechDwgViewMgmt
 90
     1024
 91
        0
280
     0
281
     1
  0
CLASS
  1
ACDMVWEDSPLINE
  2
AcDmViewEdgeSpline
  3
AcMechDwgViewMgmt
 90
     1024
 91
        0
280
     0
281
     1
  0
CLASS
  1
ACDMVWEDARC
  2
AcDmViewEdgeArc
  3
AcMechDwgViewMgmt
 90
     1024
 91
        0
280
     0
281
     1
  0
CLASS
  1
ACDMVWEDCIRC
  2
AcDmViewEdgeCircle
  3
AcMechDwgViewMgmt
 90
     1024
 91
        0
280
     0
281
     1
  0
CLASS
  1
AM_ADCIRCTRLINE
  2
AcAdBullsEyeCl
  3
DesignerServices
 90
     1024
 91
        0
280
     0
281
     0
  0
CLASS
  1
AM_ADLINCTRLINE
  2
AcAdLineCl
  3
DesignerServices
 90
     1024
 91
        0
280
     0
281
     0
  0
CLASS
  1
DIMASSOC
  2
AcDbDimAssoc
  3
"AcDbDimAssoc|Product Desc:     AcDim ARX App For Dimension|Company:          Autodesk, Inc.|WEB Address:      www.autodesk.com"
 90
        0
 91
        0
280
     0
281
     0
  0
ENDSEC
  0
SECTION
  2
TABLES
  0
TABLE
  2
VPORT
  5
23
102
{ACAD_XDICTIONARY
360
2C46
102
}
330
0
100
AcDbSymbolTable
 70
     1
  0
VPORT
  5
24
330
23
100
AcDbSymbolTableRecord
100
AcDbViewportTableRecord
  2
*Active
 70
     0
 10
0.0
 20
0.0
 11
1.0
 21
1.0
 12
0.4696637383592445
 22
-0.1065009293359154
 13
0.0
 23
0.0
 14
0.125
 24
0.125
 15
1.0
 25
1.0
 16
0.0
 26
0.0
 36
1.0
 17
0.0
 27
0.0
 37
0.0
 40
0.7284670929615561
 41
2.176401869158878
 42
50.0
 43
0.0
 44
0.0
 50
0.0
 51
0.0
 71
     0
 72
  2000
 73
     1
 74
     1
 75
     0
 76
     0
 77
     0
 78
     0
281
     0
 65
     0
110
0.0
120
0.0
130
0.0
111
1.0
121
0.0
131
0.0
112
0.0
122
1.0
132
0.0
 79
     0
146
0.0
348
25
 60
     3
 61
     5
292
     1
282
     0
141
0.0
142
0.0
 63
   250
421
  3355443
  0
ENDTAB
  0
TABLE
  2
LTYPE
  5
1E
330
0
100
AcDbSymbolTable
 70
     1
  0
LTYPE
  5
1F
330
1E
100
AcDbSymbolTableRecord
100
AcDbLinetypeTableRecord
  2
BYBLOCK
 70
     0
  3

 72
    65
 73
     0
 40
0.0
  0
LTYPE
  5
20
330
1E
100
AcDbSymbolTableRecord
100
AcDbLinetypeTableRecord
  2
BYLAYER
 70
     0
  3

 72
    65
 73
     0
 40
0.0
  0
LTYPE
  5
E
330
1E
100
AcDbSymbolTableRecord
100
AcDbLinetypeTableRecord
  2
CONTINUOUS
 70
     0
  3
Solid line
 72
    65
 73
     0
 40
0.0
  0
ENDTAB
  0
TABLE
  2
LAYER
  5
18
102
{ACAD_XDICTIONARY
360
19
102
}
330
0
100
AcDbSymbolTable
 70
     5
  0
LAYER
  5
6
102
{ACAD_XDICTIONARY
360
7
102
}
330
18
100
AcDbSymbolTableRecord
100
AcDbLayerTableRecord
  2
0
 70
     0
 62
     7
  6
CONTINUOUS
370
    -3
390
9
347
C
  0
LAYER
  5
54D
102
{ACAD_XDICTIONARY
360
54E
102
}
330
18
100
AcDbSymbolTableRecord
100
AcDbLayerTableRecord
  2
Dims
 70
     0
 62
     7
  6
CONTINUOUS
370
    -3
390
9
347
C
1001
AcAecLayerStandard
1000

1000

  0
LAYER
  5
54F
102
{ACAD_XDICTIONARY
360
550
102
}
330
18
100
AcDbSymbolTableRecord
100
AcDbLayerTableRecord
  2
Text
 70
     0
 62
     7
  6
CONTINUOUS
370
    -3
390
9
347
C
1001
AcAecLayerStandard
1000

1000

  0
LAYER
  5
1151
102
{ACAD_XDICTIONARY
360
2C1F
102
}
330
18
100
AcDbSymbolTableRecord
100
AcDbLayerTableRecord
  2
Objects
 70
     0
 62
     7
  6
CONTINUOUS
370
    -3
390
9
347
C
1001
AcAecLayerStandard
1000

1000

  0
LAYER
  5
1153
330
18
100
AcDbSymbolTableRecord
100
AcDbLayerTableRecord
  2
Defpoints
 70
     0
 62
     7
  6
CONTINUOUS
290
     0
370
    -3
390
9
347
C
  0
ENDTAB
  0
TABLE
  2
STYLE
  5
1B
330
0
100
AcDbSymbolTable
 70
     2
  0
STYLE
  5
1C
330
1B
100
AcDbSymbolTableRecord
100
AcDbTextStyleTableRecord
  2
STANDARD
 70
     0
 40
0.0
 41
1.0
 50
0.0
 71
     0
 42
0.12
  3
ROMANS.SHX
  4

  0
STYLE
  5
35
330
1B
100
AcDbSymbolTableRecord
100
AcDbTextStyleTableRecord
  2
ADESK1
 70
     0
 40
0.0
 41
1.0
 50
0.0
 71
     0
 42
0.03
  3
romans.shx
  4

  0
ENDTAB
  0
TABLE
  2
VIEW
  5
21
330
0
100
AcDbSymbolTable
 70
     0
  0
ENDTAB
  0
TABLE
  2
UCS
  5
22
330
0
100
AcDbSymbolTable
 70
     0
  0
ENDTAB
  0
TABLE
  2
APPID
  5
27
330
0
100
AcDbSymbolTable
 70
    11
  0
APPID
  5
28
330
27
100
AcDbSymbolTableRecord
100
AcDbRegAppTableRecord
  2
ACAD
 70
     0
  0
APPID
  5
2B
330
27
100
AcDbSymbolTableRecord
100
AcDbRegAppTableRecord
  2
ACAD_DSTYLE_DIMJOGGED_JOGANGLE_SYMBOL
 70
     0
  0
APPID
  5
5D
330
27
100
AcDbSymbolTableRecord
100
AcDbRegAppTableRecord
  2
AcAecLayerStandard
 70
     0
  0
APPID
  5
4F9
330
27
100
AcDbSymbolTableRecord
100
AcDbRegAppTableRecord
  2
ACATTRIBSERVICES
 70
     0
  0
APPID
  5
511
330
27
100
AcDbSymbolTableRecord
100
AcDbRegAppTableRecord
  2
ACAD_MLEADERVER
 70
     0
  0
APPID
  5
559
330
27
100
AcDbSymbolTableRecord
100
AcDbRegAppTableRecord
  2
ACAD_DSTYLE_DIMJAG
 70
     0
  0
APPID
  5
55A
330
27
100
AcDbSymbolTableRecord
100
AcDbRegAppTableRecord
  2
ACAD_DSTYLE_DIMTALN
 70
     0
  0
APPID
  5
55B
330
27
100
AcDbSymbolTableRecord
100
AcDbRegAppTableRecord
  2
ACAD_DSTYLE_DIMBREAK
 70
     0
  0
APPID
  5
1155
330
27
100
AcDbSymbolTableRecord
100
AcDbRegAppTableRecord
  2
ACAD_DSTYLE_DIMRADIAL_EXTENSION
 70
     0
  0
APPID
  5
1156
330
27
100
AcDbSymbolTableRecord
100
AcDbRegAppTableRecord
  2
ACAD_PSEXT
 70
     0
  0
APPID
  5
2846
330
27
100
AcDbSymbolTableRecord
100
AcDbRegAppTableRecord
  2
ACAD_EXEMPT_FROM_CAD_STANDARDS
 70
     0
  0
ENDTAB
  0
TABLE
  2
DIMSTYLE
  5
29
330
0
100
AcDbSymbolTable
 70
     1
100
AcDbDimStyleTable
 71
     1
340
556
  0
DIMSTYLE
105
556
102
{ACAD_REACTORS
330
2CAA
330
2CB8
330
2D56
330
2DA0
330
2E3F
330
3D39
330
3D3A
330
3D3B
102
}
330
29
100
AcDbSymbolTableRecord
100
AcDbDimStyleTableRecord
  2
Standard
 70
     0
 40
0.16
 41
0.125
 44
0.125
 78
     4
140
0.125
141
0.0
170
     1
176
   256
177
   256
178
   256
271
     3
272
     3
285
     4
340
1C
1001
ACAD_DSTYLE_DIMJAG
1070
   388
1040
1.5
1001
ACAD_DSTYLE_DIMTALN
1070
   392
1070
     0
  0
ENDTAB
  0
TABLE
  2
BLOCK_RECORD
  5
1
330
0
100
AcDbSymbolTable
 70
     8
  0
BLOCK_RECORD
  5
2
102
{ACAD_XDICTIONARY
360
3
102
}
330
1
100
AcDbSymbolTableRecord
100
AcDbBlockTableRecord
  2
*MODEL_SPACE
340
10
 70
     0
280
     1
281
     0
  0
BLOCK_RECORD
  5
12
330
1
100
AcDbSymbolTableRecord
100
AcDbBlockTableRecord
  2
*PAPER_SPACE
340
15
 70
     0
280
     1
281
     0
  0
BLOCK_RECORD
  5
2CAB
330
1
100
AcDbSymbolTableRecord
100
AcDbBlockTableRecord
  2
*D0
340
0
 70
     0
280
     1
281
     0
  0
BLOCK_RECORD
  5
2CB9
330
1
100
AcDbSymbolTableRecord
100
AcDbBlockTableRecord
  2
*D1
340
0
 70
     0
280
     1
281
     0
  0
BLOCK_RECORD
  5
2D57
330
1
100
AcDbSymbolTableRecord
100
AcDbBlockTableRecord
  2
*D2
340
0
 70
     0
280
     1
281
     0
  0
BLOCK_RECORD
  5
2DA1
330
1
100
AcDbSymbolTableRecord
100
AcDbBlockTableRecord
  2
*D3
340
0
 70
     0
280
     1
281
     0
  0
BLOCK_RECORD
  5
2E40
330
1
100
AcDbSymbolTableRecord
100
AcDbBlockTableRecord
  2
*D4
340
0
 70
     0
280
     1
281
     0
  0
BLOCK_RECORD
  5
3D3C
330
1
100
AcDbSymbolTableRecord
100
AcDbBlockTableRecord
  2
*D5
340
0
 70
     0
280
     1
281
     0
  0
BLOCK_RECORD
  5
3D4A
330
1
100
AcDbSymbolTableRecord
100
AcDbBlockTableRecord
  2
*D6
340
0
 70
     0
280
     1
281
     0
  0
BLOCK_RECORD
  5
3D58
330
1
100
AcDbSymbolTableRecord
100
AcDbBlockTableRecord
  2
*D7
340
0
 70
     0
280
     1
281
     0
  0
ENDTAB
  0
ENDSEC
  0
SECTION
  2
BLOCKS
  0
BLOCK
  5
5
330
2
100
AcDbEntity
  8
0
100
AcDbBlockBegin
  2
*MODEL_SPACE
 70
     0
 10
0.0
 20
0.0
 30
0.0
  3
*MODEL_SPACE
  1

  0
ENDBLK
  5
F
330
2
100
AcDbEntity
  8
0
100
AcDbBlockEnd
  0
BLOCK
  5
13
330
12
100
AcDbEntity
 67
     1
  8
0
100
AcDbBlockBegin
  2
*PAPER_SPACE
 70
     0
 10
0.0
 20
0.0
 30
0.0
  3
*PAPER_SPACE
  1

  0
ENDBLK
  5
14
330
12
100
AcDbEntity
 67
     1
  8
0
100
AcDbBlockEnd
  0
BLOCK
  5
2CAC
330
2CAB
100
AcDbEntity
  8
0
100
AcDbBlockBegin
  2
*D0
 70
     1
 10
0.0
 20
0.0
 30
0.0
  3
*D0
  1

  0
LINE
  5
429D
330
2CAB
100
AcDbEntity
  8
Dims
370
    -2
100
AcDbLine
 10
0.0
 20
-0.01
 30
0.0
 11
0.0
 21
-0.2927751731827191
 31
0.0
  0
LINE
  5
429E
330
2CAB
100
AcDbEntity
  8
Dims
370
    -2
100
AcDbLine
 10
0.9700000000000002
 20
-0.01
 30
0.0
 11
0.9700000000000002
 21
-0.2927751731827191
 31
0.0
  0
LINE
  5
429F
330
2CAB
100
AcDbEntity
  8
Dims
370
    -2
100
AcDbLine
 10
0.02
 20
-0.272775173182719
 30
0.0
 11
0.3753619047619049
 21
-0.272775173182719
 31
0.0
  0
LINE
  5
42A0
330
2CAB
100
AcDbEntity
  8
Dims
370
    -2
100
AcDbLine
 10
0.9500000000000001
 20
-0.272775173182719
 30
0.0
 11
0.5946380952380954
 21
-0.272775173182719
 31
0.0
  0
SOLID
  5
42A1
330
2CAB
100
AcDbEntity
  8
Dims
100
AcDbTrace
 10
0.02
 20
-0.2694418398493857
 30
0.0
 11
0.02
 21
-0.2761085065160524
 31
0.0
 12
0.0
 22
-0.272775173182719
 32
0.0
 13
0.0
 23
-0.272775173182719
 33
0.0
  0
SOLID
  5
42A2
330
2CAB
100
AcDbEntity
  8
Dims
100
AcDbTrace
 10
0.9500000000000001
 20
-0.2694418398493857
 30
0.0
 11
0.9500000000000001
 21
-0.2761085065160524
 31
0.0
 12
0.9700000000000002
 22
-0.272775173182719
 32
0.0
 13
0.9700000000000002
 23
-0.272775173182719
 33
0.0
  0
MTEXT
  5
42A3
330
2CAB
100
AcDbEntity
  8
Dims
100
AcDbMText
 10
0.4850000000000002
 20
-0.272775173182719
 30
0.0
 40
0.02
 41
0.0
 46
0.0
 71
     5
 72
     1
  1
\A1;.970 [24.64]
 73
     1
 44
1.0
  0
POINT
  5
42A4
330
2CAB
100
AcDbEntity
  8
Defpoints
 62
     0
100
AcDbPoint
 10
0.0
 20
0.0
 30
0.0
  0
POINT
  5
42A5
330
2CAB
100
AcDbEntity
  8
Defpoints
 62
     0
100
AcDbPoint
 10
0.9700000000000002
 20
0.0
 30
0.0
  0
POINT
  5
42A6
330
2CAB
100
AcDbEntity
  8
Defpoints
 62
     0
100
AcDbPoint
 10
0.9700000000000002
 20
-0.272775173182719
 30
0.0
  0
ENDBLK
  5
2CAD
330
2CAB
100
AcDbEntity
  8
0
100
AcDbBlockEnd
  0
BLOCK
  5
2CBA
330
2CB9
100
AcDbEntity
  8
0
100
AcDbBlockBegin
  2
*D1
 70
     1
 10
0.0
 20
0.0
 30
0.0
  3
*D1
  1

  0
LINE
  5
42A7
330
2CB9
100
AcDbEntity
  8
Dims
370
    -2
100
AcDbLine
 10
0.085
 20
-0.063
 30
0.0
 11
0.085
 21
-0.2024287838048541
 31
0.0
  0
LINE
  5
42A8
330
2CB9
100
AcDbEntity
  8
Dims
370
    -2
100
AcDbLine
 10
0.0
 20
-0.115
 30
0.0
 11
0.0
 21
-0.2024287838048542
 31
0.0
  0
LINE
  5
42A9
330
2CB9
100
AcDbEntity
  8
Dims
370
    -2
100
AcDbLine
 10
0.065
 20
-0.1824287838048542
 30
0.0
 11
0.02
 21
-0.1824287838048542
 31
0.0
  0
LINE
  5
42AA
330
2CB9
100
AcDbEntity
  8
Dims
370
    -2
100
AcDbLine
 10
0.0
 20
-0.1824287838048542
 30
0.0
 11
-0.02
 21
-0.1824287838048542
 31
0.0
  0
SOLID
  5
42AB
330
2CB9
100
AcDbEntity
  8
Dims
100
AcDbTrace
 10
0.065
 20
-0.1790954504715208
 30
0.0
 11
0.065
 21
-0.1857621171381875
 31
0.0
 12
0.085
 22
-0.1824287838048542
 32
0.0
 13
0.085
 23
-0.1824287838048542
 33
0.0
  0
SOLID
  5
42AC
330
2CB9
100
AcDbEntity
  8
Dims
100
AcDbTrace
 10
0.02
 20
-0.1790954504715208
 30
0.0
 11
0.02
 21
-0.1857621171381875
 31
0.0
 12
0.0
 22
-0.1824287838048542
 32
0.0
 13
0.0
 23
-0.1824287838048542
 33
0.0
  0
MTEXT
  5
42AD
330
2CB9
100
AcDbEntity
  8
Dims
100
AcDbMText
 10
-0.1201142857142857
 20
-0.1824287838048542
 30
0.0
 40
0.02
 41
0.0
 46
0.0
 71
     5
 72
     1
  1
\A1;.085 [2.16]
 73
     1
 44
1.0
  0
POINT
  5
42AE
330
2CB9
100
AcDbEntity
  8
Defpoints
 62
     0
100
AcDbPoint
 10
0.085
 20
-0.053
 30
0.0
  0
POINT
  5
42AF
330
2CB9
100
AcDbEntity
  8
Defpoints
 62
     0
100
AcDbPoint
 10
0.0
 20
-0.105
 30
0.0
  0
POINT
  5
42B0
330
2CB9
100
AcDbEntity
  8
Defpoints
 62
     0
100
AcDbPoint
 10
0.0
 20
-0.1824287838048542
 30
0.0
  0
ENDBLK
  5
2CBB
330
2CB9
100
AcDbEntity
  8
0
100
AcDbBlockEnd
  0
BLOCK
  5
2D58
330
2D57
100
AcDbEntity
  8
0
100
AcDbBlockBegin
  2
*D2
 70
     1
 10
0.0
 20
0.0
 30
0.0
  3
*D2
  1

  0
LINE
  5
42B1
330
2D57
100
AcDbEntity
  8
Dims
370
    -2
100
AcDbLine
 10
0.1225
 20
0.047
 30
0.0
 11
0.1225000000000001
 21
0.2066791248915418
 31
0.0
  0
LINE
  5
42B2
330
2D57
100
AcDbEntity
  8
Dims
370
    -2
100
AcDbLine
 10
0.0975
 20
0.047
 30
0.0
 11
0.0975
 21
0.2066791248915418
 31
0.0
  0
LINE
  5
42B3
330
2D57
100
AcDbEntity
  8
Dims
370
    -2
100
AcDbLine
 10
0.1425000000000001
 20
0.1866791248915418
 30
0.0
 11
0.1625000000000001
 21
0.1866791248915418
 31
0.0
  0
LINE
  5
42B4
330
2D57
100
AcDbEntity
  8
Dims
370
    -2
100
AcDbLine
 10
0.0774999999999999
 20
0.1866791248915418
 30
0.0
 11
0.0575
 21
0.1866791248915418
 31
0.0
  0
SOLID
  5
42B5
330
2D57
100
AcDbEntity
  8
Dims
100
AcDbTrace
 10
0.1425000000000001
 20
0.1900124582248751
 30
0.0
 11
0.1425000000000001
 21
0.1833457915582084
 31
0.0
 12
0.1225000000000001
 22
0.1866791248915418
 32
0.0
 13
0.1225000000000001
 23
0.1866791248915418
 33
0.0
  0
SOLID
  5
42B6
330
2D57
100
AcDbEntity
  8
Dims
100
AcDbTrace
 10
0.0774999999999999
 20
0.1900124582248751
 30
0.0
 11
0.0774999999999999
 21
0.1833457915582084
 31
0.0
 12
0.0975
 22
0.1866791248915418
 32
0.0
 13
0.0975
 23
0.1866791248915418
 33
0.0
  0
MTEXT
  5
42B7
330
2D57
100
AcDbEntity
  8
Dims
100
AcDbMText
 10
-0.0826142857142858
 20
0.1866791248915418
 30
0.0
 40
0.02
 41
0.0
 46
0.0
 71
     5
 72
     1
  1
\A1;.025 [.64] (TYP)
 73
     1
 44
1.0
  0
POINT
  5
42B8
330
2D57
100
AcDbEntity
  8
Defpoints
 62
     0
100
AcDbPoint
 10
0.1225
 20
0.037
 30
0.0
  0
POINT
  5
42B9
330
2D57
100
AcDbEntity
  8
Defpoints
 62
     0
100
AcDbPoint
 10
0.0975
 20
0.037
 30
0.0
  0
POINT
  5
42BA
330
2D57
100
AcDbEntity
  8
Defpoints
 62
     0
100
AcDbPoint
 10
0.0975
 20
0.1866791248915418
 30
0.0
  0
ENDBLK
  5
2D59
330
2D57
100
AcDbEntity
  8
0
100
AcDbBlockEnd
  0
BLOCK
  5
2DA2
330
2DA1
100
AcDbEntity
  8
0
100
AcDbBlockBegin
  2
*D3
 70
     1
 10
0.0
 20
0.0
 30
0.0
  3
*D3
  1

  0
LINE
  5
42BB
330
2DA1
100
AcDbEntity
  8
Dims
370
    -2
100
AcDbLine
 10
0.1100000000000001
 20
-0.003
 30
0.0
 11
0.1100000000000001
 21
0.1604782822329315
 31
0.0
  0
LINE
  5
42BC
330
2DA1
100
AcDbEntity
  8
Dims
370
    -2
100
AcDbLine
 10
0.0975
 20
0.047
 30
0.0
 11
0.0975
 21
0.1604782822329315
 31
0.0
  0
LINE
  5
42BD
330
2DA1
100
AcDbEntity
  8
Dims
370
    -2
100
AcDbLine
 10
0.1300000000000001
 20
0.1404782822329315
 30
0.0
 11
0.1500000000000001
 21
0.1404782822329315
 31
0.0
  0
LINE
  5
42BE
330
2DA1
100
AcDbEntity
  8
Dims
370
    -2
100
AcDbLine
 10
0.0774999999999999
 20
0.1404782822329315
 30
0.0
 11
0.0575
 21
0.1404782822329315
 31
0.0
  0
SOLID
  5
42BF
330
2DA1
100
AcDbEntity
  8
Dims
100
AcDbTrace
 10
0.1300000000000001
 20
0.1438116155662649
 30
0.0
 11
0.1300000000000001
 21
0.1371449488995982
 31
0.0
 12
0.1100000000000001
 22
0.1404782822329315
 32
0.0
 13
0.1100000000000001
 23
0.1404782822329315
 33
0.0
  0
SOLID
  5
42C0
330
2DA1
100
AcDbEntity
  8
Dims
100
AcDbTrace
 10
0.0774999999999999
 20
0.1438116155662649
 30
0.0
 11
0.0774999999999999
 21
0.1371449488995982
 31
0.0
 12
0.0975
 22
0.1404782822329315
 32
0.0
 13
0.0975
 23
0.1404782822329315
 33
0.0
  0
MTEXT
  5
42C1
330
2DA1
100
AcDbEntity
  8
Dims
100
AcDbMText
 10
-0.0921380952380953
 20
0.1404782822329315
 30
0.0
 40
0.02
 41
0.0
 46
0.0
 71
     5
 72
     1
  1
\A1;.0125 [.32] (TYP)
 73
     1
 44
1.0
  0
POINT
  5
42C2
330
2DA1
100
AcDbEntity
  8
Defpoints
 62
     0
100
AcDbPoint
 10
0.1100000000000001
 20
-0.013
 30
0.0
  0
POINT
  5
42C3
330
2DA1
100
AcDbEntity
  8
Defpoints
 62
     0
100
AcDbPoint
 10
0.0975
 20
0.037
 30
0.0
  0
POINT
  5
42C4
330
2DA1
100
AcDbEntity
  8
Defpoints
 62
     0
100
AcDbPoint
 10
0.0975
 20
0.1404782822329315
 30
0.0
  0
ENDBLK
  5
2DA3
330
2DA1
100
AcDbEntity
  8
0
100
AcDbBlockEnd
  0
BLOCK
  5
2E41
330
2E40
100
AcDbEntity
  8
0
100
AcDbBlockBegin
  2
*D4
 70
     1
 10
0.0
 20
0.0
 30
0.0
  3
*D4
  1

  0
LINE
  5
42C5
330
2E40
100
AcDbEntity
  8
Dims
370
    -2
100
AcDbLine
 10
0.1644999999999999
 20
0.047
 30
0.0
 11
0.1644999999999999
 21
0.1228139114296027
 31
0.0
  0
LINE
  5
42C6
330
2E40
100
AcDbEntity
  8
Dims
370
    -2
100
AcDbLine
 10
0.1804999999999999
 20
0.047
 30
0.0
 11
0.1804999999999999
 21
0.1228139114296027
 31
0.0
  0
LINE
  5
42C7
330
2E40
100
AcDbEntity
  8
Dims
370
    -2
100
AcDbLine
 10
0.1444999999999999
 20
0.1028139114296027
 30
0.0
 11
0.1244999999999998
 21
0.1028139114296027
 31
0.0
  0
LINE
  5
42C8
330
2E40
100
AcDbEntity
  8
Dims
370
    -2
100
AcDbLine
 10
0.2004999999999999
 20
0.1028139114296027
 30
0.0
 11
0.2204999999999999
 21
0.1028139114296027
 31
0.0
  0
SOLID
  5
42C9
330
2E40
100
AcDbEntity
  8
Dims
100
AcDbTrace
 10
0.1444999999999999
 20
0.106147244762936
 30
0.0
 11
0.1444999999999999
 21
0.0994805780962694
 31
0.0
 12
0.1644999999999999
 22
0.1028139114296027
 32
0.0
 13
0.1644999999999999
 23
0.1028139114296027
 33
0.0
  0
SOLID
  5
42CA
330
2E40
100
AcDbEntity
  8
Dims
100
AcDbTrace
 10
0.2004999999999999
 20
0.106147244762936
 30
0.0
 11
0.2004999999999999
 21
0.0994805780962694
 31
0.0
 12
0.1804999999999999
 22
0.1028139114296027
 32
0.0
 13
0.1804999999999999
 23
0.1028139114296027
 33
0.0
  0
MTEXT
  5
42CB
330
2E40
100
AcDbEntity
  8
Dims
100
AcDbMText
 10
0.3606142857142855
 20
0.1028139114296027
 30
0.0
 40
0.02
 41
0.0
 46
0.0
 71
     5
 72
     1
  1
\A1;.016 [.41] (TYP)
 73
     1
 44
1.0
  0
POINT
  5
42CC
330
2E40
100
AcDbEntity
  8
Defpoints
 62
     0
100
AcDbPoint
 10
0.1644999999999999
 20
0.037
 30
0.0
  0
POINT
  5
42CD
330
2E40
100
AcDbEntity
  8
Defpoints
 62
     0
100
AcDbPoint
 10
0.1804999999999999
 20
0.037
 30
0.0
  0
POINT
  5
42CE
330
2E40
100
AcDbEntity
  8
Defpoints
 62
     0
100
AcDbPoint
 10
0.1804999999999999
 20
0.1028139114296027
 30
0.0
  0
ENDBLK
  5
2E42
330
2E40
100
AcDbEntity
  8
0
100
AcDbBlockEnd
  0
BLOCK
  5
3D3D
330
3D3C
100
AcDbEntity
  8
0
100
AcDbBlockBegin
  2
*D5
 70
     1
 10
0.0
 20
0.0
 30
0.0
  3
*D5
  1

  0
LINE
  5
42CF
330
3D3C
100
AcDbEntity
  8
Dims
370
    -2
100
AcDbLine
 10
0.0795000000000001
 20
0.0370000000000007
 30
0.0
 11
-0.1527153706595063
 21
0.0370000000000007
 31
0.0
  0
LINE
  5
42D0
330
3D3C
100
AcDbEntity
  8
Dims
370
    -2
100
AcDbLine
 10
-0.01
 20
0.0
 30
0.0
 11
-0.1527153706595063
 21
0.0
 31
0.0
  0
LINE
  5
42D1
330
3D3C
100
AcDbEntity
  8
Dims
370
    -2
100
AcDbLine
 10
-0.1327153706595063
 20
0.0570000000000007
 30
0.0
 11
-0.1327153706595063
 21
0.0770000000000007
 31
0.0
  0
LINE
  5
42D2
330
3D3C
100
AcDbEntity
  8
Dims
370
    -2
100
AcDbLine
 10
-0.1327153706595063
 20
-0.02
 30
0.0
 11
-0.1327153706595063
 21
-0.04
 31
0.0
  0
LINE
  5
42D3
330
3D3C
100
AcDbEntity
  8
Dims
370
    -2
100
AcDbLine
 10
-0.1327153706595063
 20
-0.04
 30
0.0
 11
-0.1527153706595063
 21
-0.04
 31
0.0
  0
SOLID
  5
42D4
330
3D3C
100
AcDbEntity
  8
Dims
100
AcDbTrace
 10
-0.1360487039928397
 20
0.0570000000000007
 30
0.0
 11
-0.129382037326173
 21
0.0570000000000007
 31
0.0
 12
-0.1327153706595063
 22
0.0370000000000007
 32
0.0
 13
-0.1327153706595063
 23
0.0370000000000007
 33
0.0
  0
SOLID
  5
42D5
330
3D3C
100
AcDbEntity
  8
Dims
100
AcDbTrace
 10
-0.1360487039928397
 20
-0.02
 30
0.0
 11
-0.129382037326173
 21
-0.02
 31
0.0
 12
-0.1327153706595063
 22
0.0
 32
0.0
 13
-0.1327153706595063
 23
0.0
 33
0.0
  0
MTEXT
  5
42D6
330
3D3C
100
AcDbEntity
  8
Dims
100
AcDbMText
 10
-0.2433058468499825
 20
-0.04
 30
0.0
 40
0.02
 41
0.0
 46
0.0
 71
     5
 72
     1
  1
\A1;.037 [.94]
 73
     1
 44
1.0
  0
POINT
  5
42D7
330
3D3C
100
AcDbEntity
  8
Defpoints
 62
     0
100
AcDbPoint
 10
0.0895000000000002
 20
0.0370000000000007
 30
0.0
  0
POINT
  5
42D8
330
3D3C
100
AcDbEntity
  8
Defpoints
 62
     0
100
AcDbPoint
 10
0.0
 20
0.0
 30
0.0
  0
POINT
  5
42D9
330
3D3C
100
AcDbEntity
  8
Defpoints
 62
     0
100
AcDbPoint
 10
-0.1327153706595063
 20
0.0
 30
0.0
  0
ENDBLK
  5
3D3E
330
3D3C
100
AcDbEntity
  8
0
100
AcDbBlockEnd
  0
BLOCK
  5
3D4B
330
3D4A
100
AcDbEntity
  8
0
100
AcDbBlockBegin
  2
*D6
 70
     1
 10
0.0
 20
0.0
 30
0.0
  3
*D6
  1

  0
LINE
  5
42DA
330
3D4A
100
AcDbEntity
  8
Dims
370
    -2
100
AcDbLine
 10
-0.01
 20
0.0
 30
0.0
 11
-0.098019921235478
 21
0.0
 31
0.0
  0
LINE
  5
42DB
330
3D4A
100
AcDbEntity
  8
Dims
370
    -2
100
AcDbLine
 10
0.0670000000000004
 20
-0.0129999999999997
 30
0.0
 11
-0.0980199212354779
 21
-0.0129999999999996
 31
0.0
  0
LINE
  5
42DC
330
3D4A
100
AcDbEntity
  8
Dims
370
    -2
100
AcDbLine
 10
-0.078019921235478
 20
0.02
 30
0.0
 11
-0.0780199212354779
 21
0.04
 31
0.0
  0
LINE
  5
42DD
330
3D4A
100
AcDbEntity
  8
Dims
370
    -2
100
AcDbLine
 10
-0.078019921235478
 20
-0.0329999999999997
 30
0.0
 11
-0.078019921235478
 21
-0.0876110511963795
 31
0.0
  0
LINE
  5
42DE
330
3D4A
100
AcDbEntity
  8
Dims
370
    -2
100
AcDbLine
 10
-0.078019921235478
 20
-0.0876110511963795
 30
0.0
 11
-0.098019921235478
 21
-0.0876110511963795
 31
0.0
  0
SOLID
  5
42DF
330
3D4A
100
AcDbEntity
  8
Dims
100
AcDbTrace
 10
-0.0813532545688113
 20
0.02
 30
0.0
 11
-0.0746865879021446
 21
0.02
 31
0.0
 12
-0.078019921235478
 22
0.0
 32
0.0
 13
-0.078019921235478
 23
0.0
 33
0.0
  0
SOLID
  5
42E0
330
3D4A
100
AcDbEntity
  8
Dims
100
AcDbTrace
 10
-0.0813532545688113
 20
-0.0329999999999996
 30
0.0
 11
-0.0746865879021446
 21
-0.0329999999999997
 31
0.0
 12
-0.078019921235478
 22
-0.0129999999999996
 32
0.0
 13
-0.078019921235478
 23
-0.0129999999999996
 33
0.0
  0
MTEXT
  5
42E1
330
3D4A
100
AcDbEntity
  8
Dims
100
AcDbMText
 10
-0.1886103974259541
 20
-0.0876110511963795
 30
0.0
 40
0.02
 41
0.0
 46
0.0
 71
     5
 72
     1
  1
\A1;.013 [.33]
 73
     1
 44
1.0
  0
POINT
  5
42E2
330
3D4A
100
AcDbEntity
  8
Defpoints
 62
     0
100
AcDbPoint
 10
0.0
 20
0.0
 30
0.0
  0
POINT
  5
42E3
330
3D4A
100
AcDbEntity
  8
Defpoints
 62
     0
100
AcDbPoint
 10
0.0770000000000004
 20
-0.0129999999999997
 30
0.0
  0
POINT
  5
42E4
330
3D4A
100
AcDbEntity
  8
Defpoints
 62
     0
100
AcDbPoint
 10
-0.078019921235478
 20
-0.0129999999999996
 30
0.0
  0
ENDBLK
  5
3D4C
330
3D4A
100
AcDbEntity
  8
0
100
AcDbBlockEnd
  0
BLOCK
  5
3D59
330
3D58
100
AcDbEntity
  8
0
100
AcDbBlockBegin
  2
*D7
 70
     1
 10
0.0
 20
0.0
 30
0.0
  3
*D7
  1

  0
LINE
  5
42E5
330
3D58
100
AcDbEntity
  8
Dims
370
    -2
100
AcDbLine
 10
0.9029999999999999
 20
-0.0530000000000001
 30
0.0
 11
1.073013583216424
 21
-0.0530000000000002
 31
0.0
  0
LINE
  5
42E6
330
3D58
100
AcDbEntity
  8
Dims
370
    -2
100
AcDbLine
 10
0.9029999999999976
 20
-0.0130000000000001
 30
0.0
 11
1.073013583216424
 21
-0.0130000000000001
 31
0.0
  0
LINE
  5
42E7
330
3D58
100
AcDbEntity
  8
Dims
370
    -2
100
AcDbLine
 10
1.053013583216424
 20
-0.0730000000000002
 30
0.0
 11
1.053013583216424
 21
-0.0930000000000002
 31
0.0
  0
LINE
  5
42E8
330
3D58
100
AcDbEntity
  8
Dims
370
    -2
100
AcDbLine
 10
1.053013583216424
 20
0.0069999999999999
 30
0.0
 11
1.053013583216424
 21
0.0269999999999999
 31
0.0
  0
LINE
  5
42E9
330
3D58
100
AcDbEntity
  8
Dims
370
    -2
100
AcDbLine
 10
1.053013583216424
 20
0.0269999999999999
 30
0.0
 11
1.073013583216424
 21
0.0269999999999999
 31
0.0
  0
SOLID
  5
42EA
330
3D58
100
AcDbEntity
  8
Dims
100
AcDbTrace
 10
1.049680249883091
 20
-0.0730000000000002
 30
0.0
 11
1.056346916549757
 21
-0.0730000000000002
 31
0.0
 12
1.053013583216424
 22
-0.0530000000000002
 32
0.0
 13
1.053013583216424
 23
-0.0530000000000002
 33
0.0
  0
SOLID
  5
42EB
330
3D58
100
AcDbEntity
  8
Dims
100
AcDbTrace
 10
1.049680249883091
 20
0.0069999999999999
 30
0.0
 11
1.056346916549757
 21
0.0069999999999999
 31
0.0
 12
1.053013583216424
 22
-0.0130000000000001
 32
0.0
 13
1.053013583216424
 23
-0.0130000000000001
 33
0.0
  0
MTEXT
  5
42EC
330
3D58
100
AcDbEntity
  8
Dims
100
AcDbMText
 10
1.17312786893071
 20
0.0270000000000001
 30
0.0
 40
0.02
 41
0.0
 46
0.0
 71
     5
 72
     1
  1
\A1;.040 [1.02]
 73
     1
 44
1.0
  0
POINT
  5
42ED
330
3D58
100
AcDbEntity
  8
Defpoints
 62
     0
100
AcDbPoint
 10
0.8929999999999999
 20
-0.0530000000000001
 30
0.0
  0
POINT
  5
42EE
330
3D58
100
AcDbEntity
  8
Defpoints
 62
     0
100
AcDbPoint
 10
0.8929999999999976
 20
-0.0130000000000001
 30
0.0
  0
POINT
  5
42EF
330
3D58
100
AcDbEntity
  8
Defpoints
 62
     0
100
AcDbPoint
 10
1.053013583216424
 20
-0.0130000000000001
 30
0.0
  0
ENDBLK
  5
3D5A
330
3D58
100
AcDbEntity
  8
0
100
AcDbBlockEnd
  0
ENDSEC
  0
SECTION
  2
ENTITIES
  0
DIMENSION
  5
2CAA
330
2
100
AcDbEntity
  8
Dims
100
AcDbDimension
  2
*D0
 10
0.9700000000000002
 20
-0.272775173182719
 30
0.0
 11
0.4850000000000002
 21
-0.272775173182719
 31
0.0
 70
    32
 71
     5
 42
0.9700000000000002
 73
     0
 74
     0
 75
     0
  3
Standard
100
AcDbAlignedDimension
 13
0.0
 23
0.0
 33
0.0
 14
0.9700000000000002
 24
0.0
 34
0.0
100
AcDbRotatedDimension
  0
DIMENSION
  5
2CB8
330
2
100
AcDbEntity
  8
Dims
100
AcDbDimension
  2
*D1
 10
0.0
 20
-0.1824287838048542
 30
0.0
 11
-0.1201142857142857
 21
-0.1824287838048542
 31
0.0
 70
    32
 71
     5
 42
0.085
 73
     0
 74
     0
 75
     0
  3
Standard
100
AcDbAlignedDimension
 13
0.085
 23
-0.053
 33
0.0
 14
0.0
 24
-0.105
 34
0.0
100
AcDbRotatedDimension
  0
MTEXT
  5
2D05
102
{ACAD_XDICTIONARY
360
42FB
102
}
330
2
100
AcDbEntity
  8
Text
100
AcDbMText
 10
0.1786131846813488
 20
-0.3561051675738298
 30
0.0
 40
0.02
 41
0.5904312323825689
 46
0.0
 71
     1
 72
     5
  1
\pi0.033787;RECOMMENDED PC BOARD LAYOUT \P\pi0.15331;(COMPONENT SIDE)
 73
     1
 44
1.0
  0
DIMENSION
  5
2D56
330
2
100
AcDbEntity
  8
Dims
100
AcDbDimension
  2
*D2
 10
0.0975
 20
0.1866791248915418
 30
0.0
 11
-0.0826142857142858
 21
0.1866791248915418
 31
0.0
 70
    32
  1
<> (TYP)
 71
     5
 42
0.0250000000000001
 73
     0
 74
     0
 75
     0
  3
Standard
100
AcDbAlignedDimension
 13
0.1225
 23
0.037
 33
0.0
 14
0.0975
 24
0.037
 34
0.0
100
AcDbRotatedDimension
  0
DIMENSION
  5
2DA0
330
2
100
AcDbEntity
  8
Dims
100
AcDbDimension
  2
*D3
 10
0.0975
 20
0.1404782822329315
 30
0.0
 11
-0.0921380952380953
 21
0.1404782822329315
 31
0.0
 70
   160
  1
<> (TYP)
 71
     5
 42
0.0125000000000002
 73
     0
 74
     0
 75
     0
  3
Standard
100
AcDbAlignedDimension
 13
0.1100000000000001
 23
-0.013
 33
0.0
 14
0.0975
 24
0.037
 34
0.0
100
AcDbRotatedDimension
1001
ACAD
1000
DSTYLE
1002
{
1070
   271
1070
     4
1002
}
  0
DIMENSION
  5
2E3F
330
2
100
AcDbEntity
  8
Dims
100
AcDbDimension
  2
*D4
 10
0.1804999999999999
 20
0.1028139114296027
 30
0.0
 11
0.3606142857142855
 21
0.1028139114296027
 31
0.0
 70
    32
  1
<> (TYP)
 71
     5
 42
0.016
 73
     0
 74
     0
 75
     0
  3
Standard
100
AcDbAlignedDimension
 13
0.1644999999999999
 23
0.037
 33
0.0
 14
0.1804999999999999
 24
0.037
 34
0.0
100
AcDbRotatedDimension
  0
LINE
  5
3B3C
330
2
100
AcDbEntity
  8
Objects
100
AcDbLine
 10
0.077
 20
-0.013
 30
0.0
 11
0.093
 21
-0.013
 31
0.0
  0
LINE
  5
3B3D
330
2
100
AcDbEntity
  8
Objects
100
AcDbLine
 10
0.077
 20
-0.053
 30
0.0
 11
0.093
 21
-0.053
 31
0.0
  0
LINE
  5
3B3E
330
2
100
AcDbEntity
  8
Objects
100
AcDbLine
 10
0.077
 20
-0.053
 30
0.0
 11
0.077
 21
-0.013
 31
0.0
  0
LINE
  5
3B3F
330
2
100
AcDbEntity
  8
Objects
100
AcDbLine
 10
0.093
 20
-0.053
 30
0.0
 11
0.093
 21
-0.013
 31
0.0
  0
LINE
  5
3B40
330
2
100
AcDbEntity
  8
Objects
100
AcDbLine
 10
0.102
 20
-0.013
 30
0.0
 11
0.118
 21
-0.013
 31
0.0
  0
LINE
  5
3B41
330
2
100
AcDbEntity
  8
Objects
100
AcDbLine
 10
0.102
 20
-0.053
 30
0.0
 11
0.118
 21
-0.053
 31
0.0
  0
LINE
  5
3B42
330
2
100
AcDbEntity
  8
Objects
100
AcDbLine
 10
0.102
 20
-0.053
 30
0.0
 11
0.102
 21
-0.013
 31
0.0
  0
LINE
  5
3B43
330
2
100
AcDbEntity
  8
Objects
100
AcDbLine
 10
0.118
 20
-0.053
 30
0.0
 11
0.118
 21
-0.013
 31
0.0
  0
LINE
  5
3B44
330
2
100
AcDbEntity
  8
Objects
100
AcDbLine
 10
0.127
 20
-0.013
 30
0.0
 11
0.143
 21
-0.013
 31
0.0
  0
LINE
  5
3B45
330
2
100
AcDbEntity
  8
Objects
100
AcDbLine
 10
0.127
 20
-0.053
 30
0.0
 11
0.143
 21
-0.053
 31
0.0
  0
LINE
  5
3B46
330
2
100
AcDbEntity
  8
Objects
100
AcDbLine
 10
0.127
 20
-0.053
 30
0.0
 11
0.127
 21
-0.013
 31
0.0
  0
LINE
  5
3B47
330
2
100
AcDbEntity
  8
Objects
100
AcDbLine
 10
0.143
 20
-0.053
 30
0.0
 11
0.143
 21
-0.013
 31
0.0
  0
LINE
  5
3B48
330
2
100
AcDbEntity
  8
Objects
100
AcDbLine
 10
0.152
 20
-0.013
 30
0.0
 11
0.168
 21
-0.013
 31
0.0
  0
LINE
  5
3B49
330
2
100
AcDbEntity
  8
Objects
100
AcDbLine
 10
0.152
 20
-0.053
 30
0.0
 11
0.168
 21
-0.053
 31
0.0
  0
LINE
  5
3B4A
330
2
100
AcDbEntity
  8
Objects
100
AcDbLine
 10
0.152
 20
-0.053
 30
0.0
 11
0.152
 21
-0.013
 31
0.0
  0
LINE
  5
3B4B
330
2
100
AcDbEntity
  8
Objects
100
AcDbLine
 10
0.168
 20
-0.053
 30
0.0
 11
0.168
 21
-0.013
 31
0.0
  0
LINE
  5
3B4C
330
2
100
AcDbEntity
  8
Objects
100
AcDbLine
 10
0.177
 20
-0.013
 30
0.0
 11
0.193
 21
-0.013
 31
0.0
  0
LINE
  5
3B4D
330
2
100
AcDbEntity
  8
Objects
100
AcDbLine
 10
0.177
 20
-0.053
 30
0.0
 11
0.193
 21
-0.053
 31
0.0
  0
LINE
  5
3B4E
330
2
100
AcDbEntity
  8
Objects
100
AcDbLine
 10
0.177
 20
-0.053
 30
0.0
 11
0.177
 21
-0.013
 31
0.0
  0
LINE
  5
3B4F
330
2
100
AcDbEntity
  8
Objects
100
AcDbLine
 10
0.193
 20
-0.053
 30
0.0
 11
0.193
 21
-0.013
 31
0.0
  0
LINE
  5
3B50
330
2
100
AcDbEntity
  8
Objects
100
AcDbLine
 10
0.0895
 20
0.037
 30
0.0
 11
0.1055
 21
0.037
 31
0.0
  0
LINE
  5
3B51
330
2
100
AcDbEntity
  8
Objects
100
AcDbLine
 10
0.0895
 20
-0.003
 30
0.0
 11
0.1055
 21
-0.003
 31
0.0
  0
LINE
  5
3B52
330
2
100
AcDbEntity
  8
Objects
100
AcDbLine
 10
0.0895
 20
-0.003
 30
0.0
 11
0.0895
 21
0.037
 31
0.0
  0
LINE
  5
3B53
330
2
100
AcDbEntity
  8
Objects
100
AcDbLine
 10
0.1055
 20
-0.003
 30
0.0
 11
0.1055
 21
0.037
 31
0.0
  0
LINE
  5
3B54
330
2
100
AcDbEntity
  8
Objects
100
AcDbLine
 10
0.1145
 20
0.037
 30
0.0
 11
0.1305
 21
0.037
 31
0.0
  0
LINE
  5
3B55
330
2
100
AcDbEntity
  8
Objects
100
AcDbLine
 10
0.1145
 20
-0.003
 30
0.0
 11
0.1305
 21
-0.003
 31
0.0
  0
LINE
  5
3B56
330
2
100
AcDbEntity
  8
Objects
100
AcDbLine
 10
0.1145
 20
-0.003
 30
0.0
 11
0.1145
 21
0.037
 31
0.0
  0
LINE
  5
3B57
330
2
100
AcDbEntity
  8
Objects
100
AcDbLine
 10
0.1305
 20
-0.003
 30
0.0
 11
0.1305
 21
0.037
 31
0.0
  0
LINE
  5
3B58
330
2
100
AcDbEntity
  8
Objects
100
AcDbLine
 10
0.1395
 20
0.037
 30
0.0
 11
0.1555
 21
0.037
 31
0.0
  0
LINE
  5
3B59
330
2
100
AcDbEntity
  8
Objects
100
AcDbLine
 10
0.1395
 20
-0.003
 30
0.0
 11
0.1555
 21
-0.003
 31
0.0
  0
LINE
  5
3B5A
330
2
100
AcDbEntity
  8
Objects
100
AcDbLine
 10
0.1395
 20
-0.003
 30
0.0
 11
0.1395
 21
0.037
 31
0.0
  0
LINE
  5
3B5B
330
2
100
AcDbEntity
  8
Objects
100
AcDbLine
 10
0.1555
 20
-0.003
 30
0.0
 11
0.1555
 21
0.037
 31
0.0
  0
LINE
  5
3B5C
330
2
100
AcDbEntity
  8
Objects
100
AcDbLine
 10
0.1645
 20
0.037
 30
0.0
 11
0.1805
 21
0.037
 31
0.0
  0
LINE
  5
3B5D
330
2
100
AcDbEntity
  8
Objects
100
AcDbLine
 10
0.1645
 20
-0.003
 30
0.0
 11
0.1805
 21
-0.003
 31
0.0
  0
LINE
  5
3B5E
330
2
100
AcDbEntity
  8
Objects
100
AcDbLine
 10
0.1645
 20
-0.003
 30
0.0
 11
0.1645
 21
0.037
 31
0.0
  0
LINE
  5
3B5F
330
2
100
AcDbEntity
  8
Objects
100
AcDbLine
 10
0.1805
 20
-0.003
 30
0.0
 11
0.1805
 21
0.037
 31
0.0
  0
LINE
  5
3B60
330
2
100
AcDbEntity
  8
Objects
100
AcDbLine
 10
0.202
 20
-0.013
 30
0.0
 11
0.218
 21
-0.013
 31
0.0
  0
LINE
  5
3B61
330
2
100
AcDbEntity
  8
Objects
100
AcDbLine
 10
0.202
 20
-0.053
 30
0.0
 11
0.218
 21
-0.053
 31
0.0
  0
LINE
  5
3B62
330
2
100
AcDbEntity
  8
Objects
100
AcDbLine
 10
0.202
 20
-0.053
 30
0.0
 11
0.202
 21
-0.013
 31
0.0
  0
LINE
  5
3B63
330
2
100
AcDbEntity
  8
Objects
100
AcDbLine
 10
0.218
 20
-0.053
 30
0.0
 11
0.218
 21
-0.013
 31
0.0
  0
LINE
  5
3B64
330
2
100
AcDbEntity
  8
Objects
100
AcDbLine
 10
0.227
 20
-0.013
 30
0.0
 11
0.243
 21
-0.013
 31
0.0
  0
LINE
  5
3B65
330
2
100
AcDbEntity
  8
Objects
100
AcDbLine
 10
0.227
 20
-0.053
 30
0.0
 11
0.243
 21
-0.053
 31
0.0
  0
LINE
  5
3B66
330
2
100
AcDbEntity
  8
Objects
100
AcDbLine
 10
0.227
 20
-0.053
 30
0.0
 11
0.227
 21
-0.013
 31
0.0
  0
LINE
  5
3B67
330
2
100
AcDbEntity
  8
Objects
100
AcDbLine
 10
0.243
 20
-0.053
 30
0.0
 11
0.243
 21
-0.013
 31
0.0
  0
LINE
  5
3B68
330
2
100
AcDbEntity
  8
Objects
100
AcDbLine
 10
0.252
 20
-0.013
 30
0.0
 11
0.268
 21
-0.013
 31
0.0
  0
LINE
  5
3B69
330
2
100
AcDbEntity
  8
Objects
100
AcDbLine
 10
0.252
 20
-0.053
 30
0.0
 11
0.268
 21
-0.053
 31
0.0
  0
LINE
  5
3B6A
330
2
100
AcDbEntity
  8
Objects
100
AcDbLine
 10
0.252
 20
-0.053
 30
0.0
 11
0.252
 21
-0.013
 31
0.0
  0
LINE
  5
3B6B
330
2
100
AcDbEntity
  8
Objects
100
AcDbLine
 10
0.268
 20
-0.053
 30
0.0
 11
0.268
 21
-0.013
 31
0.0
  0
LINE
  5
3B6C
330
2
100
AcDbEntity
  8
Objects
100
AcDbLine
 10
0.277
 20
-0.013
 30
0.0
 11
0.293
 21
-0.013
 31
0.0
  0
LINE
  5
3B6D
330
2
100
AcDbEntity
  8
Objects
100
AcDbLine
 10
0.277
 20
-0.053
 30
0.0
 11
0.293
 21
-0.053
 31
0.0
  0
LINE
  5
3B6E
330
2
100
AcDbEntity
  8
Objects
100
AcDbLine
 10
0.277
 20
-0.053
 30
0.0
 11
0.277
 21
-0.013
 31
0.0
  0
LINE
  5
3B6F
330
2
100
AcDbEntity
  8
Objects
100
AcDbLine
 10
0.293
 20
-0.053
 30
0.0
 11
0.293
 21
-0.013
 31
0.0
  0
LINE
  5
3B70
330
2
100
AcDbEntity
  8
Objects
100
AcDbLine
 10
0.302
 20
-0.013
 30
0.0
 11
0.318
 21
-0.013
 31
0.0
  0
LINE
  5
3B71
330
2
100
AcDbEntity
  8
Objects
100
AcDbLine
 10
0.302
 20
-0.053
 30
0.0
 11
0.318
 21
-0.053
 31
0.0
  0
LINE
  5
3B72
330
2
100
AcDbEntity
  8
Objects
100
AcDbLine
 10
0.302
 20
-0.053
 30
0.0
 11
0.302
 21
-0.013
 31
0.0
  0
LINE
  5
3B73
330
2
100
AcDbEntity
  8
Objects
100
AcDbLine
 10
0.318
 20
-0.053
 30
0.0
 11
0.318
 21
-0.013
 31
0.0
  0
LINE
  5
3B74
330
2
100
AcDbEntity
  8
Objects
100
AcDbLine
 10
0.327
 20
-0.013
 30
0.0
 11
0.343
 21
-0.013
 31
0.0
  0
LINE
  5
3B75
330
2
100
AcDbEntity
  8
Objects
100
AcDbLine
 10
0.327
 20
-0.053
 30
0.0
 11
0.343
 21
-0.053
 31
0.0
  0
LINE
  5
3B76
330
2
100
AcDbEntity
  8
Objects
100
AcDbLine
 10
0.327
 20
-0.053
 30
0.0
 11
0.327
 21
-0.013
 31
0.0
  0
LINE
  5
3B77
330
2
100
AcDbEntity
  8
Objects
100
AcDbLine
 10
0.343
 20
-0.053
 30
0.0
 11
0.343
 21
-0.013
 31
0.0
  0
LINE
  5
3B78
330
2
100
AcDbEntity
  8
Objects
100
AcDbLine
 10
0.352
 20
-0.013
 30
0.0
 11
0.368
 21
-0.013
 31
0.0
  0
LINE
  5
3B79
330
2
100
AcDbEntity
  8
Objects
100
AcDbLine
 10
0.352
 20
-0.053
 30
0.0
 11
0.368
 21
-0.053
 31
0.0
  0
LINE
  5
3B7A
330
2
100
AcDbEntity
  8
Objects
100
AcDbLine
 10
0.352
 20
-0.053
 30
0.0
 11
0.352
 21
-0.013
 31
0.0
  0
LINE
  5
3B7B
330
2
100
AcDbEntity
  8
Objects
100
AcDbLine
 10
0.368
 20
-0.053
 30
0.0
 11
0.368
 21
-0.013
 31
0.0
  0
LINE
  5
3B7C
330
2
100
AcDbEntity
  8
Objects
100
AcDbLine
 10
0.377
 20
-0.013
 30
0.0
 11
0.393
 21
-0.013
 31
0.0
  0
LINE
  5
3B7D
330
2
100
AcDbEntity
  8
Objects
100
AcDbLine
 10
0.377
 20
-0.053
 30
0.0
 11
0.393
 21
-0.053
 31
0.0
  0
LINE
  5
3B7E
330
2
100
AcDbEntity
  8
Objects
100
AcDbLine
 10
0.377
 20
-0.053
 30
0.0
 11
0.377
 21
-0.013
 31
0.0
  0
LINE
  5
3B7F
330
2
100
AcDbEntity
  8
Objects
100
AcDbLine
 10
0.393
 20
-0.053
 30
0.0
 11
0.393
 21
-0.013
 31
0.0
  0
LINE
  5
3B80
330
2
100
AcDbEntity
  8
Objects
100
AcDbLine
 10
0.402
 20
-0.013
 30
0.0
 11
0.418
 21
-0.013
 31
0.0
  0
LINE
  5
3B81
330
2
100
AcDbEntity
  8
Objects
100
AcDbLine
 10
0.402
 20
-0.053
 30
0.0
 11
0.418
 21
-0.053
 31
0.0
  0
LINE
  5
3B82
330
2
100
AcDbEntity
  8
Objects
100
AcDbLine
 10
0.402
 20
-0.053
 30
0.0
 11
0.402
 21
-0.013
 31
0.0
  0
LINE
  5
3B83
330
2
100
AcDbEntity
  8
Objects
100
AcDbLine
 10
0.418
 20
-0.053
 30
0.0
 11
0.418
 21
-0.013
 31
0.0
  0
LINE
  5
3B84
330
2
100
AcDbEntity
  8
Objects
100
AcDbLine
 10
0.602
 20
-0.013
 30
0.0
 11
0.618
 21
-0.013
 31
0.0
  0
LINE
  5
3B85
330
2
100
AcDbEntity
  8
Objects
100
AcDbLine
 10
0.602
 20
-0.053
 30
0.0
 11
0.618
 21
-0.053
 31
0.0
  0
LINE
  5
3B86
330
2
100
AcDbEntity
  8
Objects
100
AcDbLine
 10
0.602
 20
-0.053
 30
0.0
 11
0.602
 21
-0.013
 31
0.0
  0
LINE
  5
3B87
330
2
100
AcDbEntity
  8
Objects
100
AcDbLine
 10
0.618
 20
-0.053
 30
0.0
 11
0.618
 21
-0.013
 31
0.0
  0
LINE
  5
3B88
330
2
100
AcDbEntity
  8
Objects
100
AcDbLine
 10
0.627
 20
-0.013
 30
0.0
 11
0.643
 21
-0.013
 31
0.0
  0
LINE
  5
3B89
330
2
100
AcDbEntity
  8
Objects
100
AcDbLine
 10
0.627
 20
-0.053
 30
0.0
 11
0.643
 21
-0.053
 31
0.0
  0
LINE
  5
3B8A
330
2
100
AcDbEntity
  8
Objects
100
AcDbLine
 10
0.627
 20
-0.053
 30
0.0
 11
0.627
 21
-0.013
 31
0.0
  0
LINE
  5
3B8B
330
2
100
AcDbEntity
  8
Objects
100
AcDbLine
 10
0.643
 20
-0.053
 30
0.0
 11
0.643
 21
-0.013
 31
0.0
  0
LINE
  5
3B8C
330
2
100
AcDbEntity
  8
Objects
100
AcDbLine
 10
0.652
 20
-0.013
 30
0.0
 11
0.668
 21
-0.013
 31
0.0
  0
LINE
  5
3B8D
330
2
100
AcDbEntity
  8
Objects
100
AcDbLine
 10
0.652
 20
-0.053
 30
0.0
 11
0.668
 21
-0.053
 31
0.0
  0
LINE
  5
3B8E
330
2
100
AcDbEntity
  8
Objects
100
AcDbLine
 10
0.652
 20
-0.053
 30
0.0
 11
0.652
 21
-0.013
 31
0.0
  0
LINE
  5
3B8F
330
2
100
AcDbEntity
  8
Objects
100
AcDbLine
 10
0.668
 20
-0.053
 30
0.0
 11
0.668
 21
-0.013
 31
0.0
  0
LINE
  5
3B91
330
2
100
AcDbEntity
  8
Objects
100
AcDbLine
 10
0.677
 20
-0.013
 30
0.0
 11
0.693
 21
-0.013
 31
0.0
  0
LINE
  5
3B92
330
2
100
AcDbEntity
  8
Objects
100
AcDbLine
 10
0.677
 20
-0.053
 30
0.0
 11
0.693
 21
-0.053
 31
0.0
  0
LINE
  5
3B93
330
2
100
AcDbEntity
  8
Objects
100
AcDbLine
 10
0.677
 20
-0.053
 30
0.0
 11
0.677
 21
-0.013
 31
0.0
  0
LINE
  5
3B94
330
2
100
AcDbEntity
  8
Objects
100
AcDbLine
 10
0.693
 20
-0.053
 30
0.0
 11
0.693
 21
-0.013
 31
0.0
  0
LINE
  5
3B95
330
2
100
AcDbEntity
  8
Objects
100
AcDbLine
 10
0.702
 20
-0.013
 30
0.0
 11
0.718
 21
-0.013
 31
0.0
  0
LINE
  5
3B96
330
2
100
AcDbEntity
  8
Objects
100
AcDbLine
 10
0.702
 20
-0.053
 30
0.0
 11
0.718
 21
-0.053
 31
0.0
  0
LINE
  5
3B97
330
2
100
AcDbEntity
  8
Objects
100
AcDbLine
 10
0.702
 20
-0.053
 30
0.0
 11
0.702
 21
-0.013
 31
0.0
  0
LINE
  5
3B98
330
2
100
AcDbEntity
  8
Objects
100
AcDbLine
 10
0.718
 20
-0.053
 30
0.0
 11
0.718
 21
-0.013
 31
0.0
  0
LINE
  5
3B99
330
2
100
AcDbEntity
  8
Objects
100
AcDbLine
 10
0.727
 20
-0.013
 30
0.0
 11
0.743
 21
-0.013
 31
0.0
  0
LINE
  5
3B9A
330
2
100
AcDbEntity
  8
Objects
100
AcDbLine
 10
0.727
 20
-0.053
 30
0.0
 11
0.743
 21
-0.053
 31
0.0
  0
LINE
  5
3B9B
330
2
100
AcDbEntity
  8
Objects
100
AcDbLine
 10
0.727
 20
-0.053
 30
0.0
 11
0.727
 21
-0.013
 31
0.0
  0
LINE
  5
3B9C
330
2
100
AcDbEntity
  8
Objects
100
AcDbLine
 10
0.743
 20
-0.053
 30
0.0
 11
0.743
 21
-0.013
 31
0.0
  0
LINE
  5
3B9D
330
2
100
AcDbEntity
  8
Objects
100
AcDbLine
 10
0.752
 20
-0.013
 30
0.0
 11
0.768
 21
-0.013
 31
0.0
  0
LINE
  5
3B9E
330
2
100
AcDbEntity
  8
Objects
100
AcDbLine
 10
0.752
 20
-0.053
 30
0.0
 11
0.768
 21
-0.053
 31
0.0
  0
LINE
  5
3B9F
330
2
100
AcDbEntity
  8
Objects
100
AcDbLine
 10
0.752
 20
-0.053
 30
0.0
 11
0.752
 21
-0.013
 31
0.0
  0
LINE
  5
3BA0
330
2
100
AcDbEntity
  8
Objects
100
AcDbLine
 10
0.768
 20
-0.053
 30
0.0
 11
0.768
 21
-0.013
 31
0.0
  0
LINE
  5
3BA5
330
2
100
AcDbEntity
  8
Objects
100
AcDbLine
 10
0.7770000000000001
 20
-0.013
 30
0.0
 11
0.7930000000000001
 21
-0.013
 31
0.0
  0
LINE
  5
3BA6
330
2
100
AcDbEntity
  8
Objects
100
AcDbLine
 10
0.7770000000000001
 20
-0.053
 30
0.0
 11
0.7930000000000001
 21
-0.053
 31
0.0
  0
LINE
  5
3BA7
330
2
100
AcDbEntity
  8
Objects
100
AcDbLine
 10
0.7770000000000001
 20
-0.053
 30
0.0
 11
0.7770000000000001
 21
-0.013
 31
0.0
  0
LINE
  5
3BA8
330
2
100
AcDbEntity
  8
Objects
100
AcDbLine
 10
0.7930000000000001
 20
-0.053
 30
0.0
 11
0.7930000000000001
 21
-0.013
 31
0.0
  0
LINE
  5
3BA9
330
2
100
AcDbEntity
  8
Objects
100
AcDbLine
 10
0.8019999999999999
 20
-0.013
 30
0.0
 11
0.8179999999999999
 21
-0.013
 31
0.0
  0
LINE
  5
3BAA
330
2
100
AcDbEntity
  8
Objects
100
AcDbLine
 10
0.8019999999999999
 20
-0.053
 30
0.0
 11
0.8179999999999999
 21
-0.053
 31
0.0
  0
LINE
  5
3BAB
330
2
100
AcDbEntity
  8
Objects
100
AcDbLine
 10
0.8019999999999999
 20
-0.053
 30
0.0
 11
0.8019999999999999
 21
-0.013
 31
0.0
  0
LINE
  5
3BAC
330
2
100
AcDbEntity
  8
Objects
100
AcDbLine
 10
0.8179999999999999
 20
-0.053
 30
0.0
 11
0.8179999999999999
 21
-0.013
 31
0.0
  0
LINE
  5
3BAD
330
2
100
AcDbEntity
  8
Objects
100
AcDbLine
 10
0.8269999999999999
 20
-0.013
 30
0.0
 11
0.8429999999999999
 21
-0.013
 31
0.0
  0
LINE
  5
3BAE
330
2
100
AcDbEntity
  8
Objects
100
AcDbLine
 10
0.8269999999999999
 20
-0.053
 30
0.0
 11
0.8429999999999999
 21
-0.053
 31
0.0
  0
LINE
  5
3BAF
330
2
100
AcDbEntity
  8
Objects
100
AcDbLine
 10
0.8269999999999999
 20
-0.053
 30
0.0
 11
0.8269999999999999
 21
-0.013
 31
0.0
  0
LINE
  5
3BB0
330
2
100
AcDbEntity
  8
Objects
100
AcDbLine
 10
0.8429999999999999
 20
-0.053
 30
0.0
 11
0.8429999999999999
 21
-0.013
 31
0.0
  0
LINE
  5
3BB1
330
2
100
AcDbEntity
  8
Objects
100
AcDbLine
 10
0.8519999999999999
 20
-0.013
 30
0.0
 11
0.8679999999999999
 21
-0.013
 31
0.0
  0
LINE
  5
3BB2
330
2
100
AcDbEntity
  8
Objects
100
AcDbLine
 10
0.8519999999999999
 20
-0.053
 30
0.0
 11
0.8679999999999999
 21
-0.053
 31
0.0
  0
LINE
  5
3BB3
330
2
100
AcDbEntity
  8
Objects
100
AcDbLine
 10
0.8519999999999999
 20
-0.053
 30
0.0
 11
0.8519999999999999
 21
-0.013
 31
0.0
  0
LINE
  5
3BB4
330
2
100
AcDbEntity
  8
Objects
100
AcDbLine
 10
0.8679999999999999
 20
-0.053
 30
0.0
 11
0.8679999999999999
 21
-0.013
 31
0.0
  0
LINE
  5
3BB9
330
2
100
AcDbEntity
  8
Objects
100
AcDbLine
 10
0.8769999999999999
 20
-0.013
 30
0.0
 11
0.8929999999999999
 21
-0.013
 31
0.0
  0
LINE
  5
3BBA
330
2
100
AcDbEntity
  8
Objects
100
AcDbLine
 10
0.8769999999999999
 20
-0.053
 30
0.0
 11
0.8929999999999999
 21
-0.053
 31
0.0
  0
LINE
  5
3BBB
330
2
100
AcDbEntity
  8
Objects
100
AcDbLine
 10
0.8769999999999999
 20
-0.053
 30
0.0
 11
0.8769999999999999
 21
-0.013
 31
0.0
  0
LINE
  5
3BBC
330
2
100
AcDbEntity
  8
Objects
100
AcDbLine
 10
0.8929999999999999
 20
-0.053
 30
0.0
 11
0.8929999999999999
 21
-0.013
 31
0.0
  0
LINE
  5
3BD2
330
2
100
AcDbEntity
  8
Objects
100
AcDbLine
 10
0.1895
 20
0.037
 30
0.0
 11
0.2055
 21
0.037
 31
0.0
  0
LINE
  5
3BD3
330
2
100
AcDbEntity
  8
Objects
100
AcDbLine
 10
0.1895
 20
-0.003
 30
0.0
 11
0.2055
 21
-0.003
 31
0.0
  0
LINE
  5
3BD4
330
2
100
AcDbEntity
  8
Objects
100
AcDbLine
 10
0.1895
 20
-0.003
 30
0.0
 11
0.1895
 21
0.037
 31
0.0
  0
LINE
  5
3BD5
330
2
100
AcDbEntity
  8
Objects
100
AcDbLine
 10
0.2055
 20
-0.003
 30
0.0
 11
0.2055
 21
0.037
 31
0.0
  0
LINE
  5
3BD6
330
2
100
AcDbEntity
  8
Objects
100
AcDbLine
 10
0.2145
 20
0.037
 30
0.0
 11
0.2305
 21
0.037
 31
0.0
  0
LINE
  5
3BD7
330
2
100
AcDbEntity
  8
Objects
100
AcDbLine
 10
0.2145
 20
-0.003
 30
0.0
 11
0.2305
 21
-0.003
 31
0.0
  0
LINE
  5
3BD8
330
2
100
AcDbEntity
  8
Objects
100
AcDbLine
 10
0.2145
 20
-0.003
 30
0.0
 11
0.2145
 21
0.037
 31
0.0
  0
LINE
  5
3BD9
330
2
100
AcDbEntity
  8
Objects
100
AcDbLine
 10
0.2305
 20
-0.003
 30
0.0
 11
0.2305
 21
0.037
 31
0.0
  0
LINE
  5
3BDC
330
2
100
AcDbEntity
  8
Objects
100
AcDbLine
 10
0.2395
 20
0.037
 30
0.0
 11
0.2555000000000001
 21
0.037
 31
0.0
  0
LINE
  5
3BDD
330
2
100
AcDbEntity
  8
Objects
100
AcDbLine
 10
0.2395
 20
-0.003
 30
0.0
 11
0.2555000000000001
 21
-0.003
 31
0.0
  0
LINE
  5
3BDE
330
2
100
AcDbEntity
  8
Objects
100
AcDbLine
 10
0.2395
 20
-0.003
 30
0.0
 11
0.2395
 21
0.037
 31
0.0
  0
LINE
  5
3BDF
330
2
100
AcDbEntity
  8
Objects
100
AcDbLine
 10
0.2555000000000001
 20
-0.003
 30
0.0
 11
0.2555000000000001
 21
0.037
 31
0.0
  0
LINE
  5
3BE0
330
2
100
AcDbEntity
  8
Objects
100
AcDbLine
 10
0.2645
 20
0.037
 30
0.0
 11
0.2805
 21
0.037
 31
0.0
  0
LINE
  5
3BE1
330
2
100
AcDbEntity
  8
Objects
100
AcDbLine
 10
0.2645
 20
-0.003
 30
0.0
 11
0.2805
 21
-0.003
 31
0.0
  0
LINE
  5
3BE2
330
2
100
AcDbEntity
  8
Objects
100
AcDbLine
 10
0.2645
 20
-0.003
 30
0.0
 11
0.2645
 21
0.037
 31
0.0
  0
LINE
  5
3BE3
330
2
100
AcDbEntity
  8
Objects
100
AcDbLine
 10
0.2805
 20
-0.003
 30
0.0
 11
0.2805
 21
0.037
 31
0.0
  0
LINE
  5
3BE6
330
2
100
AcDbEntity
  8
Objects
100
AcDbLine
 10
0.2894999999999999
 20
0.037
 30
0.0
 11
0.3055
 21
0.037
 31
0.0
  0
LINE
  5
3BE7
330
2
100
AcDbEntity
  8
Objects
100
AcDbLine
 10
0.2894999999999999
 20
-0.003
 30
0.0
 11
0.3055
 21
-0.003
 31
0.0
  0
LINE
  5
3BE8
330
2
100
AcDbEntity
  8
Objects
100
AcDbLine
 10
0.2894999999999999
 20
-0.003
 30
0.0
 11
0.2894999999999999
 21
0.037
 31
0.0
  0
LINE
  5
3BE9
330
2
100
AcDbEntity
  8
Objects
100
AcDbLine
 10
0.3055
 20
-0.003
 30
0.0
 11
0.3055
 21
0.037
 31
0.0
  0
LINE
  5
3BEA
330
2
100
AcDbEntity
  8
Objects
100
AcDbLine
 10
0.3144999999999999
 20
0.037
 30
0.0
 11
0.3304999999999999
 21
0.037
 31
0.0
  0
LINE
  5
3BEB
330
2
100
AcDbEntity
  8
Objects
100
AcDbLine
 10
0.3144999999999999
 20
-0.003
 30
0.0
 11
0.3304999999999999
 21
-0.003
 31
0.0
  0
LINE
  5
3BEC
330
2
100
AcDbEntity
  8
Objects
100
AcDbLine
 10
0.3144999999999999
 20
-0.003
 30
0.0
 11
0.3144999999999999
 21
0.037
 31
0.0
  0
LINE
  5
3BED
330
2
100
AcDbEntity
  8
Objects
100
AcDbLine
 10
0.3304999999999999
 20
-0.003
 30
0.0
 11
0.3304999999999999
 21
0.037
 31
0.0
  0
LINE
  5
3BF0
330
2
100
AcDbEntity
  8
Objects
100
AcDbLine
 10
0.3395
 20
0.037
 30
0.0
 11
0.3555000000000001
 21
0.037
 31
0.0
  0
LINE
  5
3BF1
330
2
100
AcDbEntity
  8
Objects
100
AcDbLine
 10
0.3395
 20
-0.003
 30
0.0
 11
0.3555000000000001
 21
-0.003
 31
0.0
  0
LINE
  5
3BF2
330
2
100
AcDbEntity
  8
Objects
100
AcDbLine
 10
0.3395
 20
-0.003
 30
0.0
 11
0.3395
 21
0.037
 31
0.0
  0
LINE
  5
3BF3
330
2
100
AcDbEntity
  8
Objects
100
AcDbLine
 10
0.3555000000000001
 20
-0.003
 30
0.0
 11
0.3555000000000001
 21
0.037
 31
0.0
  0
LINE
  5
3BF4
330
2
100
AcDbEntity
  8
Objects
100
AcDbLine
 10
0.3645
 20
0.037
 30
0.0
 11
0.3805
 21
0.037
 31
0.0
  0
LINE
  5
3BF5
330
2
100
AcDbEntity
  8
Objects
100
AcDbLine
 10
0.3645
 20
-0.003
 30
0.0
 11
0.3805
 21
-0.003
 31
0.0
  0
LINE
  5
3BF6
330
2
100
AcDbEntity
  8
Objects
100
AcDbLine
 10
0.3645
 20
-0.003
 30
0.0
 11
0.3645
 21
0.037
 31
0.0
  0
LINE
  5
3BF7
330
2
100
AcDbEntity
  8
Objects
100
AcDbLine
 10
0.3805
 20
-0.003
 30
0.0
 11
0.3805
 21
0.037
 31
0.0
  0
LINE
  5
3BFA
330
2
100
AcDbEntity
  8
Objects
100
AcDbLine
 10
0.3894999999999999
 20
0.037
 30
0.0
 11
0.4054999999999999
 21
0.037
 31
0.0
  0
LINE
  5
3BFB
330
2
100
AcDbEntity
  8
Objects
100
AcDbLine
 10
0.3894999999999999
 20
-0.003
 30
0.0
 11
0.4054999999999999
 21
-0.003
 31
0.0
  0
LINE
  5
3BFC
330
2
100
AcDbEntity
  8
Objects
100
AcDbLine
 10
0.3894999999999999
 20
-0.003
 30
0.0
 11
0.3894999999999999
 21
0.037
 31
0.0
  0
LINE
  5
3BFD
330
2
100
AcDbEntity
  8
Objects
100
AcDbLine
 10
0.4054999999999999
 20
-0.003
 30
0.0
 11
0.4054999999999999
 21
0.037
 31
0.0
  0
LINE
  5
3BFF
330
2
100
AcDbEntity
  8
Objects
100
AcDbLine
 10
0.4145
 20
0.037
 30
0.0
 11
0.4305
 21
0.037
 31
0.0
  0
LINE
  5
3C00
330
2
100
AcDbEntity
  8
Objects
100
AcDbLine
 10
0.4145
 20
-0.003
 30
0.0
 11
0.4305
 21
-0.003
 31
0.0
  0
LINE
  5
3C01
330
2
100
AcDbEntity
  8
Objects
100
AcDbLine
 10
0.4145
 20
-0.003
 30
0.0
 11
0.4145
 21
0.037
 31
0.0
  0
LINE
  5
3C02
330
2
100
AcDbEntity
  8
Objects
100
AcDbLine
 10
0.4305
 20
-0.003
 30
0.0
 11
0.4305
 21
0.037
 31
0.0
  0
LINE
  5
3C04
330
2
100
AcDbEntity
  8
Objects
100
AcDbLine
 10
0.6145000000000001
 20
0.037
 30
0.0
 11
0.6305000000000001
 21
0.037
 31
0.0
  0
LINE
  5
3C05
330
2
100
AcDbEntity
  8
Objects
100
AcDbLine
 10
0.6145000000000001
 20
-0.003
 30
0.0
 11
0.6305000000000001
 21
-0.003
 31
0.0
  0
LINE
  5
3C06
330
2
100
AcDbEntity
  8
Objects
100
AcDbLine
 10
0.6145000000000001
 20
-0.003
 30
0.0
 11
0.6145000000000001
 21
0.037
 31
0.0
  0
LINE
  5
3C07
330
2
100
AcDbEntity
  8
Objects
100
AcDbLine
 10
0.6305000000000001
 20
-0.003
 30
0.0
 11
0.6305000000000001
 21
0.037
 31
0.0
  0
LINE
  5
3C09
330
2
100
AcDbEntity
  8
Objects
100
AcDbLine
 10
0.6395
 20
0.037
 30
0.0
 11
0.6555
 21
0.037
 31
0.0
  0
LINE
  5
3C0A
330
2
100
AcDbEntity
  8
Objects
100
AcDbLine
 10
0.6395
 20
-0.003
 30
0.0
 11
0.6555
 21
-0.003
 31
0.0
  0
LINE
  5
3C0B
330
2
100
AcDbEntity
  8
Objects
100
AcDbLine
 10
0.6395
 20
-0.003
 30
0.0
 11
0.6395
 21
0.037
 31
0.0
  0
LINE
  5
3C0C
330
2
100
AcDbEntity
  8
Objects
100
AcDbLine
 10
0.6555
 20
-0.003
 30
0.0
 11
0.6555
 21
0.037
 31
0.0
  0
LINE
  5
3C0E
330
2
100
AcDbEntity
  8
Objects
100
AcDbLine
 10
0.6644999999999999
 20
0.037
 30
0.0
 11
0.6804999999999999
 21
0.037
 31
0.0
  0
LINE
  5
3C0F
330
2
100
AcDbEntity
  8
Objects
100
AcDbLine
 10
0.6644999999999999
 20
-0.003
 30
0.0
 11
0.6804999999999999
 21
-0.003
 31
0.0
  0
LINE
  5
3C10
330
2
100
AcDbEntity
  8
Objects
100
AcDbLine
 10
0.6644999999999999
 20
-0.003
 30
0.0
 11
0.6644999999999999
 21
0.037
 31
0.0
  0
LINE
  5
3C11
330
2
100
AcDbEntity
  8
Objects
100
AcDbLine
 10
0.6804999999999999
 20
-0.003
 30
0.0
 11
0.6804999999999999
 21
0.037
 31
0.0
  0
LINE
  5
3C13
330
2
100
AcDbEntity
  8
Objects
100
AcDbLine
 10
0.6895
 20
0.037
 30
0.0
 11
0.7055
 21
0.037
 31
0.0
  0
LINE
  5
3C14
330
2
100
AcDbEntity
  8
Objects
100
AcDbLine
 10
0.6895
 20
-0.003
 30
0.0
 11
0.7055
 21
-0.003
 31
0.0
  0
LINE
  5
3C15
330
2
100
AcDbEntity
  8
Objects
100
AcDbLine
 10
0.6895
 20
-0.003
 30
0.0
 11
0.6895
 21
0.037
 31
0.0
  0
LINE
  5
3C16
330
2
100
AcDbEntity
  8
Objects
100
AcDbLine
 10
0.7055
 20
-0.003
 30
0.0
 11
0.7055
 21
0.037
 31
0.0
  0
LINE
  5
3C18
330
2
100
AcDbEntity
  8
Objects
100
AcDbLine
 10
0.7145
 20
0.037
 30
0.0
 11
0.7305
 21
0.037
 31
0.0
  0
LINE
  5
3C19
330
2
100
AcDbEntity
  8
Objects
100
AcDbLine
 10
0.7145
 20
-0.003
 30
0.0
 11
0.7305
 21
-0.003
 31
0.0
  0
LINE
  5
3C1A
330
2
100
AcDbEntity
  8
Objects
100
AcDbLine
 10
0.7145
 20
-0.003
 30
0.0
 11
0.7145
 21
0.037
 31
0.0
  0
LINE
  5
3C1B
330
2
100
AcDbEntity
  8
Objects
100
AcDbLine
 10
0.7305
 20
-0.003
 30
0.0
 11
0.7305
 21
0.037
 31
0.0
  0
LINE
  5
3C1D
330
2
100
AcDbEntity
  8
Objects
100
AcDbLine
 10
0.7395000000000001
 20
0.037
 30
0.0
 11
0.7555000000000001
 21
0.037
 31
0.0
  0
LINE
  5
3C1E
330
2
100
AcDbEntity
  8
Objects
100
AcDbLine
 10
0.7395000000000001
 20
-0.003
 30
0.0
 11
0.7555000000000001
 21
-0.003
 31
0.0
  0
LINE
  5
3C1F
330
2
100
AcDbEntity
  8
Objects
100
AcDbLine
 10
0.7395000000000001
 20
-0.003
 30
0.0
 11
0.7395000000000001
 21
0.037
 31
0.0
  0
LINE
  5
3C20
330
2
100
AcDbEntity
  8
Objects
100
AcDbLine
 10
0.7555000000000001
 20
-0.003
 30
0.0
 11
0.7555000000000001
 21
0.037
 31
0.0
  0
LINE
  5
3C22
330
2
100
AcDbEntity
  8
Objects
100
AcDbLine
 10
0.7645
 20
0.037
 30
0.0
 11
0.7805
 21
0.037
 31
0.0
  0
LINE
  5
3C23
330
2
100
AcDbEntity
  8
Objects
100
AcDbLine
 10
0.7645
 20
-0.003
 30
0.0
 11
0.7805
 21
-0.003
 31
0.0
  0
LINE
  5
3C24
330
2
100
AcDbEntity
  8
Objects
100
AcDbLine
 10
0.7645
 20
-0.003
 30
0.0
 11
0.7645
 21
0.037
 31
0.0
  0
LINE
  5
3C25
330
2
100
AcDbEntity
  8
Objects
100
AcDbLine
 10
0.7805
 20
-0.003
 30
0.0
 11
0.7805
 21
0.037
 31
0.0
  0
LINE
  5
3C27
330
2
100
AcDbEntity
  8
Objects
100
AcDbLine
 10
0.7895000000000002
 20
0.037
 30
0.0
 11
0.8055000000000001
 21
0.037
 31
0.0
  0
LINE
  5
3C28
330
2
100
AcDbEntity
  8
Objects
100
AcDbLine
 10
0.7895000000000002
 20
-0.003
 30
0.0
 11
0.8055000000000001
 21
-0.003
 31
0.0
  0
LINE
  5
3C29
330
2
100
AcDbEntity
  8
Objects
100
AcDbLine
 10
0.7895000000000002
 20
-0.003
 30
0.0
 11
0.7895000000000002
 21
0.037
 31
0.0
  0
LINE
  5
3C2A
330
2
100
AcDbEntity
  8
Objects
100
AcDbLine
 10
0.8055000000000001
 20
-0.003
 30
0.0
 11
0.8055000000000001
 21
0.037
 31
0.0
  0
LINE
  5
3C2C
330
2
100
AcDbEntity
  8
Objects
100
AcDbLine
 10
0.8144999999999999
 20
0.037
 30
0.0
 11
0.8304999999999999
 21
0.037
 31
0.0
  0
LINE
  5
3C2D
330
2
100
AcDbEntity
  8
Objects
100
AcDbLine
 10
0.8144999999999999
 20
-0.003
 30
0.0
 11
0.8304999999999999
 21
-0.003
 31
0.0
  0
LINE
  5
3C2E
330
2
100
AcDbEntity
  8
Objects
100
AcDbLine
 10
0.8144999999999999
 20
-0.003
 30
0.0
 11
0.8144999999999999
 21
0.037
 31
0.0
  0
LINE
  5
3C2F
330
2
100
AcDbEntity
  8
Objects
100
AcDbLine
 10
0.8304999999999999
 20
-0.003
 30
0.0
 11
0.8304999999999999
 21
0.037
 31
0.0
  0
LINE
  5
3C31
330
2
100
AcDbEntity
  8
Objects
100
AcDbLine
 10
0.8394999999999999
 20
0.037
 30
0.0
 11
0.8554999999999999
 21
0.037
 31
0.0
  0
LINE
  5
3C32
330
2
100
AcDbEntity
  8
Objects
100
AcDbLine
 10
0.8394999999999999
 20
-0.003
 30
0.0
 11
0.8554999999999999
 21
-0.003
 31
0.0
  0
LINE
  5
3C33
330
2
100
AcDbEntity
  8
Objects
100
AcDbLine
 10
0.8394999999999999
 20
-0.003
 30
0.0
 11
0.8394999999999999
 21
0.037
 31
0.0
  0
LINE
  5
3C34
330
2
100
AcDbEntity
  8
Objects
100
AcDbLine
 10
0.8554999999999999
 20
-0.003
 30
0.0
 11
0.8554999999999999
 21
0.037
 31
0.0
  0
LINE
  5
3C36
330
2
100
AcDbEntity
  8
Objects
100
AcDbLine
 10
0.8644999999999999
 20
0.037
 30
0.0
 11
0.8804999999999999
 21
0.037
 31
0.0
  0
LINE
  5
3C37
330
2
100
AcDbEntity
  8
Objects
100
AcDbLine
 10
0.8644999999999999
 20
-0.003
 30
0.0
 11
0.8804999999999999
 21
-0.003
 31
0.0
  0
LINE
  5
3C38
330
2
100
AcDbEntity
  8
Objects
100
AcDbLine
 10
0.8644999999999999
 20
-0.003
 30
0.0
 11
0.8644999999999999
 21
0.037
 31
0.0
  0
LINE
  5
3C39
330
2
100
AcDbEntity
  8
Objects
100
AcDbLine
 10
0.8804999999999999
 20
-0.003
 30
0.0
 11
0.8804999999999999
 21
0.037
 31
0.0
  0
CIRCLE
  5
3C3B
330
2
100
AcDbEntity
  8
Objects
100
AcDbCircle
 10
0.0
 20
0.0
 30
0.0
 40
0.035
  0
CIRCLE
  5
3C3C
330
2
100
AcDbEntity
  8
Objects
100
AcDbCircle
 10
0.9700000000000002
 20
0.0
 30
0.0
 40
0.035
  0
DIMENSION
  5
3D39
330
2
100
AcDbEntity
  8
Dims
100
AcDbDimension
  2
*D5
 10
-0.1327153706595063
 20
0.0
 30
0.0
 11
-0.2433058468499825
 21
-0.04
 31
0.0
 70
    32
 71
     5
 42
0.0370000000000007
 73
     0
 74
     0
 75
     0
  3
Standard
100
AcDbAlignedDimension
 13
0.0895000000000002
 23
0.0370000000000007
 33
0.0
 14
0.0
 24
0.0
 34
0.0
 50
90.0
100
AcDbRotatedDimension
  0
DIMENSION
  5
3D3A
330
2
100
AcDbEntity
  8
Dims
100
AcDbDimension
  2
*D6
 10
-0.078019921235478
 20
-0.0129999999999996
 30
0.0
 11
-0.1886103974259541
 21
-0.0876110511963795
 31
0.0
 70
   160
 71
     5
 42
0.0129999999999997
 73
     0
 74
     0
 75
     0
  3
Standard
100
AcDbAlignedDimension
 13
0.0
 23
0.0
 33
0.0
 14
0.0770000000000004
 24
-0.0129999999999997
 34
0.0
 50
90.0
100
AcDbRotatedDimension
  0
DIMENSION
  5
3D3B
330
2
100
AcDbEntity
  8
Dims
100
AcDbDimension
  2
*D7
 10
1.053013583216424
 20
-0.0130000000000001
 30
0.0
 11
1.17312786893071
 21
0.0270000000000001
 31
0.0
 70
   160
 71
     5
 42
0.04
 73
     0
 74
     0
 75
     0
  3
Standard
100
AcDbAlignedDimension
 13
0.8929999999999999
 23
-0.0530000000000001
 33
0.0
 14
0.8929999999999976
 24
-0.0130000000000001
 34
0.0
 50
90.0
100
AcDbRotatedDimension
  0
LINE
  5
3FC5
330
2
100
AcDbEntity
  8
Objects
100
AcDbLine
 10
0.427
 20
-0.013
 30
0.0
 11
0.443
 21
-0.013
 31
0.0
  0
LINE
  5
3FC6
330
2
100
AcDbEntity
  8
Objects
100
AcDbLine
 10
0.427
 20
-0.053
 30
0.0
 11
0.443
 21
-0.053
 31
0.0
  0
LINE
  5
3FC7
330
2
100
AcDbEntity
  8
Objects
100
AcDbLine
 10
0.427
 20
-0.053
 30
0.0
 11
0.427
 21
-0.013
 31
0.0
  0
LINE
  5
3FC8
330
2
100
AcDbEntity
  8
Objects
100
AcDbLine
 10
0.443
 20
-0.053
 30
0.0
 11
0.443
 21
-0.013
 31
0.0
  0
LINE
  5
3FC9
330
2
100
AcDbEntity
  8
Objects
100
AcDbLine
 10
0.4395
 20
0.037
 30
0.0
 11
0.4555
 21
0.037
 31
0.0
  0
LINE
  5
3FCA
330
2
100
AcDbEntity
  8
Objects
100
AcDbLine
 10
0.4395
 20
-0.003
 30
0.0
 11
0.4555
 21
-0.003
 31
0.0
  0
LINE
  5
3FCB
330
2
100
AcDbEntity
  8
Objects
100
AcDbLine
 10
0.4395
 20
-0.003
 30
0.0
 11
0.4395
 21
0.037
 31
0.0
  0
LINE
  5
3FCC
330
2
100
AcDbEntity
  8
Objects
100
AcDbLine
 10
0.4555
 20
-0.003
 30
0.0
 11
0.4555
 21
0.037
 31
0.0
  0
LINE
  5
3FCD
330
2
100
AcDbEntity
  8
Objects
100
AcDbLine
 10
0.4519999999999999
 20
-0.013
 30
0.0
 11
0.4679999999999999
 21
-0.013
 31
0.0
  0
LINE
  5
3FCE
330
2
100
AcDbEntity
  8
Objects
100
AcDbLine
 10
0.4519999999999999
 20
-0.053
 30
0.0
 11
0.4679999999999999
 21
-0.053
 31
0.0
  0
LINE
  5
3FCF
330
2
100
AcDbEntity
  8
Objects
100
AcDbLine
 10
0.4519999999999999
 20
-0.053
 30
0.0
 11
0.4519999999999999
 21
-0.013
 31
0.0
  0
LINE
  5
3FD0
330
2
100
AcDbEntity
  8
Objects
100
AcDbLine
 10
0.4679999999999999
 20
-0.053
 30
0.0
 11
0.4679999999999999
 21
-0.013
 31
0.0
  0
LINE
  5
3FD1
330
2
100
AcDbEntity
  8
Objects
100
AcDbLine
 10
0.4645
 20
0.037
 30
0.0
 11
0.4805
 21
0.037
 31
0.0
  0
LINE
  5
3FD2
330
2
100
AcDbEntity
  8
Objects
100
AcDbLine
 10
0.4645
 20
-0.003
 30
0.0
 11
0.4805
 21
-0.003
 31
0.0
  0
LINE
  5
3FD3
330
2
100
AcDbEntity
  8
Objects
100
AcDbLine
 10
0.4645
 20
-0.003
 30
0.0
 11
0.4645
 21
0.037
 31
0.0
  0
LINE
  5
3FD4
330
2
100
AcDbEntity
  8
Objects
100
AcDbLine
 10
0.4805
 20
-0.003
 30
0.0
 11
0.4805
 21
0.037
 31
0.0
  0
LINE
  5
3FD5
330
2
100
AcDbEntity
  8
Objects
100
AcDbLine
 10
0.477
 20
-0.013
 30
0.0
 11
0.493
 21
-0.013
 31
0.0
  0
LINE
  5
3FD6
330
2
100
AcDbEntity
  8
Objects
100
AcDbLine
 10
0.477
 20
-0.053
 30
0.0
 11
0.493
 21
-0.053
 31
0.0
  0
LINE
  5
3FD7
330
2
100
AcDbEntity
  8
Objects
100
AcDbLine
 10
0.477
 20
-0.053
 30
0.0
 11
0.477
 21
-0.013
 31
0.0
  0
LINE
  5
3FD8
330
2
100
AcDbEntity
  8
Objects
100
AcDbLine
 10
0.493
 20
-0.053
 30
0.0
 11
0.493
 21
-0.013
 31
0.0
  0
LINE
  5
3FD9
330
2
100
AcDbEntity
  8
Objects
100
AcDbLine
 10
0.4895
 20
0.037
 30
0.0
 11
0.5055
 21
0.037
 31
0.0
  0
LINE
  5
3FDA
330
2
100
AcDbEntity
  8
Objects
100
AcDbLine
 10
0.4895
 20
-0.003
 30
0.0
 11
0.5055
 21
-0.003
 31
0.0
  0
LINE
  5
3FDB
330
2
100
AcDbEntity
  8
Objects
100
AcDbLine
 10
0.4895
 20
-0.003
 30
0.0
 11
0.4895
 21
0.037
 31
0.0
  0
LINE
  5
3FDC
330
2
100
AcDbEntity
  8
Objects
100
AcDbLine
 10
0.5055
 20
-0.003
 30
0.0
 11
0.5055
 21
0.037
 31
0.0
  0
LINE
  5
3FDD
330
2
100
AcDbEntity
  8
Objects
100
AcDbLine
 10
0.5019999999999999
 20
-0.013
 30
0.0
 11
0.5179999999999999
 21
-0.013
 31
0.0
  0
LINE
  5
3FDE
330
2
100
AcDbEntity
  8
Objects
100
AcDbLine
 10
0.5019999999999999
 20
-0.053
 30
0.0
 11
0.5179999999999999
 21
-0.053
 31
0.0
  0
LINE
  5
3FDF
330
2
100
AcDbEntity
  8
Objects
100
AcDbLine
 10
0.5019999999999999
 20
-0.053
 30
0.0
 11
0.5019999999999999
 21
-0.013
 31
0.0
  0
LINE
  5
3FE0
330
2
100
AcDbEntity
  8
Objects
100
AcDbLine
 10
0.5179999999999999
 20
-0.053
 30
0.0
 11
0.5179999999999999
 21
-0.013
 31
0.0
  0
LINE
  5
3FE1
330
2
100
AcDbEntity
  8
Objects
100
AcDbLine
 10
0.5145
 20
0.037
 30
0.0
 11
0.5305
 21
0.037
 31
0.0
  0
LINE
  5
3FE2
330
2
100
AcDbEntity
  8
Objects
100
AcDbLine
 10
0.5145
 20
-0.003
 30
0.0
 11
0.5305
 21
-0.003
 31
0.0
  0
LINE
  5
3FE3
330
2
100
AcDbEntity
  8
Objects
100
AcDbLine
 10
0.5145
 20
-0.003
 30
0.0
 11
0.5145
 21
0.037
 31
0.0
  0
LINE
  5
3FE4
330
2
100
AcDbEntity
  8
Objects
100
AcDbLine
 10
0.5305
 20
-0.003
 30
0.0
 11
0.5305
 21
0.037
 31
0.0
  0
LINE
  5
3FE5
330
2
100
AcDbEntity
  8
Objects
100
AcDbLine
 10
0.527
 20
-0.013
 30
0.0
 11
0.543
 21
-0.013
 31
0.0
  0
LINE
  5
3FE6
330
2
100
AcDbEntity
  8
Objects
100
AcDbLine
 10
0.527
 20
-0.053
 30
0.0
 11
0.543
 21
-0.053
 31
0.0
  0
LINE
  5
3FE7
330
2
100
AcDbEntity
  8
Objects
100
AcDbLine
 10
0.527
 20
-0.053
 30
0.0
 11
0.527
 21
-0.013
 31
0.0
  0
LINE
  5
3FE8
330
2
100
AcDbEntity
  8
Objects
100
AcDbLine
 10
0.543
 20
-0.053
 30
0.0
 11
0.543
 21
-0.013
 31
0.0
  0
LINE
  5
3FE9
330
2
100
AcDbEntity
  8
Objects
100
AcDbLine
 10
0.5394999999999999
 20
0.037
 30
0.0
 11
0.5554999999999999
 21
0.037
 31
0.0
  0
LINE
  5
3FEA
330
2
100
AcDbEntity
  8
Objects
100
AcDbLine
 10
0.5394999999999999
 20
-0.003
 30
0.0
 11
0.5554999999999999
 21
-0.003
 31
0.0
  0
LINE
  5
3FEB
330
2
100
AcDbEntity
  8
Objects
100
AcDbLine
 10
0.5394999999999999
 20
-0.003
 30
0.0
 11
0.5394999999999999
 21
0.037
 31
0.0
  0
LINE
  5
3FEC
330
2
100
AcDbEntity
  8
Objects
100
AcDbLine
 10
0.5554999999999999
 20
-0.003
 30
0.0
 11
0.5554999999999999
 21
0.037
 31
0.0
  0
LINE
  5
3FED
330
2
100
AcDbEntity
  8
Objects
100
AcDbLine
 10
0.552
 20
-0.013
 30
0.0
 11
0.568
 21
-0.013
 31
0.0
  0
LINE
  5
3FEE
330
2
100
AcDbEntity
  8
Objects
100
AcDbLine
 10
0.552
 20
-0.053
 30
0.0
 11
0.568
 21
-0.053
 31
0.0
  0
LINE
  5
3FEF
330
2
100
AcDbEntity
  8
Objects
100
AcDbLine
 10
0.552
 20
-0.053
 30
0.0
 11
0.552
 21
-0.013
 31
0.0
  0
LINE
  5
3FF0
330
2
100
AcDbEntity
  8
Objects
100
AcDbLine
 10
0.568
 20
-0.053
 30
0.0
 11
0.568
 21
-0.013
 31
0.0
  0
LINE
  5
3FF1
330
2
100
AcDbEntity
  8
Objects
100
AcDbLine
 10
0.5645
 20
0.037
 30
0.0
 11
0.5805
 21
0.037
 31
0.0
  0
LINE
  5
3FF2
330
2
100
AcDbEntity
  8
Objects
100
AcDbLine
 10
0.5645
 20
-0.003
 30
0.0
 11
0.5805
 21
-0.003
 31
0.0
  0
LINE
  5
3FF3
330
2
100
AcDbEntity
  8
Objects
100
AcDbLine
 10
0.5645
 20
-0.003
 30
0.0
 11
0.5645
 21
0.037
 31
0.0
  0
LINE
  5
3FF4
330
2
100
AcDbEntity
  8
Objects
100
AcDbLine
 10
0.5805
 20
-0.003
 30
0.0
 11
0.5805
 21
0.037
 31
0.0
  0
LINE
  5
3FF5
330
2
100
AcDbEntity
  8
Objects
100
AcDbLine
 10
0.577
 20
-0.013
 30
0.0
 11
0.593
 21
-0.013
 31
0.0
  0
LINE
  5
3FF6
330
2
100
AcDbEntity
  8
Objects
100
AcDbLine
 10
0.577
 20
-0.053
 30
0.0
 11
0.593
 21
-0.053
 31
0.0
  0
LINE
  5
3FF7
330
2
100
AcDbEntity
  8
Objects
100
AcDbLine
 10
0.577
 20
-0.053
 30
0.0
 11
0.577
 21
-0.013
 31
0.0
  0
LINE
  5
3FF8
330
2
100
AcDbEntity
  8
Objects
100
AcDbLine
 10
0.593
 20
-0.053
 30
0.0
 11
0.593
 21
-0.013
 31
0.0
  0
LINE
  5
3FF9
330
2
100
AcDbEntity
  8
Objects
100
AcDbLine
 10
0.5895
 20
0.037
 30
0.0
 11
0.6055
 21
0.037
 31
0.0
  0
LINE
  5
3FFA
330
2
100
AcDbEntity
  8
Objects
100
AcDbLine
 10
0.5895
 20
-0.003
 30
0.0
 11
0.6055
 21
-0.003
 31
0.0
  0
LINE
  5
3FFB
330
2
100
AcDbEntity
  8
Objects
100
AcDbLine
 10
0.5895
 20
-0.003
 30
0.0
 11
0.5895
 21
0.037
 31
0.0
  0
LINE
  5
3FFC
330
2
100
AcDbEntity
  8
Objects
100
AcDbLine
 10
0.6055
 20
-0.003
 30
0.0
 11
0.6055
 21
0.037
 31
0.0
  0
MTEXT
  5
421B
330
2
100
AcDbEntity
  8
Text
100
AcDbMText
 10
0.4349999999999998
 20
-0.033
 30
0.0
 40
0.0125
 41
0.1906080725599004
 46
0.0
 71
     5
 72
     5
  1
1\P9
 73
     1
 44
1.0
  0
MTEXT
  5
421C
330
2
100
AcDbEntity
  8
Text
100
AcDbMText
 10
0.46
 20
-0.033
 30
0.0
 40
0.0125
 41
0.1906080725599004
 46
0.0
 71
     5
 72
     5
  1
1\P8
 73
     1
 44
1.0
  0
MTEXT
  5
421D
330
2
100
AcDbEntity
  8
Text
100
AcDbMText
 10
0.4849999999999999
 20
-0.033
 30
0.0
 40
0.0125
 41
0.1906080725599004
 46
0.0
 71
     5
 72
     5
  1
1\P7
 73
     1
 44
1.0
  0
MTEXT
  5
421E
330
2
100
AcDbEntity
  8
Text
100
AcDbMText
 10
0.385
 20
-0.033
 30
0.0
 40
0.0125
 41
0.1906080725599004
 46
0.0
 71
     5
 72
     5
  1
2\P1
 73
     1
 44
1.0
  0
MTEXT
  5
421F
330
2
100
AcDbEntity
  8
Text
100
AcDbMText
 10
0.4100000000000004
 20
-0.033
 30
0.0
 40
0.0125
 41
0.1906080725599004
 46
0.0
 71
     5
 72
     5
  1
2\P0
 73
     1
 44
1.0
  0
MTEXT
  5
4220
330
2
100
AcDbEntity
  8
Text
100
AcDbMText
 10
0.3350000000000002
 20
-0.033
 30
0.0
 40
0.0125
 41
0.1906080725599004
 46
0.0
 71
     5
 72
     5
  1
2\P3
 73
     1
 44
1.0
  0
MTEXT
  5
4221
330
2
100
AcDbEntity
  8
Text
100
AcDbMText
 10
0.3600000000000003
 20
-0.033
 30
0.0
 40
0.0125
 41
0.1906080725599004
 46
0.0
 71
     5
 72
     5
  1
2\P2
 73
     1
 44
1.0
  0
MTEXT
  5
4222
330
2
100
AcDbEntity
  8
Text
100
AcDbMText
 10
0.2850000000000004
 20
-0.033
 30
0.0
 40
0.0125
 41
0.1906080725599004
 46
0.0
 71
     5
 72
     5
  1
2\P5
 73
     1
 44
1.0
  0
MTEXT
  5
4223
330
2
100
AcDbEntity
  8
Text
100
AcDbMText
 10
0.3100000000000003
 20
-0.033
 30
0.0
 40
0.0125
 41
0.1906080725599004
 46
0.0
 71
     5
 72
     5
  1
2\P4
 73
     1
 44
1.0
  0
MTEXT
  5
4224
330
2
100
AcDbEntity
  8
Text
100
AcDbMText
 10
0.26
 20
-0.033
 30
0.0
 40
0.0125
 41
0.1906080725599004
 46
0.0
 71
     5
 72
     5
  1
2\P6
 73
     1
 44
1.0
  0
MTEXT
  5
4225
330
2
100
AcDbEntity
  8
Text
100
AcDbMText
 10
0.2350000000000005
 20
-0.033
 30
0.0
 40
0.0125
 41
0.1906080725599004
 46
0.0
 71
     5
 72
     5
  1
2\P7
 73
     1
 44
1.0
  0
MTEXT
  5
4226
330
2
100
AcDbEntity
  8
Text
100
AcDbMText
 10
0.1850000000000007
 20
-0.033
 30
0.0
 40
0.0125
 41
0.1906080725599004
 46
0.0
 71
     5
 72
     5
  1
2\P9
 73
     1
 44
1.0
  0
MTEXT
  5
4227
330
2
100
AcDbEntity
  8
Text
100
AcDbMText
 10
0.2100000000000011
 20
-0.033
 30
0.0
 40
0.0125
 41
0.1906080725599004
 46
0.0
 71
     5
 72
     5
  1
2\P8
 73
     1
 44
1.0
  0
MTEXT
  5
4228
330
2
100
AcDbEntity
  8
Text
100
AcDbMText
 10
0.1350000000000009
 20
-0.033
 30
0.0
 40
0.0125
 41
0.1906080725599004
 46
0.0
 71
     5
 72
     5
  1
3\P1
 73
     1
 44
1.0
  0
MTEXT
  5
4229
330
2
100
AcDbEntity
  8
Text
100
AcDbMText
 10
0.1600000000000008
 20
-0.033
 30
0.0
 40
0.0125
 41
0.1906080725599004
 46
0.0
 71
     5
 72
     5
  1
3\P0
 73
     1
 44
1.0
  0
MTEXT
  5
422A
330
2
100
AcDbEntity
  8
Text
100
AcDbMText
 10
0.0850000000000007
 20
-0.033
 30
0.0
 40
0.0125
 41
0.1906080725599004
 46
0.0
 71
     5
 72
     5
  1
3\P3
 73
     1
 44
1.0
  0
MTEXT
  5
422B
330
2
100
AcDbEntity
  8
Text
100
AcDbMText
 10
0.110000000000001
 20
-0.033
 30
0.0
 40
0.0125
 41
0.1906080725599004
 46
0.0
 71
     5
 72
     5
  1
3\P2
 73
     1
 44
1.0
  0
MTEXT
  5
422C
330
2
100
AcDbEntity
  8
Text
100
AcDbMText
 10
0.8475000000000008
 20
0.017
 30
0.0
 40
0.0125
 41
0.1906080725599004
 46
0.0
 71
     5
 72
     5
  1
3\P5
 73
     1
 44
1.0
  0
MTEXT
  5
422D
330
2
100
AcDbEntity
  8
Text
100
AcDbMText
 10
0.7975000000000011
 20
0.017
 30
0.0
 40
0.0125
 41
0.1906080725599004
 46
0.0
 71
     5
 72
     5
  1
3\P7
 73
     1
 44
1.0
  0
MTEXT
  5
422E
330
2
100
AcDbEntity
  8
Text
100
AcDbMText
 10
0.8225000000000008
 20
0.017
 30
0.0
 40
0.0125
 41
0.1906080725599004
 46
0.0
 71
     5
 72
     5
  1
3\P6
 73
     1
 44
1.0
  0
MTEXT
  5
422F
330
2
100
AcDbEntity
  8
Text
100
AcDbMText
 10
0.7475000000000007
 20
0.017
 30
0.0
 40
0.0125
 41
0.1906080725599004
 46
0.0
 71
     5
 72
     5
  1
3\P9
 73
     1
 44
1.0
  0
MTEXT
  5
4230
330
2
100
AcDbEntity
  8
Text
100
AcDbMText
 10
0.7725000000000007
 20
0.017
 30
0.0
 40
0.0125
 41
0.1906080725599004
 46
0.0
 71
     5
 72
     5
  1
3\P8
 73
     1
 44
1.0
  0
MTEXT
  5
4231
330
2
100
AcDbEntity
  8
Text
100
AcDbMText
 10
0.6975000000000005
 20
0.017
 30
0.0
 40
0.0125
 41
0.1906080725599004
 46
0.0
 71
     5
 72
     5
  1
4\P1
 73
     1
 44
1.0
  0
MTEXT
  5
4232
330
2
100
AcDbEntity
  8
Text
100
AcDbMText
 10
0.7225000000000009
 20
0.017
 30
0.0
 40
0.0125
 41
0.1906080725599004
 46
0.0
 71
     5
 72
     5
  1
4\P0
 73
     1
 44
1.0
  0
MTEXT
  5
4233
330
2
100
AcDbEntity
  8
Text
100
AcDbMText
 10
0.6475000000000007
 20
0.017
 30
0.0
 40
0.0125
 41
0.1906080725599004
 46
0.0
 71
     5
 72
     5
  1
4\P3
 73
     1
 44
1.0
  0
MTEXT
  5
4234
330
2
100
AcDbEntity
  8
Text
100
AcDbMText
 10
0.6725000000000011
 20
0.017
 30
0.0
 40
0.0125
 41
0.1906080725599004
 46
0.0
 71
     5
 72
     5
  1
4\P2
 73
     1
 44
1.0
  0
MTEXT
  5
4235
330
2
100
AcDbEntity
  8
Text
100
AcDbMText
 10
0.5975000000000009
 20
0.017
 30
0.0
 40
0.0125
 41
0.1906080725599004
 46
0.0
 71
     5
 72
     5
  1
4\P5
 73
     1
 44
1.0
  0
MTEXT
  5
4236
330
2
100
AcDbEntity
  8
Text
100
AcDbMText
 10
0.6225000000000012
 20
0.017
 30
0.0
 40
0.0125
 41
0.1906080725599004
 46
0.0
 71
     5
 72
     5
  1
4\P4
 73
     1
 44
1.0
  0
MTEXT
  5
4237
330
2
100
AcDbEntity
  8
Text
100
AcDbMText
 10
0.5475000000000008
 20
0.017
 30
0.0
 40
0.0125
 41
0.1906080725599004
 46
0.0
 71
     5
 72
     5
  1
4\P7
 73
     1
 44
1.0
  0
MTEXT
  5
4238
330
2
100
AcDbEntity
  8
Text
100
AcDbMText
 10
0.5725000000000009
 20
0.017
 30
0.0
 40
0.0125
 41
0.1906080725599004
 46
0.0
 71
     5
 72
     5
  1
4\P6
 73
     1
 44
1.0
  0
MTEXT
  5
4239
330
2
100
AcDbEntity
  8
Text
100
AcDbMText
 10
0.4975000000000007
 20
0.017
 30
0.0
 40
0.0125
 41
0.1906080725599004
 46
0.0
 71
     5
 72
     5
  1
4\P9
 73
     1
 44
1.0
  0
MTEXT
  5
423A
330
2
100
AcDbEntity
  8
Text
100
AcDbMText
 10
0.5225000000000009
 20
0.017
 30
0.0
 40
0.0125
 41
0.1906080725599004
 46
0.0
 71
     5
 72
     5
  1
4\P8
 73
     1
 44
1.0
  0
MTEXT
  5
423B
330
2
100
AcDbEntity
  8
Text
100
AcDbMText
 10
0.4475000000000009
 20
0.017
 30
0.0
 40
0.0125
 41
0.1906080725599004
 46
0.0
 71
     5
 72
     5
  1
5\P1
 73
     1
 44
1.0
  0
MTEXT
  5
423C
330
2
100
AcDbEntity
  8
Text
100
AcDbMText
 10
0.4725000000000011
 20
0.017
 30
0.0
 40
0.0125
 41
0.1906080725599004
 46
0.0
 71
     5
 72
     5
  1
5\P0
 73
     1
 44
1.0
  0
MTEXT
  5
4275
330
2
100
AcDbEntity
  8
Text
100
AcDbMText
 10
0.8725000000000006
 20
0.017
 30
0.0
 40
0.0125
 41
0.1906080725599004
 46
0.0
 71
     5
 72
     5
  1
3\P4
 73
     1
 44
1.0
  0
MTEXT
  5
4276
330
2
100
AcDbEntity
  8
Text
100
AcDbMText
 10
0.3975000000000008
 20
0.017
 30
0.0
 40
0.0125
 41
0.1906080725599004
 46
0.0
 71
     5
 72
     5
  1
5\P3
 73
     1
 44
1.0
  0
MTEXT
  5
4277
330
2
100
AcDbEntity
  8
Text
100
AcDbMText
 10
0.4225000000000011
 20
0.017
 30
0.0
 40
0.0125
 41
0.1906080725599004
 46
0.0
 71
     5
 72
     5
  1
5\P2
 73
     1
 44
1.0
  0
MTEXT
  5
4278
330
2
100
AcDbEntity
  8
Text
100
AcDbMText
 10
0.3475000000000008
 20
0.017
 30
0.0
 40
0.0125
 41
0.1906080725599004
 46
0.0
 71
     5
 72
     5
  1
5\P5
 73
     1
 44
1.0
  0
MTEXT
  5
4279
330
2
100
AcDbEntity
  8
Text
100
AcDbMText
 10
0.3725000000000009
 20
0.017
 30
0.0
 40
0.0125
 41
0.1906080725599004
 46
0.0
 71
     5
 72
     5
  1
5\P4
 73
     1
 44
1.0
  0
MTEXT
  5
427A
330
2
100
AcDbEntity
  8
Text
100
AcDbMText
 10
0.297500000000001
 20
0.017
 30
0.0
 40
0.0125
 41
0.1906080725599004
 46
0.0
 71
     5
 72
     5
  1
5\P7
 73
     1
 44
1.0
  0
MTEXT
  5
427B
330
2
100
AcDbEntity
  8
Text
100
AcDbMText
 10
0.3225000000000011
 20
0.017
 30
0.0
 40
0.0125
 41
0.1906080725599004
 46
0.0
 71
     5
 72
     5
  1
5\P6
 73
     1
 44
1.0
  0
MTEXT
  5
427C
330
2
100
AcDbEntity
  8
Text
100
AcDbMText
 10
0.2475000000000007
 20
0.017
 30
0.0
 40
0.0125
 41
0.1906080725599004
 46
0.0
 71
     5
 72
     5
  1
5\P9
 73
     1
 44
1.0
  0
MTEXT
  5
427D
330
2
100
AcDbEntity
  8
Text
100
AcDbMText
 10
0.2725000000000011
 20
0.017
 30
0.0
 40
0.0125
 41
0.1906080725599004
 46
0.0
 71
     5
 72
     5
  1
5\P8
 73
     1
 44
1.0
  0
MTEXT
  5
427E
330
2
100
AcDbEntity
  8
Text
100
AcDbMText
 10
0.1975000000000009
 20
0.017
 30
0.0
 40
0.0125
 41
0.1906080725599004
 46
0.0
 71
     5
 72
     5
  1
6\P1
 73
     1
 44
1.0
  0
MTEXT
  5
427F
330
2
100
AcDbEntity
  8
Text
100
AcDbMText
 10
0.2225000000000012
 20
0.017
 30
0.0
 40
0.0125
 41
0.1906080725599004
 46
0.0
 71
     5
 72
     5
  1
6\P0
 73
     1
 44
1.0
  0
MTEXT
  5
4280
330
2
100
AcDbEntity
  8
Text
100
AcDbMText
 10
0.1475000000000011
 20
0.017
 30
0.0
 40
0.0125
 41
0.1906080725599004
 46
0.0
 71
     5
 72
     5
  1
6\P3
 73
     1
 44
1.0
  0
MTEXT
  5
4281
330
2
100
AcDbEntity
  8
Text
100
AcDbMText
 10
0.172500000000001
 20
0.017
 30
0.0
 40
0.0125
 41
0.1906080725599004
 46
0.0
 71
     5
 72
     5
  1
6\P2
 73
     1
 44
1.0
  0
MTEXT
  5
4282
330
2
100
AcDbEntity
  8
Text
100
AcDbMText
 10
0.0975000000000008
 20
0.017
 30
0.0
 40
0.0125
 41
0.1906080725599004
 46
0.0
 71
     5
 72
     5
  1
6\P5
 73
     1
 44
1.0
  0
MTEXT
  5
4283
330
2
100
AcDbEntity
  8
Text
100
AcDbMText
 10
0.1225000000000007
 20
0.017
 30
0.0
 40
0.0125
 41
0.1906080725599004
 46
0.0
 71
     5
 72
     5
  1
6\P4
 73
     1
 44
1.0
  0
MTEXT
  5
4284
330
2
100
AcDbEntity
  8
Text
100
AcDbMText
 10
0.8849999999999999
 20
-0.033
 30
0.0
 40
0.0125
 41
0.1906080725599004
 46
0.0
 71
     5
 72
     5
  1
1
 73
     1
 44
1.0
  0
MTEXT
  5
4285
330
2
100
AcDbEntity
  8
Text
100
AcDbMText
 10
0.8600000000000001
 20
-0.033
 30
0.0
 40
0.0125
 41
0.1906080725599004
 46
0.0
 71
     5
 72
     5
  1
2
 73
     1
 44
1.0
  0
MTEXT
  5
4286
330
2
100
AcDbEntity
  8
Text
100
AcDbMText
 10
0.8349999999999997
 20
-0.033
 30
0.0
 40
0.0125
 41
0.1906080725599004
 46
0.0
 71
     5
 72
     5
  1
3
 73
     1
 44
1.0
  0
MTEXT
  5
4287
330
2
100
AcDbEntity
  8
Text
100
AcDbMText
 10
0.8100000000000003
 20
-0.033
 30
0.0
 40
0.0125
 41
0.1906080725599004
 46
0.0
 71
     5
 72
     5
  1
4
 73
     1
 44
1.0
  0
MTEXT
  5
4288
330
2
100
AcDbEntity
  8
Text
100
AcDbMText
 10
0.785
 20
-0.033
 30
0.0
 40
0.0125
 41
0.1906080725599004
 46
0.0
 71
     5
 72
     5
  1
5
 73
     1
 44
1.0
  0
MTEXT
  5
4289
330
2
100
AcDbEntity
  8
Text
100
AcDbMText
 10
0.76
 20
-0.033
 30
0.0
 40
0.0125
 41
0.1906080725599004
 46
0.0
 71
     5
 72
     5
  1
6
 73
     1
 44
1.0
  0
MTEXT
  5
428A
330
2
100
AcDbEntity
  8
Text
100
AcDbMText
 10
0.7350000000000002
 20
-0.033
 30
0.0
 40
0.0125
 41
0.1906080725599004
 46
0.0
 71
     5
 72
     5
  1
7
 73
     1
 44
1.0
  0
MTEXT
  5
428B
330
2
100
AcDbEntity
  8
Text
100
AcDbMText
 10
0.7099999999999998
 20
-0.033
 30
0.0
 40
0.0125
 41
0.1906080725599004
 46
0.0
 71
     5
 72
     5
  1
8
 73
     1
 44
1.0
  0
MTEXT
  5
428C
330
2
100
AcDbEntity
  8
Text
100
AcDbMText
 10
0.6850000000000004
 20
-0.033
 30
0.0
 40
0.0125
 41
0.1906080725599004
 46
0.0
 71
     5
 72
     5
  1
9
 73
     1
 44
1.0
  0
MTEXT
  5
428D
330
2
100
AcDbEntity
  8
Text
100
AcDbMText
 10
0.635
 20
-0.033
 30
0.0
 40
0.0125
 41
0.1906080725599004
 46
0.0
 71
     5
 72
     5
  1
1\P1
 73
     1
 44
1.0
  0
MTEXT
  5
428E
330
2
100
AcDbEntity
  8
Text
100
AcDbMText
 10
0.66
 20
-0.033
 30
0.0
 40
0.0125
 41
0.1906080725599004
 46
0.0
 71
     5
 72
     5
  1
1\P0
 73
     1
 44
1.0
  0
MTEXT
  5
428F
330
2
100
AcDbEntity
  8
Text
100
AcDbMText
 10
0.5849999999999998
 20
-0.033
 30
0.0
 40
0.0125
 41
0.1906080725599004
 46
0.0
 71
     5
 72
     5
  1
1\P3
 73
     1
 44
1.0
  0
MTEXT
  5
4290
330
2
100
AcDbEntity
  8
Text
100
AcDbMText
 10
0.6100000000000002
 20
-0.033
 30
0.0
 40
0.0125
 41
0.1906080725599004
 46
0.0
 71
     5
 72
     5
  1
1\P2
 73
     1
 44
1.0
  0
MTEXT
  5
4291
330
2
100
AcDbEntity
  8
Text
100
AcDbMText
 10
0.5349999999999997
 20
-0.033
 30
0.0
 40
0.0125
 41
0.1906080725599004
 46
0.0
 71
     5
 72
     5
  1
1\P5
 73
     1
 44
1.0
  0
MTEXT
  5
4292
330
2
100
AcDbEntity
  8
Text
100
AcDbMText
 10
0.5599999999999998
 20
-0.033
 30
0.0
 40
0.0125
 41
0.1906080725599004
 46
0.0
 71
     5
 72
     5
  1
1\P4
 73
     1
 44
1.0
  0
MTEXT
  5
4293
330
2
100
AcDbEntity
  8
Text
100
AcDbMText
 10
0.51
 20
-0.033
 30
0.0
 40
0.0125
 41
0.1906080725599004
 46
0.0
 71
     5
 72
     5
  1
1\P6
 73
     1
 44
1.0
  0
ENDSEC
  0
SECTION
  2
OBJECTS
  0
DICTIONARY
  5
B
330
0
100
AcDbDictionary
281
     1
  3
ACAD_COLOR
350
32
  3
ACAD_GROUP
350
2D
  3
ACAD_LAYOUT
350
11
  3
ACAD_MATERIAL
350
D
  3
ACAD_MLEADERSTYLE
350
50F
  3
ACAD_MLINESTYLE
350
2E
  3
ACAD_PLOTSETTINGS
350
2F
  3
ACAD_PLOTSTYLENAME
350
A
  3
ACAD_SCALELIST
350
33
  3
ACAD_TABLESTYLE
350
34
  3
ACAD_VISUALSTYLE
350
26
  3
ACDB_RECOMPOSE_DATA
350
4FB
  3
AcDbVariableDictionary
350
4FC
  3
AcmDictionary
350
4F6
  0
DICTIONARY
  5
2C46
330
23
100
AcDbDictionary
280
     1
281
     1
  0
DICTIONARY
  5
19
330
18
100
AcDbDictionary
280
     1
281
     1
  3
ACAD_LAYERFILTERS
360
429C
  3
ACAD_LAYERSTATES
360
1A
  3
ACLYDICTIONARY
360
429B
  0
DICTIONARY
  5
7
330
6
100
AcDbDictionary
280
     1
281
     1
  3
ADSK_XREC_LAYER_RECONCILED
360
2C1A
  0
DICTIONARY
  5
54E
330
54D
100
AcDbDictionary
280
     1
281
     1
  3
ADSK_XREC_LAYER_RECONCILED
360
2C1D
  0
DICTIONARY
  5
550
330
54F
100
AcDbDictionary
280
     1
281
     1
  3
ADSK_XREC_LAYER_RECONCILED
360
2C1E
  0
DICTIONARY
  5
2C1F
330
1151
100
AcDbDictionary
280
     1
281
     1
  3
ADSK_XREC_LAYER_RECONCILED
360
2C20
  0
DICTIONARY
  5
3
330
2
100
AcDbDictionary
280
     1
281
     1
  3
ACAD_SORTENTS
360
4F5
  0
DICTIONARY
  5
42FB
330
2D05
100
AcDbDictionary
280
     1
281
     1
  3
ACAD_MTEXT_2008_RT
360
42FC
  0
DICTIONARY
  5
32
102
{ACAD_REACTORS
330
B
102
}
330
B
100
AcDbDictionary
281
     1
  0
DICTIONARY
  5
2D
102
{ACAD_REACTORS
330
B
102
}
330
B
100
AcDbDictionary
281
     1
  0
DICTIONARY
  5
11
102
{ACAD_REACTORS
330
B
102
}
330
B
100
AcDbDictionary
281
     1
  3
Layout1
350
15
  3
Model
350
10
  0
DICTIONARY
  5
D
102
{ACAD_REACTORS
330
B
102
}
330
B
100
AcDbDictionary
281
     1
  3
ByBlock
350
31
  3
ByLayer
350
30
  3
Global
350
C
  0
DICTIONARY
  5
50F
102
{ACAD_REACTORS
330
B
102
}
330
B
100
AcDbDictionary
281
     1
  3
Standard
350
510
  0
DICTIONARY
  5
2E
102
{ACAD_REACTORS
330
B
102
}
330
B
100
AcDbDictionary
281
     1
  3
STANDARD
350
36
  0
DICTIONARY
  5
2F
102
{ACAD_REACTORS
330
B
102
}
330
B
100
AcDbDictionary
281
     1
  0
ACDBDICTIONARYWDFLT
  5
A
102
{ACAD_REACTORS
330
B
102
}
330
B
100
AcDbDictionary
281
     1
  3
Normal
350
9
100
AcDbDictionaryWithDefault
340
9
  0
DICTIONARY
  5
33
102
{ACAD_REACTORS
330
B
102
}
330
B
100
AcDbDictionary
281
     1
  3
*A1
350
55C
  3
A0
350
3B
  3
A1
350
3C
  3
A2
350
3D
  3
A3
350
3E
  3
A4
350
3F
  3
A5
350
40
  3
A6
350
41
  3
A7
350
42
  3
A8
350
43
  3
A9
350
44
  3
B0
350
45
  3
B1
350
46
  3
B2
350
47
  3
B3
350
48
  3
B4
350
49
  3
B5
350
4A
  3
B6
350
4B
  3
B7
350
4C
  3
B8
350
4D
  3
B9
350
4E
  3
C0
350
4F
  3
C1
350
50
  3
C2
350
51
  3
C3
350
52
  3
C4
350
53
  3
C5
350
54
  3
C6
350
55
  3
C7
350
56
  3
C8
350
57
  3
C9
350
58
  3
D0
350
59
  3
D1
350
5A
  0
DICTIONARY
  5
34
102
{ACAD_REACTORS
330
B
102
}
330
B
100
AcDbDictionary
281
     1
  3
Standard
350
37
  0
DICTIONARY
  5
26
102
{ACAD_REACTORS
330
B
102
}
330
B
100
AcDbDictionary
281
     1
  3
2dWireframe
350
25
  3
3D Hidden
350
507
  3
3dWireframe
350
3A
  3
Basic
350
506
  3
Brighten
350
50A
  3
ColorChange
350
50E
  3
Conceptual
350
508
  3
Dim
350
509
  3
Facepattern
350
50D
  3
Flat
350
502
  3
FlatWithEdges
350
503
  3
Gouraud
350
504
  3
GouraudWithEdges
350
505
  3
Linepattern
350
50C
  3
Realistic
350
39
  3
Thicken
350
50B
  0
XRECORD
  5
4FB
102
{ACAD_REACTORS
330
B
102
}
330
B
100
AcDbXrecord
280
     1
 90
        1
330
37
330
2D05
  0
DICTIONARY
  5
4FC
102
{ACAD_REACTORS
330
B
102
}
330
B
100
AcDbDictionary
281
     1
  3
CANNOSCALE
350
4FF
  3
CMLEADERSTYLE
350
4FE
  3
CTABLESTYLE
350
4FD
  3
DIMASSOC
350
2C58
  3
HIDETEXT
350
2C57
  3
INDEXCTL
350
2C56
  3
LIGHTINGUNITS
350
500
  3
MSLTSCALE
350
2C54
  3
SORTENTS
350
2C55
  0
DICTIONARY
  5
4F6
102
{ACAD_REACTORS
330
B
102
}
330
B
100
AcDbDictionary
281
     1
  3
AcmBOMDATA
350
4F7
  0
DICTIONARY
  5
429C
102
{ACAD_REACTORS
330
19
102
}
330
19
100
AcDbDictionary
281
     1
  0
DICTIONARY
  5
1A
102
{ACAD_REACTORS
330
19
102
}
330
19
100
AcDbDictionary
281
     1
  0
DICTIONARY
  5
429B
102
{ACAD_REACTORS
330
19
102
}
330
19
100
AcDbDictionary
281
     1
1001
ACAD
1000
<All
  0
XRECORD
  5
2C1A
102
{ACAD_REACTORS
330
7
102
}
330
7
100
AcDbXrecord
280
     1
290
     1
  0
XRECORD
  5
2C1D
102
{ACAD_REACTORS
330
54E
102
}
330
54E
100
AcDbXrecord
280
     1
290
     1
  0
XRECORD
  5
2C1E
102
{ACAD_REACTORS
330
550
102
}
330
550
100
AcDbXrecord
280
     1
290
     1
  0
XRECORD
  5
2C20
102
{ACAD_REACTORS
330
2C1F
102
}
330
2C1F
100
AcDbXrecord
280
     1
290
     1
  0
SORTENTSTABLE
  5
4F5
102
{ACAD_REACTORS
330
3
102
}
330
3
100
AcDbSortentsTable
330
2
331
3BD8
  5
3BD8
331
3B89
  5
3B89
331
3B52
  5
3B52
331
3BE0
  5
3BE0
331
3B91
  5
3B91
331
3B5A
  5
3B5A
331
3FF5
  5
3FF5
331
427C
  5
428C
331
4284
  5
421B
331
3C1F
  5
3C1F
331
3BE8
  5
3BE8
331
3B62
  5
3B62
331
3B99
  5
3B99
331
3FC6
  5
3FC6
331
428C
  5
4223
331
3BF0
  5
3BF0
331
3B6A
  5
3B6A
331
3C27
  5
3C27
331
3FCE
  5
3FCE
331
421D
  5
422D
331
4225
  5
4235
331
3C2F
  5
3C2F
331
3FD6
  5
3FD6
331
3BA9
  5
3BA9
331
3B72
  5
3B72
331
422D
  5
423D
331
3C37
  5
3C37
331
3C00
  5
3C00
331
3BB1
  5
3BB1
331
3B7A
  5
3B7A
331
3FDE
  5
3FDE
331
4235
  5
4245
331
3B82
  5
3B82
331
3B43
  5
3B43
331
3BB9
  5
3BB9
331
3FE6
  5
3FE6
331
3B4B
  5
3B4B
331
3FEE
  5
3FEE
331
4275
  5
4285
331
3C10
  5
3C10
331
3BD9
  5
3BD9
331
3B8A
  5
3B8A
331
3B53
  5
3B53
331
427D
  5
428D
331
3C18
  5
3C18
331
3BE1
  5
3BE1
331
3B92
  5
3B92
331
3B5B
  5
3B5B
331
3FF6
  5
3FF6
331
4285
  5
421C
331
3C20
  5
3C20
331
3BE9
  5
3BE9
331
3B9A
  5
3B9A
331
3B63
  5
3B63
331
3FC7
  5
3FC7
331
421E
  5
422E
331
3BF1
  5
3BF1
331
3B6B
  5
3B6B
331
3C28
  5
3C28
331
3FCF
  5
3FCF
331
428D
  5
4224
331
4226
  5
4236
331
3FD7
  5
3FD7
331
3B73
  5
3B73
331
3BAA
  5
3BAA
331
3C38
  5
3C38
331
3C01
  5
3C01
331
3BB2
  5
3BB2
331
3B3C
  5
3B3C
331
3B7B
  5
3B7B
331
3FDF
  5
3FDF
331
422E
  5
423E
331
4236
  5
4246
331
3FE7
  5
3FE7
331
3BBA
  5
3BBA
331
3C09
  5
3C09
331
3B44
  5
3B44
331
3B83
  5
3B83
331
2D05
  5
2D05
331
3FEF
  5
3FEF
331
3BD2
  5
3BD2
331
3B4C
  5
3B4C
331
4276
  5
4286
331
3C11
  5
3C11
331
3B8B
  5
3B8B
331
3B54
  5
3B54
331
3FF7
  5
3FF7
331
427E
  5
428E
331
3BE2
  5
3BE2
331
3B93
  5
3B93
331
3B5C
  5
3B5C
331
3C19
  5
3C19
331
4286
  5
421D
331
3FC8
  5
3FC8
331
3BEA
  5
3BEA
331
3B9B
  5
3B9B
331
3B64
  5
3B64
331
428E
  5
4225
331
3FD0
  5
3FD0
331
421F
  5
422F
331
3C29
  5
3C29
331
3BF2
  5
3BF2
331
3B6C
  5
3B6C
331
4227
  5
4237
331
3FD8
  5
3FD8
331
3C31
  5
3C31
331
3BFA
  5
3BFA
331
3BAB
  5
3BAB
331
3B74
  5
3B74
331
422F
  5
423F
331
3FE0
  5
3FE0
331
3C02
  5
3C02
331
3BB3
  5
3BB3
331
3B7C
  5
3B7C
331
3B3D
  5
3B3D
331
3C39
  5
3C39
331
3FE8
  5
3FE8
331
4237
  5
4247
331
3D39
  5
3D39
331
3C0A
  5
3C0A
331
3B84
  5
3B84
331
3B45
  5
3B45
331
3BBB
  5
3BBB
331
3B4D
  5
3B4D
331
3BD3
  5
3BD3
331
4277
  5
4287
331
3FF0
  5
3FF0
331
3B8C
  5
3B8C
331
3B55
  5
3B55
331
2D56
  5
2D56
331
3FF8
  5
3FF8
331
427F
  5
428F
331
3C1A
  5
3C1A
331
3BE3
  5
3BE3
331
3B94
  5
3B94
331
3B5D
  5
3B5D
331
4287
  5
421E
331
3FC9
  5
3FC9
331
3C22
  5
3C22
331
3BEB
  5
3BEB
331
3B9C
  5
3B9C
331
3B65
  5
3B65
331
4220
  5
4230
331
3FD1
  5
3FD1
331
428F
  5
4226
331
3BF3
  5
3BF3
331
3B6D
  5
3B6D
331
3C2A
  5
3C2A
331
4228
  5
4238
331
3FD9
  5
3FD9
331
3C32
  5
3C32
331
3BFB
  5
3BFB
331
3BAC
  5
3BAC
331
3B75
  5
3B75
331
3FE1
  5
3FE1
331
4230
  5
4240
331
3BB4
  5
3BB4
331
3B3E
  5
3B3E
331
3B7D
  5
3B7D
331
3FE9
  5
3FE9
331
4238
  5
4248
331
3D3A
  5
3D3A
331
3C0B
  5
3C0B
331
3B85
  5
3B85
331
3B46
  5
3B46
331
3BBC
  5
3BBC
331
3BD4
  5
3BD4
331
3B4E
  5
3B4E
331
3FF1
  5
3FF1
331
4278
  5
4288
331
3C13
  5
3C13
331
3BDC
  5
3BDC
331
3B8D
  5
3B8D
331
3B56
  5
3B56
331
3FF9
  5
3FF9
331
4280
  5
4290
331
3B95
  5
3B95
331
3B5E
  5
3B5E
331
3C1B
  5
3C1B
331
4288
  5
421F
331
3FCA
  5
3FCA
331
3C23
  5
3C23
331
3BEC
  5
3BEC
331
3B9D
  5
3B9D
331
3B66
  5
3B66
331
4290
  5
4227
331
3FD2
  5
3FD2
331
4221
  5
4231
331
3BF4
  5
3BF4
331
3BA5
  5
3BA5
331
2E3F
  5
2E3F
331
3B6E
  5
3B6E
331
4229
  5
4239
331
3FDA
  5
3FDA
331
3C33
  5
3C33
331
3BFC
  5
3BFC
331
3BAD
  5
3BAD
331
2CB8
  5
2CB8
331
3B76
  5
3B76
331
4231
  5
4241
331
3FE2
  5
3FE2
331
3C04
  5
3C04
331
3B7E
  5
3B7E
331
3B3F
  5
3B3F
331
3C3B
  5
3C3B
331
3FEA
  5
3FEA
331
4239
  5
4249
331
3D3B
  5
3D3B
331
3C0C
  5
3C0C
331
3B86
  5
3B86
331
3B47
  5
3B47
331
3B4F
  5
3B4F
331
3BD5
  5
3BD5
331
3FF2
  5
3FF2
331
4279
  5
4289
331
3C14
  5
3C14
331
3BDD
  5
3BDD
331
3B8E
  5
3B8E
331
3B57
  5
3B57
331
3FFA
  5
3FFA
331
4281
  5
4291
331
3B96
  5
3B96
331
3B5F
  5
3B5F
331
2DA0
  5
2DA0
331
4289
  5
4220
331
3FCB
  5
3FCB
331
3C24
  5
3C24
331
3BED
  5
3BED
331
3B9E
  5
3B9E
331
3B67
  5
3B67
331
4291
  5
4228
331
4222
  5
4232
331
3FD3
  5
3FD3
331
3C2C
  5
3C2C
331
3BA6
  5
3BA6
331
3B6F
  5
3B6F
331
3BF5
  5
3BF5
331
3FDB
  5
3FDB
331
422A
  5
423A
331
3C34
  5
3C34
331
3BFD
  5
3BFD
331
3BAE
  5
3BAE
331
3B77
  5
3B77
331
3FE3
  5
3FE3
331
4232
  5
4242
331
3C3C
  5
3C3C
331
3C05
  5
3C05
331
3B40
  5
3B40
331
3B7F
  5
3B7F
331
3FEB
  5
3FEB
331
423A
  5
424A
331
3B87
  5
3B87
331
3B48
  5
3B48
331
3BD6
  5
3BD6
331
3B50
  5
3B50
331
3FF3
  5
3FF3
331
427A
  5
428A
331
3C15
  5
3C15
331
3BDE
  5
3BDE
331
3B8F
  5
3B8F
331
3B58
  5
3B58
331
3FFB
  5
3FFB
331
4282
  5
4292
331
3C1D
  5
3C1D
331
3BE6
  5
3BE6
331
3B60
  5
3B60
331
3B97
  5
3B97
331
428A
  5
4221
331
3FCC
  5
3FCC
331
421B
  5
422B
331
3C25
  5
3C25
331
3B68
  5
3B68
331
3B9F
  5
3B9F
331
4292
  5
4229
331
4223
  5
4233
331
3FD4
  5
3FD4
331
3C2D
  5
3C2D
331
3BF6
  5
3BF6
331
3BA7
  5
3BA7
331
2CAA
  5
2CAA
331
3B70
  5
3B70
331
422B
  5
423B
331
3FDC
  5
3FDC
331
3BAF
  5
3BAF
331
3B78
  5
3B78
331
4233
  5
4243
331
3FE4
  5
3FE4
331
3B80
  5
3B80
331
3B41
  5
3B41
331
3C06
  5
3C06
331
3FEC
  5
3FEC
331
423B
  5
424B
331
3C0E
  5
3C0E
331
3B49
  5
3B49
331
3BD7
  5
3BD7
331
3B51
  5
3B51
331
3B88
  5
3B88
331
3FF4
  5
3FF4
331
427B
  5
428B
331
3C16
  5
3C16
331
3BDF
  5
3BDF
331
3B59
  5
3B59
331
3FFC
  5
3FFC
331
3FC5
  5
3FC5
331
4283
  5
4293
331
3C1E
  5
3C1E
331
3BE7
  5
3BE7
331
3B98
  5
3B98
331
3B61
  5
3B61
331
421C
  5
422C
331
3FCD
  5
3FCD
331
428B
  5
4222
331
3BA0
  5
3BA0
331
3B69
  5
3B69
331
4293
  5
422A
331
4224
  5
4234
331
3FD5
  5
3FD5
331
3C2E
  5
3C2E
331
3BF7
  5
3BF7
331
3B71
  5
3B71
331
3BA8
  5
3BA8
331
3FDD
  5
3FDD
331
422C
  5
423C
331
3C36
  5
3C36
331
3BFF
  5
3BFF
331
3BB0
  5
3BB0
331
3B79
  5
3B79
331
4234
  5
4244
331
3FE5
  5
3FE5
331
3B81
  5
3B81
331
3B42
  5
3B42
331
3C07
  5
3C07
331
423C
  5
424C
331
3C0F
  5
3C0F
331
3B4A
  5
3B4A
331
3FED
  5
3FED
  0
XRECORD
  5
42FC
102
{ACAD_REACTORS
330
42FB
102
}
330
42FB
100
AcDbXrecord
280
     1
 40
163060.0
  1
\pxqc;RECOMMENDED PC BOARD LAYOUT (COMPONENT SIDE)
  0
LAYOUT
  5
15
102
{ACAD_XDICTIONARY
360
16
102
}
102
{ACAD_REACTORS
330
11
102
}
330
11
100
AcDbPlotSettings
  1

  2
none_device
  4
Letter_(8.50_x_11.00_Inches)
  6

 40
6.349999904632568
 41
6.349999904632568
 42
6.350006103515625
 43
6.350006103515625
 44
215.8999938964844
 45
279.3999938964844
 46
0.0
 47
0.0
 48
0.0
 49
0.0
140
0.0
141
0.0
142
1.0
143
1.0
 70
   688
 72
     0
 73
     1
 74
     5
  7
monochrome.ctb
 75
     0
147
1.0
 76
     0
 77
     2
 78
   300
148
0.0
149
0.0
100
AcDbLayout
  1
Layout1
 70
     1
 71
     1
 10
-0.2500002402958907
 20
-0.2499999962453767
 11
10.74999951940821
 21
8.249999763458731
 12
0.0
 22
0.0
 32
0.0
 14
1.861839024525705
 24
0.7944260749874943
 34
0.0
 15
7.276933025611403
 25
5.393255528453459
 35
0.0
146
0.0
 13
0.0
 23
0.0
 33
0.0
 16
1.0
 26
0.0
 36
0.0
 17
0.0
 27
1.0
 37
0.0
 76
     0
330
12
  0
LAYOUT
  5
10
102
{ACAD_REACTORS
330
11
102
}
330
11
100
AcDbPlotSettings
  1

  2
Adobe PDF
  4
Letter
  6

 40
3.174999952316284
 41
3.174999952316284
 42
3.175003051757812
 43
3.17498779296875
 44
215.8999938964844
 45
279.3999938964844
 46
16.80780441504031
 47
0.0
 48
0.0
 49
0.0
140
0.0
141
0.0
142
1.0
143
0.8011218923813856
 70
 11956
 72
     0
 73
     1
 74
     1
  7
monochrome.ctb
 75
     0
147
1.248249497997659
 76
     0
 77
     2
 78
   300
148
4.790016700408997
149
4.399730799905552
100
AcDbLayout
  1
Model
 70
     1
 71
     0
 10
0.0
 20
0.0
 11
12.0
 21
9.0
 12
0.0
 22
0.0
 32
0.0
 14
0.0
 24
0.0
 34
0.0
 15
0.0
 25
0.0
 35
0.0
146
0.0
 13
0.0
 23
0.0
 33
0.0
 16
1.0
 26
0.0
 36
0.0
 17
0.0
 27
1.0
 37
0.0
 76
     0
330
2
331
24
1001
ACAD_PSEXT
1000
Adobe PDF
1000
Adobe PDF Converter
1000
My Documents
1000

1070
     0
  0
MATERIAL
  5
31
102
{ACAD_REACTORS
330
D
102
}
330
D
100
AcDbMaterial
  1
ByBlock
 73
     1
 78
     1
172
     1
176
     1
270
     1
274
     1
 94
       63
  0
MATERIAL
  5
30
102
{ACAD_REACTORS
330
D
102
}
330
D
100
AcDbMaterial
  1
ByLayer
 73
     1
 78
     1
172
     1
176
     1
270
     1
274
     1
 94
       63
  0
MATERIAL
  5
C
102
{ACAD_REACTORS
330
D
102
}
330
D
100
AcDbMaterial
  1
Global
 73
     1
 78
     1
172
     1
176
     1
270
     1
274
     1
 94
       63
  0
MLEADERSTYLE
  5
510
102
{ACAD_REACTORS
330
50F
102
}
330
50F
100
AcDbMLeaderStyle
170
     2
171
     1
172
     0
 90
        2
 40
0.0
 41
0.0
173
     1
 91
-1056964608
340
1F
 92
       -2
290
     1
 42
0.09
291
     1
 43
0.36
  3
Standard
 44
0.18
300

342
1C
174
     1
178
     6
175
     1
176
     0
 93
-1056964608
 45
0.18
292
     0
297
     0
 46
0.18
 94
-1056964608
 47
1.0
 49
1.0
140
1.0
293
     1
141
0.0
294
     1
177
     0
142
1.0
295
     0
296
     0
143
0.125
1001
ACAD_MLEADERVER
1070
     2
  0
MLINESTYLE
  5
36
102
{ACAD_REACTORS
330
2E
102
}
330
2E
100
AcDbMlineStyle
  2
STANDARD
 70
     0
  3

 62
     0
 51
90.0
 52
90.0
 71
     2
 49
0.5
 62
   256
  6
BYLAYER
 49
-0.5
 62
   256
  6
BYLAYER
  0
ACDBPLACEHOLDER
  5
9
102
{ACAD_REACTORS
330
A
102
}
330
A
  0
SCALE
  5
55C
102
{ACAD_REACTORS
330
33
102
}
330
33
100
AcDbScale
 70
     0
300
1:5
140
1.0
141
5.0
290
     0
  0
SCALE
  5
3B
102
{ACAD_REACTORS
330
33
102
}
330
33
100
AcDbScale
 70
     0
300
1:1
140
1.0
141
1.0
290
     1
  0
SCALE
  5
3C
102
{ACAD_REACTORS
330
33
102
}
330
33
100
AcDbScale
 70
     0
300
1:2
140
1.0
141
2.0
290
     0
  0
SCALE
  5
3D
102
{ACAD_REACTORS
330
33
102
}
330
33
100
AcDbScale
 70
     0
300
1:4
140
1.0
141
4.0
290
     0
  0
SCALE
  5
3E
102
{ACAD_REACTORS
330
33
102
}
330
33
100
AcDbScale
 70
     0
300
1:8
140
1.0
141
8.0
290
     0
  0
SCALE
  5
3F
102
{ACAD_REACTORS
330
33
102
}
330
33
100
AcDbScale
 70
     0
300
1:10
140
1.0
141
10.0
290
     0
  0
SCALE
  5
40
102
{ACAD_REACTORS
330
33
102
}
330
33
100
AcDbScale
 70
     0
300
1:16
140
1.0
141
16.0
290
     0
  0
SCALE
  5
41
102
{ACAD_REACTORS
330
33
102
}
330
33
100
AcDbScale
 70
     0
300
1:20
140
1.0
141
20.0
290
     0
  0
SCALE
  5
42
102
{ACAD_REACTORS
330
33
102
}
330
33
100
AcDbScale
 70
     0
300
1:30
140
1.0
141
30.0
290
     0
  0
SCALE
  5
43
102
{ACAD_REACTORS
330
33
102
}
330
33
100
AcDbScale
 70
     0
300
1:40
140
1.0
141
40.0
290
     0
  0
SCALE
  5
44
102
{ACAD_REACTORS
330
33
102
}
330
33
100
AcDbScale
 70
     0
300
1:50
140
1.0
141
50.0
290
     0
  0
SCALE
  5
45
102
{ACAD_REACTORS
330
33
102
}
330
33
100
AcDbScale
 70
     0
300
1:100
140
1.0
141
100.0
290
     0
  0
SCALE
  5
46
102
{ACAD_REACTORS
330
33
102
}
330
33
100
AcDbScale
 70
     0
300
2:1
140
2.0
141
1.0
290
     0
  0
SCALE
  5
47
102
{ACAD_REACTORS
330
33
102
}
330
33
100
AcDbScale
 70
     0
300
4:1
140
4.0
141
1.0
290
     0
  0
SCALE
  5
48
102
{ACAD_REACTORS
330
33
102
}
330
33
100
AcDbScale
 70
     0
300
8:1
140
8.0
141
1.0
290
     0
  0
SCALE
  5
49
102
{ACAD_REACTORS
330
33
102
}
330
33
100
AcDbScale
 70
     0
300
10:1
140
10.0
141
1.0
290
     0
  0
SCALE
  5
4A
102
{ACAD_REACTORS
330
33
102
}
330
33
100
AcDbScale
 70
     0
300
100:1
140
100.0
141
1.0
290
     0
  0
SCALE
  5
4B
102
{ACAD_REACTORS
330
33
102
}
330
33
100
AcDbScale
 70
     0
300
1/128" = 1'-0"
140
0.0078125
141
12.0
290
     0
  0
SCALE
  5
4C
102
{ACAD_REACTORS
330
33
102
}
330
33
100
AcDbScale
 70
     0
300
1/64" = 1'-0"
140
0.015625
141
12.0
290
     0
  0
SCALE
  5
4D
102
{ACAD_REACTORS
330
33
102
}
330
33
100
AcDbScale
 70
     0
300
1/32" = 1'-0"
140
0.03125
141
12.0
290
     0
  0
SCALE
  5
4E
102
{ACAD_REACTORS
330
33
102
}
330
33
100
AcDbScale
 70
     0
300
1/16" = 1'-0"
140
0.0625
141
12.0
290
     0
  0
SCALE
  5
4F
102
{ACAD_REACTORS
330
33
102
}
330
33
100
AcDbScale
 70
     0
300
3/32" = 1'-0"
140
0.09375
141
12.0
290
     0
  0
SCALE
  5
50
102
{ACAD_REACTORS
330
33
102
}
330
33
100
AcDbScale
 70
     0
300
1/8" = 1'-0"
140
0.125
141
12.0
290
     0
  0
SCALE
  5
51
102
{ACAD_REACTORS
330
33
102
}
330
33
100
AcDbScale
 70
     0
300
3/16" = 1'-0"
140
0.1875
141
12.0
290
     0
  0
SCALE
  5
52
102
{ACAD_REACTORS
330
33
102
}
330
33
100
AcDbScale
 70
     0
300
1/4" = 1'-0"
140
0.25
141
12.0
290
     0
  0
SCALE
  5
53
102
{ACAD_REACTORS
330
33
102
}
330
33
100
AcDbScale
 70
     0
300
3/8" = 1'-0"
140
0.375
141
12.0
290
     0
  0
SCALE
  5
54
102
{ACAD_REACTORS
330
33
102
}
330
33
100
AcDbScale
 70
     0
300
1/2" = 1'-0"
140
0.5
141
12.0
290
     0
  0
SCALE
  5
55
102
{ACAD_REACTORS
330
33
102
}
330
33
100
AcDbScale
 70
     0
300
3/4" = 1'-0"
140
0.75
141
12.0
290
     0
  0
SCALE
  5
56
102
{ACAD_REACTORS
330
33
102
}
330
33
100
AcDbScale
 70
     0
300
1" = 1'-0"
140
1.0
141
12.0
290
     0
  0
SCALE
  5
57
102
{ACAD_REACTORS
330
33
102
}
330
33
100
AcDbScale
 70
     0
300
1-1/2" = 1'-0"
140
1.5
141
12.0
290
     0
  0
SCALE
  5
58
102
{ACAD_REACTORS
330
33
102
}
330
33
100
AcDbScale
 70
     0
300
3" = 1'-0"
140
3.0
141
12.0
290
     0
  0
SCALE
  5
59
102
{ACAD_REACTORS
330
33
102
}
330
33
100
AcDbScale
 70
     0
300
6" = 1'-0"
140
6.0
141
12.0
290
     0
  0
SCALE
  5
5A
102
{ACAD_REACTORS
330
33
102
}
330
33
100
AcDbScale
 70
     0
300
1'-0" = 1'-0"
140
12.0
141
12.0
290
     0
  0
TABLESTYLE
  5
37
102
{ACAD_XDICTIONARY
360
38
102
}
102
{ACAD_REACTORS
330
34
102
}
330
34
100
AcDbTableStyle
  3
Standard
 70
     0
 71
     0
 40
0.06
 41
0.06
280
     0
281
     0
  7
STANDARD
140
0.18
170
     2
 62
     0
 63
     7
283
     0
 90
      512
 91
        0
  1

274
    -2
284
     1
 64
     0
275
    -2
285
     1
 65
     0
276
    -2
286
     1
 66
     0
277
    -2
287
     1
 67
     0
278
    -2
288
     1
 68
     0
279
    -2
289
     1
 69
     0
  7
STANDARD
140
0.25
170
     5
 62
     0
 63
     7
283
     0
 90
      512
 91
        0
  1

274
    -2
284
     1
 64
     0
275
    -2
285
     1
 65
     0
276
    -2
286
     1
 66
     0
277
    -2
287
     1
 67
     0
278
    -2
288
     1
 68
     0
279
    -2
289
     1
 69
     0
  7
STANDARD
140
0.18
170
     5
 62
     0
 63
     7
283
     0
 90
      512
 91
        0
  1

274
    -2
284
     1
 64
     0
275
    -2
285
     1
 65
     0
276
    -2
286
     1
 66
     0
277
    -2
287
     1
 67
     0
278
    -2
288
     1
 68
     0
279
    -2
289
     1
 69
     0
  0
VISUALSTYLE
  5
25
102
{ACAD_REACTORS
330
26
102
}
330
26
100
AcDbVisualStyle
  2
2dWireframe
 70
     4
 71
     0
 72
     2
 73
     0
 90
        0
 40
-0.6
 41
-30.0
 62
     5
 63
     7
 74
     1
 91
        4
 64
     7
 65
   257
 75
     1
175
     1
 42
1.0
 92
        0
 66
   257
 43
1.0
 76
     1
 77
     6
 78
     2
 67
     7
 79
     5
170
     0
171
     0
290
     0
174
     0
 93
        1
 44
0.0
173
     0
291
     0
 45
0.0
  0
VISUALSTYLE
  5
507
102
{ACAD_REACTORS
330
26
102
}
330
26
100
AcDbVisualStyle
  2
3D Hidden
 70
     6
 71
     1
 72
     2
 73
     2
 90
        0
 40
-0.6
 41
-30.0
 62
     5
 63
     7
 74
     2
 91
        2
 64
     7
 65
   257
 75
     2
175
     1
 42
40.0
 92
        0
 66
   257
 43
1.0
 76
     1
 77
     6
 78
     2
 67
     7
 79
     3
170
     0
171
     0
290
     0
174
     0
 93
        1
 44
0.0
173
     0
291
     0
 45
0.0
  0
VISUALSTYLE
  5
3A
102
{ACAD_REACTORS
330
26
102
}
330
26
100
AcDbVisualStyle
  2
3dWireframe
 70
     5
 71
     0
 72
     2
 73
     0
 90
        0
 40
-0.6
 41
-30.0
 62
     5
 63
     7
 74
     1
 91
        4
 64
     7
 65
   257
 75
     1
175
     1
 42
1.0
 92
        0
 66
   257
 43
1.0
 76
     1
 77
     6
 78
     2
 67
     7
 79
     5
170
     0
171
     0
290
     0
174
     0
 93
        1
 44
0.0
173
     0
291
     0
 45
0.0
  0
VISUALSTYLE
  5
506
102
{ACAD_REACTORS
330
26
102
}
330
26
100
AcDbVisualStyle
  2
Basic
 70
     7
 71
     1
 72
     0
 73
     1
 90
        0
 40
-0.6
 41
-30.0
 62
     5
 63
     7
 74
     0
 91
        4
 64
     7
 65
   257
 75
     1
175
     1
 42
1.0
 92
        8
 66
     7
 43
1.0
 76
     1
 77
     6
 78
     2
 67
     7
 79
     5
170
     0
171
     0
290
     0
174
     0
 93
        1
 44
0.0
173
     0
291
     1
 45
0.0
  0
VISUALSTYLE
  5
50A
102
{ACAD_REACTORS
330
26
102
}
330
26
100
AcDbVisualStyle
  2
Brighten
 70
    12
 71
     2
 72
     2
 73
     0
 90
        0
 40
-0.6
 41
-30.0
 62
     5
 63
     7
 74
     1
 91
        4
 64
     7
 65
   257
 75
     1
175
     1
 42
1.0
 92
        8
 66
     7
 43
1.0
 76
     1
 77
     6
 78
     2
 67
     7
 79
     5
170
     0
171
     0
290
     0
174
     0
 93
        1
 44
50.0
173
     0
291
     1
 45
0.0
  0
VISUALSTYLE
  5
50E
102
{ACAD_REACTORS
330
26
102
}
330
26
100
AcDbVisualStyle
  2
ColorChange
 70
    16
 71
     2
 72
     2
 73
     3
 90
        0
 40
-0.6
 41
-30.0
 62
     5
 63
     8
 74
     1
 91
        4
 64
     7
 65
   257
 75
     1
175
     1
 42
1.0
 92
        8
 66
     8
 43
1.0
 76
     1
 77
     6
 78
     2
 67
     7
 79
     5
170
     0
171
     0
290
     0
174
     0
 93
        1
 44
0.0
173
     0
291
     1
 45
0.0
  0
VISUALSTYLE
  5
508
102
{ACAD_REACTORS
330
26
102
}
330
26
100
AcDbVisualStyle
  2
Conceptual
 70
     9
 71
     3
 72
     2
 73
     0
 90
        0
 40
-0.6
 41
-30.0
 62
     5
 63
     7
 74
     2
 91
        2
 64
     7
 65
   257
 75
     1
175
     1
 42
40.0
 92
        8
 66
     7
 43
1.0
 76
     1
 77
     6
 78
     2
 67
     7
 79
     3
170
     0
171
     0
290
     0
174
     0
 93
        1
 44
0.0
173
     0
291
     0
 45
0.0
  0
VISUALSTYLE
  5
509
102
{ACAD_REACTORS
330
26
102
}
330
26
100
AcDbVisualStyle
  2
Dim
 70
    11
 71
     2
 72
     2
 73
     0
 90
        0
 40
-0.6
 41
-30.0
 62
     5
 63
     7
 74
     1
 91
        4
 64
     7
 65
   257
 75
     1
175
     1
 42
1.0
 92
        8
 66
     7
 43
1.0
 76
     1
 77
     6
 78
     2
 67
     7
 79
     5
170
     0
171
     0
290
     0
174
     0
 93
        1
 44
-50.0
173
     0
291
     1
 45
0.0
  0
VISUALSTYLE
  5
50D
102
{ACAD_REACTORS
330
26
102
}
330
26
100
AcDbVisualStyle
  2
Facepattern
 70
    15
 71
     2
 72
     2
 73
     0
 90
        0
 40
-0.6
 41
-30.0
 62
     5
 63
     7
 74
     1
 91
        4
 64
     7
 65
   257
 75
     1
175
     1
 42
1.0
 92
        8
 66
     7
 43
1.0
 76
     1
 77
     6
 78
     2
 67
     7
 79
     5
170
     0
171
     0
290
     0
174
     0
 93
        1
 44
0.0
173
     0
291
     1
 45
0.0
  0
VISUALSTYLE
  5
502
102
{ACAD_REACTORS
330
26
102
}
330
26
100
AcDbVisualStyle
  2
Flat
 70
     0
 71
     2
 72
     1
 73
     1
 90
        2
 40
-0.6
 41
30.0
 62
     5
 63
     7
 74
     0
 91
        4
 64
     7
 65
   257
 75
     1
175
     1
 42
1.0
 92
        8
 66
     7
 43
1.0
 76
     1
 77
     6
 78
     2
 67
     7
 79
     5
170
     0
171
     0
290
     0
174
     0
 93
       13
 44
0.0
173
     0
291
     1
 45
0.0
  0
VISUALSTYLE
  5
503
102
{ACAD_REACTORS
330
26
102
}
330
26
100
AcDbVisualStyle
  2
FlatWithEdges
 70
     1
 71
     2
 72
     1
 73
     1
 90
        2
 40
-0.6
 41
30.0
 62
     5
 63
     7
 74
     1
 91
        4
 64
     7
 65
   257
 75
     1
175
     1
 42
1.0
 92
        0
 66
   257
 43
1.0
 76
     1
 77
     6
 78
     2
 67
     7
 79
     5
170
     0
171
     0
290
     0
174
     0
 93
       13
 44
0.0
173
     0
291
     1
 45
0.0
  0
VISUALSTYLE
  5
504
102
{ACAD_REACTORS
330
26
102
}
330
26
100
AcDbVisualStyle
  2
Gouraud
 70
     2
 71
     2
 72
     2
 73
     1
 90
        2
 40
-0.6
 41
30.0
 62
     5
 63
     7
 74
     0
 91
        4
 64
     7
 65
   257
 75
     1
175
     1
 42
1.0
 92
        0
 66
     7
 43
1.0
 76
     1
 77
     6
 78
     2
 67
     7
 79
     5
170
     0
171
     0
290
     0
174
     0
 93
       13
 44
0.0
173
     0
291
     1
 45
0.0
  0
VISUALSTYLE
  5
505
102
{ACAD_REACTORS
330
26
102
}
330
26
100
AcDbVisualStyle
  2
GouraudWithEdges
 70
     3
 71
     2
 72
     2
 73
     1
 90
        2
 40
-0.6
 41
30.0
 62
     5
 63
     7
 74
     1
 91
        4
 64
     7
 65
   257
 75
     1
175
     1
 42
1.0
 92
        0
 66
   257
 43
1.0
 76
     1
 77
     6
 78
     2
 67
     7
 79
     5
170
     0
171
     0
290
     0
174
     0
 93
       13
 44
0.0
173
     0
291
     1
 45
0.0
  0
VISUALSTYLE
  5
50C
102
{ACAD_REACTORS
330
26
102
}
330
26
100
AcDbVisualStyle
  2
Linepattern
 70
    14
 71
     2
 72
     2
 73
     0
 90
        0
 40
-0.6
 41
-30.0
 62
     5
 63
     7
 74
     1
 91
        4
 64
     7
 65
   257
 75
     7
175
     7
 42
1.0
 92
        8
 66
     7
 43
1.0
 76
     1
 77
     6
 78
     2
 67
     7
 79
     5
170
     0
171
     0
290
     0
174
     0
 93
        1
 44
0.0
173
     0
291
     1
 45
0.0
  0
VISUALSTYLE
  5
39
102
{ACAD_REACTORS
330
26
102
}
330
26
100
AcDbVisualStyle
  2
Realistic
 70
     8
 71
     2
 72
     2
 73
     0
 90
        0
 40
-0.6
 41
-30.0
 62
     5
 63
     7
 74
     1
 91
        0
 64
     7
 65
   257
 75
     1
175
     1
 42
1.0
 92
        8
 66
     8
 43
1.0
 76
     1
 77
     6
 78
     2
 67
     7
 79
     5
170
     0
171
     0
290
     0
174
     0
 93
       13
 44
0.0
173
     0
291
     0
 45
0.0
  0
VISUALSTYLE
  5
50B
102
{ACAD_REACTORS
330
26
102
}
330
26
100
AcDbVisualStyle
  2
Thicken
 70
    13
 71
     2
 72
     2
 73
     0
 90
        0
 40
-0.6
 41
-30.0
 62
     5
 63
     7
 74
     1
 91
        4
 64
     7
 65
   257
 75
     1
175
     1
 42
1.0
 92
       12
 66
     7
 43
1.0
 76
     1
 77
     6
 78
     2
 67
     7
 79
     5
170
     0
171
     0
290
     0
174
     0
 93
        1
 44
0.0
173
     0
291
     1
 45
0.0
  0
DICTIONARYVAR
  5
4FF
102
{ACAD_REACTORS
330
4FC
102
}
330
4FC
100
DictionaryVariables
280
     0
  1
1:1
  0
DICTIONARYVAR
  5
4FE
102
{ACAD_REACTORS
330
4FC
102
}
330
4FC
100
DictionaryVariables
280
     0
  1
STANDARD
  0
DICTIONARYVAR
  5
4FD
102
{ACAD_REACTORS
330
4FC
102
}
330
4FC
100
DictionaryVariables
280
     0
  1
STANDARD
  0
DICTIONARYVAR
  5
2C58
102
{ACAD_REACTORS
330
4FC
102
}
330
4FC
100
DictionaryVariables
280
     0
  1
1
  0
DICTIONARYVAR
  5
2C57
102
{ACAD_REACTORS
330
4FC
102
}
330
4FC
100
DictionaryVariables
280
     0
  1
1
  0
DICTIONARYVAR
  5
2C56
102
{ACAD_REACTORS
330
4FC
102
}
330
4FC
100
DictionaryVariables
280
     0
  1
0
  0
DICTIONARYVAR
  5
500
102
{ACAD_REACTORS
330
4FC
102
}
330
4FC
100
DictionaryVariables
280
     0
  1
0
  0
DICTIONARYVAR
  5
2C54
102
{ACAD_REACTORS
330
4FC
102
}
330
4FC
100
DictionaryVariables
280
     0
  1
1
  0
DICTIONARYVAR
  5
2C55
102
{ACAD_REACTORS
330
4FC
102
}
330
4FC
100
DictionaryVariables
280
     0
  1
127
  0
ACAD_PROXY_OBJECT
  5
4F7
102
{ACAD_REACTORS
330
4F6
102
}
330
4F6
100
AcDbProxyObject
 90
      499
 91
      574
 95
  1638427
 70
     0
 96
       58
311
40CA8010400C400C
 93
       92
310
4050100057356C1D9F42AAAC
350
4F8
 94
        0
1001
ACAD
1000
AcRTDxfName
1000
ACMDATADICTIONARY
1000
AcRTDxfName
1000
ACMDATADICTIONARY
  0
DICTIONARY
  5
16
330
15
100
AcDbDictionary
280
     1
281
     1
  3
ADSK_XREC_LAYOUTTHUMBNAIL
360
17
  0
DICTIONARY
  5
38
330
37
100
AcDbDictionary
280
     1
281
     1
  3
ACAD_ROUNDTRIP_2008_TABLESTYLE_CELLSTYLEMAP
360
42FA
  0
ACAD_PROXY_OBJECT
  5
4F8
102
{ACAD_REACTORS
330
4F7
102
}
330
4F7
100
AcDbProxyObject
 90
      499
 91
      575
 95
  1638427
 70
     0
 96
      154
311
4250C014000D8014800C800D4014000C000DC00C
 93
      155
310
057356C1D9F406406AA8FFFFFFFF067D0100404C
330
2
330
0
330
0
 94
        0
1001
ACAD
1000
AcRTDxfName
1000
ACMDATAENTRYBLOCK
1000
AcRTDxfName
1000
ACMDATAENTRYBLOCK
  0
XRECORD
  5
17
102
{ACAD_REACTORS
330
16
102
}
330
16
100
AcDbXrecord
280
     1
310
28000000B40000008B0000000100080000000000BC61000000000000000000000001000000000000FFFFFF0000000000FFFFFF000000000000000000000000000000000000000000000000000000000000000000330000006600000099000000CC000000FF00000000330000333300006633000099330000CC330000FF3300
310
0000660000336600006666000099660000CC660000FF66000000990000339900006699000099990000CC990000FF99000000CC000033CC000066CC000099CC0000CCCC0000FFCC000000FF000033FF000066FF000099FF0000CCFF0000FFFF000000003300330033006600330099003300CC003300FF003300003333003333
310
33006633330099333300CC333300FF33330000663300336633006666330099663300CC663300FF66330000993300339933006699330099993300CC993300FF99330000CC330033CC330066CC330099CC3300CCCC3300FFCC330000FF330033FF330066FF330099FF3300CCFF3300FFFF330000006600330066006600660099
310
006600CC006600FF00660000336600333366006633660099336600CC336600FF33660000666600336666006666660099666600CC666600FF66660000996600339966006699660099996600CC996600FF99660000CC660033CC660066CC660099CC6600CCCC6600FFCC660000FF660033FF660066FF660099FF6600CCFF6600
310
FFFF660000009900330099006600990099009900CC009900FF00990000339900333399006633990099339900CC339900FF33990000669900336699006666990099669900CC669900FF66990000999900339999006699990099999900CC999900FF99990000CC990033CC990066CC990099CC9900CCCC9900FFCC990000FF99
310
0033FF990066FF990099FF9900CCFF9900FFFF99000000CC003300CC006600CC009900CC00CC00CC00FF00CC000033CC003333CC006633CC009933CC00CC33CC00FF33CC000066CC003366CC006666CC009966CC00CC66CC00FF66CC000099CC003399CC006699CC009999CC00CC99CC00FF99CC0000CCCC0033CCCC0066CC
310
CC0099CCCC00CCCCCC00FFCCCC0000FFCC0033FFCC0066FFCC0099FFCC00CCFFCC00FFFFCC000000FF003300FF006600FF009900FF00CC00FF00FF00FF000033FF003333FF006633FF009933FF00CC33FF00FF33FF000066FF003366FF006666FF009966FF00CC66FF00FF66FF000099FF003399FF006699FF009999FF00CC
310
99FF00FF99FF0000CCFF0033CCFF0066CCFF0099CCFF00CCCCFF00FFCCFF0000FFFF0033FFFF0066FFFF0099FFFF00CCFFFF00FFFFFF00000000000D0D0D001A1A1A00282828003535350043434300505050005D5D5D006B6B6B00787878008686860093939300A1A1A100AEAEAE00BBBBBB00C9C9C900D6D6D600E4E4E400
310
F1F1F100FFFFFF0000000000000000000000000000000000000000000000000000000000000000000000000000000000E2E2E2E2E2E2E2E2E2E2E2E2E2E2E2E2E2E2E2E2E2E2E2E2E2E2E2E2E2E2E2E2E2E2E2E2E2E2E2E2E2E2E2E2E2E2E2E2E2E2E2E2E2E2E2E2E2E2E2E2E2E2E2E2E2E2E2E2E2E2E2E2E2E2E2E2E2E2E2
310
E2E2E2E2E2E2E2E2E2E2E2E2E2E2E2E2E2E2E2E2E2E2E2E2E2E2E2E2E2E2E2E2E2E2E2E2E2E2E2E2E2E2E2E2E2E2E2E2E2E2E2E2E2E2E2E2E2E2E2E2E2E2E2E2E2E2E2E2E2E2E2E2E2E2E2E2E2E2E2E2E2E2E2E2E2E2E2E2E2E2E2E2E2E2E2E2E2E2E2E2E2E2F5F5F5F5F5F5F5F5F5F5F5F5F5F5F5F5F5F5F5F5F5F5F5F5F5
310
F5F5F5F5F5F5F5F5F5F5F5F5F5F5F5F5F5F5F5F5F5F5F5F5F5F5F5F5F5F5F5F5F5F5F5F5F5F5F5F5F5F5F5F5F5F5F5F5F5F5F5F5F5F5F5F5F5F5F5F5F5F5F5F5F5F5F5F5F5F5F5F5F5F5F5F5F5F5F5F5F5F5F5F5F5F5F5F5F5F5F5F5F5F5F5F5F5F5F5F5F5F5F5F5F5F5F5F5F5F5F5F5F5F5F5F5F5F5F5F5F5F5F5F5F5F5F5
310
F5F5F5F5F5F5F5F5F5F5F5F5F5F5F5F5F5F5F5F5F5F5F5F5F5F5E2E2F5F5F5F5F5F5F5F5F5F5F5F5F5F5F5F5F5F5F5F5F5F5F5F5F5F5F5F5F5F5F5F5F5F5F5F5F5F5F5F5F5F5F5F5F5F5F5F5F5F5F5F5F5F5F5F5F5F5F5F5F5F5F5F5F5F5F5F5F5F5F5F5F5F5F5F5F5F5F5F5F5F5F5F5F5F5F5F5F5F5F5F5F5F5F5F5F5F5F5
310
F5F5F5F5F5F5F5F5F5F5F5F5F5F5F5F5F5F5F5F5F5F5F5F5F5F5F5F5F5F5F5F5F5F5F5F5F5F5F5F5F5F5F5F5F5F5F5F5F5F5F5F5F5F5F5F5F5F5F5F5F5F5F5F5F5F5F5F5F5F5F5F5F5F5F5F5F5F5F5E2E2F5F5F5F5F5F5F5F5F5F5F5F5F5F5F5F5F5F5F5F5F5F5F5F5F5F5F5F5F5F5F5F5F5F5F5F5F5F5F5F5F5F5F5F5F5F5
310
F5F5F5F5F5F5F5F5F5F5F5F5F5F5F5F5F5F5F5F5F5F5F5F5F5F5F5F5F5F5F5F5F5F5F5F5F5F5F5F5F5F5F5F5F5F5F5F5F5F5F5F5F5F5F5F5F5F5F5F5F5F5F5F5F5F5F5F5F5F5F5F5F5F5F5F5F5F5F5F5F5F5F5F5F5F5F5F5F5F5F5F5F5F5F5F5F5F5F5F5F5F5F5F5F5F5F5F5F5F5F5F5F5F5F5F5F5F5F5F5F5F5F5F5F5F5F5
310
F5F5F5F5F5E2E2F5F5F5E2E2E2E2E2E2E2E2F5F5F5F5F5F5F5F5F5E2E2E2E2E2E2E2E2E2E2E2E2E2E2E2E2F5F5F5F5F5F5F5F5F5E2E2E2E2E2E2E2E2E2E2E2E2E2E2E2F5F5F5F5F5F5F5F5F5E2E2E2E2E2E2E2E2E2E2E2E2E2E2E2E2F5F5F5F5F5F5F5F5E2E2E2E2E2E2E2E2E2E2E2E2E2E2E2E2F5F5F5F5F5F5F5F5F5E2E2
310
E2E2E2E2E2E2E2E2E2E2E2E2E2F5F5F5F5F5F5F5F5F5E2E2E2E2E2E2E2E2E2E2E2E2E2E2E2E2F5F5F5F5F5F5F5F5F5E2E2E2E2E2E2E2E2F5F5F5E2E2F5F5F5E2F5F5F5F5F5F5F5F5F5F5F5F5F5F5F5F5F5F5F5F5F5F5F5F5F5F5F5F5F5F5F5F5F5F5F5F5F5F5F5F5F5F5F5F5F5F5F5F5F5F5F5F5F5F5F5F5F5F5F5F5F5F5F5
310
F5F5F5F5F5F5F5F5F5F5F5F5F5F5F5F5F5F5F5F5F5F5F5F5F5F5F5F5F5F5F5F5F5F5F5F5F5F5F5F5F5F5F5F5F5F5F5F5F5F5F5F5F5F5F5F5F5F5F5F5F5F5F5F5F5F5F5F5F5F5F5F5F5F5F5F5F5F5F5F5F5F5F5F5F5F5F5F5F5F5F5F5F5F5F5F5F5F5F5F5F5F5F5F5F5F5F5E2F5F5F5E2E2F5F5F5E2F5F5F5F5F5F5F5F5F5F5
310
F5F5F5F5F5F5F5F5F5F5F5F5F5F5F5F5F5F5F5F5F5F5F5F5F5F5F5F5F5F5F5F5F5F5F5F5F5F5F5F5F5F5F5F5F5F5F5F5F5F5F5F5F5F5F5F5F5F5F5F5F5F5F5F5F5F5F5F5F5F5F5F5F5F5F5F5F5F5F5F5F5F5F5F5F5F5F5F5F5F5F5F5F5F5F5F5F5F5F5F5F5F5F5F5F5F5F5F5F5F5F5F5F5F5F5F5F5F5F5F5F5F5F5F5F5F5F5
310
F5F5F5F5F5F5F5F5F5F5F5F5F5F5F5F5F5F5F5F5F5F5F5F5F5F5F5F5F5F5F5F5F5E2F5F5F5E2E2F5F5F5E2F5F5F5F5F5F5F5F5F5F5F5F5F5F5F5F5F5F5F5F5F5F5F5F5F5F5F5F5F5F5F5F5F5F5F5F5F5F5F5F5F5F5F5F5F5F5F5F5F5F5F5F5F5F5F5F5F5F5F5F5F5F5F5F5F5F5F5F5F5F5F5F5F5F5F5F5F5F5F5F5F5F5F5F5
310
F5F5F5F5F5F5F5F5F5F5F5F5F5F5F5F5F5F5F5F5F5F5F5F5F5F5F5F5F5F5F5F5F5F5F5F5F5F5F5F5F5F5F5F5F5F5F5F5F5F5F5F5F5F5F5F5F5F5F5F5F5F5F5F5F5F5F5F5F5F5F5F5F5F5F5F5F5F5F5F5F5F5F5F5F5F5E2F5F5F5E2E2F5F5F5E2F5F5F5F5F5F5F5F5F5F5F5F5F5F5F5F5F5F5F5F5F5F5F5F5F5F5F5F5F5F5F5
310
F5F5F5F5F5F5F5F5F5F5F5F5F5F5F5F5F5F5F5F5F5F5F5F5F5F5F5F5F5F5F5F5F5F5F5F5F5F5F5F5F5F5F5F5F5F5F5F5F5F5F5F5F5F5F5F5F5F5F5F5F5F5F5F5F5F5F5F5F5F5F5F5F5F5F5F5F5F5F5F5F5F5F5F5F5F5F5F5F5F5F5F5F5F5F5F5F5F5F5F5F5F5F5F5F5F5F5F5F5F5F5F5F5F5F5F5F5F5F5F5F5F5F5F5F5F5F5
310
F5F5F5F5F5F5F5F5F5F5F5F5E2F5F5F5E2E2F5F5F5E2F5F5F5F5F5F5F5F5F5F5F5F5F5F5F5F5F5F5F5F5F5F5F5F5F5F5F5F5F5F5F5F5F5F5F5F5F5F5F5F5F5F5F5F5F5F5F5F5F5F5F5F5F5F5F5F5F5F5F5F5F5F5F5F5F5F5F5F5F5F5F5F5F5F5F5F5F5F5F5F5F5F5F5F5F5F5F5F5F5F5F5F5F5F5F5F5F5F5F5F5F5F5F5F5F5
310
F5F5F5F5F5F5F5F5F5F5F5F5F5F5F5F5F5F5F5F5F5F5F5F5F5F5F5F5F5F5F5F5F5F5F5F5F5F5F5F5F5F5F5F5F5F5F5F5F5F5F5F5F5F5F5F5F5F5F5F5F5F5F5F5F5E2F5F5F5E2E2F5F5F5E2F5F5F5F5F5F5F5F5F5F5F5F5F5F5F5F5F5F5F5F5F5F5F5F5F5F5F5F5F5F5F5F5F5F5F5F5F5F5F5F5F5F5F5F5F5F5F5F5F5F5F5F5
310
F5F5F5F5F5F5F5F5F5F5F5F5F5F5F5F5F5F5F5F5F5F5F5F5F5F5F5F5F5F5F5F5F5F5F5F5F5F5F5F5F5F5F5F5F5F5F5F5F5F5F5F5F5F5F5F5F5F5F5F5F5F5F5F5F5F5F5F5F5F5F5F5F5F5F5F5F5F5F5F5F5F5F5F5F5F5F5F5F5F5F5F5F5F5F5F5F5F5F5F5F5F5F5F5F5F5F5F5F5F5F5F5F5F5F5F5F5F5E2F5F5F5E2E2F5F5F5
310
E2F5F5F5F5F5F5F5F5F5F5F5F5F5F5F5F5F5F5F5F5F5F5F5F5F5F5F5F5F5F5F5F5F5F5F5F5F5F5F5F5F5F5F5F5F5F5F5F5F5F5F5F5F5F5F5F5F5F5F5F5F5F5F5F5F5F5F5F5F5F5F5F5F5F5F5F5F5F5F5F5F5F5F5F5F5F5F5F5F5F5F5F5F5F5F5F5F5F5F5F5F5F5F5F5F5F5F5F5F5F5F5F5F5F5F5F5F5F5F5F5F5F5F5F5F5F5
310
F5F5F5F5F5F5F5F5F5F5F5F5F5F5F5F5F5F5F5F5F5F5F5F5F5F5F5F5F5F5F5F5F5F5F5F5F5F5F5F5F5F5F5F5E2F5F5F5E2E2F5F5F5E2F5F5F5F5F5F5F5F5F5F5F5F5F5F5F5F5F5F5F5F5F5F5F5F5F5F5F5F5F5F5F5F5F5F5F5F5F5F5F5F5F5F5F5F5F5F5F5F5F5F5F5F5F5F5F5F5F5F5F5F5F5F5F5F5F5F5F5F5F5F5F5F5F5
310
F5F5F5F5F5F5F5F5F5F5F5F5F5F5F5F5F5F5F5F5F5F5F5F5F5F5F5F5F5F5F5F5F5F5F5F5F5F5F5F5F5F5F5F5F5F5F5F5F5F5F5F5F5F5F5F5F5F5F5F5F5F5F5F5F5F5F5F5F5F5F5F5F5F5F5F5F5F5F5F5F5F5F5F5F5F5F5F5F5F5F5F5F5F5F5F5F5E2F5F5F5E2E2F5F5F5F5F5F5F5F5F5F5F5F5F5F5F5F5F5F5F5F5F5F5F5F5
310
F5F5F5F5F5F5F5F5F5F5F5F5F5F5F5F5F5F5F5F5F5F5F5F5F5F5F5F5F5F5F5F5F5F5F5F5F5F5F5F5F5F5F5F5F5F5F5F5F5F5F5F5F5F5F5F5F5F5F5F5F5F5F5F5F5F5F5F5F5F5F5F5F5F5F5F5F5F5F5F5F5F5F5F5F5F5F5F5F5F5F5F5F5F5F5F5F5F5F5F5F5F5F5F5F5F5F5F5F5F5F5F5F5F5F5F5F5F5F5F5F5F5F5F5F5F5F5
310
F5F5F5F5F5F5F5F5F5F5F5F5F5F5F5F5F5F5F5F5F5F5F5F5F5F5F5E2E2F5F5F5F5F5F5F5F5F5F5F5F5F5F5F5F5F5F5F5F5F5F5F5F5F5F5F5F5F5F5F5F5F5F5F5F5F5F5F5F5F5F5F5F5F5F5F5F5F5F5F5F5F5F5F5F5F5F5F5F5F5F5F5F5F5F5F5F5F5F5F5F5F5F5F5F5F5F5F5F5F5F5F5F5F5F5F5F5F5F5F5F5F5F5F5F5F5F5
310
F5F5F5F5F5F5F5F5F5F5F5F5F5F5F5F5F5F5F5F5F5F5F5F5F5F5F5F5F5F5F5F5F5F5F5F5F5F5F5F5F5F5F5F5F5F5F5F5F5F5F5F5F5F5F5F5F5F5F5F5F5F5F5F5F5F5F5F5F5F5F5F5F5F5F5F5F5F5F5F5E2E2F5F5F5F5F5F5F5F5F5F5F5F5F5F5F5F5F5F5F5F5F5F5F5F5F5F5F5F5F5F5F5F5F5F5F5F5F5F5F5F5F5F5F5F5F5
310
F5F5F5F5F5F5F5F5F5F5F5F5F5F5F5F5F5F5F5F5F5F5F5F5F5F5F5F5F5F5F5F5F5F5F5F5F5F5F5F5F5F5F5F5F5F5F5F5F5F5F5F5F5F5F5F5F5F5F5F5F5F5F5F5F5F5F5F5F5F5F5F5F5F5F5F5F5F5F5F5F5F5F5F5F5F5F5F5F5F5F5F5F5F5F5F5F5F5F5F5F5F5F5F5F5F5F5F5F5F5F5F5F5F5F5F5F5F5F5F5F5F5F5F5F5F5F5
310
F5F5F5F5F5F5E2E2F5F5F5F5F5F5F5F5F5F5F5F5F5F5F5F5F5F5F5F5F5F5F5F5F5F5F5F5F5F5F5F5F5F5F5F5F5F5F5F5F5F5F5F5F5F5F5F5F5F5F5F5F5F5F5F5F5F5F5F5F5F5F5F5F5F5F5F5F5F5F5F5F5F5F5F5F5F5F5F5F5F5F5F5F5F5F5F5F5F5F5F5F5F5F5F5F5F5F5F5F5F5F5F5F5F5F5F5F5F5F5F5F5F5F5F5F5F5F5
310
F5F5F5F5F5F5F5F5F5F5F5F5F5F5F5F5F5F5F5F5F5F5F5F5F5F5F5F5F5F5F5F5F5F5F5F5F5F5F5F5F5F5F5F5F5F5F5F5F5F5F5F5F5F5F5F5F5F5F5E2E2F5F5F5F5F5F5F5F5F5F5F5F5F5F5F5F5F5F5F5F5F5F5F5F5F5F5F5F5F5F5F5F5F5F5F5F5F5F5F5F5F5F5F5F5F5F5F5F5F5F5F5F5F5F5F5F5F5F5F5F5F5F5F5F5F5F5
310
F5F5F5F5F5F5F5F5F5F5F5F5F5F5F5F5F5F5F5F5F5F5F5F5F5F5F5F5F5F5F5F5F5F5F5F5F5F5F5F5F5F5F5F5F5F5F5F5F5F5F5F5F5F5F5F5F5F5F5F5F5F5F5F5F5F5F5F5F5F5F5F5F5F5F5F5F5F5F5F5F5F5F5F5F5F5F5F5F5F5F5F5F5F5F5F5F5F5F5F5F5F5F5F5F5F5F5F5F5F5F5F5E2E2F5F5F5F5F5F5F5F5F5F5F5F5F5
310
F5F5F5F5F5F5F5F5F5F5F5F5F5F5F5F5F5F5F5F5F5F5F5F5F5F5F5F5F5F5F5F5F5F5F5F5F5F5F5F5F5F5F5F5F5F5F5F5F5F5F5F5F5F5F5F5F5F5F5F5F5F5F5F5F5F5F5F5F5F5F5F5F5F5F5F5F5F5F5F5F5F5F5F5F5F5F5F5F5F5F5F5F5F5F5F5F5F5F5F5F5F5F5F5F5F5F5F5F5F5F5F5F5F5F5F5F5F5F5F5F5F5F5F5F5F5F5
310
F5F5F5F5F5F5F5F5F5F5F5F5F5F5F5F5F5F5F5F5F5F5F5F5F5F5F5F5F5F5F5F5F5F5F5F5F5F5E2E2F5F5F5F5F5F5F5F5F5F5F5F5F5F5F5F5F5F5F5F5F5F5F5F5F5F5F5F5F5F5F5F5F5F5F5F5F5F5F5F5F5F5F5F5F5F5F5F5F5F5F5F5F5F5F5F5F5F5F5F5F5F5F5F5F5F5F5F5F5F5F5F5F5F5F5F5F5F5F5F5F5F5F5F5F5F5F5
310
F5F5F5F5F5F5F5F5F5F5F5F5F5F5F5F5F5F5F5F5F5F5F5F5F5F5F5F5F5F5F5F5F5F5F5F5F5F5F5F5F5F5F5F5F5F5F5F5F5F5F5F5F5F5F5F5F5F5F5F5F5F5F5F5F5F5F5F5F5F5F5F5F5F5F5F5F5F5F5F5F5F5F5F5F5F5F5F5F5F5F5E2E2F5F5F5F5F5F5F5F5F5F5F5F5F5F5F5F5F5F5F5F5F5F5F5F5F5F5F5F5F5F5F5F5F5F5
310
F5F5F5F5F5F5F5F5F5F5F5F5F5F5F5F5F5F5F5F5F5F5F5F5F5F5F5F5F5F5F5F5F5F5F5F5F5F5F5F5F5F5F5F5F5F5F5F5F5F5F5F5F5F5F5F5F5F5F5F5F5F5F5F5F5F5F5F5F5F5F5F5F5F5F5F5F5F5F5F5F5F5F5F5F5F5F5F5F5F5F5F5F5F5F5F5F5F5F5F5F5F5F5F5F5F5F5F5F5F5F5F5F5F5F5F5F5F5F5F5F5F5F5F5F5F5F5
310
F5F5F5F5F5F5F5F5F5F5F5F5F5F5F5F5F5E2E2F5F5F5F5F5F5F5F5F5F5F5F5F5F5F5F5F5F5F5F5F5F5F5F5F5F5F5F5F5F5F5F5F5F5F5F5F5F5F5F5F5F5F5F5F5F5F5F5F5F5F5F5F5F5F5F5F5F5F5F5F5F5F5F5F5F5F5F5F5F5F5F5F5F5F5F5F5F5F5F5F5F5F5F5F5F5F5F5F5F5F5F5F5F5F5F5F5F5F5F5F5F5F5F5F5F5F5F5
310
F5F5F5F5F5F5F5F5F5F5F5F5F5F5F5F5F5F5F5F5F5F5F5F5F5F5F5F5F5F5F5F5F5F5F5F5F5F5F5F5F5F5F5F5F5F5F5F5F5F5F5F5F5F5F5F5F5F5F5F5F5F5F5F5F5F5F5F5F5F5E2E2F5F5F5E2F5F5F5F5F5F5F5F5F5F5F5F5F5F5F5F5F5F5F5F5F5F5F5F5F5F5F5F5F5F5F5F5F5F5F5F5F5F5F5F5F5F5F5F5F5F5F5F5F5F5F5
310
F5F5F5F5F5F5F5F5F5F5F5F5F5F5F5F5F5F5F5F5F5F5F5F5F5F5F5F5F5F5F5F5F5F5F5F5F5F5F5F5F5F5F5F5F5F5F5F5F5F5F5F5F5F5F5F5F5F5F5F5F5F5F5F5F5F5F5F5F5F5F5F5F5F5F5F5F5F5F5F5F5F5F5F5F5F5F5F5F5F5F5F5F5F5F5F5F5F5F5F5F5F5F5F5F5F5F5F5F5F5F5F5F5F5F5F5F5F5F5E2F5F5F5E2E2F5F5
310
F5E2F5F5F5F5F5F5F5F5F5F5F5F5F5F5F5F5F5F5F5F5F5F5F5F5F5F5F5F5F5F5F5F5F5F5F5F5F5F5F5F5F5F5F5F5F5F5F5F5F5F5F5F5F5F5F5F5F5F5F5F5F5F5F5F5F5F5F5F5F5F5F5F5F5F5F5F5F5F5F5F5F5F5F5F5F5F5F5F5F5F5F5F5F5F5F5F5F5F5F5F5F5F5F5F5F5F5F5F5F5F5F5F5F5F5F5F5F5F5F5F5F5F5F5F5F5
310
F5F5F5F5F5F5F5F5F5F5F5F5F5F5F5F5F5F5F5F5F5F5F5F5F5F5F5F5F5F5F5F5F5F5F5F5F5F5F5F5F5F5F5F5F5E2F5F5F5E2E2F5F5F5E2F5F5F5F5F5F5F5F5F5F5F5F5F5F5F5F5F5F5F5F5F5F5F5F5F5F5F5F5F5F5F5F5F5F5F5F5F5F5F5F5F5F5F5F5F5F5F5F5F5F5F5F5F5F5F5F5F5F5F5F5F5F5F5F5F5F5F5F5F5F5F5F5
310
F5F5F5F5F5F5F5F5F5F5F5F5F5F5F5F5F5F5F5F5F5F5F5F5F5F5F5F5F5F5F5F5F5F5F5F5F5F5F5F5F5F5F5F5F5F5F5F5F5F5F5F5F5F5F5F5F5F5F5F5F5F5F5F5F5F5F5F5F5F5F5F5F5F5F5F5F5F5F5F5F5F5F5F5F5F5F5F5F5F5F5F5F5F5F5F5F5F5E2F5F5F5E2E2F5F5F5E2F5F5F5F5F5F5F5F5F5F5F5F5F5F5F5F5F5F5F5
310
F5F5F5F5F5F5F5F5F5F5F5F5F5F5F5F5F5F5F5F5F5F5F5F5F5F5F5F5F5F5F5F5F5F5F5F5F5F5F5F5F5F5F5F5F5F5F5F5F5F5F5F5F5F5F5F5F5F5F5F5F5F5F5F5F5F5F5F5F5F5F5F5F5F5F5F5F5F5F5F5F5F5F5F5F5F5F5F5F5F5F5F5F5F5F5F5F5F5F5F5F5F5F5F5F5F5F5F5F5F5F5F5F5F5F5F5F5F5F5F5F5F5F5F5F5F5F5
310
F5F5F5F5F5F5F5F5F5F5F5F5F5F5F5F5F5F5F5F5F5F5F5F5E2F5F5F5E2E2F5F5F5E2F5F5F5F5F5F5F5F5F5F5F5F5F5F5F5F5F5F5F5F5F5F5F5F5F5F5F5F5F5F5F5F5F5F5F5F5F5F5F5F5F5F5F5F5F5F5F5F5F5F5F5F5F5F5F5F5F5F5F5F5F5F5F5F5F5F5F5F5F5F5F5F5F5F5F5F5F5F5F5F5F5F5F5F5F5F5F5F5F5F5F5F5F5
310
F5F5F5F5F5F5F5F5F5F5F5F5F5F5F5F5F5F5F5F5F5F5F5F5F5F5F5F5F5F5F5F5F5F5F5F5F5F5F5F5F5F5F5F5F5F5F5F5F5F5F5F5F5F5F5F5F5F5F5F5F5F5F5F5F5F5F5F5F5F5F5F5F5F5F5F5F5E2F5F5F5E2E2F5F5F5E2F5F5F5F5F5F5F5F5F5F5F5F5F5F5F5F5F5F5F5F5F5F5F5F5F5F5F5F5F5F5F5F5F5F5F5F5F5F5F5F5
310
F5F5F5F5F5F5F5F5F5F5F5F5F5F5F5F5F5F5F5F5F5F5F5F5F5F5F5F5F5F5F5F5F5F5F5F5F5F5F5F5F5F5F5F5F5F5F5F5F5F5F5F5F5F5F5F5F5F5F5F5F5F5F5F5F5F5F5F5F5F5F5F5F5F5F5F5F5F5F5F5F5F5F5F5F5F5F5F5F5F5F5F5F5F5F5F5F5F5F5F5F5F5F5F5F5F5F5F5F5F5F5F5F5F5F5F5F5F5F5F5F5F5F5F5F5F5F5
310
F5F5F5E2F5F5F5E2E2F5F5F5E2F5F5F5F5F5F5F5F5F5F5F5F5F5F5F5F5F5F5F5F5F5F5F5F5F5F5F5F5F5F5F5F5F5F5F5F5F5F5F5F5F5F5F5F5F5F5F5F5F5F5F5F5F5F5F5F5F5F5F5F5F5F5F5F5F5F5F5F5F5F5F5F5F5F5F5F5F5F5F5F5F5F5F5F5F5F5F5F5F5F5F5F5F5F5F5F5F5F5F5F5F5F5F5F5F5F5F5F5F5F5F5F5F5F5
310
F5F5F5F5F5F5F5F5F5F5F5F5F5F5F5F5F5F5F5F5F5F5F5F5F5F5F5F5F5F5F5F5F5F5F5F5F5F5F5F5F5F5F5F5F5F5F5F5F5F5F5F5F5F5F5F5E2F5F5F5E2E2F5F5F5E2F5F5F5F5F5F5F5F5F5F5F5F5F5F5F5F5F5F5F5F5F5F5F5F5F5F5F5F5F5F5F5F5F5F5F5F5F5F5F5F5F5F5F5F5F5F5F5F5F5F5F5F5F5F5F5F5F5F5F5F5F5
310
F5F5F5F5F5F5F5F5F5F5F5F5F5F5F5F5F5F5F5F5F5F5F5F5F5F5F5F5F5F5F5F5F5F5F5F5F5F5F5F5F5F5F5F5F5F5F5F5F5F5F5F5F5F5F5F5F5F5F5F5F5F5F5F5F5F5F5F5F5F5F5F5F5F5F5F5F5F5F5F5F5F5F5F5F5F5F5F5F5F5F5F5F5F5F5F5F5F5F5F5F5F5F5F5F5F5F5F5F5E2F5F5F5E2E2F5F5F5E2F5F5F5F5F5F5F5F5
310
F5F5F5F5F5F5F5F5F5F5F5F5F5F5F5F5F5F5F5F5F5F5F5F5F5F5F5F5F5F5F5F5F5F5F5F5F5F5F5F5F5F5F5F5F5F5F5F5F5F5F5F5F5F5F5F5F5F5F5F5F5F5F5F5F5F5F5F5F5F5F5F5F5F5F5F5F5F5F5F5F5F5F5F5F5F5F5F5F5F5F5F5F5F5F5F5F5F5F5F5F5F5F5F5F5F5F5F5F5F5F5F5F5F5F5F5F5F5F5F5F5F5F5F5F5F5F5
310
F5F5F5F5F5F5F5F5F5F5F5F5F5F5F5F5F5F5F5F5F5F5F5F5F5F5F5F5F5F5F5F5F5F5F5E2F5F5F5E2E2F5F5F5E2F5F5F5F5F5F5F5F5F5F5F5F5F5F5F5F5F5F5F5F5F5F5F5F5F5F5F5F5F5F5F5F5F5F5F5F5F5F5F5F5F5F5F5F5F5F5F5F5F5F5F5F5F5F5F5F5F5F5F5F5F5F5F5F5F5F5F5F5F5F5F5F5F5F5F5F5F5F5F5F5F5F5
310
F5F5F5F5F5F5F5F5F5F5F5F5F5F5F5F5F5F5F5F5F5F5F5F5F5F5F5F5F5F5F5F5F5F5F5F5F5F5F5F5F5F5F5F5F5F5F5F5F5F5F5F5F5F5F5F5F5F5F5F5F5F5F5F5F5F5F5F5F5F5F5F5F5F5F5F5F5F5F5F5F5F5F5F5F5F5F5F5E2F5F5F5E2E2F5F5F5E2F5F5F5F5F5F5F5F5F5F5F5F5F5F5F5F5F5F5F5F5F5F5F5F5F5F5F5F5F5
310
F5F5F5F5F5F5F5F5F5F5F5F5F5F5F5F5F5F5F5F5F5F5F5F5F5F5F5F5F5F5F5F5F5F5F5F5F5F5F5F5F5F5F5F5F5F5F5F5F5F5F5F5F5F5F5F5F5F5F5F5F5F5F5F5F5F5F5F5F5F5F5F5F5F5F5F5F5F5F5F5F5F5F5F5F5F5F5F5F5F5F5F5F5F5F5F5F5F5F5F5F5F5F5F5F5F5F5F5F5F5F5F5F5F5F5F5F5F5F5F5F5F5F5F5F5F5F5
310
F5F5F5F5F5F5F5F5F5F5F5F5F5F5E2F5F5F5E2E2F5F5F5E2F5F5F5F5F5F5F5F5F5F5F5F5F5F5F5F5F5F5F5F5F5F5F5F5F5F5F5F5F5F5F5F5F5F5F5F5F5F5F5F5F5F5F5F5F5F5F5F5F5F5F5F5F5F5F5F5F5F5F5F5F5F5F5F5F5F5F5F5F5F5F5F5F5F5F5F5F5F5F5F5F5F5F5F5F5F5F5F5F5F5F5F5F5F5F5F5F5F5F5F5F5F5F5
310
F5F5F5F5F5F5F5F5F5F5F5F5F5F5F5F5F5F5F5F5F5F5F5F5F5F5F5F5F5F5F5F5F5F5F5F5F5F5F5F5F5F5F5F5F5F5F5F5F5F5F5F5F5F5F5F5F5F5F5F5F5F5F5F5F5F5F5E2F5F5F5E2E2F5F5F5E2F5F5F5F5F5F5F5F5F5F5F5F5F5F5F5F5F5F5F5F5F5F5F5F5F5F5F5F5F5F5F5F5F5F5F5F5F5F5F5F5F5F5F5F5F5F5F5F5F5F5
310
F5F5F5F5F5F5F5F5F5F5F5F5F5F5F5F5F5F5F5F5F5F5F5F5F5F5F5F5F5F5F5F5F5F5F5F5F5F5F5F5F5F5F5F5F5F5F5F5F5F5F5F5F5F5F5F5F5F5F5F5F5F5F5F5F5F5F5F5F5F5F5F5F5F5F5F5F5F5F5F5F5F5F5F5F5F5F5F5F5F5F5F5F5F5F5F5F5F5F5F5F5F5F5F5F5F5F5F5F5F5F5F5F5F5F5F5F5F5F5F5E2F5F5F5E2E2F5
310
F5F5E2F5F5F5F5F5F5F5F5F5F5F5F5F5F5F5F5F5F5F5F5F5F5F5F5F5F5F5F5F5F5F5F5F5F5F5F5F5F5F5F5F5F5F5F5F5F5F5F5F5F5F5F5F5F5F5F5F5F5F5F5F5F5F5F5F5F5F5F5F5F5F5F5F5F5F5F5F5F5F5F5F5F5F5F5F5F5F5F5F5F5F5F5F5F5F5F5F5F5F5F5F5F5F5F5F5F5F5F5F5F5F5F5F5F5F5F5F5F5F5F5F5F5F5F5
310
F5F5F5F5F5F5F5F5F5F5F5F5F5F5F5F5F5F5F5F5F5F5F5F5F5F5F5F5F5F5F5F5F5F5F5F5F5F5F5F5F5F5F5F5F5F5E2F5F5F5E2E2F5F5F5E2F5F5F5F5F5F5F5F5F5F5F5F5F5F5F5F5F5F5F5F5F5F5F5F5F5F5F5F5F5F5F5F5F5F5F5F5F5F5F5F5F5F5F5F5F5F5F5F5F5F5F5F5F5F5F5F5F5F5F5F5F5F5F5F5F5F5F5F5F5F5F5
310
F5F5F5F5F5F5F5F5F5F5F5F5F5F5F5F5F5F5F5F5F5F5F5F5F5F5F5F5F5F5F5F5F5F5F5F5F5F5F5F5F5F5F5F5F5F5F5F5F5F5F5F5F5F5F5F5F5F5F5F5F5F5F5F5F5F5F5F5F5F5F5F5F5F5F5F5F5F5F5F5F5F5F5F5F5F5F5F5F5F5F5F5F5F5F5F5F5F5F5E2F5F5F5E2E2F5F5F5E2F5F5F5F5F5F5F5F5F5F5F5F5F5F5F5F5F5F5
310
F5F5F5F5F5F5F5F5F5F5F5F5F5F5F5F5F5F5F5F5F5F5F5F5F5F5F5F5F5F5F5F5F5F5F5F5F5F5F5F5F5F5F5F5F5F5F5F5F5F5F5F5F5F5F5F5F5F5F5F5F5F5F5F5F5F5F5F5F5F5F5F5F5F5F5F5F5F5F5F5F5F5F5F5F5F5F5F5F5F5F5F5F5F5F5F5F5F5F5F5F5F5F5F5F5F5F5F5F5F5F5F5F5F5F5F5F5F5F5F5F5F5F5F5F5F5F5
310
F5F5F5F5F5F5F5F5F5F5F5F5F5F5F5F5F5F5F5F5F5F5F5F5F5E2F5F5F5E2E2F5F5F5E2F5F5F5F5F5F5F5F5F5F5F5F5F5F5F5F5F5F5F5F5F5F5F5F5F5F5F5F5F5F5F5F5F5F5F5F5F5F5F5F5F5F5F5F5F5F5F5F5F5F5F5F5F5F5F5F5F5F5F5F5F5F5F5F5F5F5F5F5F5F5F5F5F5F5F5F5F5F5F5F5F5F5F5F5F5F5F5F5F5F5F5F5
310
F5F5F5F5F5F5F5F5F5F5F5F5F5F5F5F5F5F5F5F5F5F5F5F5F5F5F5F5F5F5F5F5F5F5F5F5F5F5F5F5F5F5F5F5F5F5F5F5F5F5F5F5F5F5F5F5F5F5F5F5F5F5F5F5F5F5F5F5F5F5F5F5F5F5F5F5F5F5E2F5F5F5E2E2F5F5F5F5F5F5F5F5F5F5F5F5F5F5F5F5F5F5F5F5F5F5F5F5F5F5F5F5F5F5F5F5F5F5F5F5F5F5F5F5F5F5F5
310
F5F5F5F5F5F5F5F5F5F5F5F5F5F5F5F5F5F5F5F5F5F5F5F5F5F5F5F5F5F5F5F5F5F5F5F5F5F5F5F5F5F5F5F5F5F5F5F5F5F5F5F5F5F5F5F5F5F5F5F5F5F5F5F5F5F5F5F5F5F5F5F5F5F5F5F5F5F5F5F5F5F5F5F5F5F5F5F5F5F5F5F5F5F5F5F5F5F5F5F5F5F5F5F5F5F5F5F5F5F5F5F5F5F5F5F5F5F5F5F5F5F5F5F5F5F5F5
310
F5F5F5F5F5F5F5F5E2E2F5F5F5F5F5F5F5F5F5F5F5F5F5F5F5F5F5F5F5F5F5F5F5F5F5F5F5F5F5F5F5F5F5F5F5F5F5F5F5F5F5F5F5F5F5F5F5F5F5F5F5F5F5F5F5F5F5F5F5F5F5F5F5F5F5F5F5F5F5F5F5F5F5F5F5F5F5F5F5F5F5F5F5F5F5F5F5F5F5F5F5F5F5F5F5F5F5F5F5F5F5F5F5F5F5F5F5F5F5F5F5F5F5F5F5F5F5
310
F5F5F5F5F5F5F5F5F5F5F5F5F5F5F5F5F5F5F5F5F5F5F5F5F5F5F5F5F5F5F5F5F5F5F5F5F5F5F5F5F5F5F5F5F5F5F5F5F5F5F5F5F5F5F5F5F5F5F5F5F5E2E2F5F5F5F5F5F5F5F5F5F5F5F5F5F5F5F5F5F5F5F5F5F5F5F5F5F5F5F5F5F5F5F5F5F5F5F5F5F5F5F5F5F5F5F5F5F5F5F5F5F5F5F5F5F5F5F5F5F5F5F5F5F5F5F5
310
F5F5F5F5F5F5F5F5F5F5F5F5F5F5F5F5F5F5F5F5F5F5F5F5F5F5F5F5F5F5F5F5F5F5F5F5F5F5F5F5F5F5F5F5F5F5F5F5F5F5F5F5F5F5F5F5F5F5F5F5F5F5F5F5F5F5F5F5F5F5F5F5F5F5F5F5F5F5F5F5F5F5F5F5F5F5F5F5F5F5F5F5F5F5F5F5F5F5F5F5F5F5F5F5F5F5F5F5F5F5F5F5F5F5E2E2F5F5F5F5F5F5F5F5F5F5F5
310
F5F5F5F5F5F5F5F5F5F5F5F5F5F5F5F5F5F5F5F5F5F5F5F5F5F5F5F5F5F5F5F5F5F5F5F5F5F5F5F5F5F5F5F5F5F5F5F5F5F5F5F5F5F5F5F5F5F5F5F5F5F5F5F5F5F5F5F5F5F5F5F5F5F5F5F5F5F5F5F5F5F5F5F5F5F5F5F5F5F5F5F5F5F5F5F5F5F5F5F5F5F5F5F5F5F5F5F5F5F5F5F5F5F5F5F5F5F5F5F5F5F5F5F5F5F5F5
310
F5F5F5F5F5F5F5F5F5F5F5F5F5F5F5F5F5F5F5F5F5F5F5F5F5F5F5F5F5F5F5F5F5F5F5F5F5F5F5F5E2E2F5F5F5F5F5F5F5F5F5F5F5F5F5F5F5F5F5F5F5F5F5F5F5F5F5F5F5F5F5F5F5F5F5F5F5F5F5F5F5F5F5F5F5F5F5F5F5F5F5F5F5F5F5F5F5F5F5F5F5F5F5F5F5F5F5F5F5F5F5F5F5F5F5F5F5F5F5F5F5F5F5F5F5F5F5
310
F5F5F5F5F5F5F5F5F5F5F5F5F5F5F5F5F5F5F5F5F5F5F5F5F5F5F5F5F5F5F5F5F5F5F5F5F5F5F5F5F5F5F5F5F5F5F5F5F5F5F5F5F5F5F5F5F5F5F5F5F5F5F5F5F5F5F5F5F5F5F5F5F5F5F5F5F5F5F5F5F5F5F5F5F5F5F5F5F5F5F5F5F5E2E2F5F5F5F5F5F5F5F5F5F5F5F5F5F5F5F5F5F5F5F5F5F5F5F5F5F5F5F5F5F5F5F5
310
F5F5F5F5F5F5F5F5F5F5F5F5F5F5F5F5F5F5F5F5F5F5F5F5F5F5F5F5F5F5F5F5F5F5F5F5F5F5F5F5F5F5F5F5F5F5F5F5F5F5F5F5F5F5F5F5F5F5F5F5F5F5F5F5F5F5F5F5F5F5F5F5F5F5F5F5F5F5F5F5F5F5F5F5F5F5F5F5F5F5F5F5F5F5F5F5F5F5F5F5F5F5F5F5F5F5F5F5F5F5F5F5F5F5F5F5F5F5F5F5F5F5F5F5F5F5F5
310
F5F5F5F5F5F5F5F5F5F5F5F5F5F5F5F5F5F5F5E2E2F5F5F5F5F5F5F5F5F5F5F5F5F5F5F5F5F5F5F5F5F5F5F5F5F5F5F5F5F5F5F5F5F5F5F5F5F5F5F5F5F5F5F5F5F5F5F5F5F5F5F5F5F5F5F5F5F5F5F5F5F5F5F5F5F5F5F5F5F5F5F5F5F5F5F5F5F5F5F5F5F5F5F5F5F5F5F5F5F5F5F5F5F5F5F5F5F5F5F5F5F5F5F5F5F5F5
310
F5F5F5F5F5F5F5F5F5F5F5F5F5F5F5F5F5F5F5F5F5F5F5F5F5F5F5F5F5F5F5F5F5F5F5F5F5F5F5F5F5F5F5F5F5F5F5F5F5F5F5F5F5F5F5F5F5F5F5F5F5F5F5F5F5F5F5F5F5F5F5F5E2E2F5F5F5F5F5F5F5F5F5F5F5F5F5F5F5F5F5F5F5F5F5F5F5F5F5F5F5F5F5F5F5F5F5F5F5F5F5F5F5F5F5F5F5F5F5F5F5F5F5F5F5F5F5
310
F5F5F5F5F5F5F5F5F5F5F5F5F5F5F5F5F5F5F5F5F5F5F5F5F5F5F5F5F5F5F5F5F5F5F5F5F5F5F5F5F5F5F5F5F5F5F5F5F5F5F5F5F5F5F5F5F5F5F5F5F5F5F5F5F5F5F5F5F5F5F5F5F5F5F5F5F5F5F5F5F5F5F5F5F5F5F5F5F5F5F5F5F5F5F5F5F5F5F5F5F5F5F5F5F5F5F5F5F5F5F5F5F5F5F5F5F5F5F5F5F5F5F5F5F5E2E2
310
F5F5F5F5F5F5F5F5F5F5F5F5F5F5F5F5F5F5F5F5F5F5F5F5F5F5F5F5F5F5F5F5F5F5F5F5F5F5F5F5F5F5F5F5F5F5F5F5F5F5F5F5F5F5F5F5F5F5F5F5F5F5F5F5F5F5F5F5F5F5F5F5F5F5F5F5F5F5F5F5F5F5F5F5F5F5F5F5F5F5F5F5F5F5F5F5F5F5F5F5F5F5F5F5F5F5F5F5F5F5F5F5F5F5F5F5F5F5F5F5F5F5F5F5F5F5F5
310
F5F5F5F5F5F5F5F5F5F5F5F5F5F5F5F5F5F5F5F5F5F5F5F5F5F5F5F5F5F5F5F5F5F5F5F5F5F5F5F5F5F5F5F5F5F5F5F5F5F5F5E2E2F5F5F5E2F5F5F5F5F5F5F5F5F5F5F5F5F5F5F5F5F5F5F5F5F5F5F5F5F5F5F5F5F5F5F5F5F5F5F5F5F5F5F5F5F5F5F5F5F5F5F5F5F5F5F5F5F5F5F5F5F5F5F5F5F5F5F5F5F5F5F5F5F5F5
310
F5F5F5F5F5F5F5F5F5F5F5F5F5F5F5F5F5F5F5F5F5F5F5F5F5F5F5F5F5F5F5F5F5F5F5F5F5F5F5F5F5F5F5F5F5F5F5F5F5F5F5F5F5F5F5F5F5F5F5F5F5F5F5F5F5F5F5F5F5F5F5F5F5F5F5F5F5F5F5F5F5F5F5F5F5F5F5F5F5F5F5F5F5F5F5F5F5F5F5F5E2F5F5F5E2E2F5F5F5E2F5F5F5F5F5F5F5F5F5F5F5F5F5F5F5F5F5
310
F5F5F5F5F5F5F5F5F5F5F5F5F5F5F5F5F5F5F5F5F5F5F5F5F5F5F5F5F5F5F5F5F5F5F5F5F5F5F5F5F5F5F5F5F5F5F5F5F5F5F5F5F5F5F5F5F5F5F5F5F5F5F5F5F5F5F5F5F5F5F5F5F5F5F5F5F5F5F5F5F5F5F5F5F5F5F5F5F5F5F5F5F5F5F5F5F5F5F5F5F5F5F5F5F5F5F5F5F5F5F5F5F5F5F5F5F5F5F5F5F5F5F5F5F5F5F5
310
F5F5F5F5F5F5F5F5F5F5F5F5F5F5F5F5F5F5F5F5F5F5F5F5F5F5E2F5F5F5E2E2F5F5F5E2F5F5F5F5F5F5F5F5F5F5F5F5F5F5F5F5F5F5F5F5F5F5F5F5F5F5F5F5F5F5F5F5F5F5F5F5F5F5F5F5F5F5F5F5F5F5F5F5F5F5F5F5F5F5F5F5F5F5F5F5F5F5F5F5F5F5F5F5F5F5F5F5F5F5F5F5F5F5F5F5F5F5F5F5F5F5F5F5F5F5F5
310
F5F5F5F5F5F5F5F5F5F5F5F5F5F5F5F5F5F5F5F5F5F5F5F5F5F5F5F5F5F5F5F5F5F5F5F5F5F5F5F5F5F5F5F5F5F5F5F5F5F5F5F5F5F5F5F5F5F5F5F5F5F5F5F5F5F5F5F5F5F5F5F5F5F5F5F5F5F5F5E2F5F5F5E2E2F5F5F5E2F5F5F5F5F5F5F5F5F5F5F5F5F5F5F5F5F5F5F5F5F5F5F5F5F5F5F5F5F5F5F5F5F5F5F5F5F5F5
310
F5F5F5F5F5F5F5F5F5F5F5F5F5F5F5F5F5F5F5F5F5F5F5F5F5F5F5F5F5F5F5F5F5F5F5F5F5F5F5F5F5F5F5F5F5F5F5F5F5F5F5F5F5F5F5F5F5F5F5F5F5F5F5F5F5F5F5F5F5F5F5F5F5F5F5F5F5F5F5F5F5F5F5F5F5F5F5F5F5F5F5F5F5F5F5F5F5F5F5F5F5F5F5F5F5F5F5F5F5F5F5F5F5F5F5F5F5F5F5F5F5F5F5F5F5F5F5
310
F5F5F5F5F5E2F5F5F5E2E2F5F5F5E2F5F5F5F5F5F5F5F5F5F5F5F5F5F5F5F5F5F5F5F5F5F5F5F5F5F5F5F5F5F5F5F5F5F5F5F5F5F5F5F5F5F5F5F5F5F5F5F5F5F5F5F5F5F5F5F5F5F5F5F5F5F5F5F5F5F5F5F5F5F5F5F5F5F5F5F5F5F5F5F5F5F5F5F5F5F5F5F5F5F5F5F5F5F5F5F5F5F5F5F5F5F5F5F5F5F5F5F5F5F5F5F5
310
F5F5F5F5F5F5F5F5F5F5F5F5F5F5F5F5F5F5F5F5F5F5F5F5F5F5F5F5F5F5F5F5F5F5F5F5F5F5F5F5F5F5F5F5F5F5F5F5F5F5F5F5F5F5F5F5F5F5E2F5F5F5E2E2F5F5F5E2F5F5F5F5F5F5F5F5F5F5F5F5F5F5F5F5F5F5F5F5F5F5F5F5F5F5F5F5F5F5F5F5F5F5F5F5F5F5F5F5F5F5F5F5F5F5F5F5F5F5F5F5F5F5F5F5F5F5F5
310
F5F5F5F5F5F5F5F5F5F5F5F5F5F5F5F5F5F5F5F5F5F5F5F5F5F5F5F5F5F5F5F5F5F5F5F5F5F5F5F5F5F5F5F5F5F5F5F5F5F5F5F5F5F5F5F5F5F5F5F5F5F5F5F5F5F5F5F5F5F5F5F5F5F5F5F5F5F5F5F5F5F5F5F5F5F5F5F5F5F5F5F5F5F5F5F5F5F5F5F5F5F5F5F5F5F5F5F5F5F5F5E2F5F5F5E2E2F5F5F5E2F5F5F5F5F5F5
310
F5F5F5F5F5F5F5F5F5F5F5F5F5F5F5F5F5F5F5F5F5F5F5F5F5F5F5F5F5F5F5F5F5F5F5F5F5F5F5F5F5F5F5F5F5F5F5F5F5F5F5F5F5F5F5F5F5F5F5F5F5F5F5F5F5F5F5F5F5F5F5F5F5F5F5F5F5F5F5F5F5F5F5F5F5F5F5F5F5F5F5F5F5F5F5F5F5F5F5F5F5F5F5F5F5F5F5F5F5F5F5F5F5F5F5F5F5F5F5F5F5F5F5F5F5F5F5
310
F5F5F5F5F5F5F5F5F5F5F5F5F5F5F5F5F5F5F5F5F5F5F5F5F5F5F5F5F5F5F5F5F5F5F5F5F5E2F5F5F5E2E2F5F5F5E2F5F5F5F5F5F5F5F5F5F5F5F5F5F5F5F5F5F5F5F5F5F5F5F5F5F5F5F5F5F5F5F5F5F5F5F5F5F5F5F5F5F5F5F5F5F5F5F5F5F5F5F5F5F5F5F5F5F5F5F5F5F5F5F5F5F5F5F5F5F5F5F5F5F5F5F5F5F5F5F5
310
F5F5F5F5F5F5F5F5F5F5F5F5F5F5F5F5F5F5F5F5F5F5F5F5F5F5F5F5F5F5F5F5F5F5F5F5F5F5F5F5F5F5F5F5F5F5F5F5F5F5F5F5F5F5F5F5F5F5F5F5F5F5F5F5F5F5F5F5F5F5F5F5F5F5F5F5F5F5F5F5F5F5F5F5F5F5F5F5F5F5E2F5F5F5E2E2F5F5F5E2F5F5F5F5F5F5F5F5F5F5F5F5F5F5F5F5F5F5F5F5F5F5F5F5F5F5F5
310
F5F5F5F5F5F5F5F5F5F5F5F5F5F5F5F5F5F5F5F5F5F5F5F5F5F5F5F5F5F5F5F5F5F5F5F5F5F5F5F5F5F5F5F5F5F5F5F5F5F5F5F5F5F5F5F5F5F5F5F5F5F5F5F5F5F5F5F5F5F5F5F5F5F5F5F5F5F5F5F5F5F5F5F5F5F5F5F5F5F5F5F5F5F5F5F5F5F5F5F5F5F5F5F5F5F5F5F5F5F5F5F5F5F5F5F5F5F5F5F5F5F5F5F5F5F5F5
310
F5F5F5F5F5F5F5F5F5F5F5F5F5F5F5F5E2F5F5F5E2E2F5F5F5E2F5F5F5F5F5F5F5F5F5F5F5F5F5F5F5F5F5F5F5F5F5F5F5F5F5F5F5F5F5F5F5F5F5F5F5F5F5F5F5F5F5F5F5F5F5F5F5F5F5F5F5F5F5F5F5F5F5F5F5F5F5F5F5F5F5F5F5F5F5F5F5F5F5F5F5F5F5F5F5F5F5F5F5F5F5F5F5F5F5F5F5F5F5F5F5F5F5F5F5F5F5
310
F5F5F5F5F5F5F5F5F5F5F5F5F5F5F5F5F5F5F5F5F5F5F5F5F5F5F5F5F5F5F5F5F5F5F5F5F5F5F5F5F5F5F5F5F5F5F5F5F5F5F5F5F5F5F5F5F5F5F5F5F5F5F5F5F5F5F5F5F5E2F5F5F5E2E2F5F5F5E2F5F5F5F5F5F5F5F5F5F5F5F5F5F5F5F5F5F5F5F5F5F5F5F5F5F5F5F5F5F5F5F5F5F5F5F5F5F5F5F5F5F5F5F5F5F5F5F5
310
F5F5F5F5F5F5F5F5F5F5F5F5F5F5F5F5F5F5F5F5F5F5F5F5F5F5F5F5F5F5F5F5F5F5F5F5F5F5F5F5F5F5F5F5F5F5F5F5F5F5F5F5F5F5F5F5F5F5F5F5F5F5F5F5F5F5F5F5F5F5F5F5F5F5F5F5F5F5F5F5F5F5F5F5F5F5F5F5F5F5F5F5F5F5F5F5F5F5F5F5F5F5F5F5F5F5F5F5F5F5F5F5F5F5F5F5F5F5F5F5F5F5E2F5F5F5E2
310
E2F5F5F5E2F5F5F5F5F5F5F5F5F5F5F5F5F5F5F5F5F5F5F5F5F5F5F5F5F5F5F5F5F5F5F5F5F5F5F5F5F5F5F5F5F5F5F5F5F5F5F5F5F5F5F5F5F5F5F5F5F5F5F5F5F5F5F5F5F5F5F5F5F5F5F5F5F5F5F5F5F5F5F5F5F5F5F5F5F5F5F5F5F5F5F5F5F5F5F5F5F5F5F5F5F5F5F5F5F5F5F5F5F5F5F5F5F5F5F5F5F5F5F5F5F5F5
310
F5F5F5F5F5F5F5F5F5F5F5F5F5F5F5F5F5F5F5F5F5F5F5F5F5F5F5F5F5F5F5F5F5F5F5F5F5F5F5F5F5F5F5F5F5F5F5F5E2F5F5F5E2E2F5F5F5E2F5F5F5F5F5F5F5F5F5F5F5F5F5F5F5F5F5F5F5F5F5F5F5F5F5F5F5F5F5F5F5F5F5F5F5F5F5F5F5F5F5F5F5F5F5F5F5F5F5F5F5F5F5F5F5F5F5F5F5F5F5F5F5F5F5F5F5F5F5
310
F5F5F5F5F5F5F5F5F5F5F5F5F5F5F5F5F5F5F5F5F5F5F5F5F5F5F5F5F5F5F5F5F5F5F5F5F5F5F5F5F5F5F5F5F5F5F5F5F5F5F5F5F5F5F5F5F5F5F5F5F5F5F5F5F5F5F5F5F5F5F5F5F5F5F5F5F5F5F5F5F5F5F5F5F5F5F5F5F5F5F5F5F5F5F5F5F5F5F5F5F5E2F5F5F5E2E2F5F5F5E2F5F5F5F5F5F5F5F5F5F5F5F5F5F5F5F5
310
F5F5F5F5F5F5F5F5F5F5F5F5F5F5F5F5F5F5F5F5F5F5F5F5F5F5F5F5F5F5F5F5F5F5F5F5F5F5F5F5F5F5F5F5F5F5F5F5F5F5F5F5F5F5F5F5F5F5F5F5F5F5F5F5F5F5F5F5F5F5F5F5F5F5F5F5F5F5F5F5F5F5F5F5F5F5F5F5F5F5F5F5F5F5F5F5F5F5F5F5F5F5F5F5F5F5F5F5F5F5F5F5F5F5F5F5F5F5F5F5F5F5F5F5F5F5F5
310
F5F5F5F5F5F5F5F5F5F5F5F5F5F5F5F5F5F5F5F5F5F5F5F5F5F5F5E2F5F5F5E2E2F5F5F5E2F5F5F5F5F5F5F5F5F5F5F5F5F5F5F5F5F5F5F5F5F5F5F5F5F5F5F5F5F5F5F5F5F5F5F5F5F5F5F5F5F5F5F5F5F5F5F5F5F5F5F5F5F5F5F5F5F5F5F5F5F5F5F5F5F5F5F5F5F5F5F5F5F5F5F5F5F5F5F5F5F5F5F5F5F5F5F5F5F5F5
310
F5F5F5F5F5F5F5F5F5F5F5F5F5F5F5F5F5F5F5F5F5F5F5F5F5F5F5F5F5F5F5F5F5F5F5F5F5F5F5F5F5F5F5F5F5F5F5F5F5F5F5F5F5F5F5F5F5F5F5F5F5F5F5F5F5F5F5F5F5F5F5F5F5F5F5F5F5F5F5F5E2F5F5F5E2E2F5F5F5E2F5F5F5F5F5F5F5F5F5F5F5F5F5F5F5F5F5F5F5F5F5F5F5F5F5F5F5F5F5F5F5F5F5F5F5F5F5
310
F5F5F5F5F5F5F5F5F5F5F5F5F5F5F5F5F5F5F5F5F5F5F5F5F5F5F5F5F5F5F5F5F5F5F5F5F5F5F5F5F5F5F5F5F5F5F5F5F5F5F5F5F5F5F5F5F5F5F5F5F5F5F5F5F5F5F5F5F5F5F5F5F5F5F5F5F5F5F5F5F5F5F5F5F5F5F5F5F5F5F5F5F5F5F5F5F5F5F5F5F5F5F5F5F5F5F5F5F5F5F5F5F5F5F5F5F5F5F5F5F5F5F5F5F5F5F5
310
F5F5F5F5F5F5E2F5F5F5E2E2F5F5F5E2F5F5F5F5F5F5F5F5F5F5F5F5F5F5F5F5F5F5F5F5F5F5F5F5F5F5F5F5F5F5F5F5F5F5F5F5F5F5F5F5F5F5F5F5F5F5F5F5F5F5F5F5F5F5F5F5F5F5F5F5F5F5F5F5F5F5F5F5F5F5F5F5F5F5F5F5F5F5F5F5F5F5F5F5F5F5F5F5F5F5F5F5F5F5F5F5F5F5F5F5F5F5F5F5F5F5F5F5F5F5F5
310
F5F5F5F5F5F5F5F5F5F5F5F5F5F5F5F5F5F5F5F5F5F5F5F5F5F5F5F5F5F5F5F5F5F5F5F5F5F5F5F5F5F5F5F5F5F5F5F5F5F5F5F5F5F5F5F5F5F5F5E2F5F5F5E2E2F5F5F5F5F5F5F5F5F5F5F5F5F5F5F5F5F5F5F5F5F5F5F5F5F5F5F5F5F5F5F5F5F5F5F5F5F5F5F5F5F5F5F5F5F5F5F5F5F5F5F5F5F5F5F5F5F5F5F5F5F5F5
310
F5F5F5F5F5F5F5F5F5F5F5F5F5F5F5F5F5F5F5F5F5F5F5F5F5F5F5F5F5F5F5F5F5F5F5F5F5F5F5F5F5F5F5F5F5F5F5F5F5F5F5F5F5F5F5F5F5F5F5F5F5F5F5F5F5F5F5F5F5F5F5F5F5F5F5F5F5F5F5F5F5F5F5F5F5F5F5F5F5F5F5F5F5F5F5F5F5F5F5F5F5F5F5F5F5F5F5F5F5F5F5F5F5F5F5F5E2E2F5F5F5F5F5F5F5F5F5
310
F5F5F5F5F5F5F5F5F5F5F5F5F5F5F5F5F5F5F5F5F5F5F5F5F5F5F5F5F5F5F5F5F5F5F5F5F5F5F5F5F5F5F5F5F5F5F5F5F5F5F5F5F5F5F5F5F5F5F5F5F5F5F5F5F5F5F5F5F5F5F5F5F5F5F5F5F5F5F5F5F5F5F5F5F5F5F5F5F5F5F5F5F5F5F5F5F5F5F5F5F5F5F5F5F5F5F5F5F5F5F5F5F5F5F5F5F5F5F5F5F5F5F5F5F5F5F5
310
F5F5F5F5F5F5F5F5F5F5F5F5F5F5F5F5F5F5F5F5F5F5F5F5F5F5F5F5F5F5F5F5F5F5F5F5F5F5F5F5F5F5E2E2F5F5F5F5F5F5F5F5F5F5F5F5F5F5F5F5F5F5F5F5F5F5F5F5F5F5F5F5F5F5F5F5F5F5F5F5F5F5F5F5F5F5F5F5F5F5F5F5F5F5F5F5F5F5F5F5F5F5F5F5F5F5F5F5F5F5F5F5F5F5F5F5F5F5F5F5F5F5F5F5F5F5F5
310
F5F5F5F5F5F5F5F5F5F5F5F5F5F5F5F5F5F5F5F5F5F5F5F5F5F5F5F5F5F5F5F5F5F5F5F5F5F5F5F5F5F5F5F5F5F5F5F5F5F5F5F5F5F5F5F5F5F5F5F5F5F5F5F5F5F5F5F5F5F5F5F5F5F5F5F5F5F5F5F5F5F5F5F5F5F5F5F5F5F5F5F5F5F5F5E2E2F5F5F5F5F5F5F5F5F5F5F5F5F5F5F5F5F5F5F5F5F5F5F5F5F5F5F5F5F5F5
310
F5F5F5F5F5F5F5F5F5F5F5F5F5F5F5F5F5F5F5F5F5F5F5F5F5F5F5F5F5F5F5F5F5F5F5F5F5F5F5F5F5F5F5F5F5F5F5F5F5F5F5F5F5F5F5F5F5F5F5F5F5F5F5F5F5F5F5F5F5F5F5F5F5F5F5F5F5F5F5F5F5F5F5F5F5F5F5F5F5F5F5F5F5F5F5F5F5F5F5F5F5F5F5F5F5F5F5F5F5F5F5F5F5F5F5F5F5F5F5F5F5F5F5F5F5F5F5
310
F5F5F5F5F5F5F5F5F5F5F5F5F5F5F5F5F5F5F5F5F5E2E2F5F5F5F5F5F5F5F5F5F5F5F5F5F5F5F5F5F5F5F5F5F5F5F5F5F5F5F5F5F5F5F5F5F5F5F5F5F5F5F5F5F5F5F5F5F5F5F5F5F5F5F5F5F5F5F5F5F5F5F5F5F5F5F5F5F5F5F5F5F5F5F5F5F5F5F5F5F5F5F5F5F5F5F5F5F5F5F5F5F5F5F5F5F5F5F5F5F5F5F5F5F5F5F5
310
F5F5F5F5F5F5F5F5F5F5F5F5F5F5F5F5F5F5F5F5F5F5F5F5F5F5F5F5F5F5F5F5F5F5F5F5F5F5F5F5F5F5F5F5F5F5F5F5F5F5F5F5F5F5F5F5F5F5F5F5F5F5F5F5F5F5F5F5F5F5F5F5F5F5E2E2F5F5F5F5F5F5F5F5F5F5F5F5F5F5F5F5F5F5F5F5F5F5F5F5F5F5F5F5F5F5F5F5F5F5F5F5F5F5F5F5F5F5F5F5F5F5F5F5F5F5F5
310
F5F5F5F5F5F5F5F5F5F5F5F5F5F5F5F5F5F5F5F5F5F5F5F5F5F5F5F5F5F5F5F5F5F5F5F5F5F5F5F5F5F5F5F5F5F5F5F5F5F5F5F5F5F5F5F5F5F5F5F5F5F5F5F5F5F5F5F5F5F5F5F5F5F5F5F5F5F5F5F5F5F5F5F5F5F5F5F5F5F5F5F5F5F5F5F5F5F5F5F5F5F5F5F5F5F5F5F5F5F5F5F5F5F5F5F5F5F5F5F5F5F5F5F5F5F5F5
310
E2E2F5F5F5F5F5F5F5F5F5F5F5F5F5F5F5F5F5F5F5F5F5F5F5F5F5F5F5F5F5F5F5F5F5F5F5F5F5F5F5F5F5F5F5F5F5F5F5F5F5F5F5F5F5F5F5F5F5F5F5F5F5F5F5F5F5F5F5F5F5F5F5F5F5F5F5F5F5F5F5F5F5F5F5F5F5F5F5F5F5F5F5F5F5F5F5F5F5F5F5F5F5F5F5F5F5F5F5F5F5F5F5F5F5F5F5F5F5F5F5F5F5F5F5F5F5
310
F5F5F5F5F5F5F5F5F5F5F5F5F5F5F5F5F5F5F5F5F5F5F5F5F5F5F5F5F5F5F5F5F5F5F5F5F5F5F5F5F5F5F5F5F5F5F5F5F5F5F5F5F5E2E2F5F5F5F5F5F5F5F5F5F5F5F5F5F5F5F5F5F5F5F5F5F5F5F5F5F5F5F5F5F5F5F5F5F5F5F5F5F5F5F5F5F5F5F5F5F5F5F5F5F5F5F5F5F5F5F5F5F5F5F5F5F5F5F5F5F5F5F5F5F5F5F5
310
F5F5F5F5F5F5F5F5F5F5F5F5F5F5F5F5F5F5F5F5F5F5F5F5F5F5F5F5F5F5F5F5F5F5F5F5F5F5F5F5F5F5F5F5F5F5F5F5F5F5F5F5F5F5F5F5F5F5F5F5F5F5F5F5F5F5F5F5F5F5F5F5F5F5F5F5F5F5F5F5F5F5F5F5F5F5F5F5F5F5F5F5F5F5F5F5F5F5F5F5F5F5F5F5F5F5E2E2F5F5F5F5F5F5F5F5F5F5F5F5F5F5F5F5F5F5F5
310
F5F5F5F5F5F5F5F5F5F5F5F5F5F5F5F5F5F5F5F5F5F5F5F5F5F5F5F5F5F5F5F5F5F5F5F5F5F5F5F5F5F5F5F5F5F5F5F5F5F5F5F5F5F5F5F5F5F5F5F5F5F5F5F5F5F5F5F5F5F5F5F5F5F5F5F5F5F5F5F5F5F5F5F5F5F5F5F5F5F5F5F5F5F5F5F5F5F5F5F5F5F5F5F5F5F5F5F5F5F5F5F5F5F5F5F5F5F5F5F5F5F5F5F5F5F5F5
310
F5F5F5F5F5F5F5F5F5F5F5F5F5F5F5F5F5F5F5F5F5F5F5F5F5F5F5F5F5F5F5F5E2E2F5F5F5E2F5F5F5F5F5F5F5F5F5F5F5F5F5F5F5F5F5F5F5F5F5F5F5F5F5F5F5F5F5F5F5F5F5F5F5F5F5F5F5F5F5F5F5F5F5F5F5F5F5F5F5F5F5F5F5F5F5F5F5F5F5F5F5F5F5F5F5F5F5F5F5F5F5F5F5F5F5F5F5F5F5F5F5F5F5F5F5F5F5
310
F5F5F5F5F5F5F5F5F5F5F5F5F5F5F5F5F5F5F5F5F5F5F5F5F5F5F5F5F5F5F5F5F5F5F5F5F5F5F5F5F5F5F5F5F5F5F5F5F5F5F5F5F5F5F5F5F5F5F5F5F5F5F5F5F5F5F5F5F5F5F5F5F5F5F5F5F5F5F5F5F5E2F5F5F5E2E2F5F5F5E2F5F5F5F5F5F5F5F5F5F5F5F5F5F5F5F5F5F5F5F5F5F5F5F5F5F5F5F5F5F5F5F5F5F5F5F5
310
F5F5F5F5F5F5F5F5F5F5F5F5F5F5F5F5F5F5F5F5F5F5F5F5F5F5F5F5F5F5F5F5F5F5F5F5F5F5F5F5F5F5F5F5F5F5F5F5F5F5F5F5F5F5F5F5F5F5F5F5F5F5F5F5F5F5F5F5F5F5F5F5F5F5F5F5F5F5F5F5F5F5F5F5F5F5F5F5F5F5F5F5F5F5F5F5F5F5F5F5F5F5F5F5F5F5F5F5F5F5F5F5F5F5F5F5F5F5F5F5F5F5F5F5F5F5F5
310
F5F5F5F5F5F5F5E2F5F5F5E2E2F5F5F5E2F5F5F5F5F5F5F5F5F5F5F5F5F5F5F5F5F5F5F5F5F5F5F5F5F5F5F5F5F5F5F5F5F5F5F5F5F5F5F5F5F5F5F5F5F5F5F5F5F5F5F5F5F5F5F5F5F5F5F5F5F5F5F5F5F5F5F5F5F5F5F5F5F5F5F5F5F5F5F5F5F5F5F5F5F5F5F5F5F5F5F5F5F5F5F5F5F5F5F5F5F5F5F5F5F5F5F5F5F5F5
310
F5F5F5F5F5F5F5F5F5F5F5F5F5F5F5F5F5F5F5F5F5F5F5F5F5F5F5F5F5F5F5F5F5F5F5F5F5F5F5F5F5F5F5F5F5F5F5F5F5F5F5F5F5F5F5F5F5F5F5F5E2F5F5F5E2E2F5F5F5E2F5F5F5F5F5F5F5F5F5F5F5F5F5F5F5F5F5F5F5F5F5F5F5F5F5F5F5F5F5F5F5F5F5F5F5F5F5F5F5F5F5F5F5F5F5F5F5F5F5F5F5F5F5F5F5F5F5
310
F5F5F5F5F5F5F5F5F5F5F5F5F5F5F5F5F5F5F5F5F5F5F5F5F5F5F5F5F5F5F5F5F5F5F5F5F5F5F5F5F5F5F5F5F5F5F5F5F5F5F5F5F5F5F5F5F5F5F5F5F5F5F5F5F5F5F5F5F5F5F5F5F5F5F5F5F5F5F5F5F5F5F5F5F5F5F5F5F5F5F5F5F5F5F5F5F5F5F5F5F5F5F5F5F5F5F5F5F5F5F5F5F5E2F5F5F5E2E2F5F5F5E2F5F5F5F5
310
F5F5F5F5F5F5F5F5F5F5F5F5F5F5F5F5F5F5F5F5F5F5F5F5F5F5F5F5F5F5F5F5F5F5F5F5F5F5F5F5F5F5F5F5F5F5F5F5F5F5F5F5F5F5F5F5F5F5F5F5F5F5F5F5F5F5F5F5F5F5F5F5F5F5F5F5F5F5F5F5F5F5F5F5F5F5F5F5F5F5F5F5F5F5F5F5F5F5F5F5F5F5F5F5F5F5F5F5F5F5F5F5F5F5F5F5F5F5F5F5F5F5F5F5F5F5F5
310
F5F5F5F5F5F5F5F5F5F5F5F5F5F5F5F5F5F5F5F5F5F5F5F5F5F5F5F5F5F5F5F5F5F5F5F5F5F5F5E2F5F5F5E2E2F5F5F5E2F5F5F5F5F5F5F5F5F5F5F5F5F5F5F5F5F5F5F5F5F5F5F5F5F5F5F5F5F5F5F5F5F5F5F5F5F5F5F5F5F5F5F5F5F5F5F5F5F5F5F5F5F5F5F5F5F5F5F5F5F5F5F5F5F5F5F5F5F5F5F5F5F5F5F5F5F5F5
310
F5F5F5F5F5F5F5F5F5F5F5F5F5F5F5F5F5F5F5F5F5F5F5F5F5F5F5F5F5F5F5F5F5F5F5F5F5F5F5F5F5F5F5F5F5F5F5F5F5F5F5F5F5F5F5F5F5F5F5F5F5F5F5F5F5F5F5F5F5F5F5F5F5F5F5F5F5F5F5F5F5F5F5F5F5F5F5F5F5F5F5F5E2F5F5F5E2E2F5F5F5E2F5F5F5F5F5F5F5F5F5F5F5F5F5F5F5F5F5F5F5F5F5F5F5F5F5
310
F5F5F5F5F5F5F5F5F5F5F5F5F5F5F5F5F5F5F5F5F5F5F5F5F5F5F5F5F5F5F5F5F5F5F5F5F5F5F5F5F5F5F5F5F5F5F5F5F5F5F5F5F5F5F5F5F5F5F5F5F5F5F5F5F5F5F5F5F5F5F5F5F5F5F5F5F5F5F5F5F5F5F5F5F5F5F5F5F5F5F5F5F5F5F5F5F5F5F5F5F5F5F5F5F5F5F5F5F5F5F5F5F5F5F5F5F5F5F5F5F5F5F5F5F5F5F5
310
F5F5F5F5F5F5F5F5F5F5F5F5F5F5F5F5F5F5E2F5F5F5E2E2F5F5F5E2F5F5F5F5F5F5F5F5F5F5F5F5F5F5F5F5F5F5F5F5F5F5F5F5F5F5F5F5F5F5F5F5F5F5F5F5F5F5F5F5F5F5F5F5F5F5F5F5F5F5F5F5F5F5F5F5F5F5F5F5F5F5F5F5F5F5F5F5F5F5F5F5F5F5F5F5F5F5F5F5F5F5F5F5F5F5F5F5F5F5F5F5F5F5F5F5F5F5F5
310
F5F5F5F5F5F5F5F5F5F5F5F5F5F5F5F5F5F5F5F5F5F5F5F5F5F5F5F5F5F5F5F5F5F5F5F5F5F5F5F5F5F5F5F5F5F5F5F5F5F5F5F5F5F5F5F5F5F5F5F5F5F5F5F5F5F5F5F5F5F5F5E2F5F5F5E2E2F5F5F5E2F5F5F5F5F5F5F5F5F5F5F5F5F5F5F5F5F5F5F5F5F5F5F5F5F5F5F5F5F5F5F5F5F5F5F5F5F5F5F5F5F5F5F5F5F5F5
310
F5F5F5F5F5F5F5F5F5F5F5F5F5F5F5F5F5F5F5F5F5F5F5F5F5F5F5F5F5F5F5F5F5F5F5F5F5F5F5F5F5F5F5F5F5F5F5F5F5F5F5F5F5F5F5F5F5F5F5F5F5F5F5F5F5F5F5F5F5F5F5F5F5F5F5F5F5F5F5F5F5F5F5F5F5F5F5F5F5F5F5F5F5F5F5F5F5F5F5F5F5F5F5F5F5F5F5F5F5F5F5F5F5F5F5F5F5F5F5F5F5F5F5F5E2F5F5
310
F5E2E2F5F5F5E2F5F5F5F5F5F5F5F5F5F5F5F5F5F5F5F5F5F5F5F5F5F5F5F5F5F5F5F5F5F5F5F5F5F5F5F5F5F5F5F5F5F5F5F5F5F5F5F5F5F5F5F5F5F5F5F5F5F5F5F5F5F5F5F5F5F5F5F5F5F5F5F5F5F5F5F5F5F5F5F5F5F5F5F5F5F5F5F5F5F5F5F5F5F5F5F5F5F5F5F5F5F5F5F5F5F5F5F5F5F5F5F5F5F5F5F5F5F5F5F5
310
F5F5F5F5F5F5F5F5F5F5F5F5F5F5F5F5F5F5F5F5F5F5F5F5F5F5F5F5F5F5F5F5F5F5F5F5F5F5F5F5F5F5F5F5F5F5F5F5F5F5E2F5F5F5E2E2F5F5F5E2F5F5F5F5F5F5F5F5F5F5F5F5F5F5F5F5F5F5F5F5F5F5F5F5F5F5F5F5F5F5F5F5F5F5F5F5F5F5F5F5F5F5F5F5F5F5F5F5F5F5F5F5F5F5F5F5F5F5F5F5F5F5F5F5F5F5F5
310
F5F5F5F5F5F5F5F5F5F5F5F5F5F5F5F5F5F5F5F5F5F5F5F5F5F5F5F5F5F5F5F5F5F5F5F5F5F5F5F5F5F5F5F5F5F5F5F5F5F5F5F5F5F5F5F5F5F5F5F5F5F5F5F5F5F5F5F5F5F5F5F5F5F5F5F5F5F5F5F5F5F5F5F5F5F5F5F5F5F5F5F5F5F5F5F5F5F5F5F5F5F5F5E2F5F5F5E2E2F5F5F5E2F5F5F5F5F5F5F5F5F5F5F5F5F5F5
310
F5F5F5F5F5F5F5F5F5F5F5F5F5F5F5F5F5F5F5F5F5F5F5F5F5F5F5F5F5F5F5F5F5F5F5F5F5F5F5F5F5F5F5F5F5F5F5F5F5F5F5F5F5F5F5F5F5F5F5F5F5F5F5F5F5F5F5F5F5F5F5F5F5F5F5F5F5F5F5F5F5F5F5F5F5F5F5F5F5F5F5F5F5F5F5F5F5F5F5F5F5F5F5F5F5F5F5F5F5F5F5F5F5F5F5F5F5F5F5F5F5F5F5F5F5F5F5
310
F5F5F5F5F5F5F5F5F5F5F5F5F5F5F5F5F5F5F5F5F5F5F5F5F5F5F5F5F5E2F5F5F5E2E2F5F5F5E2F5F5F5F5F5F5F5F5F5F5F5F5F5F5F5F5F5F5F5F5F5F5F5F5F5F5F5F5F5F5F5F5F5F5F5F5F5F5F5F5F5F5F5F5F5F5F5F5F5F5F5F5F5F5F5F5F5F5F5F5F5F5F5F5F5F5F5F5F5F5F5F5F5F5F5F5F5F5F5F5F5F5F5F5F5F5F5F5
310
F5F5F5F5F5F5F5F5F5F5F5F5F5F5F5F5F5F5F5F5F5F5F5F5F5F5F5F5F5F5F5F5F5F5F5F5F5F5F5F5F5F5F5F5F5F5F5F5F5F5F5F5F5F5F5F5F5F5F5F5F5F5F5F5F5F5F5F5F5F5F5F5F5F5F5F5F5F5F5F5F5F5E2F5F5F5E2E2F5F5F5E2F5F5F5F5F5F5F5F5F5F5F5F5F5F5F5F5F5F5F5F5F5F5F5F5F5F5F5F5F5F5F5F5F5F5F5
310
F5F5F5F5F5F5F5F5F5F5F5F5F5F5F5F5F5F5F5F5F5F5F5F5F5F5F5F5F5F5F5F5F5F5F5F5F5F5F5F5F5F5F5F5F5F5F5F5F5F5F5F5F5F5F5F5F5F5F5F5F5F5F5F5F5F5F5F5F5F5F5F5F5F5F5F5F5F5F5F5F5F5F5F5F5F5F5F5F5F5F5F5F5F5F5F5F5F5F5F5F5F5F5F5F5F5F5F5F5F5F5F5F5F5F5F5F5F5F5F5F5F5F5F5F5F5F5
310
F5F5F5F5F5F5F5F5E2F5F5F5E2E2F5F5F5E2F5F5F5F5F5F5F5F5F5F5F5F5F5F5F5F5F5F5F5F5F5F5F5F5F5F5F5F5F5F5F5F5F5F5F5F5F5F5F5F5F5F5F5F5F5F5F5F5F5F5F5F5F5F5F5F5F5F5F5F5F5F5F5F5F5F5F5F5F5F5F5F5F5F5F5F5F5F5F5F5F5F5F5F5F5F5F5F5F5F5F5F5F5F5F5F5F5F5F5F5F5F5F5F5F5F5F5F5F5
310
F5F5F5F5F5F5F5F5F5F5F5F5F5F5F5F5F5F5F5F5F5F5F5F5F5F5F5F5F5F5F5F5F5F5F5F5F5F5F5F5F5F5F5F5F5F5F5F5F5F5F5F5F5F5F5F5F5F5F5F5F5E2F5F5F5E2E2F5F5F5E2F5F5F5F5F5F5F5F5F5F5F5F5F5F5F5F5F5F5F5F5F5F5F5F5F5F5F5F5F5F5F5F5F5F5F5F5F5F5F5F5F5F5F5F5F5F5F5F5F5F5F5F5F5F5F5F5
310
F5F5F5F5F5F5F5F5F5F5F5F5F5F5F5F5F5F5F5F5F5F5F5F5F5F5F5F5F5F5F5F5F5F5F5F5F5F5F5F5F5F5F5F5F5F5F5F5F5F5F5F5F5F5F5F5F5F5F5F5F5F5F5F5F5F5F5F5F5F5F5F5F5F5F5F5F5F5F5F5F5F5F5F5F5F5F5F5F5F5F5F5F5F5F5F5F5F5F5F5F5F5F5F5F5F5F5F5F5F5F5F5F5F5E2F5F5F5E2E2F5F5F5E2F5F5F5
310
F5F5F5F5F5F5F5F5F5F5F5F5F5F5F5F5F5F5F5F5F5F5F5F5F5F5F5F5F5F5F5F5F5F5F5F5F5F5F5F5F5F5F5F5F5F5F5F5F5F5F5F5F5F5F5F5F5F5F5F5F5F5F5F5F5F5F5F5F5F5F5F5F5F5F5F5F5F5F5F5F5F5F5F5F5F5F5F5F5F5F5F5F5F5F5F5F5F5F5F5F5F5F5F5F5F5F5F5F5F5F5F5F5F5F5F5F5F5F5F5F5F5F5F5F5F5F5
310
F5F5F5F5F5F5F5F5F5F5F5F5F5F5F5F5F5F5F5F5F5F5F5F5F5F5F5F5F5F5F5F5F5F5F5F5F5F5F5F5E2F5F5F5E2E2F5F5F5F5F5F5F5F5F5F5F5F5F5F5F5F5F5F5F5F5F5F5F5F5F5F5F5F5F5F5F5F5F5F5F5F5F5F5F5F5F5F5F5F5F5F5F5F5F5F5F5F5F5F5F5F5F5F5F5F5F5F5F5F5F5F5F5F5F5F5F5F5F5F5F5F5F5F5F5F5F5
310
F5F5F5F5F5F5F5F5F5F5F5F5F5F5F5F5F5F5F5F5F5F5F5F5F5F5F5F5F5F5F5F5F5F5F5F5F5F5F5F5F5F5F5F5F5F5F5F5F5F5F5F5F5F5F5F5F5F5F5F5F5F5F5F5F5F5F5F5F5F5F5F5F5F5F5F5F5F5F5F5F5F5F5F5F5F5F5F5F5F5F5F5F5F5F5F5F5E2E2F5F5F5F5F5F5F5F5F5F5F5F5F5F5F5F5F5F5F5F5F5F5F5F5F5F5F5F5
310
F5F5F5F5F5F5F5F5F5F5F5F5F5F5F5F5F5F5F5F5F5F5F5F5F5F5F5F5F5F5F5F5F5F5F5F5F5F5F5F5F5F5F5F5F5F5F5F5F5F5F5F5F5F5F5F5F5F5F5F5F5F5F5F5F5F5F5F5F5F5F5F5F5F5F5F5F5F5F5F5F5F5F5F5F5F5F5F5F5F5F5F5F5F5F5F5F5F5F5F5F5F5F5F5F5F5F5F5F5F5F5F5F5F5F5F5F5F5F5F5F5F5F5F5F5F5F5
310
F5F5F5F5F5F5F5F5F5F5F5F5F5F5F5F5F5F5F5F5F5F5F5E2E2F5F5F5F5F5F5F5F5F5F5F5F5F5F5F5F5F5F5F5F5F5F5F5F5F5F5F5F5F5F5F5F5F5F5F5F5F5F5F5F5F5F5F5F5F5F5F5F5F5F5F5F5F5F5F5F5F5F5F5F5F5F5F5F5F5F5F5F5F5F5F5F5F5F5F5F5F5F5F5F5F5F5F5F5F5F5F5F5F5F5F5F5F5F5F5F5F5F5F5F5F5F5
310
F5F5F5F5F5F5F5F5F5F5F5F5F5F5F5F5F5F5F5F5F5F5F5F5F5F5F5F5F5F5F5F5F5F5F5F5F5F5F5F5F5F5F5F5F5F5F5F5F5F5F5F5F5F5F5F5F5F5F5F5F5F5F5F5F5F5F5F5F5F5F5F5F5F5F5F5E2E2F5F5F5F5F5F5F5F5F5F5F5F5F5F5F5F5F5F5F5F5F5F5F5F5F5F5F5F5F5F5F5F5F5F5F5F5F5F5F5F5F5F5F5F5F5F5F5F5F5
310
F5F5F5F5F5F5F5F5F5F5F5F5F5F5F5F5F5F5F5F5F5F5F5F5F5F5F5F5F5F5F5F5F5F5F5F5F5F5F5F5F5F5F5F5F5F5F5F5F5F5F5F5F5F5F5F5F5F5F5F5F5F5F5F5F5F5F5F5F5F5F5F5F5F5F5F5F5F5F5F5F5F5F5F5F5F5F5F5F5F5F5F5F5F5F5F5F5F5F5F5F5F5F5F5F5F5F5F5F5F5F5F5F5F5F5F5F5F5F5F5F5F5F5F5F5F5F5
310
F5F5E2E2F5F5F5F5F5F5F5F5F5F5F5F5F5F5F5F5F5F5F5F5F5F5F5F5F5F5F5F5F5F5F5F5F5F5F5F5F5F5F5F5F5F5F5F5F5F5F5F5F5F5F5F5F5F5F5F5F5F5F5F5F5F5F5F5F5F5F5F5F5F5F5F5F5F5F5F5F5F5F5F5F5F5F5F5F5F5F5F5F5F5F5F5F5F5F5F5F5F5F5F5F5F5F5F5F5F5F5F5F5F5F5F5F5F5F5F5F5F5F5F5F5F5F5
310
F5F5F5F5F5F5F5F5F5F5F5F5F5F5F5F5F5F5F5F5F5F5F5F5F5F5F5F5F5F5F5F5F5F5F5F5F5F5F5F5F5F5F5F5F5F5F5F5F5F5F5F5F5F5F5E2E2F5F5F5F5F5F5F5F5F5F5F5F5F5F5F5F5F5F5F5F5F5F5F5F5F5F5F5F5F5F5F5F5F5F5F5F5F5F5F5F5F5F5F5F5F5F5F5F5F5F5F5F5F5F5F5F5F5F5F5F5F5F5F5F5F5F5F5F5F5F5
310
F5F5F5F5F5F5F5F5F5F5F5F5F5F5F5F5F5F5F5F5F5F5F5F5F5F5F5F5F5F5F5F5F5F5F5F5F5F5F5F5F5F5F5F5F5F5F5F5F5F5F5F5F5F5F5F5F5F5F5F5F5F5F5F5F5F5F5F5F5F5F5F5F5F5F5F5F5F5F5F5F5F5F5F5F5F5F5F5F5F5F5F5F5F5F5F5F5F5F5F5F5F5F5F5F5F5F5F5E2E2F5F5F5F5F5F5F5F5F5F5F5F5F5F5F5F5F5
310
F5F5F5F5F5F5F5F5F5F5F5F5F5F5F5F5F5F5F5F5F5F5F5F5F5F5F5F5F5F5F5F5F5F5F5F5F5F5F5F5F5F5F5F5F5F5F5F5F5F5F5F5F5F5F5F5F5F5F5F5F5F5F5F5F5F5F5F5F5F5F5F5F5F5F5F5F5F5F5F5F5F5F5F5F5F5F5F5F5F5F5F5F5F5F5F5F5F5F5F5F5F5F5F5F5F5F5F5F5F5F5F5F5F5F5F5F5F5F5F5F5F5F5F5F5F5F5
310
F5F5F5F5F5F5F5F5F5F5F5F5F5F5F5F5F5F5F5F5F5F5F5F5F5F5F5F5F5F5F5F5F5F5E2E2F5F5F5F5F5F5F5F5F5F5F5F5F5F5F5F5F5F5F5F5F5F5F5F5F5F5F5F5F5F5F5F5F5F5F5F5F5F5F5F5F5F5F5F5F5F5F5F5F5F5F5F5F5F5F5F5F5F5F5F5F5F5F5F5F5F5F5F5F5F5F5F5F5F5F5F5F5F5F5F5F5F5F5F5F5F5F5F5F5F5F5
310
F5F5F5F5F5F5F5F5F5F5F5F5F5F5F5F5F5F5F5F5F5F5F5F5F5F5F5F5F5F5F5F5F5F5F5F5F5F5F5F5F5F5F5F5F5F5F5F5F5F5F5F5F5F5F5F5F5F5F5F5F5F5F5F5F5F5F5F5F5F5F5F5F5F5F5F5F5F5F5F5F5F5F5F5F5F5F5E2E2F5F5F5F5F5F5F5F5F5F5F5F5F5F5F5F5F5F5F5F5F5F5F5F5F5F5F5F5F5F5F5F5F5F5F5F5F5F5
310
F5F5F5F5F5F5F5F5F5F5F5F5F5F5F5F5F5F5F5F5F5F5F5F5F5F5F5F5F5F5F5F5F5F5F5F5F5F5F5F5F5F5F5F5F5F5F5F5F5F5F5F5F5F5F5F5F5F5F5F5F5F5F5F5F5F5F5F5F5F5F5F5F5F5F5F5F5F5F5F5F5F5F5F5F5F5F5F5F5F5F5F5F5F5F5F5F5F5F5F5F5F5F5F5F5F5F5F5F5F5F5F5F5F5F5F5F5F5F5F5F5F5F5F5F5F5F5
310
F5F5F5F5F5F5F5F5F5F5F5F5F5E2E2F5F5F5E2F5F5F5F5F5F5F5F5F5F5F5F5F5F5F5F5F5F5F5F5F5F5F5F5F5F5F5F5F5F5F5F5F5F5F5F5F5F5F5F5F5F5F5F5F5F5F5F5F5F5F5F5F5F5F5F5F5F5F5F5F5F5F5F5F5F5F5F5F5F5F5F5F5F5F5F5F5F5F5F5F5F5F5F5F5F5F5F5F5F5F5F5F5F5F5F5F5F5F5F5F5F5F5F5F5F5F5F5
310
F5F5F5F5F5F5F5F5F5F5F5F5F5F5F5F5F5F5F5F5F5F5F5F5F5F5F5F5F5F5F5F5F5F5F5F5F5F5F5F5F5F5F5F5F5F5F5F5F5F5F5F5F5F5F5F5F5F5F5F5F5F5E2F5F5F5E2E2F5F5F5E2F5F5F5F5F5F5F5F5F5F5F5F5F5F5F5F5F5F5F5F5F5F5F5F5F5F5F5F5F5F5F5F5F5F5F5F5F5F5F5F5F5F5F5F5F5F5F5F5F5F5F5F5F5F5F5
310
F5F5F5F5F5F5F5F5F5F5F5F5F5F5F5F5F5F5F5F5F5F5F5F5F5F5F5F5F5F5F5F5F5F5F5F5F5F5F5F5F5F5F5F5F5F5F5F5F5F5F5F5F5F5F5F5F5F5F5F5F5F5F5F5F5F5F5F5F5F5F5F5F5F5F5F5F5F5F5F5F5F5F5F5F5F5F5F5F5F5F5F5F5F5F5F5F5F5F5F5F5F5F5F5F5F5F5F5F5F5F5F5F5F5F5E2F5F5F5E2E2F5F5F5E2F5F5
310
F5F5F5F5F5F5F5F5F5F5F5F5F5F5F5F5F5F5F5F5F5F5F5F5F5F5F5F5F5F5F5F5F5F5F5F5F5F5F5F5F5F5F5F5F5F5F5F5F5F5F5F5F5F5F5F5F5F5F5F5F5F5F5F5F5F5F5F5F5F5F5F5F5F5F5F5F5F5F5F5F5F5F5F5F5F5F5F5F5F5F5F5F5F5F5F5F5F5F5F5F5F5F5F5F5F5F5F5F5F5F5F5F5F5F5F5F5F5F5F5F5F5F5F5F5F5F5
310
F5F5F5F5F5F5F5F5F5F5F5F5F5F5F5F5F5F5F5F5F5F5F5F5F5F5F5F5F5F5F5F5F5F5F5F5F5F5F5F5F5E2F5F5F5E2E2F5F5F5E2F5F5F5F5F5F5F5F5F5F5F5F5F5F5F5F5F5F5F5F5F5F5F5F5F5F5F5F5F5F5F5F5F5F5F5F5F5F5F5F5F5F5F5F5F5F5F5F5F5F5F5F5F5F5F5F5F5F5F5F5F5F5F5F5F5F5F5F5F5F5F5F5F5F5F5F5
310
F5F5F5F5F5F5F5F5F5F5F5F5F5F5F5F5F5F5F5F5F5F5F5F5F5F5F5F5F5F5F5F5F5F5F5F5F5F5F5F5F5F5F5F5F5F5F5F5F5F5F5F5F5F5F5F5F5F5F5F5F5F5F5F5F5F5F5F5F5F5F5F5F5F5F5F5F5F5F5F5F5F5F5F5F5F5F5F5F5F5F5F5F5F5E2F5F5F5E2E2F5F5F5E2F5F5F5F5F5F5F5F5F5F5F5F5F5F5F5F5F5F5F5F5F5F5F5
310
F5F5F5F5F5F5F5F5F5F5F5F5F5F5F5F5F5F5F5F5F5F5F5F5F5F5F5F5F5F5F5F5F5F5F5F5F5F5F5F5F5F5F5F5F5F5F5F5F5F5F5F5F5F5F5F5F5F5F5F5F5F5F5F5F5F5F5F5F5F5F5F5F5F5F5F5F5F5F5F5F5F5F5F5F5F5F5F5F5F5F5F5F5F5F5F5F5F5F5F5F5F5F5F5F5F5F5F5F5F5F5F5F5F5F5F5F5F5F5F5F5F5F5F5F5F5F5
310
F5F5F5F5F5F5F5F5F5F5F5F5F5F5F5F5F5F5F5F5E2F5F5F5E2E2F5F5F5E2F5F5F5F5F5F5F5F5F5F5F5F5F5F5F5F5F5F5F5F5F5F5F5F5F5F5F5F5F5F5F5F5F5F5F5F5F5F5F5F5F5F5F5F5F5F5F5F5F5F5F5F5F5F5F5F5F5F5F5F5F5F5F5F5F5F5F5F5F5F5F5F5F5F5F5F5F5F5F5F5F5F5F5F5F5F5F5F5F5F5F5F5F5F5F5F5F5
310
F5F5F5F5F5F5F5F5F5F5F5F5F5F5F5F5F5F5F5F5F5F5F5F5F5F5F5F5F5F5F5F5F5F5F5F5F5F5F5F5F5F5F5F5F5F5F5F5F5F5F5F5F5F5F5F5F5F5F5F5F5F5F5F5F5F5F5F5F5F5F5F5F5E2F5F5F5E2E2F5F5F5E2F5F5F5F5F5F5F5F5F5F5F5F5F5F5F5F5F5F5F5F5F5F5F5F5F5F5F5F5F5F5F5F5F5F5F5F5F5F5F5F5F5F5F5F5
310
F5F5F5F5F5F5F5F5F5F5F5F5F5F5F5F5F5F5F5F5F5F5F5F5F5F5F5F5F5F5F5F5F5F5F5F5F5F5F5F5F5F5F5F5F5F5F5F5F5F5F5F5F5F5F5F5F5F5F5F5F5F5F5F5F5F5F5F5F5F5F5F5F5F5F5F5F5F5F5F5F5F5F5F5F5F5F5F5F5F5F5F5F5F5F5F5F5F5F5F5F5F5F5F5F5F5F5F5F5F5F5F5F5F5F5F5F5F5F5F5F5F5F5F5F5F5E2
310
F5F5F5E2E2F5F5F5E2F5F5F5F5F5F5F5F5F5F5F5F5F5F5F5F5F5F5F5F5F5F5F5F5F5F5F5F5F5F5F5F5F5F5F5F5F5F5F5F5F5F5F5F5F5F5F5F5F5F5F5F5F5F5F5F5F5F5F5F5F5F5F5F5F5F5F5F5F5F5F5F5F5F5F5F5F5F5F5F5F5F5F5F5F5F5F5F5F5F5F5F5F5F5F5F5F5F5F5F5F5F5F5F5F5F5F5F5F5F5F5F5F5F5F5F5F5F5
310
F5F5F5F5F5F5F5F5F5F5F5F5F5F5F5F5F5F5F5F5F5F5F5F5F5F5F5F5F5F5F5F5F5F5F5F5F5F5F5F5F5F5F5F5F5F5F5F5F5F5F5F5E2F5F5F5E2E2F5F5F5E2F5F5F5F5F5F5F5F5F5F5F5F5F5F5F5F5F5F5F5F5F5F5F5F5F5F5F5F5F5F5F5F5F5F5F5F5F5F5F5F5F5F5F5F5F5F5F5F5F5F5F5F5F5F5F5F5F5F5F5F5F5F5F5F5F5
310
F5F5F5F5F5F5F5F5F5F5F5F5F5F5F5F5F5F5F5F5F5F5F5F5F5F5F5F5F5F5F5F5F5F5F5F5F5F5F5F5F5F5F5F5F5F5F5F5F5F5F5F5F5F5F5F5F5F5F5F5F5F5F5F5F5F5F5F5F5F5F5F5F5F5F5F5F5F5F5F5F5F5F5F5F5F5F5F5F5F5F5F5F5F5F5F5F5F5F5F5F5F5F5F5F5E2F5F5F5E2E2F5F5F5E2F5F5F5F5F5F5F5F5F5F5F5F5
310
F5F5F5F5F5F5F5F5F5F5F5F5F5F5F5F5F5F5F5F5F5F5F5F5F5F5F5F5F5F5F5F5F5F5F5F5F5F5F5F5F5F5F5F5F5F5F5F5F5F5F5F5F5F5F5F5F5F5F5F5F5F5F5F5F5F5F5F5F5F5F5F5F5F5F5F5F5F5F5F5F5F5F5F5F5F5F5F5F5F5F5F5F5F5F5F5F5F5F5F5F5F5F5F5F5F5F5F5F5F5F5F5F5F5F5F5F5F5F5F5F5F5F5F5F5F5F5
310
F5F5F5F5F5F5F5F5F5F5F5F5F5F5F5F5F5F5F5F5F5F5F5F5F5F5F5F5F5F5F5E2F5F5F5E2E2F5F5F5E2F5F5F5F5F5F5F5F5F5F5F5F5F5F5F5F5F5F5F5F5F5F5F5F5F5F5F5F5F5F5F5F5F5F5F5F5F5F5F5F5F5F5F5F5F5F5F5F5F5F5F5F5F5F5F5F5F5F5F5F5F5F5F5F5F5F5F5F5F5F5F5F5F5F5F5F5F5F5F5F5F5F5F5F5F5F5
310
F5F5F5F5F5F5F5F5F5F5F5F5F5F5F5F5F5F5F5F5F5F5F5F5F5F5F5F5F5F5F5F5F5F5F5F5F5F5F5F5F5F5F5F5F5F5F5F5F5F5F5F5F5F5F5F5F5F5F5F5F5F5F5F5F5F5F5F5F5F5F5F5F5F5F5F5F5F5F5F5F5F5F5F5E2F5F5F5E2E2F5F5F5E2F5F5F5F5F5F5F5F5F5F5F5F5F5F5F5F5F5F5F5F5F5F5F5F5F5F5F5F5F5F5F5F5F5
310
F5F5F5F5F5F5F5F5F5F5F5F5F5F5F5F5F5F5F5F5F5F5F5F5F5F5F5F5F5F5F5F5F5F5F5F5F5F5F5F5F5F5F5F5F5F5F5F5F5F5F5F5F5F5F5F5F5F5F5F5F5F5F5F5F5F5F5F5F5F5F5F5F5F5F5F5F5F5F5F5F5F5F5F5F5F5F5F5F5F5F5F5F5F5F5F5F5F5F5F5F5F5F5F5F5F5F5F5F5F5F5F5F5F5F5F5F5F5F5F5F5F5F5F5F5F5F5
310
F5F5F5F5F5F5F5F5F5F5E2F5F5F5E2E2F5F5F5E2F5F5F5F5F5F5F5F5F5F5F5F5F5F5F5F5F5F5F5F5F5F5F5F5F5F5F5F5F5F5F5F5F5F5F5F5F5F5F5F5F5F5F5F5F5F5F5F5F5F5F5F5F5F5F5F5F5F5F5F5F5F5F5F5F5F5F5F5F5F5F5F5F5F5F5F5F5F5F5F5F5F5F5F5F5F5F5F5F5F5F5F5F5F5F5F5F5F5F5F5F5F5F5F5F5F5F5
310
F5F5F5F5F5F5F5F5F5F5F5F5F5F5F5F5F5F5F5F5F5F5F5F5F5F5F5F5F5F5F5F5F5F5F5F5F5F5F5F5F5F5F5F5F5F5F5F5F5F5F5F5F5F5F5F5F5F5F5F5F5F5F5E2F5F5F5E2E2F5F5F5E2F5F5F5F5F5F5F5F5F5F5F5F5F5F5F5F5F5F5F5F5F5F5F5F5F5F5F5F5F5F5F5F5F5F5F5F5F5F5F5F5F5F5F5F5F5F5F5F5F5F5F5F5F5F5
310
F5F5F5F5F5F5F5F5F5F5F5F5F5F5F5F5F5F5F5F5F5F5F5F5F5F5F5F5F5F5F5F5F5F5F5F5F5F5F5F5F5F5F5F5F5F5F5F5F5F5F5F5F5F5F5F5F5F5F5F5F5F5F5F5F5F5F5F5F5F5F5F5F5F5F5F5F5F5F5F5F5F5F5F5F5F5F5F5F5F5F5F5F5F5F5F5F5F5F5F5F5F5F5F5F5F5F5F5F5F5F5F5F5F5F5F5E2F5F5F5E2E2F5F5F5E2F5
310
F5F5F5F5F5F5F5F5F5F5F5F5F5F5F5F5F5F5F5F5F5F5F5F5F5F5F5F5F5F5F5F5F5F5F5F5F5F5F5F5F5F5F5F5F5F5F5F5F5F5F5F5F5F5F5F5F5F5F5F5F5F5F5F5F5F5F5F5F5F5F5F5F5F5F5F5F5F5F5F5F5F5F5F5F5F5F5F5F5F5F5F5F5F5F5F5F5F5F5F5F5F5F5F5F5F5F5F5F5F5F5F5F5F5F5F5F5F5F5F5F5F5F5F5F5F5F5
310
F5F5F5F5F5F5F5F5F5F5F5F5F5F5F5F5F5F5F5F5F5F5F5F5F5F5F5F5F5F5F5F5F5F5F5F5F5F5F5F5F5F5E2F5F5F5E2E2F5F5F5E2F5F5F5F5F5F5F5F5F5F5F5F5F5F5F5F5F5F5F5F5F5F5F5F5F5F5F5F5F5F5F5F5F5F5F5F5F5F5F5F5F5F5F5F5F5F5F5F5F5F5F5F5F5F5F5F5F5F5F5F5F5F5F5F5F5F5F5F5F5F5F5F5F5F5F5
310
F5F5F5F5F5F5F5F5F5F5F5F5F5F5F5F5F5F5F5F5F5F5F5F5F5F5F5F5F5F5F5F5F5F5F5F5F5F5F5F5F5F5F5F5F5F5F5F5F5F5F5F5F5F5F5F5F5F5F5F5F5F5F5F5F5F5F5F5F5F5F5F5F5F5F5F5F5F5F5F5F5F5F5F5F5F5F5F5F5F5F5F5F5F5F5E2F5F5F5E2E2F5F5F5E2F5F5F5F5F5F5F5F5F5F5F5F5F5F5F5F5F5F5F5F5F5F5
310
F5F5F5F5F5F5F5F5F5F5F5F5F5F5F5F5F5F5F5F5F5F5F5F5F5F5F5F5F5F5F5F5F5F5F5F5F5F5F5F5F5F5F5F5F5F5F5F5F5F5F5F5F5F5F5F5F5F5F5F5F5F5F5F5F5F5F5F5F5F5F5F5F5F5F5F5F5F5F5F5F5F5F5F5F5F5F5F5F5F5F5F5F5F5F5F5F5F5F5F5F5F5F5F5F5F5F5F5F5F5F5F5F5F5F5F5F5F5F5F5F5F5F5F5F5F5F5
310
F5F5F5F5F5F5F5F5F5F5F5F5F5F5F5F5F5F5F5F5F5E2F5F5F5E2E2F5F5F5F5F5F5F5F5F5F5F5F5F5F5F5F5F5F5F5F5F5F5F5F5F5F5F5F5F5F5F5F5F5F5F5F5F5F5F5F5F5F5F5F5F5F5F5F5F5F5F5F5F5F5F5F5F5F5F5F5F5F5F5F5F5F5F5F5F5F5F5F5F5F5F5F5F5F5F5F5F5F5F5F5F5F5F5F5F5F5F5F5F5F5F5F5F5F5F5F5
310
F5F5F5F5F5F5F5F5F5F5F5F5F5F5F5F5F5F5F5F5F5F5F5F5F5F5F5F5F5F5F5F5F5F5F5F5F5F5F5F5F5F5F5F5F5F5F5F5F5F5F5F5F5F5F5F5F5F5F5F5F5F5F5F5F5F5F5F5F5F5F5F5F5F5F5F5F5F5E2E2F5F5F5F5F5F5F5F5F5F5F5F5F5F5F5F5F5F5F5F5F5F5F5F5F5F5F5F5F5F5F5F5F5F5F5F5F5F5F5F5F5F5F5F5F5F5F5
310
F5F5F5F5F5F5F5F5F5F5F5F5F5F5F5F5F5F5F5F5F5F5F5F5F5F5F5F5F5F5F5F5F5F5F5F5F5F5F5F5F5F5F5F5F5F5F5F5F5F5F5F5F5F5F5F5F5F5F5F5F5F5F5F5F5F5F5F5F5F5F5F5F5F5F5F5F5F5F5F5F5F5F5F5F5F5F5F5F5F5F5F5F5F5F5F5F5F5F5F5F5F5F5F5F5F5F5F5F5F5F5F5F5F5F5F5F5F5F5F5F5F5F5F5F5F5F5
310
F5F5F5F5E2E2F5F5F5F5F5F5F5F5F5F5F5F5F5F5F5F5F5F5F5F5F5F5F5F5F5F5F5F5F5F5F5F5F5F5F5F5F5F5F5F5F5F5F5F5F5F5F5F5F5F5F5F5F5F5F5F5F5F5F5F5F5F5F5F5F5F5F5F5F5F5F5F5F5F5F5F5F5F5F5F5F5F5F5F5F5F5F5F5F5F5F5F5F5F5F5F5F5F5F5F5F5F5F5F5F5F5F5F5F5F5F5F5F5F5F5F5F5F5F5F5F5
310
F5F5F5F5F5F5F5F5F5F5F5F5F5F5F5F5F5F5F5F5F5F5F5F5F5F5F5F5F5F5F5F5F5F5F5F5F5F5F5F5F5F5F5F5F5F5F5F5F5F5F5F5F5F5F5F5F5E2E2F5F5F5F5F5F5F5F5F5F5F5F5F5F5F5F5F5F5F5F5F5F5F5F5F5F5F5F5F5F5F5F5F5F5F5F5F5F5F5F5F5F5F5F5F5F5F5F5F5F5F5F5F5F5F5F5F5F5F5F5F5F5F5F5F5F5F5F5
310
F5F5F5F5F5F5F5F5F5F5F5F5F5F5F5F5F5F5F5F5F5F5F5F5F5F5F5F5F5F5F5F5F5F5F5F5F5F5F5F5F5F5F5F5F5F5F5F5F5F5F5F5F5F5F5F5F5F5F5F5F5F5F5F5F5F5F5F5F5F5F5F5F5F5F5F5F5F5F5F5F5F5F5F5F5F5F5F5F5F5F5F5F5F5F5F5F5F5F5F5F5F5F5F5F5F5F5F5F5F5E2E2F5F5F5F5F5F5F5F5F5F5F5F5F5F5F5
310
F5F5F5F5F5F5F5F5F5F5F5F5F5F5F5F5F5F5F5F5F5F5F5F5F5F5F5F5F5F5F5F5F5F5F5F5F5F5F5F5F5F5F5F5F5F5F5F5F5F5F5F5F5F5F5F5F5F5F5F5F5F5F5F5F5F5F5F5F5F5F5F5F5F5F5F5F5F5F5F5F5F5F5F5F5F5F5F5F5F5F5F5F5F5F5F5F5F5F5F5F5F5F5F5F5F5F5F5F5F5F5F5F5F5F5F5F5F5F5F5F5F5F5F5F5F5F5
310
F5F5F5F5F5F5F5F5F5F5F5F5F5F5F5F5F5F5F5F5F5F5F5F5F5F5F5F5F5F5F5F5F5F5F5F5E2E2F5F5F5F5F5F5F5F5F5F5F5F5F5F5F5F5F5F5F5F5F5F5F5F5F5F5F5F5F5F5F5F5F5F5F5F5F5F5F5F5F5F5F5F5F5F5F5F5F5F5F5F5F5F5F5F5F5F5F5F5F5F5F5F5F5F5F5F5F5F5F5F5F5F5F5F5F5F5F5F5F5F5F5F5F5F5F5F5F5
310
F5F5F5F5F5F5F5F5F5F5F5F5F5F5F5F5F5F5F5F5F5F5F5F5F5F5F5F5F5F5F5F5F5F5F5F5F5F5F5F5F5F5F5F5F5F5F5F5F5F5F5F5F5F5F5F5F5F5F5F5F5F5F5F5F5F5F5F5F5F5F5F5F5F5F5F5F5F5F5F5F5F5F5F5F5F5F5F5F5E2E2F5F5F5F5F5F5F5F5F5F5F5F5F5F5F5F5F5F5F5F5F5F5F5F5F5F5F5F5F5F5F5F5F5F5F5F5
310
F5F5F5F5F5F5F5F5F5F5F5F5F5F5F5F5F5F5F5F5F5F5F5F5F5F5F5F5F5F5F5F5F5F5F5F5F5F5F5F5F5F5F5F5F5F5F5F5F5F5F5F5F5F5F5F5F5F5F5F5F5F5F5F5F5F5F5F5F5F5F5F5F5F5F5F5F5F5F5F5F5F5F5F5F5F5F5F5F5F5F5F5F5F5F5F5F5F5F5F5F5F5F5F5F5F5F5F5F5F5F5F5F5F5F5F5F5F5F5F5F5F5F5F5F5F5F5
310
F5F5F5F5F5F5F5F5F5F5F5F5F5F5F5E2E2F5F5F5F5F5F5F5F5F5F5F5F5F5F5F5F5F5F5F5F5F5F5F5F5F5F5F5F5F5F5F5F5F5F5F5F5F5F5F5F5F5F5F5F5F5F5F5F5F5F5F5F5F5F5F5F5F5F5F5F5F5F5F5F5F5F5F5F5F5F5F5F5F5F5F5F5F5F5F5F5F5F5F5F5F5F5F5F5F5F5F5F5F5F5F5F5F5F5F5F5F5F5F5F5F5F5F5F5F5F5
310
F5F5F5F5F5F5F5F5F5F5F5F5F5F5F5F5F5F5F5F5F5F5F5F5F5F5F5F5F5F5F5F5F5F5F5F5F5F5F5F5F5F5F5F5F5F5F5F5F5F5F5F5F5F5F5F5F5F5F5F5F5F5F5F5F5F5F5F5E2E2F5F5F5F5F5F5F5F5F5F5F5F5F5F5F5F5F5F5F5F5F5F5F5F5F5F5F5F5F5F5F5F5F5F5F5F5F5F5F5F5F5F5F5F5F5F5F5F5F5F5F5F5F5F5F5F5F5
310
F5F5F5F5F5F5F5F5F5F5F5F5F5F5F5F5F5F5F5F5F5F5F5F5F5F5F5F5F5F5F5F5F5F5F5F5F5F5F5F5F5F5F5F5F5F5F5F5F5F5F5F5F5F5F5F5F5F5F5F5F5F5F5F5F5F5F5F5F5F5F5F5F5F5F5F5F5F5F5F5F5F5F5F5F5F5F5F5F5F5F5F5F5F5F5F5F5F5F5F5F5F5F5F5F5F5F5F5F5F5F5F5F5F5F5F5F5F5F5F5F5E2E2F5F5F5E2
310
F5F5F5F5F5F5F5F5F5F5F5F5F5F5F5F5F5F5F5F5F5F5F5F5F5F5F5F5F5F5F5F5F5F5F5F5F5F5F5F5F5F5F5F5F5F5F5F5F5F5F5F5F5F5F5F5F5F5F5F5F5F5F5F5F5F5F5F5F5F5F5F5F5F5F5F5F5F5F5F5F5F5F5F5F5F5F5F5F5F5F5F5F5F5F5F5F5F5F5F5F5F5F5F5F5F5F5F5F5F5F5F5F5F5F5F5F5F5F5F5F5F5F5F5F5F5F5
310
F5F5F5F5F5F5F5F5F5F5F5F5F5F5F5F5F5F5F5F5F5F5F5F5F5F5F5F5F5F5F5F5F5F5F5F5F5F5F5F5F5F5F5E2F5F5F5E2E2F5F5F5E2F5F5F5F5F5F5F5F5F5F5F5F5F5F5F5F5F5F5F5F5F5F5F5F5F5F5F5F5F5F5F5F5F5F5F5F5F5F5F5F5F5F5F5F5F5F5F5F5F5F5F5F5F5F5F5F5F5F5F5F5F5F5F5F5F5F5F5F5F5F5F5F5F5F5
310
F5F5F5F5F5F5F5F5F5F5F5F5F5F5F5F5F5F5F5F5F5F5F5F5F5F5F5F5F5F5F5F5F5F5F5F5F5F5F5F5F5F5F5F5F5F5F5F5F5F5F5F5F5F5F5F5F5F5F5F5F5F5F5F5F5F5F5F5F5F5F5F5F5F5F5F5F5F5F5F5F5F5F5F5F5F5F5F5F5F5F5F5F5F5F5F5E2F5F5F5E2E2F5F5F5E2F5F5F5F5F5F5F5F5F5F5F5F5F5F5F5F5F5F5F5F5F5
310
F5F5F5F5F5F5F5F5F5F5F5F5F5F5F5F5F5F5F5F5F5F5F5F5F5F5F5F5F5F5F5F5F5F5F5F5F5F5F5F5F5F5F5F5F5F5F5F5F5F5F5F5F5F5F5F5F5F5F5F5F5F5F5F5F5F5F5F5F5F5F5F5F5F5F5F5F5F5F5F5F5F5F5F5F5F5F5F5F5F5F5F5F5F5F5F5F5F5F5F5F5F5F5F5F5F5F5F5F5F5F5F5F5F5F5F5F5F5F5F5F5F5F5F5F5F5F5
310
F5F5F5F5F5F5F5F5F5F5F5F5F5F5F5F5F5F5F5F5F5F5E2F5F5F5E2E2F5F5F5E2F5F5F5F5F5F5F5F5F5F5F5F5F5F5F5F5F5F5F5F5F5F5F5F5F5F5F5F5F5F5F5F5F5F5F5F5F5F5F5F5F5F5F5F5F5F5F5F5F5F5F5F5F5F5F5F5F5F5F5F5F5F5F5F5F5F5F5F5F5F5F5F5F5F5F5F5F5F5F5F5F5F5F5F5F5F5F5F5F5F5F5F5F5F5F5
310
F5F5F5F5F5F5F5F5F5F5F5F5F5F5F5F5F5F5F5F5F5F5F5F5F5F5F5F5F5F5F5F5F5F5F5F5F5F5F5F5F5F5F5F5F5F5F5F5F5F5F5F5F5F5F5F5F5F5F5F5F5F5F5F5F5F5F5F5F5F5F5F5F5F5F5E2F5F5F5E2E2F5F5F5E2F5F5F5F5F5F5F5F5F5F5F5F5F5F5F5F5F5F5F5F5F5F5F5F5F5F5F5F5F5F5F5F5F5F5F5F5F5F5F5F5F5F5
310
F5F5F5F5F5F5F5F5F5F5F5F5F5F5F5F5F5F5F5F5F5F5F5F5F5F5F5F5F5F5F5F5F5F5F5F5F5F5F5F5F5F5F5F5F5F5F5F5F5F5F5F5F5F5F5F5F5F5F5F5F5F5F5F5F5F5F5F5F5F5F5F5F5F5F5F5F5F5F5F5F5F5F5F5F5F5F5F5F5F5F5F5F5F5F5F5F5F5F5F5F5F5F5F5F5F5F5F5F5F5F5F5F5F5F5F5F5F5F5F5F5F5F5F5F5F5F5
310
F5E2F5F5F5E2E2F5F5F5E2F5F5F5F5F5F5F5F5F5F5F5F5F5F5F5F5F5F5F5F5F5F5F5F5F5F5F5F5F5F5F5F5F5F5F5F5F5F5F5F5F5F5F5F5F5F5F5F5F5F5F5F5F5F5F5F5F5F5F5F5F5F5F5F5F5F5F5F5F5F5F5F5F5F5F5F5F5F5F5F5F5F5F5F5F5F5F5F5F5F5F5F5F5F5F5F5F5F5F5F5F5F5F5F5F5F5F5F5F5F5F5F5F5F5F5F5
310
F5F5F5F5F5F5F5F5F5F5F5F5F5F5F5F5F5F5F5F5F5F5F5F5F5F5F5F5F5F5F5F5F5F5F5F5F5F5F5F5F5F5F5F5F5F5F5F5F5F5F5F5F5F5E2F5F5F5E2E2F5F5F5E2F5F5F5F5F5F5F5F5F5F5F5F5F5F5F5F5F5F5F5F5F5F5F5F5F5F5F5F5F5F5F5F5F5F5F5F5F5F5F5F5F5F5F5F5F5F5F5F5F5F5F5F5F5F5F5F5F5F5F5F5F5F5F5
310
F5F5F5F5F5F5F5F5F5F5F5F5F5F5F5F5F5F5F5F5F5F5F5F5F5F5F5F5F5F5F5F5F5F5F5F5F5F5F5F5F5F5F5F5F5F5F5F5F5F5F5F5F5F5F5F5F5F5F5F5F5F5F5F5F5F5F5F5F5F5F5F5F5F5F5F5F5F5F5F5F5F5F5F5F5F5F5F5F5F5F5F5F5F5F5F5F5F5F5F5F5F5F5F5F5F5F5E2F5F5F5E2E2F5F5F5E2F5F5F5F5F5F5F5F5F5F5
310
F5F5F5F5F5F5F5F5F5F5F5F5F5F5F5F5F5F5F5F5F5F5F5F5F5F5F5F5F5F5F5F5F5F5F5F5F5F5F5F5F5F5F5F5F5F5F5F5F5F5F5F5F5F5F5F5F5F5F5F5F5F5F5F5F5F5F5F5F5F5F5F5F5F5F5F5F5F5F5F5F5F5F5F5F5F5F5F5F5F5F5F5F5F5F5F5F5F5F5F5F5F5F5F5F5F5F5F5F5F5F5F5F5F5F5F5F5F5F5F5F5F5F5F5F5F5F5
310
F5F5F5F5F5F5F5F5F5F5F5F5F5F5F5F5F5F5F5F5F5F5F5F5F5F5F5F5F5F5F5F5F5E2F5F5F5E2E2F5F5F5E2E2E2E2E2E2E2E2F5F5F5F5F5F5F5F5F5E2E2E2E2E2E2E2E2E2E2E2E2E2E2E2E2F5F5F5F5F5F5F5F5F5E2E2E2E2E2E2E2E2E2E2E2E2E2E2E2F5F5F5F5F5F5F5F5F5E2E2E2E2E2E2E2E2E2E2E2E2E2E2E2E2F5F5F5
310
F5F5F5F5F5E2E2E2E2E2E2E2E2E2E2E2E2E2E2E2E2F5F5F5F5F5F5F5F5F5E2E2E2E2E2E2E2E2E2E2E2E2E2E2E2F5F5F5F5F5F5F5F5F5E2E2E2E2E2E2E2E2E2E2E2E2E2E2E2E2F5F5F5F5F5F5F5F5F5E2E2E2E2E2E2E2E2F5F5F5E2E2F5F5F5F5F5F5F5F5F5F5F5F5F5F5F5F5F5F5F5F5F5F5F5F5F5F5F5F5F5F5F5F5F5F5F5
310
F5F5F5F5F5F5F5F5F5F5F5F5F5F5F5F5F5F5F5F5F5F5F5F5F5F5F5F5F5F5F5F5F5F5F5F5F5F5F5F5F5F5F5F5F5F5F5F5F5F5F5F5F5F5F5F5F5F5F5F5F5F5F5F5F5F5F5F5F5F5F5F5F5F5F5F5F5F5F5F5F5F5F5F5F5F5F5F5F5F5F5F5F5F5F5F5F5F5F5F5F5F5F5F5F5F5F5F5F5F5F5F5F5F5F5F5F5F5F5F5F5F5F5F5F5F5F5
310
F5F5F5F5F5F5F5F5F5F5F5F5F5F5F5F5E2E2F5F5F5F5F5F5F5F5F5F5F5F5F5F5F5F5F5F5F5F5F5F5F5F5F5F5F5F5F5F5F5F5F5F5F5F5F5F5F5F5F5F5F5F5F5F5F5F5F5F5F5F5F5F5F5F5F5F5F5F5F5F5F5F5F5F5F5F5F5F5F5F5F5F5F5F5F5F5F5F5F5F5F5F5F5F5F5F5F5F5F5F5F5F5F5F5F5F5F5F5F5F5F5F5F5F5F5F5F5
310
F5F5F5F5F5F5F5F5F5F5F5F5F5F5F5F5F5F5F5F5F5F5F5F5F5F5F5F5F5F5F5F5F5F5F5F5F5F5F5F5F5F5F5F5F5F5F5F5F5F5F5F5F5F5F5F5F5F5F5F5F5F5F5F5F5F5F5F5F5E2E2F5F5F5F5F5F5F5F5F5F5F5F5F5F5F5F5F5F5F5F5F5F5F5F5F5F5F5F5F5F5F5F5F5F5F5F5F5F5F5F5F5F5F5F5F5F5F5F5F5F5F5F5F5F5F5F5
310
F5F5F5F5F5F5F5F5F5F5F5F5F5F5F5F5F5F5F5F5F5F5F5F5F5F5F5F5F5F5F5F5F5F5F5F5F5F5F5F5F5F5F5F5F5F5F5F5F5F5F5F5F5F5F5F5F5F5F5F5F5F5F5F5F5F5F5F5F5F5F5F5F5F5F5F5F5F5F5F5F5F5F5F5F5F5F5F5F5F5F5F5F5F5F5F5F5F5F5F5F5F5F5F5F5F5F5F5F5F5F5F5F5F5F5F5F5F5F5F5F5F5E2E2E2E2E2
310
E2E2E2E2E2E2E2E2E2E2E2E2E2E2E2E2E2E2E2E2E2E2E2E2E2E2E2E2E2E2E2E2E2E2E2E2E2E2E2E2E2E2E2E2E2E2E2E2E2E2E2E2E2E2E2E2E2E2E2E2E2E2E2E2E2E2E2E2E2E2E2E2E2E2E2E2E2E2E2E2E2E2E2E2E2E2E2E2E2E2E2E2E2E2E2E2E2E2E2E2E2E2E2E2E2E2E2E2E2E2E2E2E2E2E2E2E2E2E2E2E2E2E2E2E2E2E2
310
E2E2E2E2E2E2E2E2E2E2E2E2E2E2E2E2E2E2E2E2E2E2E2E2E2E2E2E2E2E2E2E2E2E2E2E2E2E2E2E2E2E2E2E2E2E2E2E2E2
  0
CELLSTYLEMAP
  5
42FA
102
{ACAD_REACTORS
330
38
102
}
330
38
100
AcDbCellStyleMap
 90
        3
300
CELLSTYLE
  1
TABLEFORMAT_BEGIN
 90
        5
170
     1
 91
        0
 92
    32768
 62
   257
 93
        1
300
CONTENTFORMAT
  1
CONTENTFORMAT_BEGIN
 90
        0
 91
        0
 92
      512
 93
        0
300

 40
0.0
140
1.0
 94
        5
 62
     0
340
1C
144
0.25
309
CONTENTFORMAT_END
171
     0
 94
        6
 95
        1
302
GRIDFORMAT
  1
GRIDFORMAT_BEGIN
 90
        0
 91
        1
 62
     0
 92
       -2
340
0
 93
        0
 40
0.045
309
GRIDFORMAT_END
 95
        2
302
GRIDFORMAT
  1
GRIDFORMAT_BEGIN
 90
        0
 91
        1
 62
     0
 92
       -2
340
0
 93
        0
 40
0.045
309
GRIDFORMAT_END
 95
        4
302
GRIDFORMAT
  1
GRIDFORMAT_BEGIN
 90
        0
 91
        1
 62
     0
 92
       -2
340
0
 93
        0
 40
0.045
309
GRIDFORMAT_END
 95
        8
302
GRIDFORMAT
  1
GRIDFORMAT_BEGIN
 90
        0
 91
        1
 62
     0
 92
       -2
340
0
 93
        0
 40
0.045
309
GRIDFORMAT_END
 95
       16
302
GRIDFORMAT
  1
GRIDFORMAT_BEGIN
 90
        0
 91
        1
 62
     0
 92
       -2
340
0
 93
        0
 40
0.045
309
GRIDFORMAT_END
 95
       32
302
GRIDFORMAT
  1
GRIDFORMAT_BEGIN
 90
        0
 91
        1
 62
     0
 92
       -2
340
0
 93
        0
 40
0.045
309
GRIDFORMAT_END
309
TABLEFORMAT_END
  1
CELLSTYLE_BEGIN
 90
        1
 91
        1
300
_TITLE
309
CELLSTYLE_END
300
CELLSTYLE
  1
TABLEFORMAT_BEGIN
 90
        5
170
     1
 91
        0
 92
        0
 62
   257
 93
        1
300
CONTENTFORMAT
  1
CONTENTFORMAT_BEGIN
 90
        0
 91
        0
 92
      512
 93
        0
300

 40
0.0
140
1.0
 94
        5
 62
     0
340
1C
144
0.18
309
CONTENTFORMAT_END
171
     0
 94
        6
 95
        1
302
GRIDFORMAT
  1
GRIDFORMAT_BEGIN
 90
        0
 91
        1
 62
     0
 92
       -2
340
0
 93
        0
 40
0.045
309
GRIDFORMAT_END
 95
        2
302
GRIDFORMAT
  1
GRIDFORMAT_BEGIN
 90
        0
 91
        1
 62
     0
 92
       -2
340
0
 93
        0
 40
0.045
309
GRIDFORMAT_END
 95
        4
302
GRIDFORMAT
  1
GRIDFORMAT_BEGIN
 90
        0
 91
        1
 62
     0
 92
       -2
340
0
 93
        0
 40
0.045
309
GRIDFORMAT_END
 95
        8
302
GRIDFORMAT
  1
GRIDFORMAT_BEGIN
 90
        0
 91
        1
 62
     0
 92
       -2
340
0
 93
        0
 40
0.045
309
GRIDFORMAT_END
 95
       16
302
GRIDFORMAT
  1
GRIDFORMAT_BEGIN
 90
        0
 91
        1
 62
     0
 92
       -2
340
0
 93
        0
 40
0.045
309
GRIDFORMAT_END
 95
       32
302
GRIDFORMAT
  1
GRIDFORMAT_BEGIN
 90
        0
 91
        1
 62
     0
 92
       -2
340
0
 93
        0
 40
0.045
309
GRIDFORMAT_END
309
TABLEFORMAT_END
  1
CELLSTYLE_BEGIN
 90
        2
 91
        1
300
_HEADER
309
CELLSTYLE_END
300
CELLSTYLE
  1
TABLEFORMAT_BEGIN
 90
        5
170
     1
 91
        0
 92
        0
 62
   257
 93
        1
300
CONTENTFORMAT
  1
CONTENTFORMAT_BEGIN
 90
        0
 91
        0
 92
      512
 93
        0
300

 40
0.0
140
1.0
 94
        2
 62
     0
340
1C
144
0.18
309
CONTENTFORMAT_END
171
     0
 94
        6
 95
        1
302
GRIDFORMAT
  1
GRIDFORMAT_BEGIN
 90
        0
 91
        1
 62
     0
 92
       -2
340
0
 93
        0
 40
0.045
309
GRIDFORMAT_END
 95
        2
302
GRIDFORMAT
  1
GRIDFORMAT_BEGIN
 90
        0
 91
        1
 62
     0
 92
       -2
340
0
 93
        0
 40
0.045
309
GRIDFORMAT_END
 95
        4
302
GRIDFORMAT
  1
GRIDFORMAT_BEGIN
 90
        0
 91
        1
 62
     0
 92
       -2
340
0
 93
        0
 40
0.045
309
GRIDFORMAT_END
 95
        8
302
GRIDFORMAT
  1
GRIDFORMAT_BEGIN
 90
        0
 91
        1
 62
     0
 92
       -2
340
0
 93
        0
 40
0.045
309
GRIDFORMAT_END
 95
       16
302
GRIDFORMAT
  1
GRIDFORMAT_BEGIN
 90
        0
 91
        1
 62
     0
 92
       -2
340
0
 93
        0
 40
0.045
309
GRIDFORMAT_END
 95
       32
302
GRIDFORMAT
  1
GRIDFORMAT_BEGIN
 90
        0
 91
        1
 62
     0
 92
       -2
340
0
 93
        0
 40
0.045
309
GRIDFORMAT_END
309
TABLEFORMAT_END
  1
CELLSTYLE_BEGIN
 90
        3
 91
        2
300
_DATA
309
CELLSTYLE_END
  0
ENDSEC
  0
EOF
